osu file format v14

[General]
AudioFilename: audio.mp3
AudioLeadIn: 0
PreviewTime: -1
Countdown: 1
SampleSet: Soft
StackLeniency: 0.7
Mode: 0
LetterboxInBreaks: 0
WidescreenStoryboard: 0

[Editor]
Bookmarks: 39861,42620,48137,49344,50896,52103,53654,54861,67447,78482,89516,124516,133654,169344,195551,211241,276758,289344
DistanceSpacing: 2.2
BeatDivisor: 4
GridSize: 8
TimelineZoom: 2.2

[Metadata]
Title:enhancer
TitleUnicode:enhancer
Artist:kamome sano
ArtistUnicode:kamome sano
Creator:juliancala
Version:Meteor Rain
Source:
Tags:
BeatmapID:1267482
BeatmapSetID:599739

[Difficulty]
HPDrainRate:6
CircleSize:4.4
OverallDifficulty:9.2
ApproachRate:9.4
SliderMultiplier:1.8
SliderTickRate:1

[Events]
//Background and Video events
0,0,"61239809_p0.jpg",0,0
//Break Periods
2,67666,77982
2,229756,240741
//Storyboard Layer 0 (Background)
//Storyboard Layer 1 (Fail)
//Storyboard Layer 2 (Pass)
//Storyboard Layer 3 (Foreground)
//Storyboard Layer 4 (Overlay)
//Storyboard Sound Samples

[TimingPoints]
1281,344.827586206897,4,2,1,40,1,0
1281,-133.333333333333,4,2,1,40,0,0
23349,-100,4,2,1,40,0,0
45418,-100,4,2,1,30,0,0
49384,-100,4,2,1,30,0,0
50936,-100,4,2,1,30,0,0
52143,-100,4,2,1,30,0,0
53694,-100,4,2,1,30,0,0
78522,-100,4,2,1,30,0,0
82487,-100,4,2,1,30,0,0
86281,-133.333333333333,4,2,1,30,0,0
87315,-100,4,2,1,30,0,0
87832,-83.3333333333333,4,2,1,30,0,0
88349,-76.9230769230769,4,2,1,30,0,0
89556,-100,4,2,1,40,0,0
100246,-133.333333333333,4,2,1,40,0,0
100591,-100,4,2,1,55,0,0
133349,-50,4,2,1,70,0,0
133781,-83.3333333333333,4,2,1,70,0,1
136453,-50,4,2,1,70,0,1
137487,-66.6666666666667,4,2,1,70,0,1
137832,-83.3333333333333,4,2,1,70,0,1
139556,-125,4,2,1,70,0,1
140591,-83.3333333333333,4,2,1,70,0,1
142660,-200,4,2,1,70,0,1
143349,-83.3333333333333,4,2,1,70,0,1
148522,-66.6666666666667,4,2,1,70,0,1
148867,-83.3333333333333,4,2,1,70,0,1
150591,-125,4,2,1,70,0,1
151625,-83.3333333333333,4,2,1,70,0,1
153694,-200,4,2,1,70,0,1
154384,-83.3333333333333,4,2,1,70,0,1
155763,-71.4285714285714,4,2,1,70,0,1
158867,-125,4,2,1,70,0,1
159212,-83.3333333333333,4,2,1,70,0,1
161281,-50,4,2,1,70,0,1
161625,-125,4,2,1,70,0,1
162315,-83.3333333333333,4,2,1,70,0,1
164729,-50,4,2,1,70,0,1
165418,-83.3333333333333,4,2,1,70,0,1
166453,-66.6666666666667,4,2,1,70,0,1
166798,-83.3333333333333,4,2,1,70,0,1
177487,-250.000000000001,4,2,1,70,0,1
177832,-100,4,2,1,70,0,1
179901,-100,4,2,1,70,0,1
181970,-83.3333333333333,4,2,1,70,0,1
186108,-58.8235294117647,4,2,1,70,0,1
193005,-76.9230769230769,4,2,1,70,0,1
194039,-58.8235294117647,4,2,1,70,0,1
194729,-83.3333333333333,4,2,1,70,0,1
199212,-66.6666666666667,4,2,1,70,0,1
199901,-100,4,2,1,70,0,1
221970,-100,4,2,1,55,0,0
230246,-113.636363636364,4,2,1,55,0,0
231625,-100,4,2,1,55,0,0
233005,-113.636363636364,4,2,1,55,0,0
235936,-100,4,2,1,55,0,0
238522,-113.636363636364,4,2,1,55,0,0
240074,-100,4,2,1,55,0,0
244039,-100,4,2,1,30,0,0
255074,-125,4,2,1,30,0,0
257832,-111.111111111111,4,2,1,30,0,0
260591,-100,4,2,1,30,0,0
265418,-200,4,2,1,30,0,0
266108,-100,4,2,1,70,0,1
290246,-76.9230769230769,4,2,1,70,0,1
296453,-58.8235294117647,4,2,1,70,0,1
303349,-76.9230769230769,4,2,1,70,0,1
304384,-58.8235294117647,4,2,1,70,0,1
305074,-83.3333333333333,4,2,1,70,0,1
310246,-100,4,2,1,40,0,0

[Colours]
Combo1 : 205,205,205
Combo2 : 92,209,248

[HitObjects]
111,259,1281,5,2,1:2:0:0:
231,301,1453,1,0,0:2:0:0:
226,173,1625,2,0,B|177:184|163:235,1,67.5000025749208,2|0,1:2|0:2,0:2:0:0:
161,342,1970,1,2,1:2:0:0:
318,242,2143,1,0,0:2:0:0:
263,348,2315,5,0,1:2:0:0:
275,164,2487,1,0,0:2:0:0:
333,327,2660,1,2,1:2:0:0:
193,157,2832,1,0,0:2:0:0:
151,288,3005,2,0,P|226:276|234:264,1,67.5000025749208,2|0,1:2|0:2,0:2:0:0:
256,154,3349,2,0,P|181:166|173:178,1,67.5000025749208,2|0,1:2|0:2,0:2:0:0:
238,317,3694,1,2,1:2:0:0:
256,154,3867,5,0,0:2:0:0:
125,284,4039,1,2,1:2:0:0:
256,128,4212,1,0,0:2:0:0:
341,310,4384,1,2,1:2:0:0:
133,214,4556,1,0,0:2:0:0:
326,91,4729,2,0,P|330:164|276:208,1,135.000005149842,2|2,1:2|1:2,0:2:0:0:
49,113,5246,1,0,0:2:0:0:
49,113,5418,6,0,P|115:120|178:56,1,135.000005149842,2|2,1:2|1:2,0:2:0:0:
326,91,5936,1,0,0:2:0:0:
326,91,6108,2,0,L|398:205,1,135.000005149842,2|2,1:2|1:2,0:2:0:0:
226,222,6625,1,0,0:2:0:0:
226,222,6798,1,2,1:2:0:0:
151,108,6970,1,0,0:2:0:0:
286,98,7143,1,2,1:2:0:0:
125,203,7315,5,0,0:2:0:0:
294,27,7487,2,0,P|351:60|355:126,1,135.000005149842,2|2,1:2|1:2,0:2:0:0:
150,228,8005,1,0,0:2:0:0:
150,228,8177,2,0,P|123:167|150:107,1,135.000005149842,2|2,1:2|1:2,0:2:0:0:
296,215,8694,1,0,0:2:0:0:
296,215,8867,2,0,P|322:275|295:335,1,135.000005149842,2|2,1:2|1:2,0:2:0:0:
87,321,9384,1,0,0:2:0:0:
87,321,9556,5,2,1:2:0:0:
139,220,9729,1,0,2:2:0:0:
240,271,9901,1,2,1:2:0:0:
190,374,10074,1,0,2:2:0:0:
39,232,10246,2,0,P|13:182|48:102,2,135.000005149842,2|2|2,1:2|1:2|1:2,0:2:0:0:
97,170,11108,1,0,0:2:0:0:
149,260,11281,2,0,P|175:239|195:201,1,67.5000025749208,2|0,1:2|0:2,0:2:0:0:
95,354,11625,2,0,P|69:333|49:295,1,67.5000025749208,2|0,1:2|0:2,0:2:0:0:
241,337,11970,2,0,P|260:309|270:268,1,67.5000025749208,2|0,1:2|0:2,0:2:0:0:
166,120,12315,6,0,L|158:214,1,67.5000025749208,0|0,1:2|0:2,0:2:0:0:
213,29,12660,1,10,0:2:0:0:
114,249,12832,2,0,P|164:210|238:227,1,135.000005149842,2|0,0:2|0:2,0:2:0:0:
375,157,13349,2,0,L|303:160,1,67.5000025749208,10|0,0:2|0:2,0:2:0:0:
158,179,13694,5,2,1:2:0:0:
266,83,13867,1,0,0:2:0:0:
146,188,14039,5,10,0:2:0:0:
275,71,14212,1,0,0:2:0:0:
164,101,14384,5,2,1:2:0:0:
289,171,14557,1,0,0:2:0:0:
152,90,14728,5,10,0:2:0:0:
303,178,14901,1,0,0:2:0:0:
416,117,15074,6,0,L|429:266,1,135.000005149842,2|10,1:2|0:2,0:2:0:0:
303,178,15591,1,2,0:2:0:0:
194,94,15763,2,0,L|183:248,1,135.000005149842,2|10,1:2|0:2,0:2:0:0:
303,178,16281,1,0,0:2:0:0:
240,298,16453,6,0,P|204:267|105:276,1,135.000005149842,2|10,1:2|0:2,0:2:0:0:
159,359,16970,1,0,0:2:0:0:
28,226,17143,2,0,P|54:186|152:169,1,135.000005149842,2|10,1:2|0:2,0:2:0:0:
119,266,17660,1,0,0:2:0:0:
202,109,17832,6,0,P|219:144|218:195,1,67.5000025749208,2|0,1:2|0:2,0:2:0:0:
99,329,18177,2,0,P|103:295|118:265,1,67.5000025749208,10|0,0:2|0:2,0:2:0:0:
308,180,18522,2,0,P|295:216|258:252,1,67.5000025749208,2|0,1:2|0:2,0:2:0:0:
50,213,18867,2,0,P|76:192|108:182,1,67.5000025749208,10|0,0:2|0:2,0:2:0:0:
129,310,19212,5,2,1:2:0:0:
184,135,19384,1,0,0:2:0:0:
126,333,19556,1,10,0:2:0:0:
72,196,19729,1,0,0:2:0:0:
230,270,19901,5,2,1:2:0:0:
34,300,20074,1,0,0:2:0:0:
255,267,20246,1,10,0:2:0:0:
72,196,20418,1,0,0:2:0:0:
184,135,20591,6,0,L|169:286,1,135.000005149842,2|8,1:2|0:2,0:2:0:0:
336,352,21108,1,0,0:2:0:0:
339,356,21281,2,0,L|325:221,1,135.000005149842,2|8,1:2|0:2,0:2:0:0:
321,30,21798,2,0,L|311:83,1,33.7500012874604,2|0,0:2|0:2,0:2:0:0:
397,176,21970,5,2,1:2:0:0:
374,150,22056,1,2,0:2:0:0:
344,136,22142,1,2,0:2:0:0:
310,135,22228,1,2,0:2:0:0:
279,147,22315,5,10,0:2:0:0:
259,174,22401,1,2,0:2:0:0:
251,206,22487,1,2,0:2:0:0:
256,239,22573,1,2,0:2:0:0:
276,269,22660,5,2,1:2:0:0:
300,302,22746,1,2,0:2:0:0:
294,342,22832,1,2,0:2:0:0:
260,366,22918,1,2,0:2:0:0:
220,359,23005,5,10,0:2:0:0:
188,321,23091,1,2,0:2:0:0:
141,304,23177,1,2,0:2:0:0:
91,313,23263,1,2,0:2:0:0:
7,358,23349,6,0,B|4:222|4:222|47:269,1,180,6|10,1:2|0:2,0:2:0:0:
59,152,23867,1,2,0:2:0:0:
166,272,24039,2,0,P|157:226|162:170,1,90,2|2,1:2|0:2,0:2:0:0:
73,64,24384,2,0,P|71:108|58:151,1,90,10|2,0:2|0:2,0:2:0:0:
259,91,24729,6,0,L|153:75,1,90,0|0,1:2|0:2,0:2:0:0:
335,198,25074,2,0,L|246:211,1,90,10|2,0:2|0:2,0:2:0:0:
369,94,25418,1,2,1:2:0:0:
399,267,25591,1,2,0:2:0:0:
228,161,25763,1,10,0:2:0:0:
335,198,25936,1,2,0:2:0:0:
214,60,26108,6,0,L|209:3,2,45,2|0|2,1:2|0:2|0:2,0:2:0:0:
369,94,26453,2,0,L|374:37,2,45,10|0|2,0:2|0:2|0:2,0:2:0:0:
231,178,26798,1,2,1:2:0:0:
231,178,26970,1,2,0:2:0:0:
390,236,27143,1,10,0:2:0:0:
390,236,27315,1,2,0:2:0:0:
268,284,27487,5,2,1:2:0:0:
136,195,27660,1,2,0:2:0:0:
231,178,27832,1,10,0:2:0:0:
152,313,28005,1,2,0:2:0:0:
122,183,28177,5,2,1:2:0:0:
142,326,28350,1,2,0:2:0:0:
238,163,28522,1,10,0:2:0:0:
282,291,28695,1,2,0:2:0:0:
358,58,28867,5,2,1:2:0:0:
340,191,29039,1,2,0:2:0:0:
454,140,29212,1,10,0:2:0:0:
271,117,29384,2,0,P|165:100|76:79,1,180,2|2,0:2|0:2,0:2:0:0:
174,184,29901,1,10,0:2:0:0:
166,13,30074,1,2,0:2:0:0:
271,117,30246,6,0,P|315:113|370:105,1,90,2|2,1:2|0:2,0:2:0:0:
174,184,30591,2,0,P|130:180|75:172,1,90,10|2,0:2|0:2,0:2:0:0:
301,219,30936,2,0,P|345:215|400:207,1,90,2|2,1:2|0:2,0:2:0:0:
204,286,31281,2,0,P|160:282|105:274,1,90,10|2,0:2|0:2,0:2:0:0:
312,347,31625,5,2,1:2:0:0:
301,219,31798,1,2,0:2:0:0:
204,286,31970,1,10,0:2:0:0:
174,184,32143,1,2,0:2:0:0:
290,91,32315,5,2,1:2:0:0:
301,219,32488,1,2,0:2:0:0:
225,32,32660,1,10,0:2:0:0:
174,184,32833,1,2,0:2:0:0:
393,141,33005,5,2,1:2:0:0:
280,304,33177,2,2,L|287:242,1,45,0|2,0:2|0:2,0:2:0:0:
168,139,33349,2,2,L|173:183,1,45,10|2,0:2|0:2,0:2:0:0:
181,352,33522,6,0,B|234:331|234:331|262:330|291:353|291:353|318:361|363:345,1,180,2|2,0:2|0:2,0:2:0:0:
183,261,34039,1,10,0:2:0:0:
87,339,34212,1,2,0:2:0:0:
280,304,34384,6,0,L|289:187,1,90,2|2,1:2|0:2,0:2:0:0:
86,236,34729,2,0,L|77:119,1,90,10|2,0:2|0:2,0:2:0:0:
377,193,35074,6,0,L|386:76,1,90,2|2,1:2|0:2,0:2:0:0:
183,261,35418,2,0,L|174:144,1,90,10|2,0:2|0:2,0:2:0:0:
304,96,35763,1,2,1:2:0:0:
184,264,35936,1,2,0:2:0:0:
72,120,36108,2,0,P|120:72|176:80,1,90,10|2,0:2|0:2,0:2:0:0:
304,96,36453,2,0,P|256:144|200:136,1,90,2|2,1:2|0:2,0:2:0:0:
72,120,36798,5,10,0:2:0:0:
229,49,36970,1,2,0:2:0:0:
56,120,37143,1,2,1:2:0:0:
229,219,37315,1,2,0:2:0:0:
229,49,37487,2,0,P|167:61|145:98,1,90,10|2,0:2|0:2,0:2:0:0:
75,295,37832,5,2,1:2:0:0:
229,219,38005,1,2,0:2:0:0:
72,120,38177,1,10,0:2:0:0:
74,311,38349,1,2,0:2:0:0:
307,241,38522,2,0,P|293:159|200:136,1,180,2|10,1:2|0:2,0:2:0:0:
229,219,39039,1,2,0:2:0:0:
152,192,39212,6,0,P|166:274|259:297,1,180,2|10,1:2|0:2,0:2:0:0:
229,219,39729,1,2,0:2:0:0:
122,314,39901,5,2,1:2:0:0:
377,238,40074,1,2,0:2:0:0:
360,323,40246,5,10,0:2:0:0:
306,86,40418,1,2,0:2:0:0:
388,89,40591,5,0,1:2:0:0:
149,177,40763,1,2,0:2:0:0:
174,75,40936,5,10,0:2:0:0:
302,299,41108,1,2,0:2:0:0:
345,229,41281,5,2,1:2:0:0:
211,255,41453,1,2,0:2:0:0:
185,122,41625,1,10,0:2:0:0:
322,94,41798,1,2,0:2:0:0:
374,17,41970,1,2,1:2:0:0:
117,68,42143,1,2,0:2:0:0:
166,318,42315,1,10,0:2:0:0:
416,269,42487,1,2,0:2:0:0:
388,80,42660,5,2,1:2:0:0:
355,53,42746,1,2,0:2:0:0:
311,35,42832,1,2,0:2:0:0:
266,38,42918,1,2,0:2:0:0:
227,60,43004,5,10,0:2:0:0:
208,100,43090,1,2,0:2:0:0:
217,143,43176,1,2,0:2:0:0:
248,168,43263,1,2,0:2:0:0:
291,177,43349,5,2,1:2:0:0:
332,162,43435,1,2,0:2:0:0:
358,126,43521,1,2,0:2:0:0:
360,81,43607,1,2,0:2:0:0:
337,44,43694,5,10,0:2:0:0:
296,25,43780,1,2,0:2:0:0:
253,32,43866,1,2,0:2:0:0:
210,47,43953,1,2,0:2:0:0:
178,75,44039,5,2,1:2:0:0:
160,115,44125,1,2,0:2:0:0:
163,159,44211,1,2,0:2:0:0:
187,197,44297,1,2,0:2:0:0:
222,216,44384,5,10,0:2:0:0:
237,257,44470,1,2,0:2:0:0:
231,302,44556,1,2,0:2:0:0:
206,338,44642,1,2,0:2:0:0:
167,359,44728,5,2,1:2:0:0:
122,360,44815,1,2,0:2:0:0:
82,340,44901,1,2,0:2:0:0:
54,312,44987,1,2,0:2:0:0:
45,240,45073,5,10,0:2:0:0:
79,175,45159,5,2,0:2:0:0:
55,96,45245,5,2,0:2:0:0:
102,41,45332,5,2,0:2:0:0:
177,34,45418,6,0,P|228:33|270:42,1,90,6|2,1:2|0:2,0:2:0:0:
266,40,45763,5,2,0:2:0:0:
351,134,45936,1,2,0:2:0:0:
272,109,46108,1,2,0:2:0:0:
351,134,46281,1,2,0:2:0:0:
272,109,46453,1,2,0:2:0:0:
260,212,46625,1,2,0:2:0:0:
176,149,46798,1,2,0:2:0:0:
272,109,46970,1,2,0:2:0:0:
164,252,47143,5,2,0:2:0:0:
80,189,47315,1,2,0:2:0:0:
176,149,47487,1,2,0:2:0:0:
164,252,47660,1,2,0:2:0:0:
260,212,47832,1,2,0:2:0:0:
164,252,48005,1,2,0:2:0:0:
260,212,48177,2,0,B|311:240|325:282|325:282|295:207|314:171|314:171|269:91|346:15|437:35|482:99|441:170|427:189,1,540,2|0,0:2|0:2,0:2:0:0:
377,129,49384,2,0,B|199:-4|151:185|19:82|19:82|112:53|199:169|184:264,1,630,2|0,0:2|0:2,0:2:0:0:
50,287,50936,6,0,B|140:264|140:264|188:344|256:361|323:361|323:361|408:293|374:217|357:175|289:158,1,540,2|0,0:2|0:2,0:2:0:0:
82,46,52143,6,0,B|157:37|157:37|181:229|213:261|245:285|285:285|285:285|317:253|309:205|197:205|161:168|74:209|74:209|97:208|124:149,1,720,2|0,0:2|0:2,0:2:0:0:
455,66,53694,2,0,B|324:190|298:268|321:288|357:303|394:288|423:231|364:210|292:204|239:246|190:379,1,540,2|0,0:2|0:2,0:2:0:0:
62,317,54901,5,2,0:2:0:0:
65,272,54987,1,2,0:2:0:0:
89,235,55073,1,2,0:2:0:0:
129,216,55159,1,2,0:2:0:0:
174,219,55245,1,2,0:2:0:0:
211,244,55332,1,2,0:2:0:0:
221,287,55418,1,2,0:2:0:0:
232,329,55504,1,2,0:2:0:0:
263,361,55590,1,2,0:2:0:0:
306,373,55676,1,2,0:2:0:0:
349,363,55762,5,2,0:2:0:0:
382,333,55849,1,2,0:2:0:0:
388,288,55936,1,2,0:2:0:0:
363,250,56022,1,2,0:2:0:0:
320,234,56108,2,0,L|268:246,1,45,2|2,0:2|0:2,0:2:0:0:
135,348,56281,6,0,L|143:304,1,45,2|2,0:2|0:2,0:2:0:0:
190,71,56453,5,2,0:2:0:0:
151,45,56539,1,2,0:2:0:0:
106,42,56625,1,2,0:2:0:0:
66,59,56711,1,2,0:2:0:0:
38,93,56797,1,2,0:2:0:0:
30,138,56884,1,2,0:2:0:0:
10,178,56970,2,0,L|14:237,1,45,2|0,0:2|0:2,0:2:0:0:
109,257,57143,5,2,0:2:0:0:
153,254,57229,1,2,0:2:0:0:
186,224,57315,1,2,0:2:0:0:
238,207,57401,1,2,0:2:0:0:
289,227,57487,1,2,0:2:0:0:
317,275,57573,1,2,0:2:0:0:
307,329,57659,1,2,0:2:0:0:
218,314,57832,5,2,0:2:0:0:
128,298,58005,1,2,0:2:0:0:
186,224,58177,1,2,0:2:0:0:
218,314,58349,5,2,0:2:0:0:
96,212,58522,1,2,0:2:0:0:
244,158,58694,1,2,0:2:0:0:
186,224,58866,1,2,0:2:0:0:
154,142,59039,1,2,0:2:0:0:
276,244,59212,5,2,0:2:0:0:
276,244,59384,1,2,0:2:0:0:
128,298,59556,1,2,0:2:0:0:
128,298,59729,1,2,0:2:0:0:
276,352,59901,1,2,0:2:0:0:
276,352,60074,1,2,0:2:0:0:
186,224,60246,1,2,0:2:0:0:
104,120,60418,5,2,0:2:0:0:
104,120,60591,2,0,P|168:96|192:112,1,90,2|2,0:2|0:2,0:2:0:0:
328,96,60936,2,0,P|272:72|240:88,1,90,2|2,0:2|0:2,0:2:0:0:
168,60,61281,2,0,L|184:108,1,45,2|0,0:2|0:2,0:2:0:0:
144,72,61453,2,0,L|158:114,1,45,2|0,0:2|0:2,0:2:0:0:
272,192,61625,2,0,L|233:168,1,45,2|0,0:2|0:2,0:2:0:0:
248,204,61797,2,0,L|208:180,1,45,2|0,0:2|0:2,0:2:0:0:
112,208,61970,5,2,0:2:0:0:
258,82,62143,1,2,0:2:0:0:
112,208,62315,1,2,0:2:0:0:
258,82,62487,1,2,0:2:0:0:
224,256,62660,5,2,0:2:0:0:
320,172,62833,1,2,0:2:0:0:
224,256,63005,1,2,0:2:0:0:
320,172,63177,1,2,0:2:0:0:
352,288,63349,5,2,0:2:0:0:
352,288,63522,1,2,0:2:0:0:
352,288,63694,1,2,0:2:0:0:
352,288,63867,1,2,0:2:0:0:
352,288,64039,1,2,0:2:0:0:
392,128,64212,5,2,0:2:0:0:
304,40,64384,1,2,0:2:0:0:
168,128,64556,1,2,0:2:0:0:
240,256,64729,6,0,L|320:184,3,90,2|2|2|2,0:2|0:2|0:2|0:2,0:2:0:0:
242,147,65418,6,0,L|176:208,3,90,2|2|2|2,0:2|0:2|0:2|0:2,0:2:0:0:
128,144,66108,6,0,L|184:96,7,45,2|0|2|0|2|0|2|0,0:2|0:2|0:2|0:2|0:2|0:2|0:2|0:2,0:2:0:0:
80,88,66798,6,0,L|120:56,5,30,2|0|0|2|0|0,0:2|0:2|0:2|0:2|0:2|0:2,0:2:0:0:
48,24,67143,6,0,L|64:16,15,11.25,2|0|0|0|0|0|0|2|0|0|0|0|0|0|0|2,0:2|0:2|0:2|0:2|0:2|0:2|0:2|0:2|0:2|0:2|0:2|0:2|0:2|0:2|0:2|0:2,0:2:0:0:
376,80,78522,6,0,B|368:160|368:160|376:192|376:192|379:219|379:219|366:253|366:253|368:304|368:304|297:312|248:304|208:304|176:280|144:224,1,450,2|2,0:2|0:2,0:2:0:0:
248,136,79556,5,0,0:2:0:0:
432,128,79729,2,0,B|432:352|432:352|288:336|288:336|333:252,1,450,2|2,0:2|0:2,0:2:0:0:
369,181,80763,5,2,0:2:0:0:
369,181,80935,1,2,0:2:0:0:
369,181,81108,1,2,0:2:0:0:
216,40,81281,5,2,0:2:0:0:
216,40,81453,1,2,0:2:0:0:
136,144,81625,5,2,0:2:0:0:
136,144,81798,1,2,0:2:0:0:
256,256,81970,5,2,0:2:0:0:
256,256,82143,1,2,0:2:0:0:
288,112,82315,5,2,0:2:0:0:
288,112,82487,2,0,B|144:56|144:56|144:152|88:208|280:272,1,450,2|0,0:2|0:2,0:2:0:0:
456,128,83694,1,2,0:2:0:0:
456,128,83867,1,2,0:2:0:0:
360,96,84039,2,0,P|320:128|336:168,1,90,2|2,0:2|0:2,0:2:0:0:
392,192,84384,2,0,P|360:232|320:232,1,90,2|2,0:2|0:2,0:2:0:0:
240,248,84729,5,0,0:2:0:0:
160,264,84901,1,2,0:2:0:0:
96,204,85074,1,0,0:2:0:0:
152,80,85246,6,0,B|288:48|376:120|376:120|376:208|432:264,1,360,2|2,0:2|0:2,0:2:0:0:
392,320,86108,1,0,0:2:0:0:
328,240,86281,1,0,0:2:0:0:
392,320,86453,1,2,0:2:0:0:
408,240,86625,1,0,0:2:0:0:
392,320,86798,6,0,P|320:304|256:312,1,135.000005149842,2|0,0:2|0:2,0:2:0:0:
224,248,87315,6,0,P|328:224|416:232,1,180,2|0,0:2|0:2,0:2:0:0:
421,182,87832,6,0,P|299:196|205:268,1,215.999993408203,2|0,0:2|0:2,0:2:0:0:
208,176,88349,6,0,P|275:141|422:183,1,233.999989288331,2|0,0:2|0:2,0:2:0:0:
456,248,88867,1,2,0:2:0:0:
80,256,89212,1,2,0:2:0:0:
223,37,89556,5,6,0:2:0:0:
335,29,89729,1,2,0:2:0:0:
254,118,89901,1,2,0:2:0:0:
349,153,90074,1,2,0:2:0:0:
278,216,90246,1,2,0:2:0:0:
347,284,90418,1,2,0:2:0:0:
261,318,90591,2,0,B|222:320|222:320|201:315|201:315|165:316,1,90,2|0,0:2|0:2,0:2:0:0:
39,241,90936,5,2,0:2:0:0:
177,165,91108,2,0,L|281:175,1,90,2|0,0:2|0:2,0:2:0:0:
97,97,91453,5,2,0:2:0:0:
237,271,91625,2,0,L|338:254,1,90,2|0,0:2|0:2,0:2:0:0:
177,165,91970,5,2,0:2:0:0:
237,271,92143,1,2,0:2:0:0:
295,178,92315,6,0,P|339:172|392:201,1,90,2|0,0:2|0:2,0:2:0:0:
237,271,92660,1,2,0:2:0:0:
295,178,92832,1,2,0:2:0:0:
382,276,93005,2,0,P|426:265|460:220,1,90,2|0,0:2|0:2,0:2:0:0:
391,101,93349,1,2,0:2:0:0:
391,101,93522,1,2,0:2:0:0:
295,178,93694,6,0,L|198:165,1,90,2|0,0:2|0:2,0:2:0:0:
378,228,94039,1,2,0:2:0:0:
241,250,94212,6,0,L|144:237,1,90,2|0,0:2|0:2,0:2:0:0:
324,300,94557,1,2,0:2:0:0:
187,322,94729,6,0,L|90:309,1,90,2|0,0:2|0:2,0:2:0:0:
270,372,95074,1,2,0:2:0:0:
324,300,95246,1,2,0:2:0:0:
295,178,95418,1,2,0:2:0:0:
241,250,95591,1,2,0:2:0:0:
380,132,95763,1,2,0:2:0:0:
378,228,95936,1,2,0:2:0:0:
297,82,96108,2,0,B|255:77|255:77|235:85|235:85|195:81,1,90,2|0,0:2|0:2,0:2:0:0:
143,171,96453,1,2,0:2:0:0:
143,171,96625,1,2,0:2:0:0:
186,320,96798,6,0,B|228:325|228:325|248:317|248:317|288:321,1,90,2|0,0:2|0:2,0:2:0:0:
361,283,97143,2,0,P|370:220|351:199,1,90,2|0,0:2|0:2,0:2:0:0:
284,211,97487,2,0,P|309:139|355:130,1,90,2|0,0:2|0:2,0:2:0:0:
391,131,97832,2,0,P|357:72|326:64,1,90,2|0,0:2|0:2,0:2:0:0:
197,63,98177,1,2,0:2:0:0:
239,139,98349,2,0,L|311:195,1,90,2|0,0:2|0:2,0:2:0:0:
128,126,98694,1,2,0:2:0:0:
178,201,98867,2,0,L|250:257,1,90,2|0,0:2|0:2,0:2:0:0:
55,184,99212,1,2,0:2:0:0:
104,256,99385,1,2,0:2:0:0:
170,311,99556,1,2,0:2:0:0:
376,34,99729,5,2,0:2:0:0:
434,120,99900,1,2,0:2:0:0:
417,201,100074,1,2,0:2:0:0:
405,230,100131,1,2,0:2:0:0:
392,258,100189,1,2,0:2:0:0:
379,286,100246,2,0,L|328:356,1,67.5000025749208,2|2,0:2|0:2,0:2:0:0:
183,32,100591,5,6,1:2:0:0:
231,114,100763,1,2,0:2:0:0:
183,32,100936,1,2,0:2:0:0:
231,114,101108,1,2,0:2:0:0:
327,162,101281,5,10,0:2:0:0:
295,277,101453,1,2,0:2:0:0:
327,162,101625,1,2,0:2:0:0:
295,277,101798,2,0,P|240:266|206:242,1,90,2|2,1:2|1:2,0:2:0:0:
199,161,102143,1,2,0:2:0:0:
264,79,102315,1,2,0:2:0:0:
327,162,102487,1,2,0:2:0:0:
199,161,102660,1,10,0:2:0:0:
348,73,102832,1,2,0:2:0:0:
410,183,103005,1,2,0:2:0:0:
264,79,103177,1,2,0:2:0:0:
286,285,103349,5,2,1:2:0:0:
327,162,103522,1,2,0:2:0:0:
207,258,103694,2,0,P|171:211|179:179,1,90,2|0,0:2|0:2,0:2:0:0:
119,246,104039,2,0,P|165:188|203:185,1,90,10|0,0:2|0:2,0:2:0:0:
86,142,104384,1,2,0:2:0:0:
184,36,104556,6,0,P|237:31|264:52,1,90,2|2,1:2|1:2,0:2:0:0:
256,193,104901,1,2,0:2:0:0:
453,298,105074,6,0,P|414:319|369:315,1,90,2|2,0:2|0:2,0:2:0:0:
256,193,105418,1,10,0:2:0:0:
315,135,105591,1,2,0:2:0:0:
173,268,105763,1,2,0:2:0:0:
145,98,105936,1,2,0:2:0:0:
321,243,106108,6,0,B|416:200|400:168|371:112|336:117|304:128|256:144|224:152|226:175|238:217|153:191|128:192|104:168|136:128|80:104|80:104|184:72,1,540,2|0,1:2|0:2,0:2:0:0:
365,32,107315,2,0,L|355:80,1,45,2|0,1:2|0:2,0:2:0:0:
362,229,107487,6,0,B|297:271|244:265|222:258|219:291|209:319|212:353|216:368|250:370|280:376|312:360|318:341|356:329|336:304|320:152|264:112|264:112|176:152|176:152,1,630,2|0,1:2|0:2,0:2:0:0:
96,264,108867,6,0,B|72:368|72:368|112:361|160:328|184:360|208:336|232:373|256:376|328:336,1,360,2|8,1:2|0:2,0:2:0:0:
381,259,109729,1,2,0:2:0:0:
413,153,109901,1,2,0:2:0:0:
380,55,110074,2,0,L|325:66,1,45,2|0,1:2|0:2,0:2:0:0:
108,87,110246,5,2,1:2:0:0:
79,121,110332,1,2,0:2:0:0:
73,165,110418,1,2,0:2:0:0:
92,205,110504,1,2,0:2:0:0:
130,235,110590,5,2,0:2:0:0:
179,239,110677,1,2,0:2:0:0:
222,215,110763,1,2,0:2:0:0:
253,176,110849,1,2,0:2:0:0:
293,132,110936,5,10,0:2:0:0:
347,111,111022,1,2,0:2:0:0:
404,118,111108,1,2,0:2:0:0:
453,148,111194,1,2,0:2:0:0:
474,230,111280,5,2,1:2:0:0:
379,262,111367,5,2,0:2:0:0:
285,292,111453,5,2,0:2:0:0:
192,325,111539,5,2,0:2:0:0:
98,355,111625,5,6,1:2:0:0:
72,187,111798,5,0,0:2:0:0:
263,27,111970,2,0,L|237:116,1,90,0|0,1:2|0:2,0:2:0:0:
156,229,112315,1,0,1:2:0:0:
96,102,112487,1,0,0:2:0:0:
237,113,112660,1,0,1:2:0:0:
156,229,112832,1,0,0:2:0:0:
166,99,113005,2,0,P|191:54|261:29,1,90,0|0,1:2|0:2,0:2:0:0:
361,37,113349,5,0,1:2:0:0:
292,177,113522,1,0,0:2:0:0:
167,98,113694,1,0,1:2:0:0:
386,113,113867,1,0,0:2:0:0:
271,249,114039,2,0,P|224:208|220:168,1,90,0|0,1:2|0:2,0:2:0:0:
258,35,114384,5,0,1:2:0:0:
219,185,114556,1,0,0:2:0:0:
335,49,114729,1,0,1:2:0:0:
146,164,114901,1,0,0:2:0:0:
409,63,115074,2,0,L|415:176,1,90,0|0,1:2|0:2,0:2:0:0:
297,295,115418,2,0,L|292:205,1,90,0|0,1:2|0:2,0:2:0:0:
408,62,115763,1,0,1:2:0:0:
266,149,115936,5,0,0:2:0:0:
408,62,116108,1,0,1:2:0:0:
360,222,116281,1,0,0:2:0:0:
319,54,116453,2,0,P|386:55|436:74,1,90,0|0,1:2|0:2,0:2:0:0:
448,229,116798,2,0,P|381:228|331:209,1,90,0|0,1:2|0:2,0:2:0:0:
217,89,117143,5,4,1:2:0:0:
89,159,117315,1,0,0:2:0:0:
234,69,117487,1,0,1:2:0:0:
305,219,117660,1,0,0:2:0:0:
89,159,117832,2,0,P|120:109|162:96,1,90,0|0,1:2|0:2,0:2:0:0:
311,83,118177,2,0,P|280:133|238:146,1,90,0|0,1:2|0:2,0:2:0:0:
65,148,118522,5,0,1:2:0:0:
215,279,118694,1,0,0:2:0:0:
50,302,118867,1,0,1:2:0:0:
178,146,119039,1,0,0:2:0:0:
287,296,119212,2,0,P|251:345|193:349,1,90,0|0,1:2|0:2,0:2:0:0:
42,212,119556,2,0,L|50:309,1,90,0|0,1:2|0:2,0:2:0:0:
225,352,119901,5,0,1:2:0:0:
232,174,120074,1,0,0:2:0:0:
179,355,120246,1,0,1:2:0:0:
114,161,120418,1,0,0:2:0:0:
287,296,120591,2,0,P|306:233|286:180,1,90,0|0,1:2|0:2,0:2:0:0:
153,79,120936,2,0,L|108:172,1,90,0|0,1:2|0:2,0:2:0:0:
52,301,121281,5,0,1:2:0:0:
219,256,121453,1,0,0:2:0:0:
37,179,121625,1,0,1:2:0:0:
159,341,121798,1,0,0:2:0:0:
167,140,121970,1,0,1:2:0:0:
26,316,122143,1,0,0:2:0:0:
249,249,122315,2,0,P|287:189|279:141,1,90,0|0,1:2|0:2,0:2:0:0:
296,39,122660,5,4,1:2:0:0:
419,98,122832,1,0,0:2:0:0:
287,172,123005,2,0,P|259:124|284:57,1,90,0|0,1:2|0:2,0:2:0:0:
419,98,123349,5,4,1:2:0:0:
466,233,123521,1,0,0:2:0:0:
311,190,123694,2,0,P|326:132|379:106,1,90,0|0,1:2|0:2,0:2:0:0:
466,233,124039,1,4,1:2:0:0:
317,294,124212,1,0,0:2:0:0:
346,114,124384,2,0,P|385:177|385:202,1,90,0|0,1:2|0:2,0:2:0:0:
238,327,124729,1,4,1:2:0:0:
186,137,124901,1,0,0:2:0:0:
383,186,125074,6,0,P|327:249|312:251,1,90,0|0,1:2|0:2,0:2:0:0:
100,194,125418,1,4,1:2:0:0:
327,248,125591,1,0,0:2:0:0:
33,228,125763,2,0,P|32:162|71:123,1,90,0|0,1:2|0:2,0:2:0:0:
242,87,126108,1,4,1:2:0:0:
164,295,126281,1,0,0:2:0:0:
199,29,126453,2,0,P|243:14|297:38,1,90,0|0,1:2|0:2,0:2:0:0:
412,159,126798,5,4,1:2:0:0:
220,254,126970,1,0,0:2:0:0:
242,87,127143,2,0,L|299:166,1,90,0|0,1:2|0:2,0:2:0:0:
412,311,127487,1,4,1:2:0:0:
160,311,127660,1,0,0:2:0:0:
296,163,127832,2,0,L|275:265,1,90,0|0,1:2|0:2,0:2:0:0:
146,346,128177,5,4,1:2:0:0:
81,174,128349,1,0,0:2:0:0:
258,50,128522,5,12,0:2:0:0:
196,224,128694,1,0,0:2:0:0:
53,95,128867,5,4,1:2:0:0:
282,162,129039,1,0,0:2:0:0:
102,266,129212,5,12,0:2:0:0:
169,36,129384,1,0,0:2:0:0:
282,162,129556,5,4,1:2:0:0:
5,242,129728,1,0,0:2:0:0:
85,52,129901,5,12,0:2:0:0:
165,329,130073,1,0,0:2:0:0:
5,242,130246,5,4,1:2:0:0:
268,113,130418,1,0,0:2:0:0:
356,272,130591,5,12,0:2:0:0:
71,133,130763,1,0,0:2:0:0:
315,47,130936,1,6,1:2:0:0:
345,79,131022,1,2,0:2:0:0:
354,122,131108,1,6,0:2:0:0:
340,164,131194,1,2,0:2:0:0:
306,193,131280,5,14,0:2:0:0:
262,200,131367,1,2,0:2:0:0:
229,193,131453,1,6,0:2:0:0:
200,168,131539,1,2,0:2:0:0:
192,125,131625,1,6,1:2:0:0:
189,89,131712,1,2,0:2:0:0:
156,58,131798,5,6,0:2:0:0:
112,55,131884,1,2,0:2:0:0:
76,81,131970,1,14,0:2:0:0:
65,123,132056,1,2,0:2:0:0:
70,164,132143,1,6,0:2:0:0:
88,205,132229,1,2,0:2:0:0:
106,246,132315,1,6,1:2:0:0:
321,332,132487,5,2,0:2:0:0:
321,332,132574,1,2,0:2:0:0:
321,332,132660,1,10,0:2:0:0:
318,94,132832,2,0,L|299:45,1,45,2|2,0:2|0:2,0:2:0:0:
177,26,133005,2,0,L|189:71,1,45,2|2,0:2|0:2,0:2:0:0:
166,233,133177,2,0,L|148:182,1,45,2|2,0:2|0:2,0:2:0:0:
311,140,133349,6,0,P|345:49|277:119,1,270.000010299683,8|0,0:2|0:2,0:2:0:0:
483,228,133694,6,0,B|422:241|360:264|360:264|400:248|428:192,1,180,6|0,1:2|0:2,0:2:0:0:
248,200,134039,2,0,L|325:191,1,53.9999983520508,2|0,1:2|0:2,0:2:0:0:
185,106,134212,2,0,L|132:112,1,53.9999983520508,2|0,0:2|0:2,0:2:0:0:
42,198,134384,2,0,L|119:189,1,53.9999983520508,2|0,1:2|0:2,0:2:0:0:
330,125,134556,6,0,L|253:116,1,53.9999983520508,2|0,0:2|0:2,0:2:0:0:
203,356,134729,5,2,1:2:0:0:
143,260,134815,1,2,0:2:0:0:
199,351,134901,1,2,0:2:0:0:
143,260,134987,1,2,0:2:0:0:
203,356,135074,6,0,B|257:334|257:334|316:346,1,107.999996704102,2|0,1:2|0:2,0:2:0:0:
212,198,135418,1,2,1:2:0:0:
419,327,135591,1,2,0:2:0:0:
360,171,135763,1,2,1:2:0:0:
300,269,135936,1,2,0:2:0:0:
469,235,136108,2,0,L|479:128,1,107.999996704102,2|0,1:2|0:2,0:2:0:0:
195,140,136453,6,2,B|240:80|240:80|256:128|256:128|312:176,1,180,0|0,1:2|0:2,0:2:0:0:
377,227,136798,2,0,P|385:176|337:195,1,90,2|0,1:2|0:2,0:2:0:0:
180,239,136970,1,2,0:2:0:0:
180,239,137056,1,2,0:2:0:0:
180,239,137143,2,0,L|86:213,1,90,2|0,1:2|0:2,0:2:0:0:
384,288,137315,2,0,L|478:262,1,90,2|0,0:2|0:2,0:2:0:0:
188,305,137487,6,0,L|179:238,1,67.5000025749208,2|0,1:2|0:2,0:2:0:0:
372,127,137660,2,0,L|364:194,1,67.5000025749208,2|0,0:2|0:2,0:2:0:0:
102,221,137832,6,0,P|147:163|240:182,1,161.999995056153,2|0,1:2|0:2,0:2:0:0:
291,213,138177,1,2,1:2:0:0:
250,76,138349,1,2,0:2:0:0:
188,305,138522,5,2,1:2:0:0:
228,171,138694,1,2,0:2:0:0:
130,195,138867,5,2,1:2:0:0:
286,301,139039,1,2,0:2:0:0:
309,100,139212,6,0,P|249:142|211:242,1,161.999995056153,2|0,1:2|0:2,0:2:0:0:
389,67,139556,6,0,L|397:135,1,36,2|0,1:2|0:2,0:2:0:0:
130,195,139729,2,0,L|122:263,1,36,2|0,0:2|0:2,0:2:0:0:
386,245,139901,6,0,L|381:209,1,36,2|0,1:2|0:2,0:2:0:0:
170,76,140074,2,0,L|165:111,1,36,2|0,0:2|0:2,0:2:0:0:
201,342,140246,5,2,1:2:0:0:
265,279,140332,1,2,0:2:0:0:
350,350,140418,1,2,0:2:0:0:
445,303,140504,1,2,0:2:0:0:
512,315,140591,6,0,P|485:254|387:271,1,161.999995056153,2|0,1:2|0:2,0:2:0:0:
293,176,140936,2,0,L|304:318,1,107.999996704102,2|0,1:2|0:2,0:2:0:0:
457,85,141281,2,0,L|446:227,1,107.999996704102,2|0,1:2|0:2,0:2:0:0:
250,32,141625,2,0,L|261:174,1,107.999996704102,2|0,1:2|0:2,0:2:0:0:
397,244,141970,6,0,B|364:192|316:200|316:200|281:233|217:216,1,161.999995056153,2|0,1:2|0:2,0:2:0:0:
119,164,142315,2,0,L|201:178,1,53.9999983520508,2|0,1:2|0:2,0:2:0:0:
450,234,142487,2,0,L|368:248,1,53.9999983520508,2|0,0:2|0:2,0:2:0:0:
240,376,142660,6,0,L|236:328,1,45,2|0,1:2|0:2,0:2:0:0:
196,157,143005,5,2,1:2:0:0:
293,215,143091,1,2,0:2:0:0:
196,157,143177,1,2,0:2:0:0:
293,215,143263,1,2,0:2:0:0:
196,157,143349,6,0,B|143:143|143:143|88:158|88:158|18:138,1,161.999995056153,2|0,1:2|0:2,0:2:0:0:
93,67,143694,1,2,1:2:0:0:
270,27,143867,2,0,P|251:78|246:132,1,107.999996704102,2|0,0:2|1:2,0:2:0:0:
383,113,144212,2,0,P|353:112|320:104,1,53.9999983520508,2|0,0:2|0:2,0:2:0:0:
143,170,144384,2,0,P|161:220|167:274,1,107.999996704102,10|0,0:2|0:2,0:2:0:0:
342,332,144729,6,0,P|288:308|299:208,1,161.999995056153,6|0,1:2|0:2,0:2:0:0:
389,158,145074,2,0,B|407:214|407:214|387:264,1,107.999996704102,10|0,0:2|0:2,0:2:0:0:
143,170,145418,2,0,B|124:124|124:124|142:68,1,107.999996704102,2|0,1:2|0:2,0:2:0:0:
271,23,145763,5,10,0:2:0:0:
287,73,145849,5,2,0:2:0:0:
247,131,145936,5,2,0:2:0:0:
290,203,146022,5,2,0:2:0:0:
294,275,146108,6,0,B|282:324|251:346|251:346|250:285,1,107.999996704102,2|0,1:2|0:2,0:2:0:0:
384,166,146453,1,10,0:2:0:0:
177,202,146625,6,0,B|128:190|106:158|106:158|167:157,1,107.999996704102,2|0,0:2|1:2,0:2:0:0:
295,252,146970,1,2,0:2:0:0:
188,74,147143,6,0,B|151:39|148:1|148:1|201:30,1,107.999996704102,10|0,0:2|0:2,0:2:0:0:
177,202,147487,5,2,1:2:0:0:
313,45,147660,1,2,0:2:0:0:
188,74,147832,2,0,B|221:69|250:46|250:46|230:78|235:104,1,107.999996704102,10|0,0:2|0:2,0:2:0:0:
384,166,148177,6,0,B|415:174|415:174|444:146,1,53.9999983520508,2|0,1:2|0:2,0:2:0:0:
193,202,148349,6,0,B|162:210|162:210|133:182,1,53.9999983520508,2|0,0:2|0:2,0:2:0:0:
184,6,148522,6,0,L|189:91,1,67.5000025749208,10|0,0:2|0:2,0:2:0:0:
334,318,148694,2,0,L|337:250,1,67.5000025749208,2|0,0:2|0:2,0:2:0:0:
60,135,148867,6,0,B|43:198|43:198|64:249|64:249|42:300|60:352,1,215.999993408203,2|8,1:2|0:2,0:2:0:0:
174,189,149384,1,2,0:2:0:0:
245,315,149556,2,0,L|134:304,1,107.999996704102,2|0,1:2|0:2,0:2:0:0:
174,189,149901,2,0,L|285:178,1,107.999996704102,10|0,0:2|0:2,0:2:0:0:
472,136,150246,6,0,P|413:172|384:295,1,161.999995056153,2|0,1:2|0:2,0:2:0:0:
512,346,150591,6,0,B|482:320|482:320|432:311,1,72,10|0,0:2|0:2,0:2:0:0:
104,242,150936,6,0,B|134:268|134:268|184:277,1,72,2|0,1:2|0:2,0:2:0:0:
336,207,151281,5,10,0:2:0:0:
293,226,151367,1,2,0:2:0:0:
213,104,151453,5,2,0:2:0:0:
247,133,151539,1,2,0:2:0:0:
328,64,151625,5,2,1:2:0:0:
230,257,151798,1,2,0:2:0:0:
213,104,151970,1,10,0:2:0:0:
317,302,152143,1,2,0:2:0:0:
152,181,152315,5,2,1:2:0:0:
415,217,152487,1,2,0:2:0:0:
230,257,152660,1,10,0:2:0:0:
407,109,152832,1,2,0:2:0:0:
232,28,153005,6,0,L|237:145,1,107.999996704102,2|0,1:2|0:2,0:2:0:0:
357,289,153349,6,0,L|290:279,1,53.9999983520508,10|0,0:2|0:2,0:2:0:0:
98,184,153522,2,0,L|153:180,1,53.9999983520508,2|0,0:2|0:2,0:2:0:0:
451,113,153694,6,0,L|399:108,1,45,2|0,1:2|0:2,0:2:0:0:
93,102,154039,5,10,0:2:0:0:
169,39,154125,1,2,0:2:0:0:
265,45,154211,1,2,0:2:0:0:
339,111,154298,1,2,0:2:0:0:
255,211,154384,6,0,B|211:264|211:264|217:115,1,215.999993408203,2|8,1:2|0:2,0:2:0:0:
339,111,154901,1,2,0:2:0:0:
123,290,155074,2,0,L|127:182,1,107.999996704102,2|0,1:2|0:2,0:2:0:0:
413,329,155418,5,10,0:2:0:0:
421,343,155591,1,2,0:2:0:0:
435,136,155763,6,0,P|408:64|320:48,1,125.999996154785,2|0,1:2|0:2,0:2:0:0:
197,146,156108,6,0,B|192:216|192:216|232:176,1,125.999996154785,10|0,0:2|0:2,0:2:0:0:
384,264,156453,6,0,B|440:296|440:296|440:224,1,125.999996154785,2|0,1:2|0:2,0:2:0:0:
215,338,156798,5,10,0:2:0:0:
267,277,156884,1,2,0:2:0:0:
262,197,156970,5,2,0:2:0:0:
197,146,157056,1,2,0:2:0:0:
114,153,157143,5,2,1:2:0:0:
446,43,157315,5,2,0:2:0:0:
435,136,157488,1,10,0:2:0:0:
359,79,157660,1,2,0:2:0:0:
200,228,157832,5,2,1:2:0:0:
222,334,158005,1,2,0:2:0:0:
345,240,158177,1,10,0:2:0:0:
85,220,158349,1,2,0:2:0:0:
12,117,158522,6,0,P|65:74|180:105,1,188.999994232178,2|0,1:2|0:2,0:2:0:0:
248,40,158867,6,0,B|288:64|288:64|256:96,1,72,10|0,0:2|0:2,0:2:0:0:
412,141,159212,6,0,L|426:73,1,53.9999983520508,2|0,1:2|0:2,0:2:0:0:
258,233,159384,2,0,L|244:165,1,53.9999983520508,2|0,0:2|0:2,0:2:0:0:
283,28,159556,1,10,0:2:0:0:
396,250,159729,1,2,0:2:0:0:
399,276,159815,1,2,0:2:0:0:
403,303,159901,6,0,B|297:262|292:360|223:317|223:317|292:284,1,215.999993408203,2|8,1:2|0:2,0:2:0:0:
225,106,160418,1,2,0:2:0:0:
277,208,160591,1,2,1:2:0:0:
111,125,160763,1,2,0:2:0:0:
94,238,160936,1,10,0:2:0:0:
154,61,161108,1,2,0:2:0:0:
271,290,161281,6,0,P|359:230|292:109,1,270,2|0,1:2|0:2,0:2:0:0:
104,48,161625,6,0,B|88:96|88:96|136:80,1,72,10|0,0:2|0:2,0:2:0:0:
370,253,161970,2,0,B|377:300|377:300|352:296,1,72,2|0,1:2|0:2,0:2:0:0:
459,97,162315,5,10,0:2:0:0:
381,166,162401,1,2,0:2:0:0:
306,90,162487,1,2,0:2:0:0:
225,158,162573,1,2,0:2:0:0:
108,104,162660,6,0,B|137:47|206:32|263:64|263:64|241:69|225:80,1,215.999993408203,2|8,1:2|0:2,0:2:0:0:
171,187,163177,5,2,0:2:0:0:
370,281,163349,5,2,1:2:0:0:
103,287,163522,5,2,0:2:0:0:
293,195,163694,5,10,0:2:0:0:
108,104,163867,5,2,0:2:0:0:
378,364,164039,6,0,P|441:328|407:206,1,215.999993408203,2|8,1:2|0:2,0:2:0:0:
253,144,164470,1,2,0:2:0:0:
253,144,164556,2,0,P|303:141|335:128,1,53.9999983520508,2|0,0:2|0:2,0:2:0:0:
454,69,164729,6,0,B|363:17|343:89|237:57,1,180,2|0,1:2|0:2,0:2:0:0:
181,74,165074,5,10,0:2:0:0:
217,165,165160,1,2,0:2:0:0:
155,242,165246,1,2,0:2:0:0:
56,231,165332,1,2,0:2:0:0:
24,106,165418,6,0,L|31:172,1,53.9999983520508,2|0,1:2|0:2,0:2:0:0:
87,297,165591,2,0,L|92:243,1,53.9999983520508,2|0,0:2|0:2,0:2:0:0:
108,82,165763,6,0,L|116:161,1,53.9999983520508,10|0,0:2|0:2,0:2:0:0:
193,312,165936,2,0,L|199:247,1,53.9999983520508,2|0,0:2|0:2,0:2:0:0:
218,54,166108,6,0,L|228:149,1,53.9999983520508,2|0,1:2|0:2,0:2:0:0:
320,330,166281,2,0,L|328:252,1,53.9999983520508,2|0,0:2|0:2,0:2:0:0:
404,144,166453,6,0,P|463:103|421:164,1,202.500007724762,10|0,0:2|0:2,0:2:0:0:
320,227,166798,5,6,1:2:0:0:
26,102,166970,1,2,0:2:0:0:
63,226,167143,5,10,0:2:0:0:
351,88,167315,1,2,0:2:0:0:
179,340,167487,5,6,1:2:0:0:
196,100,167660,2,0,L|178:61,2,26.9999991760254,2|0|0,0:2|0:2|0:2,0:2:0:0:
267,198,167832,1,10,0:2:0:0:
351,88,168005,6,0,L|377:64,1,26.9999991760254,2|0,0:2|0:2,0:2:0:0:
380,114,168091,2,0,L|414:105,1,26.9999991760254,2|0,0:2|0:2,0:2:0:0:
392,150,168177,6,0,L|498:135,1,107.999996704102,6|0,1:2|0:2,0:2:0:0:
277,337,168522,1,10,0:2:0:0:
196,100,168694,6,0,L|90:85,1,107.999996704102,2|4,0:2|1:2,0:2:0:0:
160,238,169039,1,2,0:2:0:0:
240,230,169125,1,2,0:2:0:0:
320,218,169212,2,0,L|329:153,1,53.9999983520508,10|0,0:2|0:2,0:2:0:0:
459,316,169384,2,0,L|451:262,1,53.9999983520508,2|0,0:2|0:2,0:2:0:0:
402,102,169556,6,0,P|356:71|289:77,1,107.999996704102,6|0,1:2|0:2,0:2:0:0:
198,131,169815,2,0,L|218:69,1,53.9999983520508,2|8,0:2|0:2,0:2:0:0:
320,286,170074,6,0,L|377:242,1,53.9999983520508,2|0,0:2|0:2,0:2:0:0:
76,239,170246,1,6,1:2:0:0:
288,152,170418,6,0,L|284:230,1,53.9999983520508,2|0,0:2|0:2,0:2:0:0:
179,344,170591,2,0,L|176:290,1,53.9999983520508,10|0,0:2|0:2,0:2:0:0:
108,98,170763,2,0,L|111:170,1,53.9999983520508,2|0,0:2|0:2,0:2:0:0:
232,90,170936,6,0,B|292:52|342:91|342:91|388:109|444:76,1,215.999993408203,6|8,1:2|0:2,0:2:0:0:
314,342,171453,1,2,0:2:0:0:
77,197,171625,6,0,P|56:136|112:195,1,215.999993408203,6|8,1:2|0:2,0:2:0:0:
69,354,172143,1,2,0:2:0:0:
370,348,172315,5,6,1:2:0:0:
399,113,172487,1,2,0:2:0:0:
290,266,172660,1,14,0:2:0:0:
503,223,172832,1,2,0:2:0:0:
142,36,173005,5,6,1:2:0:0:
113,271,173177,1,2,0:2:0:0:
222,118,173350,1,14,0:2:0:0:
9,161,173522,1,2,0:2:0:0:
204,348,173694,6,0,L|197:281,1,53.9999983520508,6|0,1:2|0:2,0:2:0:0:
330,335,173867,2,0,L|340:263,1,53.9999983520508,2|0,0:2|0:2,0:2:0:0:
198,212,174039,6,0,P|167:216|135:234,1,53.9999983520508,14|0,0:2|0:2,0:2:0:0:
336,199,174212,2,0,P|367:203|399:221,1,53.9999983520508,2|0,0:2|0:2,0:2:0:0:
323,41,174384,6,0,L|315:94,1,53.9999983520508,6|0,1:2|0:2,0:2:0:0:
198,212,174556,2,0,L|190:158,1,53.9999983520508,2|0,0:2|0:2,0:2:0:0:
336,199,174729,6,0,L|401:178,1,53.9999983520508,14|0,0:2|0:2,0:2:0:0:
184,327,174901,2,0,L|129:304,1,53.9999983520508,2|0,0:2|0:2,0:2:0:0:
311,316,175074,5,6,1:2:0:0:
350,351,175160,1,2,0:2:0:0:
402,359,175246,1,6,0:2:0:0:
450,335,175332,1,2,0:2:0:0:
475,289,175418,5,14,0:2:0:0:
471,236,175505,1,2,0:2:0:0:
437,195,175591,1,6,0:2:0:0:
386,181,175677,1,2,0:2:0:0:
335,198,175763,5,6,1:2:0:0:
291,228,175849,1,2,0:2:0:0:
238,231,175935,1,6,0:2:0:0:
190,207,176023,1,2,0:2:0:0:
155,166,176109,5,14,0:2:0:0:
104,149,176195,1,2,0:2:0:0:
52,160,176281,1,6,0:2:0:0:
13,197,176367,1,2,0:2:0:0:
0,248,176453,6,0,L|6:334,1,53.9999983520508,6|0,1:2|0:2,0:2:0:0:
253,93,176625,5,2,0:2:0:0:
253,93,176712,1,2,0:2:0:0:
253,93,176798,2,0,L|262:174,1,53.9999983520508,10|0,0:2|0:2,0:2:0:0:
163,360,176970,5,2,0:2:0:0:
110,361,177056,1,2,0:2:0:0:
70,326,177142,1,2,1:2:0:0:
66,274,177228,1,2,0:2:0:0:
99,232,177315,6,0,P|128:240|182:249,1,53.9999983520508,2|0,0:2|0:2,0:2:0:0:
437,296,177487,6,0,P|410:301|380:308,1,54,14|0,0:2|0:2,0:2:0:0:
240,357,177832,6,0,B|229:310|229:310|244:250,1,90,6|0,1:2|0:2,0:2:0:0:
240,27,178177,6,0,L|240:88,1,45,10|0,0:2|0:2,0:2:0:0:
280,56,178349,6,0,L|272:112,1,45,2|0,0:2|0:2,0:2:0:0:
336,152,178522,5,2,1:2:0:0:
128,264,178694,1,2,0:2:0:0:
122,181,178867,5,10,0:2:0:0:
271,333,179040,1,2,0:2:0:0:
47,230,179212,5,2,1:2:0:0:
357,237,179384,1,2,0:2:0:0:
354,332,179556,5,10,0:2:0:0:
240,30,179729,1,2,0:2:0:0:
47,230,179901,2,0,B|48:207|48:207|114:298,1,135,2|0,1:2|0:2,0:2:0:0:
155,323,180246,1,10,0:2:0:0:
416,32,180591,5,2,1:2:0:0:
56,32,180936,2,0,B|64:104|64:104|86:80,1,90,10|0,0:2|0:2,0:2:0:0:
176,112,181281,5,2,1:2:0:0:
168,200,181453,1,2,0:2:0:0:
232,81,181625,1,10,0:2:0:0:
219,230,181797,1,2,0:2:0:0:
280,48,181970,6,0,L|288:112,1,53.9999983520508,2|0,1:2|0:2,0:2:0:0:
272,256,182143,6,0,L|281:186,1,53.9999983520508,2|0,0:2|0:2,0:2:0:0:
336,24,182315,6,0,L|344:88,1,53.9999983520508,10|0,0:2|0:2,0:2:0:0:
328,296,182487,6,0,L|336:232,1,53.9999983520508,2|0,0:2|0:2,0:2:0:0:
464,32,182660,2,0,L|440:96,1,53.9999983520508,2|0,1:2|0:2,0:2:0:0:
464,352,182832,6,0,L|440:288,1,53.9999983520508,2|0,0:2|0:2,0:2:0:0:
384,192,183005,6,0,P|392:136|392:192,1,161.999995056153,10|0,0:2|0:2,0:2:0:0:
384,192,183349,2,0,B|319:250|260:220|260:220|314:206,1,161.999995056153,6|0,1:2|0:2,0:2:0:0:
299,150,183694,5,10,0:2:0:0:
144,136,183867,1,2,0:2:0:0:
264,328,184039,1,2,1:2:0:0:
264,328,184125,1,2,0:2:0:0:
264,328,184212,1,2,0:2:0:0:
288,232,184384,5,10,0:2:0:0:
104,192,184556,1,2,0:2:0:0:
272,136,184729,1,2,1:2:0:0:
112,312,184901,1,2,0:2:0:0:
112,112,185074,1,10,0:2:0:0:
416,272,185246,6,0,B|416:152|376:88|376:88|344:144,1,215.999993408203,2|0,0:2|0:2,0:2:0:0:
328,208,185763,2,0,P|288:248|304:184,1,161.999995056153,10|0,0:2|0:2,0:2:0:0:
280,144,186108,6,0,B|232:136|296:56|192:-8|120:32|100:51|80:72|80:72|104:136|104:136,1,306.000005836487,2|8,1:2|0:2,0:2:0:0:
136,136,186625,2,0,B|180:136|180:136|224:32|224:32|272:80|272:80|392:48|392:48,1,306.000005836487,2|0,0:2|0:2,0:2:0:0:
456,40,187143,2,0,B|378:110|398:199|398:199|359:95|194:95|194:95|103:361|256:336|256:336|319:259|228:206|228:206|96:160|56:184,1,1071.0000204277,10|0,0:2|0:2,0:2:0:0:
48,232,188522,5,2,0:2:0:0:
143,232,188608,1,2,0:2:0:0:
239,232,188694,1,2,0:2:0:0:
334,232,188780,1,2,0:2:0:0:
432,232,188867,6,0,B|424:200|424:200|464:216,2,76.5000014591217,6|0|0,1:2|0:2|1:2,0:2:0:0:
464,64,189212,2,0,B|471:95|471:95|431:80,2,76.5000014591217,10|0|0,0:2|0:2|0:2,0:2:0:0:
336,72,189556,5,2,1:2:0:0:
288,192,189729,1,2,0:2:0:0:
217,122,189901,1,10,0:2:0:0:
399,198,190074,1,2,0:2:0:0:
290,305,190246,1,2,1:2:0:0:
290,305,190332,1,2,0:2:0:0:
290,305,190418,1,2,0:2:0:0:
265,2,190591,5,10,0:2:0:0:
210,172,190763,1,2,0:2:0:0:
115,83,190936,2,0,B|216:35|221:128|352:143,1,229.500004377365,2|0,1:2|0:2,0:2:0:0:
360,160,191281,1,10,0:2:0:0:
80,328,191625,5,2,1:2:0:0:
318,30,191970,2,0,B|375:42|375:42|441:88|441:88|494:65,1,153.000002918243,10|0,0:2|0:2,0:2:0:0:
432,185,192229,1,2,0:2:0:0:
432,185,192315,2,0,B|417:248|409:309|409:309|369:282,1,153.000002918243,2|0,1:2|0:2,0:2:0:0:
322,198,192574,1,2,0:2:0:0:
322,198,192660,2,0,P|250:242|283:162,1,153.000002918243,10|0,0:2|0:2,0:2:0:0:
387,294,192918,1,2,0:2:0:0:
387,294,193005,2,0,B|335:330|273:322|240:283|232:261|232:261|229:237|268:252|244:75|120:166|98:195|98:227|148:314|173:256|197:288|197:288|229:362|174:405|140:391,1,584.999973220826,2|0,1:2|0:2,0:2:0:0:
129,226,194039,2,0,P|219:266|236:204,1,153.000002918243,10|0,0:2|0:2,0:2:0:0:
237,227,194384,2,0,P|147:187|130:249,1,153.000002918243,6|0,1:2|0:2,0:2:0:0:
256,120,194729,6,0,L|200:112,1,53.9999983520508,10|0,0:2|0:2,0:2:0:0:
271,31,194901,2,0,L|207:23,1,53.9999983520508,2|0,0:2|0:2,0:2:0:0:
400,136,195074,5,2,1:2:0:0:
400,136,195160,1,2,0:2:0:0:
400,136,195246,2,0,L|344:128,1,53.9999983520508,2|0,0:2|0:2,0:2:0:0:
424,216,195418,5,10,0:2:0:0:
328,296,195591,1,2,0:2:0:0:
221,142,195763,1,2,1:2:0:0:
346,142,195936,1,2,0:2:0:0:
114,296,196108,1,10,0:2:0:0:
114,171,196281,1,2,0:2:0:0:
317,370,196453,6,0,B|255:311|255:311|305:317,1,107.999996704102,2|0,1:2|0:2,0:2:0:0:
403,274,196798,2,0,B|382:196|382:196|367:224,1,107.999996704102,10|0,0:2|0:2,0:2:0:0:
200,152,197143,1,2,1:2:0:0:
280,64,197315,1,2,0:2:0:0:
265,251,197487,1,10,0:2:0:0:
120,258,197660,1,2,0:2:0:0:
298,96,197832,1,2,1:2:0:0:
406,218,198005,1,2,0:2:0:0:
173,198,198177,5,10,0:2:0:0:
224,264,198349,2,0,L|296:336,1,53.9999983520508,2|0,0:2|0:2,0:2:0:0:
173,198,198522,5,2,1:2:0:0:
160,280,198694,2,0,L|159:381,1,53.9999983520508,2|0,0:2|0:2,0:2:0:0:
173,198,198867,5,10,0:2:0:0:
104,248,199039,2,0,L|31:319,1,53.9999983520508,2|0,0:2|0:2,0:2:0:0:
173,198,199212,6,0,B|224:264|224:264|160:280|160:280|104:248|104:248|192:184,1,270.000010299683,2|8,1:2|0:2,0:2:0:0:
200,120,199729,1,2,0:2:0:0:
280,160,199901,1,6,1:2:0:0:
224,336,200074,5,2,0:2:0:0:
200,120,200246,2,0,P|224:80|304:72,1,90,10|0,0:2|0:2,0:2:0:0:
380,244,200591,1,2,1:2:0:0:
240,248,200763,1,2,0:2:0:0:
340,132,200936,1,10,0:2:0:0:
292,348,201108,1,2,0:2:0:0:
112,196,201281,2,0,P|116:144|156:104,1,90,2|0,1:2|0:2,0:2:0:0:
366,51,201625,2,0,P|362:103|322:143,1,90,10|0,0:2|0:2,0:2:0:0:
164,304,201970,5,2,1:2:0:0:
112,196,202143,1,2,0:2:0:0:
276,220,202315,1,10,0:2:0:0:
48,300,202487,1,2,0:2:0:0:
172,56,202660,2,0,P|204:120|196:148,1,90,2|0,1:2|0:2,0:2:0:0:
144,336,203005,5,10,0:2:0:0:
108,176,203177,1,2,0:2:0:0:
240,336,203349,1,2,1:2:0:0:
24,264,203522,1,2,0:2:0:0:
264,168,203694,1,10,0:2:0:0:
88,368,203867,1,2,0:2:0:0:
76,116,204039,2,0,P|132:80|180:80,1,90,2|0,1:2|0:2,0:2:0:0:
416,124,204384,5,10,0:2:0:0:
264,168,204556,1,2,0:2:0:0:
448,232,204729,1,2,1:2:0:0:
224,300,204901,1,2,0:2:0:0:
492,352,205074,1,10,0:2:0:0:
324,84,205246,1,2,0:2:0:0:
156,328,205418,2,0,P|224:368|272:356,1,90,2|0,1:2|0:2,0:2:0:0:
368,248,205763,5,10,0:2:0:0:
232,164,205936,1,2,0:2:0:0:
232,368,206108,1,2,1:2:0:0:
320,144,206281,1,2,0:2:0:0:
104,296,206453,1,10,0:2:0:0:
404,272,206625,1,2,0:2:0:0:
124,144,206798,1,2,1:2:0:0:
432,288,206970,1,2,0:2:0:0:
104,68,207143,2,0,P|56:120|52:152,1,90,10|0,0:2|0:2,0:2:0:0:
120,272,207487,2,0,P|168:220|172:188,1,90,2|0,1:2|0:2,0:2:0:0:
244,56,207832,6,0,P|296:52|364:88,1,90,10|0,0:2|0:2,0:2:0:0:
252,280,208177,1,2,1:2:0:0:
120,144,208349,1,2,0:2:0:0:
144,324,208522,1,10,0:2:0:0:
232,100,208694,1,2,0:2:0:0:
319,316,208867,2,0,P|259:300|251:272,1,90,2|0,1:2|0:2,0:2:0:0:
232,100,209212,2,0,P|292:96|324:68,1,90,10|0,0:2|0:2,0:2:0:0:
484,96,209556,2,0,L|448:212,1,90,2|0,1:2|0:2,0:2:0:0:
280,320,209901,5,10,0:2:0:0:
240,156,210074,1,2,0:2:0:0:
388,264,210246,1,2,1:2:0:0:
142,318,210418,1,2,0:2:0:0:
124,298,210476,1,2,0:2:0:0:
106,279,210533,1,2,0:2:0:0:
89,259,210591,1,10,0:2:0:0:
296,232,210763,1,2,0:2:0:0:
152,56,210936,2,0,P|112:128|112:144,1,90,6|0,1:2|0:2,0:2:0:0:
240,384,211281,2,0,P|269:350|280:306,1,90,10|0,0:2|0:2,0:2:0:0:
248,96,211625,6,0,P|292:112|288:80,1,90,2|0,1:2|0:2,0:2:0:0:
432,232,211970,6,0,P|393:229|402:267,1,90,10|0,0:2|0:2,0:2:0:0:
196,304,212315,2,0,B|172:264|172:264|192:208,1,90,2|0,1:2|0:2,0:2:0:0:
293,86,212660,2,0,B|317:126|317:126|302:166,1,90,10|0,0:2|0:2,0:2:0:0:
96,292,213005,2,0,L|36:220,1,90,2|0,1:2|0:2,0:2:0:0:
72,56,213349,2,0,L|144:136,1,90,10|0,0:2|0:2,0:2:0:0:
248,328,213694,2,0,P|320:296|320:256,1,90,2|0,1:2|0:2,0:2:0:0:
336,108,214039,2,0,P|412:120|424:152,1,90,10|0,0:2|0:2,0:2:0:0:
428,300,214384,5,2,1:2:0:0:
220,184,214556,1,2,0:2:0:0:
412,124,214729,1,10,0:2:0:0:
248,328,214901,1,2,0:2:0:0:
216,76,215074,1,2,1:2:0:0:
344,228,215246,1,2,0:2:0:0:
96,192,215418,5,10,0:2:0:0:
328,52,215591,1,2,0:2:0:0:
172,280,215763,1,2,1:2:0:0:
108,48,215936,1,2,0:2:0:0:
276,244,216108,2,0,P|236:332|220:336,1,90,10|0,0:2|0:2,0:2:0:0:
52,300,216453,5,2,1:2:0:0:
276,244,216625,1,2,0:2:0:0:
40,172,216798,1,10,0:2:0:0:
240,64,216970,1,2,0:2:0:0:
148,352,217143,1,2,1:2:0:0:
80,52,217315,1,2,0:2:0:0:
276,244,217487,5,10,0:2:0:0:
40,172,217660,1,2,0:2:0:0:
240,64,217832,1,2,1:2:0:0:
168,304,218005,1,2,0:2:0:0:
80,52,218177,1,10,0:2:0:0:
344,176,218349,1,2,0:2:0:0:
37,257,218522,2,0,P|30:190|62:150,1,90,2|0,1:2|0:2,0:2:0:0:
160,60,218867,2,0,P|173:102|162:145,1,90,10|0,0:2|0:2,0:2:0:0:
36,256,219212,5,2,1:2:0:0:
304,152,219384,1,2,0:2:0:0:
36,256,219556,1,10,0:2:0:0:
324,296,219729,1,2,0:2:0:0:
36,256,219901,1,2,1:2:0:0:
180,64,220074,1,2,0:2:0:0:
192,324,220246,1,10,0:2:0:0:
20,136,220418,5,2,0:2:0:0:
328,176,220591,1,2,1:2:0:0:
180,348,220763,5,2,0:2:0:0:
140,40,220936,1,10,0:2:0:0:
400,188,221108,5,2,0:2:0:0:
92,148,221281,1,2,1:2:0:0:
304,28,221453,1,2,0:2:0:0:
220,320,221625,1,10,0:2:0:0:
92,148,221798,1,2,0:2:0:0:
392,96,221970,1,6,1:2:0:0:
256,192,222056,12,0,229556,0:2:0:0:
172,64,241281,6,0,P|143:103|131:151,1,90,2|0,1:2|0:2,0:2:0:0:
224,136,241625,2,0,P|224:188|192:220,1,90,10|0,0:2|0:2,0:2:0:0:
128,292,241970,2,0,L|220:280,1,90,2|0,1:2|0:2,0:2:0:0:
256,344,242315,2,0,L|316:272,1,90,10|0,0:2|0:2,0:2:0:0:
384,216,242660,5,2,1:2:0:0:
360,120,242832,1,2,0:2:0:0:
384,216,243005,1,10,0:2:0:0:
236,200,243177,1,2,0:2:0:0:
236,200,243263,1,2,0:2:0:0:
236,200,243349,1,2,1:2:0:0:
235,347,243522,5,2,0:2:0:0:
106,262,243694,1,10,0:2:0:0:
107,124,243867,1,2,0:2:0:0:
319,76,244039,6,0,B|345:84|384:8|384:8|330:157|400:136|432:152|416:288|416:288|380:231,1,450,2|0,1:2|0:2,0:2:0:0:
214,214,245246,2,0,P|184:310|190:181,1,450,2|2,0:2|0:2,0:2:0:0:
326,273,246453,5,2,0:2:0:0:
224,272,246798,2,0,B|138:217|82:105|82:105|16:216|42:289|42:289|65:235|143:201,1,540,2|0,0:2|0:2,0:2:0:0:
464,40,248005,2,0,B|374:92|406:199|406:199|367:95|202:95|202:95|274:124|299:162,1,540,2|0,0:2|0:2,0:2:0:0:
142,63,249212,5,2,0:2:0:0:
256,104,249556,2,0,B|304:24|304:24|322:105|392:144|392:144|337:200|337:200|349:160,1,360,2|0,0:2|0:2,0:2:0:0:
462,267,250418,6,0,B|391:300|391:300|380:286,1,90,2|0,0:2|0:2,0:2:0:0:
280,274,250763,2,0,B|246:225|286:148|286:148|230:254|148:228|148:228|87:184|105:149|147:133|179:148|213:213|113:280|92:316|60:344,1,630,2|2,0:2|0:2,0:2:0:0:
195,58,252315,5,2,0:2:0:0:
333,83,252832,1,2,0:2:0:0:
355,238,253177,1,2,0:2:0:0:
242,293,253349,1,2,0:2:0:0:
120,208,253522,6,0,L|200:208,1,45,2|2,0:2|0:2,0:2:0:0:
232,200,253695,1,2,0:2:0:0:
303,183,253781,1,2,0:2:0:0:
349,125,253867,1,2,0:2:0:0:
348,51,253953,1,2,0:2:0:0:
432,56,254039,5,2,0:2:0:0:
478,121,254125,1,2,0:2:0:0:
487,195,254211,1,2,0:2:0:0:
459,270,254297,1,2,0:2:0:0:
394,316,254384,1,2,0:2:0:0:
320,326,254470,1,2,0:2:0:0:
245,307,254556,1,2,0:2:0:0:
192,248,254643,5,2,0:2:0:0:
160,176,254729,1,2,0:2:0:0:
152,152,254815,1,2,0:2:0:0:
144,128,254901,1,2,0:2:0:0:
144,104,254987,1,2,0:2:0:0:
152,80,255074,6,0,B|172:48|224:36,1,72,2|0,1:2|0:2,0:2:0:0:
316,80,255418,2,0,L|340:156,1,72,8|0,0:2|0:2,0:2:0:0:
340,168,255677,1,2,0:2:0:0:
340,168,255763,1,2,1:2:0:0:
328,308,255936,1,2,0:2:0:0:
200,304,256108,5,10,0:2:0:0:
171,282,256194,1,2,0:2:0:0:
137,270,256280,1,2,0:2:0:0:
101,267,256366,1,2,0:2:0:0:
66,275,256452,1,2,1:2:0:0:
80,160,256625,1,0,0:2:0:0:
80,160,256798,6,0,L|112:92,1,72,10|0,0:2|0:2,0:2:0:0:
120,80,257056,1,2,0:2:0:0:
120,80,257143,1,2,1:2:0:0:
176,260,257315,1,2,0:2:0:0:
248,140,257487,1,8,0:2:0:0:
248,140,257574,1,2,0:2:0:0:
248,140,257660,1,2,0:2:0:0:
176,260,257832,6,0,B|200:298|264:312,1,80.9999975280763,0|0,1:2|0:2,0:2:0:0:
351,308,258176,2,0,L|380:208,1,80.9999975280763,10|0,0:2|0:2,0:2:0:0:
384,180,258435,1,2,0:2:0:0:
384,180,258521,1,2,1:2:0:0:
366,33,258694,1,2,0:2:0:0:
211,38,258866,5,10,0:2:0:0:
176,63,258952,1,2,0:2:0:0:
135,78,259038,1,2,0:2:0:0:
92,81,259124,1,2,0:2:0:0:
49,72,259212,1,2,1:2:0:0:
66,212,259383,1,2,0:2:0:0:
66,212,259556,6,0,P|82:255|128:272,1,80.9999975280763,10|0,0:2|0:2,0:2:0:0:
152,232,259814,1,2,0:2:0:0:
152,232,259901,1,2,1:2:0:0:
124,152,260073,1,2,0:2:0:0:
208,336,260246,1,10,0:2:0:0:
208,336,260332,1,2,0:2:0:0:
208,336,260418,1,2,0:2:0:0:
308,196,260591,5,2,1:2:0:0:
308,196,260763,1,2,0:2:0:0:
296,48,260936,2,0,P|236:72|228:112,1,90,8|0,0:2|0:2,0:2:0:0:
224,140,261194,1,2,0:2:0:0:
224,140,261281,1,2,1:2:0:0:
272,320,261453,1,2,0:2:0:0:
324,224,261625,5,10,0:2:0:0:
336,182,261711,1,2,0:2:0:0:
359,145,261797,1,2,0:2:0:0:
391,116,261883,1,2,0:2:0:0:
430,97,261969,1,2,1:2:0:0:
302,78,262143,1,2,0:2:0:0:
302,78,262315,6,0,P|326:51|384:32,1,90,10|0,0:2|0:2,0:2:0:0:
408,32,262574,1,2,0:2:0:0:
408,32,262660,1,2,1:2:0:0:
420,200,262832,1,2,0:2:0:0:
352,324,263005,1,8,0:2:0:0:
352,324,263091,1,2,0:2:0:0:
352,324,263177,1,2,0:2:0:0:
208,176,263349,5,2,1:2:0:0:
333,88,263522,1,2,1:2:0:0:
346,240,263694,1,2,1:2:0:0:
346,240,263867,1,2,1:2:0:0:
220,327,264039,5,2,1:2:0:0:
68,108,264211,1,2,1:2:0:0:
333,88,264384,1,2,1:2:0:0:
333,88,264556,1,2,1:2:0:0:
416,288,264729,1,2,1:2:0:0:
358,290,264815,1,2,1:2:0:0:
301,279,264901,1,2,1:2:0:0:
248,256,264987,1,2,1:2:0:0:
202,222,265073,1,10,0:2:0:0:
165,177,265160,1,10,0:2:0:0:
139,126,265246,1,2,1:2:0:0:
120,72,265332,1,2,1:2:0:0:
128,16,265418,6,0,L|188:16,1,45,10|0,0:2|0:2,0:2:0:0:
216,24,265763,2,0,L|216:80,1,45,2|0,0:2|0:2,0:2:0:0:
232,224,266108,5,6,1:2:0:0:
288,48,266281,1,2,0:2:0:0:
312,264,266453,2,0,P|288:304|208:312,1,90,10|0,0:2|0:2,0:2:0:0:
132,140,266798,1,2,1:2:0:0:
272,136,266970,1,2,0:2:0:0:
172,252,267143,1,10,0:2:0:0:
220,36,267315,1,2,0:2:0:0:
400,188,267488,2,0,P|396:240|356:280,1,90,2|0,1:2|0:2,0:2:0:0:
146,333,267832,2,0,P|150:281|190:241,1,90,10|0,0:2|0:2,0:2:0:0:
348,80,268177,5,2,1:2:0:0:
400,188,268350,1,2,0:2:0:0:
236,164,268522,1,10,0:2:0:0:
464,84,268694,1,2,0:2:0:0:
340,328,268867,2,0,P|308:264|316:236,1,90,2|0,1:2|0:2,0:2:0:0:
368,48,269212,5,10,0:2:0:0:
404,208,269384,1,2,0:2:0:0:
272,48,269556,1,2,1:2:0:0:
488,120,269729,1,2,0:2:0:0:
248,216,269901,1,10,0:2:0:0:
424,16,270074,1,2,0:2:0:0:
436,268,270246,2,0,P|380:304|332:304,1,90,2|0,1:2|0:2,0:2:0:0:
96,260,270591,5,10,0:2:0:0:
248,216,270763,1,2,0:2:0:0:
64,152,270936,1,2,1:2:0:0:
288,84,271108,1,2,0:2:0:0:
20,32,271281,1,10,0:2:0:0:
188,300,271453,1,2,0:2:0:0:
356,56,271625,2,0,P|288:16|240:28,1,90,2|0,1:2|0:2,0:2:0:0:
144,136,271970,5,10,0:2:0:0:
280,220,272143,1,2,0:2:0:0:
280,16,272315,1,2,1:2:0:0:
192,240,272488,1,2,0:2:0:0:
408,88,272660,1,10,0:2:0:0:
108,112,272832,1,2,0:2:0:0:
388,240,273005,1,2,1:2:0:0:
80,96,273177,1,2,0:2:0:0:
408,316,273350,2,0,P|456:264|460:232,1,90,10|0,0:2|0:2,0:2:0:0:
392,112,273694,2,0,P|344:164|340:196,1,90,2|0,1:2|0:2,0:2:0:0:
268,328,274039,6,0,P|216:332|148:296,1,90,10|0,0:2|0:2,0:2:0:0:
260,104,274384,1,2,1:2:0:0:
392,240,274556,1,2,0:2:0:0:
368,60,274729,1,10,0:2:0:0:
280,284,274901,1,2,0:2:0:0:
193,68,275074,2,0,P|253:84|261:112,1,90,2|0,1:2|0:2,0:2:0:0:
280,284,275419,2,0,P|220:288|188:316,1,90,10|0,0:2|0:2,0:2:0:0:
28,288,275763,2,0,L|64:172,1,90,2|0,1:2|0:2,0:2:0:0:
232,64,276108,5,10,0:2:0:0:
272,228,276281,1,2,0:2:0:0:
124,120,276453,1,2,1:2:0:0:
349,60,276625,1,2,0:2:0:0:
367,80,276683,1,2,0:2:0:0:
385,99,276740,1,2,0:2:0:0:
402,119,276798,1,10,0:2:0:0:
216,152,276970,1,2,0:2:0:0:
360,328,277143,6,0,P|400:256|400:240,1,90,2|0,1:2|0:2,0:2:0:0:
272,0,277488,2,0,P|243:34|232:78,1,90,10|0,0:2|0:2,0:2:0:0:
176,320,277832,5,2,1:2:0:0:
23,206,278005,1,2,0:2:0:0:
287,167,278177,1,10,0:2:0:0:
136,54,278349,1,2,0:2:0:0:
316,80,278522,6,0,B|340:120|340:120|320:176,1,90,2|0,1:2|0:2,0:2:0:0:
219,298,278867,2,0,B|195:258|195:258|210:218,1,90,10|0,0:2|0:2,0:2:0:0:
416,92,279212,2,0,L|476:164,1,90,2|0,1:2|0:2,0:2:0:0:
440,328,279556,2,0,L|368:248,1,90,10|0,0:2|0:2,0:2:0:0:
264,56,279901,2,0,P|192:88|192:128,1,90,2|0,1:2|0:2,0:2:0:0:
176,276,280246,2,0,P|100:264|88:232,1,90,10|0,0:2|0:2,0:2:0:0:
84,84,280591,5,2,1:2:0:0:
292,200,280763,1,2,0:2:0:0:
100,260,280936,1,10,0:2:0:0:
264,56,281108,1,2,0:2:0:0:
296,308,281281,1,2,1:2:0:0:
168,156,281453,1,2,0:2:0:0:
416,192,281625,5,10,0:2:0:0:
184,332,281798,1,2,0:2:0:0:
340,104,281970,1,2,1:2:0:0:
404,336,282143,1,2,0:2:0:0:
236,140,282315,2,0,P|276:52|292:48,1,90,2|0,1:2|0:2,0:2:0:0:
460,84,282660,5,2,1:2:0:0:
236,140,282832,1,2,0:2:0:0:
472,212,283005,1,10,0:2:0:0:
272,320,283177,1,2,0:2:0:0:
364,32,283350,1,2,1:2:0:0:
432,332,283522,1,2,0:2:0:0:
236,140,283694,5,10,0:2:0:0:
472,212,283867,1,2,0:2:0:0:
272,320,284039,1,2,1:2:0:0:
344,80,284212,1,2,0:2:0:0:
432,332,284384,1,10,0:2:0:0:
168,208,284556,1,2,0:2:0:0:
475,127,284729,2,0,P|482:194|450:234,1,90,2|0,1:2|0:2,0:2:0:0:
352,324,285074,2,0,P|339:282|350:239,1,90,10|0,0:2|0:2,0:2:0:0:
476,128,285419,5,2,1:2:0:0:
208,232,285591,1,2,0:2:0:0:
476,128,285763,1,10,0:2:0:0:
188,88,285936,1,2,0:2:0:0:
476,128,286108,1,2,1:2:0:0:
332,320,286281,1,2,0:2:0:0:
320,60,286453,1,10,0:2:0:0:
492,248,286625,5,2,0:2:0:0:
184,208,286798,1,2,1:2:0:0:
332,36,286970,5,2,0:2:0:0:
372,344,287143,1,10,0:2:0:0:
112,196,287315,2,0,L|164:204,1,45,2|0,0:2|0:2,0:2:0:0:
420,236,287487,2,0,L|336:228,1,45,2|0,1:2|0:2,0:2:0:0:
208,356,287660,2,0,L|232:300,1,45,2|0,0:2|0:2,0:2:0:0:
292,64,287832,2,0,L|276:112,1,45,10|0,1:2|0:2,0:2:0:0:
344,332,288005,1,2,2:2:0:0:
272,357,288177,6,0,B|283:310|283:310|268:250,1,90,2|0,1:2|0:2,0:2:0:0:
272,27,288522,6,0,L|236:84,1,45,10|0,0:2|0:2,0:2:0:0:
168,60,288694,6,0,L|208:96,1,45,2|0,0:2|0:2,0:2:0:0:
288,200,288867,5,2,1:2:0:0:
384,264,289039,1,2,0:2:0:0:
288,200,289212,5,10,0:2:0:0:
299,86,289385,1,2,0:2:0:0:
208,264,289557,1,2,1:2:0:0:
412,180,289729,1,2,0:2:0:0:
145,146,289901,1,10,0:2:0:0:
256,24,290074,1,2,0:2:0:0:
448,232,290246,2,0,B|432:304|432:304|392:240|325:315,1,175.499991966248,2|0,1:2|0:2,0:2:0:0:
304,328,290591,1,10,0:2:0:0:
96,32,290936,5,2,1:2:0:0:
96,32,291108,1,2,1:2:0:0:
456,32,291281,2,0,B|448:104|448:104|395:88,1,116.999994644165,10|0,1:2|0:2,0:2:0:0:
336,112,291626,5,2,1:2:0:0:
344,200,291798,1,2,0:2:0:0:
280,81,291970,1,10,1:2:0:0:
293,230,292142,1,2,0:2:0:0:
232,48,292315,6,0,L|256:120,1,58.4999973220826,2|0,1:2|0:2,0:2:0:0:
352,272,292488,6,0,L|280:200,1,58.4999973220826,2|0,0:2|0:2,0:2:0:0:
168,40,292660,6,0,L|240:120,1,58.4999973220826,10|0,0:2|0:2,0:2:0:0:
400,168,292832,6,0,L|328:152,1,58.4999973220826,2|0,0:2|0:2,0:2:0:0:
48,20,293005,2,0,L|73:87,1,58.4999973220826,2|0,1:2|0:2,0:2:0:0:
48,352,293177,6,0,L|73:284,1,58.4999973220826,2|0,0:2|0:2,0:2:0:0:
128,192,293349,6,0,P|120:136|120:192,1,161.999995056153,10|0,1:2|0:2,0:2:0:0:
128,192,293694,2,0,B|216:248|252:220|252:220|304:232,1,161.999995056153,2|0,1:2|0:2,0:2:0:0:
304,232,294039,5,10,0:2:0:0:
368,136,294212,1,2,0:2:0:0:
176,112,294384,1,2,1:2:0:0:
176,112,294470,1,2,0:2:0:0:
176,112,294557,1,2,0:2:0:0:
224,232,294729,5,10,0:2:0:0:
408,192,294901,1,2,0:2:0:0:
240,136,295074,1,2,1:2:0:0:
400,312,295246,1,2,0:2:0:0:
400,112,295419,1,10,0:2:0:0:
96,272,295591,6,0,B|96:144|96:144|200:216,1,233.999989288331,2|0,0:2|0:2,0:2:0:0:
184,208,296108,2,0,P|224:248|208:168,1,175.499991966248,10|0,0:2|0:2,0:2:0:0:
232,144,296453,6,0,B|256:72|256:72|432:32|432:32|408:160,1,382.500007295609,2|0,1:2|0:2,0:2:0:0:
376,136,296970,2,0,B|332:136|332:136|288:32|288:32|240:80|240:80|120:48|120:48,1,306.000005836487,2|0,0:2|0:2,0:2:0:0:
88,56,297488,2,0,B|166:126|104:216|104:216|192:176|192:176|240:112|240:112|112:312|264:352|264:352|225:275|328:136|328:136|416:88|496:208,1,1071.0000204277,10|0,0:2|0:2,0:2:0:0:
464,232,298867,5,2,0:2:0:0:
369,232,298953,1,2,0:2:0:0:
273,232,299039,1,2,0:2:0:0:
178,232,299125,1,2,0:2:0:0:
80,232,299212,6,0,B|88:200|88:200|48:216,2,76.5000014591217,2|0|0,1:2|0:2|1:2,0:2:0:0:
48,64,299557,2,0,B|41:95|41:95|81:80,2,76.5000014591217,10|0|0,0:2|0:2|0:2,0:2:0:0:
176,72,299901,5,2,1:2:0:0:
224,192,300074,1,2,0:2:0:0:
295,122,300246,1,10,0:2:0:0:
113,198,300419,1,2,0:2:0:0:
222,305,300591,1,2,1:2:0:0:
222,305,300677,1,2,0:2:0:0:
222,305,300763,1,2,0:2:0:0:
247,2,300936,5,10,0:2:0:0:
295,122,301108,1,2,0:2:0:0:
376,64,301281,2,0,B|232:56|314:182|168:144,1,229.500004377365,2|0,1:2|0:2,0:2:0:0:
152,160,301626,1,10,0:2:0:0:
432,328,301970,5,2,1:2:0:0:
200,24,302315,2,0,B|76:48|76:48|64:96,1,153.000002918243,10|0,0:2|0:2,0:2:0:0:
68,212,302574,1,2,0:2:0:0:
68,212,302660,2,0,B|70:289|124:329|124:329|146:254,1,153.000002918243,2|0,1:2|0:2,0:2:0:0:
234,152,302919,1,2,0:2:0:0:
234,152,303005,2,0,P|213:220|140:203,1,153.000002918243,10|0,0:2|0:2,0:2:0:0:
125,327,303263,1,2,0:2:0:0:
125,327,303349,2,0,B|256:350|321:221|321:221|356:280|403:321|472:264|472:264|396:222|339:316|326:368,1,584.999973220826,2|0,1:2|0:2,0:2:0:0:
472,264,304384,2,0,P|403:289|330:196,1,153.000002918243,10|0,0:2|0:2,0:2:0:0:
197,327,304729,2,0,P|281:280|321:220,1,153.000002918243,2|0,1:2|0:2,0:2:0:0:
272,112,305074,6,0,L|296:168,1,53.9999983520508,10|0,0:2|0:2,0:2:0:0:
200,120,305246,6,0,L|224:176,1,53.9999983520508,2|0,0:2|0:2,0:2:0:0:
128,128,305419,5,2,1:2:0:0:
128,128,305505,1,2,0:2:0:0:
128,128,305591,6,0,L|152:184,1,53.9999983520508,2|0,0:2|0:2,0:2:0:0:
88,216,305763,5,10,0:2:0:0:
184,296,305936,1,2,0:2:0:0:
291,142,306108,1,2,1:2:0:0:
166,142,306281,1,2,0:2:0:0:
398,296,306453,1,10,0:2:0:0:
398,171,306626,1,2,0:2:0:0:
195,370,306798,6,0,P|240:344|216:304,1,107.999996704102,2|0,1:2|0:2,0:2:0:0:
152,280,307143,2,0,P|131:232|173:213,1,107.999996704102,10|0,0:2|0:2,0:2:0:0:
312,152,307488,1,2,1:2:0:0:
232,64,307660,1,2,0:2:0:0:
247,251,307832,1,10,0:2:0:0:
392,258,308005,1,2,0:2:0:0:
214,96,308177,1,2,1:2:0:0:
106,218,308350,1,2,0:2:0:0:
339,198,308522,5,10,0:2:0:0:
136,72,308694,2,0,L|96:128,1,53.9999983520508,2|0,0:2|0:2,0:2:0:0:
56,280,308866,5,2,1:2:0:0:
79,306,308952,1,2,0:2:0:0:
109,320,309038,1,2,0:2:0:0:
143,321,309124,1,2,0:2:0:0:
192,304,309211,5,10,0:2:0:0:
215,271,309297,1,2,0:2:0:0:
225,233,309383,1,2,0:2:0:0:
219,193,309469,1,2,0:2:0:0:
184,160,309556,5,2,1:2:0:0:
150,113,309642,1,2,0:2:0:0:
158,57,309728,1,2,0:2:0:0:
206,24,309814,1,2,0:2:0:0:
272,8,309901,5,10,0:2:0:0:
345,6,309987,1,2,0:2:0:0:
411,42,310073,1,2,0:2:0:0:
449,108,310159,1,2,0:2:0:0:
440,200,310246,2,0,P|425:244|384:288,1,90,6|0,1:2|0:2,0:2:0:0:
280,272,310591,5,2,0:2:0:0:
280,272,310763,1,2,0:2:0:0:
280,272,310936,1,2,0:2:0:0:
280,272,311108,1,2,0:2:0:0:
280,272,311281,1,2,0:2:0:0:
208,232,311453,2,0,L|224:176,1,45,2|0,0:2|0:2,0:2:0:0:
272,40,311625,5,2,0:2:0:0:
272,40,311798,1,2,0:2:0:0:
272,40,311970,1,2,0:2:0:0:
272,40,312143,1,2,0:2:0:0:
272,40,312315,2,0,P|216:64|200:96,1,90,2|0,0:2|0:2,0:2:0:0:
272,40,312660,2,0,P|328:64|344:96,1,90,2|0,0:2|0:2,0:2:0:0:
343,240,313005,6,0,B|357:293|414:339|414:339|318:291|318:363|222:363|222:291|126:339|126:339|185:296|205:222,1,540,2|0,0:2|0:2,0:2:0:0:
144,112,314212,2,0,B|138:56|138:56|206:16|206:16|266:50|266:50|273:122|273:122|206:169|206:169|170:159,1,360,2|0,0:2|0:2,0:2:0:0:
424,64,315074,1,2,0:2:0:0:
424,64,315246,1,2,0:2:0:0:
424,64,315418,1,2,0:2:0:0:
416,144,315591,1,2,0:2:0:0:
368,264,315763,6,0,P|352:216|312:208,1,90,2|0,0:2|0:2,0:2:0:0:
280,264,316108,2,0,P|224:216|232:176,1,90,2|0,0:2|0:2,0:2:0:0:
176,136,316453,2,0,P|200:112|256:120,2,90,2|0|2,0:2|0:2|0:2,0:2:0:0:
128,224,316970,5,2,0:2:0:0:
128,224,317143,1,2,0:2:0:0:
128,224,317315,1,2,0:2:0:0:
128,224,317487,1,2,0:2:0:0:
128,224,317660,1,2,0:2:0:0:
128,224,317832,2,0,B|72:216|72:216|72:168,1,90,2|0,0:2|0:2,0:2:0:0:
128,224,318177,2,0,B|184:216|184:216|184:168,1,90,2|0,0:2|0:2,0:2:0:0:
335,24,318522,2,0,B|345:260|512:63|462:320|462:320|480:238|410:281|416:129,1,540,2|0,0:2|0:2,0:2:0:0:
200,328,319729,2,0,B|146:181|146:181|242:229|242:229|114:301|114:301|48:264|48:264|56:112|56:112|144:72,1,720,2|0,0:2|0:2,0:2:0:0:
216,56,321281,5,2,0:2:0:0:
320,80,321453,1,2,0:2:0:0:
400,144,321625,1,2,0:2:0:0:
408,248,321798,2,0,B|408:296|408:296|344:288,3,90,2|2|2|2,0:2|0:2|0:2|0:2,0:2:0:0:
224,280,322487,5,2,0:2:0:0:
224,280,322660,1,2,0:2:0:0:
224,280,322832,1,2,0:2:0:0:
224,280,323005,1,2,0:2:0:0:
224,280,323177,1,2,0:2:0:0:
224,280,323349,1,2,0:2:0:0:
224,280,323522,1,2,0:2:0:0:
224,280,323694,1,2,0:2:0:0:
224,280,323867,1,2,0:2:0:0:
168,208,324039,6,0,B|176:160|176:160|232:120,1,90,2|0,0:2|0:2,0:2:0:0:
264,192,324384,2,0,B|304:152|304:152|296:96,1,90,2|0,0:2|0:2,0:2:0:0:
304,40,324729,1,2,0:2:0:0:
304,40,324901,1,2,0:2:0:0:
304,40,325074,1,2,0:2:0:0:
304,40,325246,1,2,0:2:0:0:
304,40,325418,1,2,0:2:0:0:
304,40,325591,1,2,0:2:0:0:
304,40,325763,1,2,0:2:0:0:
304,40,325936,1,2,0:2:0:0:
304,40,326108,2,0,B|224:40|224:40|184:64,1,90,2|0,0:2|0:2,0:2:0:0:
304,40,326453,2,0,B|384:40|384:40|424:64,1,90,2|0,0:2|0:2,0:2:0:0:
256,192,326798,12,0,331970,0:2:0:0:
