osu file format v14

[General]
AudioFilename: audio.mp3
AudioLeadIn: 0
PreviewTime: 121626
Countdown: 0
SampleSet: Normal
StackLeniency: 0.7
Mode: 1
LetterboxInBreaks: 0
WidescreenStoryboard: 0

[Editor]
DistanceSpacing: 1.4
BeatDivisor: 4
GridSize: 8
TimelineZoom: 2.6

[Metadata]
Title:
TitleUnicode:
Artist:kamome sano
ArtistUnicode:kamome sano
Creator:_Rise
Version:Silent
Source:
Tags:emotional liliumx2 lilium records x2 freezer frozen system 2015
BeatmapID:1105943
BeatmapSetID:520576

[Difficulty]
HPDrainRate:4.5
CircleSize:2
OverallDifficulty:6.5
ApproachRate:5
SliderMultiplier:1.4
SliderTickRate:1

[Events]
//Background and Video events
0,0,"bg.jpg",0,0
//Break Periods
2,34240,37668
2,39757,42495
//Storyboard Layer 0 (Background)
//Storyboard Layer 1 (Fail)
//Storyboard Layer 2 (Pass)
//Storyboard Layer 3 (Foreground)
//Storyboard Sound Samples

[TimingPoints]
937,344.827586206897,4,1,0,40,1,0
11885,-100,4,1,0,50,0,0
28437,-100,4,1,0,60,0,0
33954,-100,4,1,0,30,0,0
53264,-100,4,1,0,50,0,0
56023,-100,4,1,0,70,0,0
78135,-100,4,1,0,50,0,0
89169,-100,4,1,0,60,0,0
94643,-100,4,1,0,70,0,0
100161,-100,4,1,0,80,0,0
122273,-100,4,1,0,90,0,0
122316,-100,4,1,0,90,0,1
144299,-100,4,1,0,85,0,1
144385,-100,4,1,0,85,0,0
164988,-100,4,1,0,80,0,0
166368,-100,4,1,0,40,0,0
210505,-100,4,1,0,50,0,0
221885,-100,4,1,0,60,0,0
227100,-100,4,1,0,70,0,0
229859,-100,4,1,0,80,0,0
232574,-100,4,1,0,90,0,0
232661,-100,4,1,0,90,0,1
298868,-100,4,1,0,90,0,0
298954,-100,4,1,0,40,0,0

[HitObjects]
256,192,6109,5,2,0:0:0:0:
256,192,6195,1,2,0:0:0:0:
256,192,6281,1,0,0:0:0:0:
256,192,6368,1,0,0:0:0:0:
256,192,6454,1,0,0:0:0:0:
264,192,9902,5,2,0:0:0:0:
264,192,10592,1,2,0:0:0:0:
264,192,11281,1,2,0:0:0:0:
256,192,11971,5,0,0:0:0:0:
256,192,12316,1,2,0:0:0:0:
256,192,12661,1,0,0:0:0:0:
256,192,12833,1,0,0:0:0:0:
256,192,13178,1,2,0:0:0:0:
256,192,13350,1,2,0:0:0:0:
256,192,13523,1,0,0:0:0:0:
256,192,13695,1,2,0:0:0:0:
256,192,13868,1,0,0:0:0:0:
256,192,14385,1,0,0:0:0:0:
256,192,14557,1,0,0:0:0:0:
256,192,14730,1,2,0:0:0:0:
256,192,15074,1,2,0:0:0:0:
256,192,15247,1,0,0:0:0:0:
256,192,15592,1,2,0:0:0:0:
256,192,15678,1,2,0:0:0:0:
256,192,15764,1,0,0:0:0:0:
256,192,15937,1,2,0:0:0:0:
256,192,16799,1,2,0:0:0:0:
256,192,17143,1,0,0:0:0:0:
256,192,17316,1,2,0:0:0:0:
256,192,17488,1,2,0:0:0:0:
256,192,18350,1,0,0:0:0:0:
256,192,18523,1,2,0:0:0:0:
256,192,18695,1,0,0:0:0:0:
256,192,20074,1,2,0:0:0:0:
256,192,20247,1,2,0:0:0:0:
256,192,20419,1,0,0:0:0:0:
256,192,20764,1,2,0:0:0:0:
256,192,21109,1,0,0:0:0:0:
256,192,21281,1,2,0:0:0:0:
256,192,21454,1,2,0:0:0:0:
256,192,21626,1,0,0:0:0:0:
256,192,21799,12,0,23005,0:0:0:0:
256,192,23350,5,2,0:0:0:0:
256,192,23695,1,0,0:0:0:0:
256,192,23867,1,0,0:0:0:0:
256,192,24212,1,2,0:0:0:0:
256,192,24384,1,2,0:0:0:0:
256,192,24557,1,0,0:0:0:0:
256,192,24729,1,2,0:0:0:0:
256,192,24902,1,0,0:0:0:0:
256,192,25419,1,0,0:0:0:0:
256,192,25591,1,0,0:0:0:0:
256,192,25764,1,2,0:0:0:0:
256,192,25937,1,0,0:0:0:0:
256,192,26023,1,0,0:0:0:0:
256,192,26108,1,2,0:0:0:0:
256,192,26281,1,0,0:0:0:0:
256,192,26626,1,2,0:0:0:0:
256,192,26712,1,2,0:0:0:0:
256,192,26798,1,0,0:0:0:0:
256,192,26971,1,2,0:0:0:0:
256,192,27143,1,2,0:0:0:0:
256,192,27833,1,0,0:0:0:0:
256,192,28178,1,2,0:0:0:0:
256,192,28350,1,2,0:0:0:0:
256,192,28523,1,0,0:0:0:0:
256,192,28868,1,0,0:0:0:0:
256,192,29212,1,2,0:0:0:0:
256,192,29385,1,0,0:0:0:0:
256,192,29557,1,2,0:0:0:0:
256,192,29730,1,2,0:0:0:0:
256,192,29902,1,0,0:0:0:0:
256,192,30247,1,2,0:0:0:0:
264,192,30592,1,0,0:0:0:0:
256,184,30678,1,0,0:0:0:0:
256,192,30764,1,0,0:0:0:0:
256,192,30937,1,2,0:0:0:0:
256,192,31109,1,0,0:0:0:0:
256,192,31281,1,2,0:0:0:0:
256,192,31368,1,2,0:0:0:0:
256,192,31454,1,0,0:0:0:0:
256,192,31540,1,2,0:0:0:0:
256,192,31626,1,0,0:0:0:0:
256,192,31799,1,2,0:0:0:0:
256,192,31971,1,0,0:0:0:0:
256,192,32143,1,0,0:0:0:0:
256,192,32230,1,0,0:0:0:0:
256,192,32316,1,2,0:0:0:0:
256,192,32402,1,2,0:0:0:0:
256,192,32488,1,0,0:0:0:0:
256,192,32661,1,2,0:0:0:0:
256,192,32747,1,0,0:0:0:0:
256,192,32833,1,2,0:0:0:0:
256,192,32919,1,2,0:0:0:0:
256,192,33005,1,0,0:0:0:0:
256,192,33092,1,0,0:0:0:0:
256,192,33178,1,2,0:0:0:0:
256,192,33264,1,0,0:0:0:0:
256,192,33350,1,2,0:0:0:0:
256,192,34040,1,0,0:0:0:0:
256,192,38868,5,0,0:0:0:0:
256,192,39557,1,2,0:0:0:0:
256,192,43695,12,0,44730,0:0:0:0:
256,192,45074,5,0,0:0:0:0:
256,192,47833,1,0,0:0:0:0:
256,192,49212,1,2,0:0:0:0:
256,192,49902,1,0,0:0:0:0:
256,192,50592,1,2,0:0:0:0:
256,192,51971,1,0,0:0:0:0:
256,192,53350,1,0,0:0:0:0:
256,192,53695,1,0,0:0:0:0:
256,192,54040,1,2,0:0:0:0:
256,192,54212,1,2,0:0:0:0:
256,192,54385,1,0,0:0:0:0:
256,192,54557,1,0,0:0:0:0:
256,192,54730,1,2,0:0:0:0:
256,192,54816,1,0,0:0:0:0:
256,192,54902,1,2,0:0:0:0:
256,192,54988,1,2,0:0:0:0:
256,192,55074,1,0,0:0:0:0:
256,192,55161,1,0,0:0:0:0:
256,184,55247,1,2,0:0:0:0:
256,184,55333,1,0,0:0:0:0:
256,184,55419,1,2,0:0:0:0:
256,184,55505,1,2,0:0:0:0:
256,184,55592,1,0,0:0:0:0:
256,184,55764,1,6,0:0:0:0:
256,192,56109,1,4,0:0:0:0:
256,192,56626,1,4,0:0:0:0:
256,192,58523,1,2,0:0:0:0:
256,192,58868,1,4,0:0:0:0:
256,192,59385,1,4,0:0:0:0:
256,192,60592,1,2,0:0:0:0:
256,192,60678,1,2,0:0:0:0:
256,192,60764,1,0,0:0:0:0:
256,192,60850,1,0,0:0:0:0:
256,192,60937,1,2,0:0:0:0:
256,192,61023,1,0,0:0:0:0:
256,192,61109,1,0,0:0:0:0:
256,192,61195,1,2,0:0:0:0:
256,192,61281,1,2,0:0:0:0:
256,192,61368,1,0,0:0:0:0:
256,192,61454,1,2,0:0:0:0:
256,192,61626,1,4,0:0:0:0:
256,192,62143,1,4,0:0:0:0:
256,192,64040,1,2,0:0:0:0:
256,192,64385,1,4,0:0:0:0:
256,192,64902,1,4,0:0:0:0:
256,192,66109,1,2,0:0:0:0:
256,192,66454,1,0,0:0:0:0:
256,192,66799,1,6,0:0:0:0:
256,192,67143,1,4,0:0:0:0:
256,192,67661,1,6,0:0:0:0:
256,192,69557,1,2,0:0:0:0:
256,192,69902,1,4,0:0:0:0:
256,192,70419,1,6,0:0:0:0:
256,192,71799,1,0,0:0:0:0:
256,192,71971,1,2,0:0:0:0:
256,192,72143,1,0,0:0:0:0:
256,192,72402,1,0,0:0:0:0:
256,192,72661,1,4,0:0:0:0:
256,192,73178,1,6,0:0:0:0:
256,192,75074,1,2,0:0:0:0:
256,192,75419,1,4,0:0:0:0:
256,192,75937,1,6,0:0:0:0:
256,192,76454,1,4,0:0:0:0:
256,192,76971,1,6,0:0:0:0:
256,192,77316,1,0,0:0:0:0:
256,192,77488,1,6,0:0:0:0:
256,192,77661,1,0,0:0:0:0:
256,192,77833,1,0,0:0:0:0:
256,184,78005,1,2,0:0:0:0:
256,184,78092,1,2,0:0:0:0:
256,192,78178,1,0,0:0:0:0:
256,192,78350,1,0,0:0:0:0:
256,192,78523,1,2,0:0:0:0:
256,192,78695,1,0,0:0:0:0:
256,192,78868,1,0,0:0:0:0:
256,192,79040,1,2,0:0:0:0:
256,192,79212,1,0,0:0:0:0:
256,192,79299,1,2,0:0:0:0:
256,192,79385,1,0,0:0:0:0:
256,192,79557,1,0,0:0:0:0:
256,192,79730,1,0,0:0:0:0:
256,192,79902,1,2,0:0:0:0:
256,192,80074,1,0,0:0:0:0:
256,192,80247,1,0,0:0:0:0:
256,192,80333,1,0,0:0:0:0:
256,192,80419,1,2,0:0:0:0:
256,192,80592,1,0,0:0:0:0:
256,192,80764,1,2,0:0:0:0:
264,192,80850,1,2,0:0:0:0:
256,192,80937,1,0,0:0:0:0:
256,192,81109,1,0,0:0:0:0:
256,192,81281,1,2,0:0:0:0:
256,192,81454,1,0,0:0:0:0:
256,192,81626,1,0,0:0:0:0:
256,192,81799,1,2,0:0:0:0:
256,192,81971,1,0,0:0:0:0:
256,192,82057,1,2,0:0:0:0:
256,192,82143,1,0,0:0:0:0:
256,192,82316,1,0,0:0:0:0:
256,192,82488,1,0,0:0:0:0:
256,192,82661,1,2,0:0:0:0:
256,192,82833,1,0,0:0:0:0:
256,192,83005,1,0,0:0:0:0:
256,192,83092,1,0,0:0:0:0:
256,192,83178,1,2,0:0:0:0:
256,192,83350,1,0,0:0:0:0:
256,192,83437,1,2,0:0:0:0:
256,192,83523,1,0,0:0:0:0:
264,192,83609,1,2,0:0:0:0:
256,192,83695,1,0,0:0:0:0:
256,192,83867,1,0,0:0:0:0:
256,192,84040,1,2,0:0:0:0:
256,192,84212,1,0,0:0:0:0:
256,192,84385,1,0,0:0:0:0:
256,192,84557,1,2,0:0:0:0:
256,192,84729,1,0,0:0:0:0:
256,192,84816,1,2,0:0:0:0:
256,192,84902,1,0,0:0:0:0:
256,192,85074,1,0,0:0:0:0:
256,192,85247,1,0,0:0:0:0:
256,192,85419,1,2,0:0:0:0:
256,192,85591,1,0,0:0:0:0:
256,192,85764,1,0,0:0:0:0:
256,200,85850,1,0,0:0:0:0:
256,192,85936,1,2,0:0:0:0:
256,192,86109,1,0,0:0:0:0:
256,192,86281,1,2,0:0:0:0:
256,200,86368,1,2,0:0:0:0:
256,192,86454,1,0,0:0:0:0:
256,192,86626,1,0,0:0:0:0:
256,192,86798,1,2,0:0:0:0:
256,192,86971,1,0,0:0:0:0:
256,192,87143,1,0,0:0:0:0:
256,192,87316,1,2,0:0:0:0:
256,192,87488,1,0,0:0:0:0:
256,192,87574,1,2,0:0:0:0:
256,192,87660,1,0,0:0:0:0:
256,192,87833,1,0,0:0:0:0:
256,192,88005,1,0,0:0:0:0:
256,192,88178,1,2,0:0:0:0:
256,192,88350,1,0,0:0:0:0:
256,192,88522,1,0,0:0:0:0:
256,192,88609,1,0,0:0:0:0:
256,192,88695,1,2,0:0:0:0:
256,192,88867,1,0,0:0:0:0:
256,192,88954,1,2,0:0:0:0:
256,192,89040,1,0,0:0:0:0:
248,184,89126,1,0,0:0:0:0:
256,192,89212,1,2,0:0:0:0:
256,192,89385,1,0,0:0:0:0:
256,192,89557,1,2,0:0:0:0:
256,192,89730,1,0,0:0:0:0:
256,192,89902,1,2,0:0:0:0:
256,192,90074,1,0,0:0:0:0:
256,192,90161,1,0,0:0:0:0:
256,192,90247,1,2,0:0:0:0:
256,192,90419,1,0,0:0:0:0:
256,192,90592,1,2,0:0:0:0:
256,192,90764,1,0,0:0:0:0:
256,192,90937,1,2,0:0:0:0:
256,192,91109,1,0,0:0:0:0:
256,192,91281,1,2,0:0:0:0:
256,192,91454,1,0,0:0:0:0:
256,192,91540,1,0,0:0:0:0:
256,192,91626,1,2,0:0:0:0:
256,192,91799,1,0,0:0:0:0:
256,192,91971,1,2,0:0:0:0:
256,192,92057,1,0,0:0:0:0:
256,192,92143,1,0,0:0:0:0:
256,192,92316,1,2,0:0:0:0:
256,192,92488,1,0,0:0:0:0:
256,192,92574,1,0,0:0:0:0:
256,192,92661,1,2,0:0:0:0:
256,192,92833,1,0,0:0:0:0:
256,192,92919,1,0,0:0:0:0:
256,192,93005,1,2,0:0:0:0:
256,192,93178,1,0,0:0:0:0:
256,192,93350,1,2,0:0:0:0:
256,192,93437,1,0,0:0:0:0:
256,192,93523,1,0,0:0:0:0:
256,192,93695,1,2,0:0:0:0:
256,192,93868,1,0,0:0:0:0:
256,192,93954,1,0,0:0:0:0:
256,192,94040,1,2,0:0:0:0:
256,192,94212,1,0,0:0:0:0:
256,192,94299,1,0,0:0:0:0:
256,192,94385,1,2,0:0:0:0:
256,192,94557,1,0,0:0:0:0:
256,192,94730,1,2,0:0:0:0:
256,192,94902,1,0,0:0:0:0:
256,192,95074,1,2,0:0:0:0:
256,192,95161,1,0,0:0:0:0:
256,192,95247,1,2,0:0:0:0:
256,192,95419,1,0,0:0:0:0:
256,192,95505,1,0,0:0:0:0:
256,192,95592,1,2,0:0:0:0:
256,192,95678,1,0,0:0:0:0:
256,192,95764,1,2,0:0:0:0:
256,192,95937,1,0,0:0:0:0:
256,192,96023,1,0,0:0:0:0:
256,192,96109,1,2,0:0:0:0:
256,192,96195,1,0,0:0:0:0:
256,192,96281,1,2,0:0:0:0:
256,192,96454,1,0,0:0:0:0:
256,192,96540,1,2,0:0:0:0:
256,192,96626,1,2,0:0:0:0:
256,192,96712,1,0,0:0:0:0:
256,192,96799,1,2,0:0:0:0:
256,192,96971,1,0,0:0:0:0:
256,192,97057,1,2,0:0:0:0:
256,192,97143,1,2,0:0:0:0:
256,192,97230,1,0,0:0:0:0:
256,192,97316,1,2,0:0:0:0:
256,192,97488,1,0,0:0:0:0:
256,192,97574,1,2,0:0:0:0:
256,192,97661,1,2,0:0:0:0:
256,192,97747,1,0,0:0:0:0:
256,192,97833,1,2,0:0:0:0:
256,192,97919,1,0,0:0:0:0:
256,192,98005,1,0,0:0:0:0:
256,192,98092,1,2,0:0:0:0:
272,200,98178,1,2,0:0:0:0:
256,192,98264,1,0,0:0:0:0:
256,192,98350,1,2,0:0:0:0:
256,192,98437,1,2,0:0:0:0:
256,192,98523,1,0,0:0:0:0:
256,192,98695,1,2,0:0:0:0:
256,192,98868,1,0,0:0:0:0:
256,192,99040,1,0,0:0:0:0:
256,192,99212,1,2,0:0:0:0:
256,192,99385,1,0,0:0:0:0:
256,192,99557,1,0,0:0:0:0:
264,184,99615,1,0,0:0:0:0:
264,184,99672,1,0,0:0:0:0:
256,192,99730,1,2,0:0:0:0:
256,192,99902,1,6,0:0:0:0:
256,192,100247,1,4,0:0:0:0:
256,192,100592,1,2,0:0:0:0:
256,192,100764,1,0,0:0:0:0:
256,192,101109,1,0,0:0:0:0:
256,192,101195,1,0,0:0:0:0:
256,192,101281,1,2,0:0:0:0:
256,192,101454,1,0,0:0:0:0:
256,192,101626,1,0,0:0:0:0:
256,192,101799,1,2,0:0:0:0:
256,192,101885,1,0,0:0:0:0:
256,192,101971,1,2,0:0:0:0:
256,192,102057,1,2,0:0:0:0:
256,192,102143,1,0,0:0:0:0:
256,192,102488,1,0,0:0:0:0:
256,192,102661,1,2,0:0:0:0:
256,192,102747,1,2,0:0:0:0:
256,192,102833,1,0,0:0:0:0:
256,192,103005,1,0,0:0:0:0:
256,192,103350,1,2,0:0:0:0:
256,192,103523,1,0,0:0:0:0:
256,192,103609,1,2,0:0:0:0:
264,192,103695,1,0,0:0:0:0:
256,192,103868,1,0,0:0:0:0:
256,192,104040,1,2,0:0:0:0:
240,184,104212,1,0,0:0:0:0:
256,184,104299,1,0,0:0:0:0:
240,184,104385,1,0,0:0:0:0:
256,192,104557,1,0,0:0:0:0:
256,192,104643,1,0,0:0:0:0:
256,192,104730,1,2,0:0:0:0:
256,192,104902,1,0,0:0:0:0:
256,192,104988,1,2,0:0:0:0:
256,192,105161,1,2,0:0:0:0:
256,192,105247,1,0,0:0:0:0:
256,192,105419,1,2,0:0:0:0:
256,192,105764,1,0,0:0:0:0:
256,192,106109,1,2,0:0:0:0:
256,192,106281,1,0,0:0:0:0:
256,192,106626,1,0,0:0:0:0:
256,192,106712,1,0,0:0:0:0:
256,192,106799,1,2,0:0:0:0:
256,192,106971,1,0,0:0:0:0:
256,192,107143,1,2,0:0:0:0:
256,192,107230,1,2,0:0:0:0:
256,192,107316,1,0,0:0:0:0:
256,192,107402,1,0,0:0:0:0:
256,192,107488,1,2,0:0:0:0:
256,192,107661,1,0,0:0:0:0:
256,192,107747,1,0,0:0:0:0:
256,192,107833,1,0,0:0:0:0:
256,192,108005,1,0,0:0:0:0:
256,192,108178,1,2,0:0:0:0:
256,192,108264,1,0,0:0:0:0:
256,192,108523,1,0,0:0:0:0:
256,192,108868,1,2,0:0:0:0:
256,192,109040,1,0,0:0:0:0:
256,192,109385,1,0,0:0:0:0:
256,192,109471,1,0,0:0:0:0:
256,192,109557,1,2,0:0:0:0:
256,192,109730,1,0,0:0:0:0:
256,192,109902,1,0,0:0:0:0:
256,192,109988,1,0,0:0:0:0:
256,192,110074,1,0,0:0:0:0:
256,192,110247,1,2,0:0:0:0:
256,192,110333,1,2,0:0:0:0:
256,192,110419,1,0,0:0:0:0:
256,192,110505,1,0,0:0:0:0:
256,192,110678,1,2,0:0:0:0:
256,192,110764,1,0,0:0:0:0:
256,192,110937,1,2,0:0:0:0:
256,192,111109,1,0,0:0:0:0:
256,192,111195,1,2,0:0:0:0:
256,192,111281,1,0,0:0:0:0:
256,192,111626,1,2,0:0:0:0:
256,192,111799,1,0,0:0:0:0:
256,192,112143,1,0,0:0:0:0:
256,192,112230,1,0,0:0:0:0:
256,192,112316,1,2,0:0:0:0:
256,192,112488,1,0,0:0:0:0:
256,192,112661,1,0,0:0:0:0:
256,192,113005,1,2,0:0:0:0:
256,192,113178,1,0,0:0:0:0:
256,192,113264,1,0,0:0:0:0:
256,192,113350,1,2,0:0:0:0:
256,192,113437,1,2,0:0:0:0:
256,192,113523,1,0,0:0:0:0:
256,192,113695,1,2,0:0:0:0:
256,192,114040,1,0,0:0:0:0:
256,192,114299,1,0,0:0:0:0:
256,192,114385,1,2,0:0:0:0:
256,184,114471,1,2,0:0:0:0:
256,192,114557,1,0,0:0:0:0:
264,184,114730,1,2,0:0:0:0:
264,184,114816,1,0,0:0:0:0:
256,192,114902,1,0,0:0:0:0:
256,192,115074,1,2,0:0:0:0:
256,192,115247,1,2,0:0:0:0:
256,192,115333,1,2,0:0:0:0:
256,192,115419,1,0,0:0:0:0:
256,192,115592,1,0,0:0:0:0:
256,192,115764,1,2,0:0:0:0:
256,192,115937,1,0,0:0:0:0:
256,192,116023,1,0,0:0:0:0:
256,192,116195,1,2,0:0:0:0:
256,192,116281,1,0,0:0:0:0:
256,192,116454,1,2,0:0:0:0:
256,192,116540,1,0,0:0:0:0:
256,192,116626,1,0,0:0:0:0:
256,192,116712,1,2,0:0:0:0:
256,192,116799,1,0,0:0:0:0:
256,192,117143,1,6,0:0:0:0:
256,192,117661,1,0,0:0:0:0:
256,192,117747,1,0,0:0:0:0:
256,192,117833,1,2,0:0:0:0:
256,192,118005,1,0,0:0:0:0:
256,192,118178,1,0,0:0:0:0:
256,192,118264,1,2,0:0:0:0:
256,192,118350,1,0,0:0:0:0:
256,192,118523,1,2,0:0:0:0:
256,192,118695,1,0,0:0:0:0:
256,192,118781,1,0,0:0:0:0:
256,192,118868,1,2,0:0:0:0:
256,192,118954,1,2,0:0:0:0:
256,192,119040,1,0,0:0:0:0:
256,192,119212,1,2,0:0:0:0:
256,192,119385,1,0,0:0:0:0:
256,192,119471,1,0,0:0:0:0:
256,192,119557,1,0,0:0:0:0:
256,192,119902,1,2,0:0:0:0:
256,192,120161,1,2,0:0:0:0:
256,192,120247,1,0,0:0:0:0:
256,192,120419,1,0,0:0:0:0:
256,192,120592,1,2,0:0:0:0:
256,192,120764,1,0,0:0:0:0:
256,192,120937,1,2,0:0:0:0:
256,192,121023,1,2,0:0:0:0:
256,192,121109,1,0,0:0:0:0:
256,192,121195,1,0,0:0:0:0:
256,192,121281,1,2,0:0:0:0:
256,192,121368,1,2,0:0:0:0:
256,192,121454,1,0,0:0:0:0:
256,192,121540,1,0,0:0:0:0:
256,192,121626,1,2,0:0:0:0:
256,192,121712,1,2,0:0:0:0:
256,192,121799,1,2,0:0:0:0:
256,192,121885,1,2,0:0:0:0:
256,192,121971,1,2,0:0:0:0:
256,192,122057,1,2,0:0:0:0:
256,192,122143,1,2,0:0:0:0:
256,192,122230,1,2,0:0:0:0:
256,192,122316,1,0,0:0:0:0:
256,192,122661,1,2,0:0:0:0:
256,192,122833,1,0,0:0:0:0:
256,192,123178,1,0,0:0:0:0:
256,192,123264,1,0,0:0:0:0:
256,192,123350,1,2,0:0:0:0:
256,192,123523,1,2,0:0:0:0:
256,192,123695,1,0,0:0:0:0:
256,192,123868,1,0,0:0:0:0:
256,184,123954,1,0,0:0:0:0:
256,192,124040,1,2,0:0:0:0:
272,176,124126,1,2,0:0:0:0:
256,184,124212,1,0,0:0:0:0:
248,176,124385,1,0,0:0:0:0:
256,192,124471,1,2,0:0:0:0:
256,192,124557,1,0,0:0:0:0:
256,192,124730,1,2,0:0:0:0:
256,192,124902,1,2,0:0:0:0:
256,192,125074,1,0,0:0:0:0:
256,192,125419,1,2,0:0:0:0:
256,192,125592,1,0,0:0:0:0:
256,192,125678,1,2,0:0:0:0:
256,192,125764,1,0,0:0:0:0:
256,192,125937,1,0,0:0:0:0:
256,192,126023,1,0,0:0:0:0:
256,192,126109,1,2,0:0:0:0:
256,192,126281,1,0,0:0:0:0:
256,192,126454,1,2,0:0:0:0:
256,192,126626,1,0,0:0:0:0:
256,192,126712,1,0,0:0:0:0:
256,192,126799,1,2,0:0:0:0:
256,192,126885,1,0,0:0:0:0:
256,192,126971,1,2,0:0:0:0:
256,192,127143,1,0,0:0:0:0:
256,192,127316,1,0,0:0:0:0:
256,192,127402,1,2,0:0:0:0:
248,192,127488,1,2,0:0:0:0:
256,192,127661,1,2,0:0:0:0:
256,192,127833,1,0,0:0:0:0:
256,192,128178,1,2,0:0:0:0:
256,192,128350,1,2,0:0:0:0:
256,192,128437,1,2,0:0:0:0:
256,192,128523,1,0,0:0:0:0:
256,192,128695,1,0,0:0:0:0:
256,192,128781,1,0,0:0:0:0:
256,192,128868,1,2,0:0:0:0:
256,192,129040,1,2,0:0:0:0:
256,192,129212,1,0,0:0:0:0:
256,192,129385,1,2,0:0:0:0:
256,192,129471,1,0,0:0:0:0:
256,192,129557,1,2,0:0:0:0:
264,184,129643,1,2,0:0:0:0:
256,192,129730,1,0,0:0:0:0:
256,192,129902,1,2,0:0:0:0:
264,192,129988,1,0,0:0:0:0:
256,192,130074,1,0,0:0:0:0:
256,192,130247,1,2,0:0:0:0:
264,192,130419,1,2,0:0:0:0:
256,192,130592,1,0,0:0:0:0:
256,192,130937,1,2,0:0:0:0:
256,192,131109,1,2,0:0:0:0:
256,192,131195,1,0,0:0:0:0:
256,192,131281,1,2,0:0:0:0:
256,192,131454,1,0,0:0:0:0:
256,192,131540,1,0,0:0:0:0:
256,192,131626,1,2,0:0:0:0:
256,192,131799,1,2,0:0:0:0:
256,192,131971,1,0,0:0:0:0:
256,192,132143,1,0,0:0:0:0:
256,192,132230,1,2,0:0:0:0:
256,192,132316,1,2,0:0:0:0:
256,192,132402,1,0,0:0:0:0:
256,192,132488,1,2,0:0:0:0:
256,192,132661,1,2,0:0:0:0:
256,192,132747,1,2,0:0:0:0:
256,192,132833,1,0,0:0:0:0:
256,192,132919,1,0,0:0:0:0:
256,192,133005,1,2,0:0:0:0:
256,192,133092,1,0,0:0:0:0:
256,192,133178,1,0,0:0:0:0:
256,192,133350,1,0,0:0:0:0:
256,192,133695,1,2,0:0:0:0:
256,192,133868,1,0,0:0:0:0:
256,192,134212,1,0,0:0:0:0:
256,184,134299,1,0,0:0:0:0:
256,192,134384,1,2,0:0:0:0:
256,192,134557,1,2,0:0:0:0:
256,192,134729,1,0,0:0:0:0:
256,192,134902,1,0,0:0:0:0:
256,192,134988,1,0,0:0:0:0:
256,192,135074,1,2,0:0:0:0:
256,192,135160,1,2,0:0:0:0:
256,192,135246,1,0,0:0:0:0:
256,192,135419,1,0,0:0:0:0:
256,192,135505,1,2,0:0:0:0:
256,192,135591,1,0,0:0:0:0:
256,192,135764,1,2,0:0:0:0:
256,192,135936,1,2,0:0:0:0:
256,192,136108,1,0,0:0:0:0:
256,192,136453,1,2,0:0:0:0:
256,192,136626,1,0,0:0:0:0:
256,192,136712,1,2,0:0:0:0:
256,192,136798,1,0,0:0:0:0:
256,192,136971,1,0,0:0:0:0:
256,192,137057,1,0,0:0:0:0:
256,192,137143,1,2,0:0:0:0:
256,192,137315,1,0,0:0:0:0:
256,192,137488,1,2,0:0:0:0:
256,192,137660,1,0,0:0:0:0:
256,192,137746,1,0,0:0:0:0:
256,192,137833,1,2,0:0:0:0:
256,192,137919,1,0,0:0:0:0:
256,192,138005,1,2,0:0:0:0:
256,192,138177,1,0,0:0:0:0:
256,184,138350,1,0,0:0:0:0:
256,184,138437,1,2,0:0:0:0:
256,184,138523,1,2,0:0:0:0:
256,192,138695,1,2,0:0:0:0:
256,192,138868,1,0,0:0:0:0:
256,192,139213,1,2,0:0:0:0:
256,192,139385,1,2,0:0:0:0:
248,192,139471,1,2,0:0:0:0:
248,192,139557,1,0,0:0:0:0:
256,192,139730,1,0,0:0:0:0:
256,192,139816,1,0,0:0:0:0:
256,192,139903,1,2,0:0:0:0:
256,192,140075,1,2,0:0:0:0:
256,192,140247,1,0,0:0:0:0:
256,192,140420,1,2,0:0:0:0:
256,192,140506,1,0,0:0:0:0:
256,192,140592,1,2,0:0:0:0:
256,192,140678,1,2,0:0:0:0:
256,192,140765,1,0,0:0:0:0:
256,192,140937,1,2,0:0:0:0:
256,192,141023,1,0,0:0:0:0:
256,192,141109,1,0,0:0:0:0:
256,192,141282,1,2,0:0:0:0:
256,192,141454,1,2,0:0:0:0:
256,192,141626,1,0,0:0:0:0:
256,192,141971,1,2,0:0:0:0:
256,192,142143,1,2,0:0:0:0:
256,192,142230,1,0,0:0:0:0:
256,192,142316,1,2,0:0:0:0:
256,192,142488,1,0,0:0:0:0:
256,192,142661,1,2,0:0:0:0:
256,192,142747,1,2,0:0:0:0:
256,192,142833,1,0,0:0:0:0:
256,192,143005,1,0,0:0:0:0:
256,192,143178,1,0,0:0:0:0:
256,192,143264,1,0,0:0:0:0:
256,192,143350,1,2,0:0:0:0:
256,192,143523,1,0,0:0:0:0:
256,192,143609,1,2,0:0:0:0:
256,192,143695,1,2,0:0:0:0:
256,192,143781,1,0,0:0:0:0:
256,192,143868,1,2,0:0:0:0:
256,192,144040,1,6,0:0:0:0:
256,192,144385,1,4,0:0:0:0:
256,192,144730,1,2,0:0:0:0:
240,184,144988,1,2,0:0:0:0:
256,192,145074,1,0,0:0:0:0:
256,192,145247,1,0,0:0:0:0:
256,192,145419,1,2,0:0:0:0:
256,192,145592,1,0,0:0:0:0:
256,192,145764,1,0,0:0:0:0:
256,192,145850,1,0,0:0:0:0:
256,192,145937,1,0,0:0:0:0:
256,192,146109,1,2,0:0:0:0:
256,192,146281,1,2,0:0:0:0:
256,192,146368,1,0,0:0:0:0:
256,192,146454,1,0,0:0:0:0:
256,192,146540,1,2,0:0:0:0:
256,192,146626,1,0,0:0:0:0:
256,192,146799,1,2,0:0:0:0:
256,192,147143,1,0,0:0:0:0:
256,192,147488,1,2,0:0:0:0:
264,184,147747,1,2,0:0:0:0:
248,176,147833,1,0,0:0:0:0:
256,192,148005,1,0,0:0:0:0:
256,192,148178,1,2,0:0:0:0:
256,192,148350,1,2,0:0:0:0:
264,192,148437,1,2,0:0:0:0:
256,192,148523,1,0,0:0:0:0:
256,192,148781,1,0,0:0:0:0:
256,192,148868,1,2,0:0:0:0:
256,192,149040,1,0,0:0:0:0:
264,184,149212,1,2,0:0:0:0:
248,192,149299,1,0,0:0:0:0:
256,192,149385,1,0,0:0:0:0:
256,192,149557,1,2,0:0:0:0:
256,192,149902,1,0,0:0:0:0:
256,192,150247,1,2,0:0:0:0:
256,192,150505,1,2,0:0:0:0:
256,192,150592,1,0,0:0:0:0:
256,192,150764,1,0,0:0:0:0:
256,192,150937,1,2,0:0:0:0:
256,192,151109,1,0,0:0:0:0:
256,192,151281,1,0,0:0:0:0:
256,192,151368,1,2,0:0:0:0:
256,192,151454,1,2,0:0:0:0:
256,192,151626,1,2,0:0:0:0:
256,192,151799,1,2,0:0:0:0:
256,192,151885,1,0,0:0:0:0:
256,192,151971,1,2,0:0:0:0:
256,192,152057,1,2,0:0:0:0:
256,192,152143,1,0,0:0:0:0:
256,192,152316,1,2,0:0:0:0:
256,192,152661,1,0,0:0:0:0:
256,192,152919,1,0,0:0:0:0:
256,192,153005,1,2,0:0:0:0:
256,184,153178,1,2,0:0:0:0:
256,192,153350,1,0,0:0:0:0:
256,192,153437,1,2,0:0:0:0:
256,192,153523,1,0,0:0:0:0:
256,192,153695,1,2,0:0:0:0:
256,192,153868,1,2,0:0:0:0:
256,192,154040,1,0,0:0:0:0:
256,192,154126,1,0,0:0:0:0:
256,192,154299,1,0,0:0:0:0:
256,192,154385,1,2,0:0:0:0:
256,192,154557,1,2,0:0:0:0:
256,192,154730,1,0,0:0:0:0:
256,192,154816,1,2,0:0:0:0:
256,192,154902,1,0,0:0:0:0:
256,192,155074,1,2,0:0:0:0:
256,192,155161,1,0,0:0:0:0:
256,192,155247,1,0,0:0:0:0:
256,192,155333,1,2,0:0:0:0:
256,192,155419,1,0,0:0:0:0:
256,192,155764,1,2,0:0:0:0:
256,184,156023,1,2,0:0:0:0:
256,192,156108,1,0,0:0:0:0:
256,192,156281,1,0,0:0:0:0:
256,192,156453,1,2,0:0:0:0:
256,192,156626,1,0,0:0:0:0:
256,192,156798,1,0,0:0:0:0:
256,192,156884,1,0,0:0:0:0:
256,192,156971,1,0,0:0:0:0:
256,192,157143,1,2,0:0:0:0:
256,192,157315,1,2,0:0:0:0:
256,192,157402,1,0,0:0:0:0:
256,192,157488,1,0,0:0:0:0:
256,192,157574,1,2,0:0:0:0:
256,192,157660,1,0,0:0:0:0:
256,192,157833,1,2,0:0:0:0:
256,192,158177,1,0,0:0:0:0:
256,192,158522,1,2,0:0:0:0:
264,184,158781,1,2,0:0:0:0:
256,192,158867,1,0,0:0:0:0:
256,192,159039,1,0,0:0:0:0:
256,192,159212,1,2,0:0:0:0:
240,192,159385,1,2,0:0:0:0:
248,192,159471,1,2,0:0:0:0:
256,192,159557,1,0,0:0:0:0:
256,192,159815,1,0,0:0:0:0:
256,192,159902,1,2,0:0:0:0:
256,192,160074,1,0,0:0:0:0:
264,192,160247,1,2,0:0:0:0:
248,200,160333,1,0,0:0:0:0:
256,192,160419,1,0,0:0:0:0:
256,192,160591,1,2,0:0:0:0:
256,192,160937,1,0,0:0:0:0:
256,192,161281,1,2,0:0:0:0:
248,184,161540,1,2,0:0:0:0:
256,192,161625,1,0,0:0:0:0:
256,192,161798,1,0,0:0:0:0:
256,192,161970,1,2,0:0:0:0:
256,192,162143,1,0,0:0:0:0:
256,192,162315,1,0,0:0:0:0:
256,192,162402,1,2,0:0:0:0:
256,192,162488,1,2,0:0:0:0:
256,192,162660,1,2,0:0:0:0:
256,192,162832,1,2,0:0:0:0:
256,192,162919,1,0,0:0:0:0:
256,192,163005,1,2,0:0:0:0:
256,192,163091,1,2,0:0:0:0:
256,192,163177,1,0,0:0:0:0:
256,192,163350,1,2,0:0:0:0:
256,192,163695,1,0,0:0:0:0:
256,192,163954,1,0,0:0:0:0:
256,192,164040,1,2,0:0:0:0:
256,192,164212,1,2,0:0:0:0:
256,192,164385,1,0,0:0:0:0:
256,192,164471,1,2,0:0:0:0:
256,192,164557,1,0,0:0:0:0:
256,192,164730,1,2,0:0:0:0:
256,192,164816,1,0,0:0:0:0:
256,192,164902,1,0,0:0:0:0:
256,192,165074,1,2,0:0:0:0:
256,192,165247,1,0,0:0:0:0:
256,192,165333,1,2,0:0:0:0:
256,192,165419,1,0,0:0:0:0:
256,192,165592,1,2,0:0:0:0:
264,184,165764,1,2,0:0:0:0:
256,192,165850,1,2,0:0:0:0:
256,192,165937,1,0,0:0:0:0:
256,192,166454,1,0,0:0:0:0:
256,192,166799,1,0,0:0:0:0:
256,192,166971,1,0,0:0:0:0:
256,192,167143,1,2,0:0:0:0:
256,192,167488,1,0,0:0:0:0:
256,192,167661,1,2,0:0:0:0:
256,192,168005,1,2,0:0:0:0:
256,192,168178,1,0,0:0:0:0:
256,192,168350,1,0,0:0:0:0:
256,192,168523,1,2,0:0:0:0:
256,192,168695,1,2,0:0:0:0:
256,192,169040,1,0,0:0:0:0:
256,192,169212,1,2,0:0:0:0:
256,192,169557,1,0,0:0:0:0:
256,192,169730,1,0,0:0:0:0:
256,192,169902,1,2,0:0:0:0:
256,192,170247,1,0,0:0:0:0:
256,192,170419,1,2,0:0:0:0:
256,192,170592,1,0,0:0:0:0:
256,192,170764,1,2,0:0:0:0:
256,192,170937,1,0,0:0:0:0:
256,192,171109,1,0,0:0:0:0:
256,192,171281,1,2,0:0:0:0:
256,192,171454,1,2,0:0:0:0:
256,192,171626,1,0,0:0:0:0:
256,192,171971,1,2,0:0:0:0:
256,192,172316,1,0,0:0:0:0:
256,192,172488,1,0,0:0:0:0:
256,192,172660,1,2,0:0:0:0:
256,192,173005,1,0,0:0:0:0:
256,192,173178,1,2,0:0:0:0:
256,192,173522,1,2,0:0:0:0:
256,192,173695,1,0,0:0:0:0:
256,192,173867,1,0,0:0:0:0:
256,192,174040,1,2,0:0:0:0:
256,192,174212,1,2,0:0:0:0:
256,192,174557,1,0,0:0:0:0:
256,192,174729,1,2,0:0:0:0:
256,192,175074,1,0,0:0:0:0:
256,192,175247,1,0,0:0:0:0:
256,192,175419,1,2,0:0:0:0:
256,192,175764,1,2,0:0:0:0:
256,192,175937,1,0,0:0:0:0:
256,192,176109,1,2,0:0:0:0:
256,192,176454,1,2,0:0:0:0:
256,192,176626,1,0,0:0:0:0:
256,192,176798,1,2,0:0:0:0:
256,192,176971,1,2,0:0:0:0:
256,192,177143,1,0,0:0:0:0:
256,192,177488,1,0,0:0:0:0:
256,192,177833,1,0,0:0:0:0:
256,192,178005,1,0,0:0:0:0:
256,192,178177,1,2,0:0:0:0:
256,192,178522,1,0,0:0:0:0:
256,192,178695,1,2,0:0:0:0:
256,192,179039,1,2,0:0:0:0:
256,192,179212,1,0,0:0:0:0:
256,192,179384,1,0,0:0:0:0:
256,192,179557,1,2,0:0:0:0:
256,192,179729,1,2,0:0:0:0:
256,192,180074,1,0,0:0:0:0:
256,192,180246,1,2,0:0:0:0:
256,192,180591,1,0,0:0:0:0:
256,192,180764,1,0,0:0:0:0:
256,192,180936,1,2,0:0:0:0:
256,192,181281,1,0,0:0:0:0:
256,192,181453,1,2,0:0:0:0:
256,192,181626,1,0,0:0:0:0:
256,192,181798,1,2,0:0:0:0:
256,192,181971,1,0,0:0:0:0:
256,192,182143,1,0,0:0:0:0:
256,192,182315,1,2,0:0:0:0:
256,192,182488,1,2,0:0:0:0:
256,192,182660,1,0,0:0:0:0:
256,192,183005,1,2,0:0:0:0:
256,192,183350,1,0,0:0:0:0:
256,192,183522,1,0,0:0:0:0:
256,192,183694,1,2,0:0:0:0:
256,192,184039,1,0,0:0:0:0:
256,192,184212,1,2,0:0:0:0:
256,192,184556,1,2,0:0:0:0:
256,192,184729,1,0,0:0:0:0:
256,192,184901,1,0,0:0:0:0:
256,192,185074,1,2,0:0:0:0:
256,192,185246,1,2,0:0:0:0:
256,192,185591,1,0,0:0:0:0:
256,192,185764,1,2,0:0:0:0:
256,192,186109,1,0,0:0:0:0:
256,192,186281,1,0,0:0:0:0:
256,192,186454,1,2,0:0:0:0:
256,192,186799,1,2,0:0:0:0:
256,192,186971,1,0,0:0:0:0:
256,192,187143,1,2,0:0:0:0:
256,192,187316,12,0,188178,0:0:0:0:
264,200,188523,5,0,0:0:0:0:
256,192,188868,1,0,0:0:0:0:
256,192,189040,1,2,0:0:0:0:
256,192,189385,1,2,0:0:0:0:
264,200,189557,1,0,0:0:0:0:
256,192,189730,1,0,0:0:0:0:
264,200,189902,1,2,0:0:0:0:
264,200,190247,1,0,0:0:0:0:
264,200,190419,1,0,0:0:0:0:
264,200,190592,1,2,0:0:0:0:
264,200,190764,1,2,0:0:0:0:
264,200,191023,1,0,0:0:0:0:
264,200,191109,1,0,0:0:0:0:
264,200,191281,1,2,0:0:0:0:
264,200,191626,1,0,0:0:0:0:
264,200,191799,1,2,0:0:0:0:
264,200,191971,1,2,0:0:0:0:
264,200,192316,1,0,0:0:0:0:
264,200,192488,1,0,0:0:0:0:
264,200,192661,1,2,0:0:0:0:
264,200,193005,1,0,0:0:0:0:
264,200,193178,1,2,0:0:0:0:
264,200,193350,1,2,0:0:0:0:
264,200,193523,1,0,0:0:0:0:
264,200,193609,1,0,0:0:0:0:
264,200,193868,1,2,0:0:0:0:
264,200,194040,1,0,0:0:0:0:
264,192,194385,1,0,0:0:0:0:
264,192,194557,1,2,0:0:0:0:
264,192,194902,1,2,0:0:0:0:
264,192,195074,1,0,0:0:0:0:
264,192,195247,1,0,0:0:0:0:
264,200,195419,1,2,0:0:0:0:
256,200,195592,1,0,0:0:0:0:
256,200,195764,1,2,0:0:0:0:
264,200,195937,1,2,0:0:0:0:
264,200,196195,1,0,0:0:0:0:
264,200,196281,1,2,0:0:0:0:
264,200,196454,1,2,0:0:0:0:
264,200,196626,1,0,0:0:0:0:
264,200,196799,1,2,0:0:0:0:
256,192,197143,1,2,0:0:0:0:
256,192,197316,1,0,0:0:0:0:
264,200,197488,1,2,0:0:0:0:
264,200,197661,1,2,0:0:0:0:
264,200,197833,1,0,0:0:0:0:
256,192,198005,1,0,0:0:0:0:
264,192,198178,1,2,0:0:0:0:
264,200,198350,1,0,0:0:0:0:
264,200,198695,1,2,0:0:0:0:
264,200,198868,1,2,0:0:0:0:
264,200,199040,1,0,0:0:0:0:
264,200,199212,1,2,0:0:0:0:
264,200,199385,1,0,0:0:0:0:
264,200,199557,1,0,0:0:0:0:
256,192,199902,1,0,0:0:0:0:
256,192,200074,1,2,0:0:0:0:
256,192,200419,1,2,0:0:0:0:
264,200,200591,1,0,0:0:0:0:
256,192,200764,1,0,0:0:0:0:
264,200,200936,1,2,0:0:0:0:
264,200,201281,1,0,0:0:0:0:
264,200,201453,1,0,0:0:0:0:
264,200,201626,1,2,0:0:0:0:
264,200,201798,1,2,0:0:0:0:
264,200,202057,1,0,0:0:0:0:
264,200,202143,1,0,0:0:0:0:
264,200,202315,1,2,0:0:0:0:
264,200,202660,1,0,0:0:0:0:
264,200,202833,1,2,0:0:0:0:
264,200,203005,1,2,0:0:0:0:
264,200,203350,1,0,0:0:0:0:
264,200,203522,1,0,0:0:0:0:
264,200,203695,1,2,0:0:0:0:
264,200,204039,1,0,0:0:0:0:
264,200,204212,1,2,0:0:0:0:
264,200,204384,1,2,0:0:0:0:
264,200,204557,1,0,0:0:0:0:
264,200,204643,1,0,0:0:0:0:
264,200,204902,1,2,0:0:0:0:
264,200,205074,1,0,0:0:0:0:
264,192,205419,1,0,0:0:0:0:
264,192,205591,1,2,0:0:0:0:
264,192,205936,1,2,0:0:0:0:
264,192,206108,1,0,0:0:0:0:
264,192,206281,1,0,0:0:0:0:
264,200,206453,1,2,0:0:0:0:
256,200,206626,1,0,0:0:0:0:
256,200,206798,1,2,0:0:0:0:
264,200,206971,1,2,0:0:0:0:
264,200,207229,1,0,0:0:0:0:
264,200,207315,1,2,0:0:0:0:
264,200,207488,1,2,0:0:0:0:
264,200,207660,1,0,0:0:0:0:
264,200,207833,1,2,0:0:0:0:
256,192,208177,1,2,0:0:0:0:
256,192,208350,1,0,0:0:0:0:
264,200,208522,1,2,0:0:0:0:
264,200,208695,1,2,0:0:0:0:
264,200,208867,1,0,0:0:0:0:
256,192,209039,1,0,0:0:0:0:
264,192,209212,1,2,0:0:0:0:
264,200,209384,1,0,0:0:0:0:
264,200,209729,1,2,0:0:0:0:
264,200,209902,1,2,0:0:0:0:
264,200,210074,1,0,0:0:0:0:
264,200,210246,1,2,0:0:0:0:
264,200,210419,1,0,0:0:0:0:
256,192,210592,1,0,0:0:0:0:
264,200,210937,5,2,0:0:0:0:
264,200,211109,1,0,0:0:0:0:
264,200,211195,1,0,0:0:0:0:
264,200,211281,1,0,0:0:0:0:
264,200,211454,1,2,0:0:0:0:
264,200,211626,1,0,0:0:0:0:
264,200,211712,1,2,0:0:0:0:
264,200,211885,1,2,0:0:0:0:
264,200,211971,1,0,0:0:0:0:
264,200,212316,1,2,0:0:0:0:
264,200,212488,1,0,0:0:0:0:
264,200,212574,1,0,0:0:0:0:
264,200,212661,1,0,0:0:0:0:
264,200,212833,1,2,0:0:0:0:
264,200,213005,1,0,0:0:0:0:
264,200,213092,1,2,0:0:0:0:
264,200,213178,1,0,0:0:0:0:
264,200,213264,1,2,0:0:0:0:
264,200,213350,1,0,0:0:0:0:
264,200,213695,1,2,0:0:0:0:
264,200,213868,1,0,0:0:0:0:
264,200,213954,1,0,0:0:0:0:
264,200,214040,1,0,0:0:0:0:
264,200,214212,1,2,0:0:0:0:
264,200,214385,1,0,0:0:0:0:
264,200,214471,1,2,0:0:0:0:
264,200,214643,1,2,0:0:0:0:
264,200,214730,1,0,0:0:0:0:
264,200,215074,1,2,0:0:0:0:
264,200,215247,1,0,0:0:0:0:
264,200,215333,1,0,0:0:0:0:
264,200,215419,1,0,0:0:0:0:
264,200,215592,1,2,0:0:0:0:
264,200,215764,1,0,0:0:0:0:
264,200,215850,1,2,0:0:0:0:
264,200,215937,1,0,0:0:0:0:
264,200,216023,1,0,0:0:0:0:
264,200,216109,1,0,0:0:0:0:
264,200,216454,1,2,0:0:0:0:
264,200,216626,1,0,0:0:0:0:
264,200,216712,1,0,0:0:0:0:
264,200,216798,1,0,0:0:0:0:
264,200,216971,1,2,0:0:0:0:
264,200,217143,1,0,0:0:0:0:
264,200,217229,1,2,0:0:0:0:
264,200,217402,1,2,0:0:0:0:
264,200,217488,1,0,0:0:0:0:
264,200,217833,1,2,0:0:0:0:
264,200,218005,1,0,0:0:0:0:
264,200,218091,1,0,0:0:0:0:
264,200,218178,1,0,0:0:0:0:
264,200,218350,1,2,0:0:0:0:
264,200,218522,1,0,0:0:0:0:
264,200,218609,1,2,0:0:0:0:
264,200,218695,1,0,0:0:0:0:
264,200,218781,1,2,0:0:0:0:
264,200,218867,1,0,0:0:0:0:
264,200,219212,1,2,0:0:0:0:
264,200,219385,1,0,0:0:0:0:
264,200,219471,1,0,0:0:0:0:
264,200,219557,1,0,0:0:0:0:
264,200,219729,1,2,0:0:0:0:
264,200,219902,1,0,0:0:0:0:
264,200,219988,1,2,0:0:0:0:
264,200,220160,1,2,0:0:0:0:
264,200,220247,1,0,0:0:0:0:
264,200,220419,1,0,0:0:0:0:
264,200,220591,1,2,0:0:0:0:
264,200,220764,1,0,0:0:0:0:
264,200,220850,1,0,0:0:0:0:
264,200,220936,1,0,0:0:0:0:
264,200,221023,1,0,0:0:0:0:
264,200,221109,1,2,0:0:0:0:
264,200,221281,1,0,0:0:0:0:
264,200,221367,1,2,0:0:0:0:
264,200,221454,1,0,0:0:0:0:
264,200,221540,1,0,0:0:0:0:
264,200,221626,1,0,0:0:0:0:
264,200,221971,1,2,0:0:0:0:
264,200,222143,1,0,0:0:0:0:
264,200,222229,1,0,0:0:0:0:
264,200,222315,1,0,0:0:0:0:
264,200,222488,1,2,0:0:0:0:
264,200,222660,1,0,0:0:0:0:
264,200,222746,1,2,0:0:0:0:
264,200,222919,1,2,0:0:0:0:
264,200,223005,1,0,0:0:0:0:
264,200,223178,1,0,0:0:0:0:
264,200,223350,1,2,0:0:0:0:
264,200,223522,1,0,0:0:0:0:
264,200,223608,1,0,0:0:0:0:
264,200,223695,1,0,0:0:0:0:
264,200,223867,1,2,0:0:0:0:
264,200,224039,1,0,0:0:0:0:
264,200,224126,1,2,0:0:0:0:
264,200,224212,1,0,0:0:0:0:
264,200,224298,1,2,0:0:0:0:
264,200,224384,1,0,0:0:0:0:
264,200,224557,1,0,0:0:0:0:
264,200,224729,1,2,0:0:0:0:
264,200,224902,1,0,0:0:0:0:
264,200,224988,1,0,0:0:0:0:
264,200,225074,1,0,0:0:0:0:
264,200,225246,1,2,0:0:0:0:
264,200,225419,1,0,0:0:0:0:
264,200,225505,1,2,0:0:0:0:
264,200,225677,1,2,0:0:0:0:
264,200,225764,1,0,0:0:0:0:
264,200,225937,1,0,0:0:0:0:
264,200,226108,1,2,0:0:0:0:
264,200,226281,1,0,0:0:0:0:
264,200,226367,1,0,0:0:0:0:
264,200,226453,1,0,0:0:0:0:
264,200,226626,1,2,0:0:0:0:
264,200,226798,1,0,0:0:0:0:
264,200,226884,1,2,0:0:0:0:
264,200,226971,1,0,0:0:0:0:
264,200,227057,1,0,0:0:0:0:
264,200,227143,1,0,0:0:0:0:
264,200,227316,1,0,0:0:0:0:
264,200,227488,1,2,0:0:0:0:
264,200,227661,1,0,0:0:0:0:
264,200,227747,1,0,0:0:0:0:
264,200,227833,1,0,0:0:0:0:
264,200,228005,1,2,0:0:0:0:
264,200,228178,1,0,0:0:0:0:
264,200,228264,1,2,0:0:0:0:
264,200,228350,1,2,0:0:0:0:
264,200,228437,1,2,0:0:0:0:
264,200,228523,1,0,0:0:0:0:
264,200,228609,1,0,0:0:0:0:
264,200,228695,1,0,0:0:0:0:
264,200,228868,1,2,0:0:0:0:
264,200,229040,1,0,0:0:0:0:
264,200,229126,1,0,0:0:0:0:
264,200,229212,1,0,0:0:0:0:
264,200,229385,1,2,0:0:0:0:
264,200,229471,1,2,0:0:0:0:
264,200,229557,1,0,0:0:0:0:
264,200,229643,1,2,0:0:0:0:
264,200,229730,1,0,0:0:0:0:
264,200,229816,1,2,0:0:0:0:
264,200,229902,1,0,0:0:0:0:
264,200,229988,1,0,0:0:0:0:
264,200,230074,1,2,0:0:0:0:
264,200,230161,1,0,0:0:0:0:
264,200,230247,1,0,0:0:0:0:
264,200,230333,1,2,0:0:0:0:
264,200,230419,1,2,0:0:0:0:
264,200,230505,1,0,0:0:0:0:
264,200,230592,1,2,0:0:0:0:
264,200,230678,1,2,0:0:0:0:
264,200,230764,1,0,0:0:0:0:
264,200,230850,1,2,0:0:0:0:
264,200,230937,1,0,0:0:0:0:
264,200,231023,1,0,0:0:0:0:
264,200,231109,1,2,0:0:0:0:
264,200,231195,1,0,0:0:0:0:
264,200,231281,1,0,0:0:0:0:
264,200,231368,1,2,0:0:0:0:
264,200,231454,1,0,0:0:0:0:
264,200,231540,1,0,0:0:0:0:
264,200,231626,1,2,0:0:0:0:
256,200,231712,1,0,0:0:0:0:
264,200,231799,1,0,0:0:0:0:
264,200,231885,1,2,0:0:0:0:
272,192,231971,1,2,0:0:0:0:
264,200,232661,1,4,0:0:0:0:
264,200,232833,1,2,0:0:0:0:
264,200,233005,1,0,0:0:0:0:
264,200,233092,1,0,0:0:0:0:
264,200,233178,1,2,0:0:0:0:
264,200,233350,1,0,0:0:0:0:
264,200,233437,1,2,0:0:0:0:
264,200,233609,1,0,0:0:0:0:
264,200,233695,1,2,0:0:0:0:
264,200,233781,1,2,0:0:0:0:
264,200,233868,1,0,0:0:0:0:
264,200,234040,1,0,0:0:0:0:
264,200,234212,1,2,0:0:0:0:
264,200,234385,1,0,0:0:0:0:
264,200,234471,1,0,0:0:0:0:
264,200,234557,1,2,0:0:0:0:
264,200,234730,1,0,0:0:0:0:
264,200,234816,1,2,0:0:0:0:
264,200,234988,1,2,0:0:0:0:
264,200,235074,1,0,0:0:0:0:
264,200,235161,1,0,0:0:0:0:
264,200,235247,1,2,0:0:0:0:
264,200,235419,1,0,0:0:0:0:
264,200,235592,1,2,0:0:0:0:
264,200,235764,1,0,0:0:0:0:
264,200,235850,1,2,0:0:0:0:
264,200,236023,1,2,0:0:0:0:
264,200,236109,1,0,0:0:0:0:
264,200,236281,1,0,0:0:0:0:
264,200,236368,1,0,0:0:0:0:
264,200,236454,1,2,0:0:0:0:
264,200,236540,1,2,0:0:0:0:
264,200,236626,1,0,0:0:0:0:
264,200,236799,1,2,0:0:0:0:
264,200,236971,1,0,0:0:0:0:
264,200,237057,1,2,0:0:0:0:
264,200,237143,1,2,0:0:0:0:
264,200,237230,1,0,0:0:0:0:
264,200,237402,1,0,0:0:0:0:
264,200,237488,1,2,0:0:0:0:
264,200,237661,1,2,0:0:0:0:
264,200,237747,1,0,0:0:0:0:
264,200,237833,1,2,0:0:0:0:
264,200,237919,1,2,0:0:0:0:
264,200,238005,1,0,0:0:0:0:
264,200,238178,1,0,0:0:0:0:
264,200,238350,1,2,0:0:0:0:
264,200,238522,1,0,0:0:0:0:
264,200,238609,1,0,0:0:0:0:
264,200,238695,1,2,0:0:0:0:
264,200,238867,1,0,0:0:0:0:
264,200,238954,1,2,0:0:0:0:
264,200,239126,1,0,0:0:0:0:
264,200,239212,1,2,0:0:0:0:
264,200,239298,1,2,0:0:0:0:
264,200,239385,1,0,0:0:0:0:
264,200,239557,1,0,0:0:0:0:
264,200,239729,1,2,0:0:0:0:
264,200,239902,1,0,0:0:0:0:
264,200,239988,1,0,0:0:0:0:
264,200,240074,1,2,0:0:0:0:
264,200,240247,1,0,0:0:0:0:
264,200,240333,1,2,0:0:0:0:
264,200,240505,1,2,0:0:0:0:
264,200,240591,1,0,0:0:0:0:
264,200,240678,1,0,0:0:0:0:
264,200,240764,1,2,0:0:0:0:
264,200,240937,1,2,0:0:0:0:
264,200,241109,1,0,0:0:0:0:
264,200,241281,1,2,0:0:0:0:
264,200,241368,1,0,0:0:0:0:
264,200,241540,1,0,0:0:0:0:
264,200,241626,1,2,0:0:0:0:
264,200,241712,1,2,0:0:0:0:
264,200,241799,1,0,0:0:0:0:
264,200,241971,1,2,0:0:0:0:
264,200,242057,1,0,0:0:0:0:
264,200,242143,1,0,0:0:0:0:
264,200,242316,1,0,0:0:0:0:
264,200,242402,1,2,0:0:0:0:
264,200,242574,1,0,0:0:0:0:
264,200,242661,1,2,0:0:0:0:
264,200,242833,1,0,0:0:0:0:
264,200,242919,1,2,0:0:0:0:
264,200,243005,1,0,0:0:0:0:
264,200,243092,1,0,0:0:0:0:
264,200,243178,1,2,0:0:0:0:
264,200,243350,1,2,0:0:0:0:
264,200,243437,1,0,0:0:0:0:
264,200,243523,1,2,0:0:0:0:
264,200,243609,1,2,0:0:0:0:
264,200,243695,1,0,0:0:0:0:
264,200,244040,1,6,0:0:0:0:
264,200,244212,1,0,0:0:0:0:
264,200,244299,1,0,0:0:0:0:
264,200,244385,1,0,0:0:0:0:
264,200,244472,1,2,0:0:0:0:
264,200,244644,1,0,0:0:0:0:
264,200,244730,1,2,0:0:0:0:
264,200,244816,1,2,0:0:0:0:
264,200,244903,1,0,0:0:0:0:
264,200,245075,1,0,0:0:0:0:
264,200,245247,1,2,0:0:0:0:
264,200,245420,1,0,0:0:0:0:
264,200,245506,1,0,0:0:0:0:
264,200,245592,1,2,0:0:0:0:
256,192,245678,1,0,0:0:0:0:
272,192,245764,1,2,0:0:0:0:
264,200,245851,1,2,0:0:0:0:
264,200,246023,1,2,0:0:0:0:
264,200,246109,1,0,0:0:0:0:
264,200,246196,1,0,0:0:0:0:
264,200,246282,1,2,0:0:0:0:
264,200,246454,1,0,0:0:0:0:
264,200,246627,1,2,0:0:0:0:
264,200,246799,1,0,0:0:0:0:
264,200,246885,1,2,0:0:0:0:
264,200,247058,1,2,0:0:0:0:
264,200,247144,1,0,0:0:0:0:
264,200,247230,1,0,0:0:0:0:
264,200,247316,1,2,0:0:0:0:
264,200,247403,1,0,0:0:0:0:
264,200,247489,1,2,0:0:0:0:
280,200,247574,1,2,0:0:0:0:
264,200,247661,1,0,0:0:0:0:
264,200,247834,1,2,0:0:0:0:
264,200,248006,1,0,0:0:0:0:
264,200,248092,1,2,0:0:0:0:
264,200,248178,1,2,0:0:0:0:
264,200,248265,1,0,0:0:0:0:
264,200,248437,1,0,0:0:0:0:
264,200,248523,1,2,0:0:0:0:
264,200,248609,1,0,0:0:0:0:
248,184,248695,1,0,0:0:0:0:
264,200,248781,1,2,0:0:0:0:
264,200,248868,1,2,0:0:0:0:
264,200,248954,1,0,0:0:0:0:
264,200,249040,1,2,0:0:0:0:
264,200,249213,1,0,0:0:0:0:
264,200,249385,1,2,0:0:0:0:
264,200,249557,1,0,0:0:0:0:
264,200,249644,1,0,0:0:0:0:
264,200,249730,1,2,0:0:0:0:
248,192,249816,1,0,0:0:0:0:
264,200,249902,1,0,0:0:0:0:
264,200,249989,1,2,0:0:0:0:
264,200,250161,1,0,0:0:0:0:
264,200,250247,1,2,0:0:0:0:
264,200,250333,1,2,0:0:0:0:
264,200,250420,1,0,0:0:0:0:
264,200,250592,1,0,0:0:0:0:
264,200,250764,1,2,0:0:0:0:
264,200,250937,1,0,0:0:0:0:
264,200,251023,1,0,0:0:0:0:
264,200,251109,1,2,0:0:0:0:
248,192,251195,1,0,0:0:0:0:
264,200,251282,1,2,0:0:0:0:
264,200,251368,1,2,0:0:0:0:
264,200,251540,1,2,0:0:0:0:
264,200,251626,1,0,0:0:0:0:
264,200,251713,1,0,0:0:0:0:
264,200,251799,1,2,0:0:0:0:
264,200,251971,1,2,0:0:0:0:
264,200,252143,1,0,0:0:0:0:
264,200,252315,1,2,0:0:0:0:
264,200,252402,1,0,0:0:0:0:
264,200,252574,1,0,0:0:0:0:
264,200,252660,1,2,0:0:0:0:
264,200,252833,1,0,0:0:0:0:
264,200,252919,1,2,0:0:0:0:
264,200,253005,1,2,0:0:0:0:
264,200,253092,1,0,0:0:0:0:
264,200,253178,1,2,0:0:0:0:
264,200,253264,1,0,0:0:0:0:
264,200,253350,1,0,0:0:0:0:
264,200,253437,1,2,0:0:0:0:
264,200,253523,1,0,0:0:0:0:
264,200,253609,1,0,0:0:0:0:
264,200,253695,1,2,0:0:0:0:
264,200,253781,1,0,0:0:0:0:
264,200,253868,1,0,0:0:0:0:
264,200,253954,1,2,0:0:0:0:
264,200,254040,1,2,0:0:0:0:
264,200,254126,1,2,0:0:0:0:
264,200,254212,1,2,0:0:0:0:
264,200,254299,1,2,0:0:0:0:
264,200,254385,1,2,0:0:0:0:
264,200,254471,1,2,0:0:0:0:
264,200,254557,1,2,0:0:0:0:
264,200,254643,1,2,0:0:0:0:
264,200,254730,1,0,0:0:0:0:
264,200,255074,1,2,0:0:0:0:
264,200,255247,1,0,0:0:0:0:
264,200,255333,1,2,0:0:0:0:
264,200,255419,1,0,0:0:0:0:
264,200,255592,1,2,0:0:0:0:
264,200,255678,1,0,0:0:0:0:
264,200,255764,1,2,0:0:0:0:
264,200,255850,1,2,0:0:0:0:
264,200,255937,1,0,0:0:0:0:
264,200,256109,1,0,0:0:0:0:
264,200,256281,1,2,0:0:0:0:
264,200,256368,1,0,0:0:0:0:
264,200,256454,1,2,0:0:0:0:
264,200,256626,1,2,0:0:0:0:
264,200,256799,1,0,0:0:0:0:
264,200,256885,1,0,0:0:0:0:
264,200,256971,1,2,0:0:0:0:
264,200,257057,1,0,0:0:0:0:
264,200,257143,1,2,0:0:0:0:
264,200,257316,1,2,0:0:0:0:
264,200,257488,1,0,0:0:0:0:
264,200,257661,1,2,0:0:0:0:
264,200,257747,1,2,0:0:0:0:
264,200,257833,1,0,0:0:0:0:
264,200,258005,1,2,0:0:0:0:
264,200,258178,1,2,0:0:0:0:
264,200,258264,1,0,0:0:0:0:
264,200,258350,1,0,0:0:0:0:
264,200,258437,1,2,0:0:0:0:
264,200,258523,1,2,0:0:0:0:
264,200,258695,1,0,0:0:0:0:
264,200,258868,1,2,0:0:0:0:
264,200,259040,1,0,0:0:0:0:
264,200,259126,1,2,0:0:0:0:
264,200,259212,1,2,0:0:0:0:
264,200,259385,1,2,0:0:0:0:
264,200,259471,1,2,0:0:0:0:
264,200,259557,1,0,0:0:0:0:
264,200,259643,1,2,0:0:0:0:
264,200,259730,1,0,0:0:0:0:
264,200,259816,1,0,0:0:0:0:
264,200,259902,1,2,0:0:0:0:
264,200,260074,1,2,0:0:0:0:
264,200,260247,1,0,0:0:0:0:
264,200,260419,1,0,0:0:0:0:
264,200,260505,1,2,0:0:0:0:
264,200,260592,1,0,0:0:0:0:
264,200,260764,1,2,0:0:0:0:
264,200,260850,1,2,0:0:0:0:
264,200,260937,1,0,0:0:0:0:
264,200,261109,1,2,0:0:0:0:
264,200,261195,1,0,0:0:0:0:
264,200,261281,1,2,0:0:0:0:
264,200,261368,1,2,0:0:0:0:
264,200,261454,1,0,0:0:0:0:
264,200,261626,1,2,0:0:0:0:
264,200,261799,1,0,0:0:0:0:
264,200,261885,1,0,0:0:0:0:
264,200,261971,1,2,0:0:0:0:
264,200,262143,1,2,0:0:0:0:
264,192,262316,1,2,0:0:0:0:
264,200,262402,1,2,0:0:0:0:
264,200,262488,1,0,0:0:0:0:
264,200,262574,1,0,0:0:0:0:
264,200,262661,1,2,0:0:0:0:
264,200,262833,1,2,0:0:0:0:
264,200,263005,1,0,0:0:0:0:
264,200,263178,1,2,0:0:0:0:
264,200,263264,1,2,0:0:0:0:
264,200,263350,1,0,0:0:0:0:
272,192,263523,1,2,0:0:0:0:
264,200,263695,1,2,0:0:0:0:
264,200,263781,1,0,0:0:0:0:
264,200,263868,1,2,0:0:0:0:
264,200,263954,1,2,0:0:0:0:
264,200,264040,1,0,0:0:0:0:
264,200,264212,1,0,0:0:0:0:
264,200,264385,1,2,0:0:0:0:
264,200,264557,1,0,0:0:0:0:
264,200,264643,1,0,0:0:0:0:
264,200,264730,1,2,0:0:0:0:
264,200,264902,1,0,0:0:0:0:
264,200,264988,1,2,0:0:0:0:
264,200,265074,1,0,0:0:0:0:
264,200,265161,1,0,0:0:0:0:
264,200,265247,1,2,0:0:0:0:
264,200,265333,1,2,0:0:0:0:
264,200,265419,1,0,0:0:0:0:
264,200,265505,1,2,0:0:0:0:
264,200,265592,1,2,0:0:0:0:
264,200,265678,1,2,0:0:0:0:
264,200,265764,1,0,0:0:0:0:
264,200,266109,1,2,0:0:0:0:
264,200,266282,1,0,0:0:0:0:
264,200,266368,1,2,0:0:0:0:
264,200,266454,1,0,0:0:0:0:
264,200,266627,1,2,0:0:0:0:
264,200,266713,1,0,0:0:0:0:
264,200,266799,1,2,0:0:0:0:
264,200,266885,1,2,0:0:0:0:
264,200,266972,1,0,0:0:0:0:
264,200,267144,1,0,0:0:0:0:
264,200,267316,1,2,0:0:0:0:
264,200,267403,1,0,0:0:0:0:
264,200,267489,1,2,0:0:0:0:
264,200,267661,1,2,0:0:0:0:
264,200,267834,1,0,0:0:0:0:
264,200,267920,1,0,0:0:0:0:
264,200,268006,1,2,0:0:0:0:
264,200,268092,1,0,0:0:0:0:
264,200,268178,1,2,0:0:0:0:
264,200,268351,1,2,0:0:0:0:
264,200,268523,1,0,0:0:0:0:
264,200,268696,1,2,0:0:0:0:
264,200,268782,1,2,0:0:0:0:
264,200,268868,1,0,0:0:0:0:
264,200,269040,1,2,0:0:0:0:
264,200,269213,1,2,0:0:0:0:
264,200,269299,1,0,0:0:0:0:
264,200,269385,1,0,0:0:0:0:
264,200,269472,1,2,0:0:0:0:
264,200,269558,1,2,0:0:0:0:
264,200,269730,1,0,0:0:0:0:
264,200,269903,1,2,0:0:0:0:
264,200,270075,1,0,0:0:0:0:
264,200,270161,1,2,0:0:0:0:
264,200,270247,1,2,0:0:0:0:
264,200,270420,1,2,0:0:0:0:
264,200,270506,1,2,0:0:0:0:
264,200,270592,1,0,0:0:0:0:
264,200,270678,1,2,0:0:0:0:
264,200,270765,1,0,0:0:0:0:
264,200,270851,1,0,0:0:0:0:
264,200,270937,1,2,0:0:0:0:
264,200,271109,1,2,0:0:0:0:
264,200,271282,1,0,0:0:0:0:
264,200,271454,1,0,0:0:0:0:
264,200,271540,1,2,0:0:0:0:
264,200,271627,1,0,0:0:0:0:
264,200,271799,1,2,0:0:0:0:
264,200,271885,1,2,0:0:0:0:
264,200,271972,1,0,0:0:0:0:
264,200,272144,1,2,0:0:0:0:
264,200,272230,1,0,0:0:0:0:
264,200,272316,1,2,0:0:0:0:
264,200,272403,1,2,0:0:0:0:
264,200,272489,1,0,0:0:0:0:
264,200,272661,1,2,0:0:0:0:
264,200,272834,1,0,0:0:0:0:
264,200,272920,1,0,0:0:0:0:
264,200,273006,1,2,0:0:0:0:
264,200,273178,1,2,0:0:0:0:
272,192,273350,1,2,0:0:0:0:
264,200,273437,1,2,0:0:0:0:
264,200,273523,1,0,0:0:0:0:
264,200,273609,1,0,0:0:0:0:
264,200,273696,1,2,0:0:0:0:
264,200,273868,1,2,0:0:0:0:
264,200,274040,1,0,0:0:0:0:
264,200,274212,1,0,0:0:0:0:
264,200,274385,1,0,0:0:0:0:
264,200,274557,1,0,0:0:0:0:
264,200,274643,1,2,0:0:0:0:
264,200,274730,1,0,0:0:0:0:
264,200,274816,1,0,0:0:0:0:
264,200,274902,1,2,0:0:0:0:
264,200,274988,1,0,0:0:0:0:
264,200,275074,1,2,0:0:0:0:
264,200,275161,1,2,0:0:0:0:
264,200,275247,1,0,0:0:0:0:
248,192,275419,1,2,0:0:0:0:
248,192,275505,1,2,0:0:0:0:
248,192,275592,1,0,0:0:0:0:
248,192,275678,1,2,0:0:0:0:
248,192,275764,1,0,0:0:0:0:
248,192,275850,1,0,0:0:0:0:
248,192,275937,1,2,0:0:0:0:
248,192,276023,1,0,0:0:0:0:
248,192,276109,1,2,0:0:0:0:
248,192,276454,1,0,0:0:0:0:
248,192,276540,1,0,0:0:0:0:
248,192,276626,1,0,0:0:0:0:
248,192,276712,1,0,0:0:0:0:
248,192,276799,1,0,0:0:0:0:
248,192,277143,1,2,0:0:0:0:
248,192,277316,1,0,0:0:0:0:
248,192,277488,1,0,0:0:0:0:
248,192,277574,1,2,0:0:0:0:
248,192,277747,1,0,0:0:0:0:
248,192,277833,1,2,0:0:0:0:
248,192,277919,1,2,0:0:0:0:
248,192,278005,1,0,0:0:0:0:
248,192,278178,1,0,0:0:0:0:
248,192,278264,1,0,0:0:0:0:
248,192,278437,1,0,0:0:0:0:
248,192,278523,1,2,0:0:0:0:
248,192,278695,1,2,0:0:0:0:
248,192,278781,1,0,0:0:0:0:
248,192,278868,1,0,0:0:0:0:
248,192,278954,1,2,0:0:0:0:
248,192,279040,1,0,0:0:0:0:
248,192,279212,1,2,0:0:0:0:
248,192,279385,1,2,0:0:0:0:
248,192,279471,1,2,0:0:0:0:
248,192,279557,1,0,0:0:0:0:
256,192,279730,1,0,0:0:0:0:
248,192,279902,1,2,0:0:0:0:
248,192,279988,1,0,0:0:0:0:
248,192,280161,1,0,0:0:0:0:
240,192,280247,1,2,0:0:0:0:
264,184,280333,1,2,0:0:0:0:
240,192,280419,1,0,0:0:0:0:
248,184,280592,1,2,0:0:0:0:
264,184,280678,1,0,0:0:0:0:
264,184,280764,1,0,0:0:0:0:
248,184,280937,1,2,0:0:0:0:
248,192,281109,1,0,0:0:0:0:
248,192,281195,1,0,0:0:0:0:
248,192,281281,1,2,0:0:0:0:
248,192,281454,1,2,0:0:0:0:
248,192,281540,1,0,0:0:0:0:
248,192,281626,1,0,0:0:0:0:
248,192,281712,1,2,0:0:0:0:
248,192,281799,1,0,0:0:0:0:
248,192,281971,1,2,0:0:0:0:
248,192,282057,1,0,0:0:0:0:
248,192,282143,1,2,0:0:0:0:
248,192,282230,1,2,0:0:0:0:
248,192,282316,1,0,0:0:0:0:
248,192,282661,1,2,0:0:0:0:
248,192,282834,1,0,0:0:0:0:
248,192,283006,1,0,0:0:0:0:
248,192,283092,1,2,0:0:0:0:
248,192,283265,1,0,0:0:0:0:
248,192,283351,1,2,0:0:0:0:
248,192,283437,1,2,0:0:0:0:
248,192,283523,1,0,0:0:0:0:
248,192,283696,1,0,0:0:0:0:
248,192,283782,1,0,0:0:0:0:
248,192,283954,1,0,0:0:0:0:
248,192,284041,1,2,0:0:0:0:
248,192,284213,1,2,0:0:0:0:
248,192,284299,1,0,0:0:0:0:
248,192,284386,1,0,0:0:0:0:
248,192,284472,1,2,0:0:0:0:
248,192,284558,1,0,0:0:0:0:
248,192,284730,1,2,0:0:0:0:
248,192,284903,1,2,0:0:0:0:
248,192,284989,1,2,0:0:0:0:
248,192,285075,1,0,0:0:0:0:
256,176,285247,1,0,0:0:0:0:
256,176,285419,1,2,0:0:0:0:
256,192,285505,1,0,0:0:0:0:
248,176,285678,1,2,0:0:0:0:
248,176,285764,1,0,0:0:0:0:
264,200,285850,1,0,0:0:0:0:
248,176,285937,1,2,0:0:0:0:
248,184,286109,1,0,0:0:0:0:
248,192,286195,1,2,0:0:0:0:
248,192,286281,1,0,0:0:0:0:
248,192,286454,1,0,0:0:0:0:
248,192,286540,1,2,0:0:0:0:
248,192,286712,1,0,0:0:0:0:
248,192,286798,1,2,0:0:0:0:
248,192,286971,1,0,0:0:0:0:
248,192,287057,1,2,0:0:0:0:
248,192,287143,1,0,0:0:0:0:
248,192,287230,1,0,0:0:0:0:
248,192,287316,1,2,0:0:0:0:
248,192,287488,1,2,0:0:0:0:
248,192,287574,1,2,0:0:0:0:
248,192,287661,1,0,0:0:0:0:
248,192,287747,1,2,0:0:0:0:
248,192,287833,1,0,0:0:0:0:
248,192,288177,1,2,0:0:0:0:
248,192,288350,1,0,0:0:0:0:
248,192,288522,1,0,0:0:0:0:
248,192,288608,1,2,0:0:0:0:
248,192,288781,1,0,0:0:0:0:
248,192,288867,1,2,0:0:0:0:
248,192,288953,1,2,0:0:0:0:
248,192,289039,1,0,0:0:0:0:
248,192,289212,1,0,0:0:0:0:
248,192,289298,1,0,0:0:0:0:
248,192,289471,1,0,0:0:0:0:
248,192,289557,1,2,0:0:0:0:
248,192,289729,1,2,0:0:0:0:
248,192,289815,1,0,0:0:0:0:
248,192,289902,1,0,0:0:0:0:
248,192,289988,1,2,0:0:0:0:
248,192,290074,1,0,0:0:0:0:
248,192,290246,1,2,0:0:0:0:
248,192,290419,1,2,0:0:0:0:
248,192,290505,1,2,0:0:0:0:
248,192,290592,1,0,0:0:0:0:
256,192,290765,1,0,0:0:0:0:
248,192,290937,1,2,0:0:0:0:
248,192,291023,1,0,0:0:0:0:
248,192,291196,1,0,0:0:0:0:
240,192,291282,1,2,0:0:0:0:
248,176,291368,1,2,0:0:0:0:
240,192,291454,1,0,0:0:0:0:
248,184,291627,1,2,0:0:0:0:
240,192,291712,1,0,0:0:0:0:
264,184,291799,1,0,0:0:0:0:
256,176,291971,1,2,0:0:0:0:
248,192,292143,1,0,0:0:0:0:
248,192,292229,1,0,0:0:0:0:
248,192,292315,1,2,0:0:0:0:
248,192,292488,1,2,0:0:0:0:
248,192,292574,1,0,0:0:0:0:
248,192,292660,1,0,0:0:0:0:
248,192,292746,1,2,0:0:0:0:
248,192,292833,1,0,0:0:0:0:
248,192,293005,1,2,0:0:0:0:
248,192,293091,1,0,0:0:0:0:
248,192,293177,1,2,0:0:0:0:
248,192,293264,1,2,0:0:0:0:
248,192,293350,1,0,0:0:0:0:
248,192,293695,1,2,0:0:0:0:
248,192,293868,1,0,0:0:0:0:
248,192,294040,1,0,0:0:0:0:
248,192,294126,1,2,0:0:0:0:
248,192,294299,1,0,0:0:0:0:
248,192,294385,1,2,0:0:0:0:
248,192,294471,1,2,0:0:0:0:
248,192,294557,1,0,0:0:0:0:
248,192,294730,1,0,0:0:0:0:
248,192,294816,1,0,0:0:0:0:
248,192,294988,1,0,0:0:0:0:
248,192,295075,1,2,0:0:0:0:
248,192,295247,1,2,0:0:0:0:
248,192,295333,1,0,0:0:0:0:
248,192,295420,1,0,0:0:0:0:
248,192,295506,1,2,0:0:0:0:
248,192,295592,1,0,0:0:0:0:
248,192,295764,1,2,0:0:0:0:
248,192,295937,1,2,0:0:0:0:
248,192,296023,1,2,0:0:0:0:
248,192,296109,1,0,0:0:0:0:
248,192,296281,1,0,0:0:0:0:
248,192,296454,1,2,0:0:0:0:
256,192,296540,1,0,0:0:0:0:
248,192,296712,1,0,0:0:0:0:
256,184,296799,1,2,0:0:0:0:
256,184,296885,1,0,0:0:0:0:
248,184,296971,1,0,0:0:0:0:
256,184,297057,1,2,0:0:0:0:
248,184,297143,1,2,0:0:0:0:
248,192,297230,1,2,0:0:0:0:
248,192,297316,1,0,0:0:0:0:
248,192,297488,1,0,0:0:0:0:
248,192,297574,1,2,0:0:0:0:
248,192,297661,1,0,0:0:0:0:
248,192,297747,1,0,0:0:0:0:
248,192,297833,1,2,0:0:0:0:
248,192,297919,1,0,0:0:0:0:
248,192,298005,1,0,0:0:0:0:
248,192,298092,1,2,0:0:0:0:
248,192,298178,1,0,0:0:0:0:
248,192,298264,1,0,0:0:0:0:
248,192,298350,1,2,0:0:0:0:
248,192,298437,1,0,0:0:0:0:
248,192,298523,1,2,0:0:0:0:
248,192,298609,1,2,0:0:0:0:
248,192,298695,1,0,0:0:0:0:
248,192,298781,1,2,0:0:0:0:
248,192,298868,1,0,0:0:0:0:
248,192,301626,1,0,0:0:0:0:
248,192,303695,1,0,0:0:0:0:
248,192,304385,1,2,0:0:0:0:
272,200,307143,1,0,0:0:0:0:
264,200,307833,1,2,0:0:0:0:
264,200,308523,1,0,0:0:0:0:
264,200,308868,1,2,0:0:0:0:
264,200,309212,1,2,0:0:0:0:
264,200,309557,1,2,0:0:0:0:
264,200,309902,1,0,0:0:0:0:
264,200,312661,1,0,0:0:0:0:
264,200,314730,1,0,0:0:0:0:
264,200,315419,1,2,0:0:0:0:
264,200,317833,1,0,0:0:0:0:
256,192,318178,12,0,320937,0:0:0:0:
