osu file format v14

[General]
AudioFilename: audio.mp3
AudioLeadIn: 0
PreviewTime: 254040
Countdown: 0
SampleSet: Soft
StackLeniency: 0.7
Mode: 3
LetterboxInBreaks: 0
SpecialStyle: 0
WidescreenStoryboard: 1

[Editor]
Bookmarks: 11971,34040,45074,56109,78178,100247,122316,144385,166454,188523,210592,232661,243695,254730,265764,276799,298868,323695
DistanceSpacing: 1.4
BeatDivisor: 4
GridSize: 4
TimelineZoom: 2.1

[Metadata]
Title:
TitleUnicode:
Artist:kamome sano
ArtistUnicode:kamome sano
Creator:K a b i -
Version:
Source:
Tags:emotional liliumx2 lilium records x2 freezer frozen system 2015 critical_star famoss
BeatmapID:1699856
BeatmapSetID:800663

[Difficulty]
HPDrainRate:8.7
CircleSize:7
OverallDifficulty:8.2
ApproachRate:5
SliderMultiplier:1.4
SliderTickRate:1

[Events]
//Background and Video events
0,0,"cropped-1920-1080-587772.jpg",0,0
//Break Periods
//Storyboard Layer 0 (Background)
//Storyboard Layer 1 (Fail)
//Storyboard Layer 2 (Pass)
//Storyboard Layer 3 (Foreground)
//Storyboard Sound Samples

[TimingPoints]
937,344.827586206897,4,2,1,50,1,0
122316,-100,4,2,1,50,0,1
166454,-100,4,2,1,50,0,0
254730,-100,4,2,1,50,0,1
298868,-100,4,2,1,50,0,0

[HitObjects]
182,192,937,5,0,0:0:0:50:LR4_BassKickReverbXD.wav
475,192,937,1,0,0:0:0:0:
36,192,1109,1,0,0:0:0:0:
256,192,1281,1,0,0:0:0:0:
329,192,1454,1,0,0:0:0:0:
402,192,1626,1,0,0:0:0:0:
475,192,1799,1,0,0:0:0:0:
182,192,1971,1,0,0:0:0:0:
36,192,2143,1,0,0:0:0:0:
256,192,2316,1,0,0:0:0:0:
329,192,2488,1,0,0:0:0:0:
402,192,2661,1,0,0:0:0:0:
475,192,2833,1,0,0:0:0:0:
182,192,3005,1,0,0:0:0:0:
36,192,3178,1,0,0:0:0:0:
256,192,3350,1,0,0:0:0:0:
329,192,3523,1,0,0:0:0:0:
402,192,3695,1,0,0:0:0:0:
475,192,3868,1,0,0:0:0:0:
182,192,4040,1,0,0:0:0:0:
36,192,4212,1,0,0:0:0:0:
256,192,4385,1,0,0:0:0:0:
329,192,4557,1,0,0:0:0:0:
402,192,4730,1,0,0:0:0:0:
475,192,4902,1,0,0:0:0:0:
182,192,5074,1,0,0:0:0:0:
36,192,5247,1,0,0:0:0:0:
256,192,5419,1,0,0:0:0:0:
329,192,5592,1,0,0:0:0:0:
402,192,5764,1,0,0:0:0:0:
475,192,5937,1,0,0:0:0:0:
329,192,6109,1,0,0:0:0:0:
182,192,6109,1,0,0:0:0:0:
109,192,6224,1,0,0:0:0:0:
475,192,6310,1,0,0:0:0:0:
402,192,6368,1,0,0:0:0:0:
329,192,6411,1,0,0:0:0:0:
256,192,6454,1,0,0:0:0:0:
36,192,6454,1,0,0:0:0:0:
329,192,6626,1,0,0:0:0:0:
402,192,6799,1,0,0:0:0:0:
475,192,6971,1,0,0:0:0:0:
182,192,7143,1,0,0:0:0:0:
109,192,7316,1,0,0:0:0:0:
256,192,7488,1,0,0:0:0:0:
329,192,7661,1,0,0:0:0:0:
402,192,7833,1,0,0:0:0:0:
475,192,8005,1,0,0:0:0:0:
182,192,8178,1,0,0:0:0:0:
109,192,8350,1,0,0:0:0:0:
256,192,8523,1,0,0:0:0:0:
329,192,8695,1,0,0:0:0:0:
402,192,8868,1,0,0:0:0:0:
475,192,9040,1,0,0:0:0:0:
182,192,9212,1,0,0:0:0:0:
109,192,9385,1,0,0:0:0:0:
256,192,9557,1,0,0:0:0:0:
329,192,9730,1,0,0:0:0:0:
402,192,9902,1,0,0:0:0:0:
36,192,9902,128,0,10074:0:0:0:0:
475,192,10074,1,0,0:0:0:0:
36,192,10161,128,0,10419:0:0:0:0:
182,192,10247,1,0,0:0:0:0:
109,192,10419,1,0,0:0:0:0:
36,192,10592,128,0,11885:0:0:0:0:
182,192,10592,128,0,11885:0:0:0:0:
256,192,10592,1,0,0:0:0:0:
329,192,10764,1,0,0:0:0:0:
402,192,10937,1,0,0:0:0:0:
475,192,11109,1,0,0:0:0:0:
329,192,11281,1,0,0:0:0:0:
256,192,11454,1,0,0:0:0:0:
109,192,11454,128,0,11885:0:0:0:0:
402,192,11626,1,0,0:0:0:0:
329,192,11799,1,0,0:0:0:0:
402,192,11971,1,0,0:0:0:0:
475,192,11971,1,0,0:0:0:0:
182,192,11971,1,0,0:0:0:0:
36,192,11971,1,0,0:0:0:0:
182,192,12143,1,0,0:0:0:0:
402,192,12316,128,0,12574:0:0:0:0:
109,192,12316,1,0,0:0:0:0:
109,192,12488,1,0,0:0:0:0:
329,192,12661,128,0,12747:0:0:0:0:
36,192,12661,1,0,0:0:0:0:
402,192,12833,128,0,12919:0:0:0:0:
109,192,12833,1,0,0:0:0:0:
182,192,13005,1,0,0:0:0:0:
475,192,13178,128,0,13264:0:0:0:0:
182,192,13178,1,0,0:0:0:0:
475,192,13350,128,0,13437:0:0:0:0:
36,192,13350,1,0,0:0:0:0:
329,192,13523,128,0,13609:0:0:0:0:
36,192,13523,1,0,0:0:0:0:
402,192,13695,128,0,13781:0:0:0:0:
109,192,13695,1,0,0:0:0:0:
329,192,13868,128,0,13954:0:0:0:0:
109,192,13868,1,0,0:0:0:0:
182,192,14040,1,0,0:0:0:0:
182,192,14212,1,0,0:0:0:0:
329,192,14385,128,0,14471:0:0:0:0:
36,192,14385,1,0,0:0:0:0:
402,192,14557,128,0,14643:0:0:0:0:
109,192,14557,1,0,0:0:0:0:
475,192,14730,128,0,15074:0:0:0:0:
182,192,14730,1,0,0:0:0:0:
182,192,14902,1,0,0:0:0:0:
329,192,15074,128,0,15161:0:0:0:0:
109,192,15074,1,0,0:0:0:0:
402,192,15247,128,0,15592:0:0:0:0:
109,192,15247,1,0,0:0:0:0:
36,192,15419,1,0,0:0:0:0:
36,192,15592,1,0,0:0:0:0:
475,192,15764,128,0,15937:0:0:0:0:
182,192,15764,1,0,0:0:0:0:
329,192,15937,1,0,0:0:0:0:
182,192,15937,1,0,0:0:0:0:
475,192,16023,1,0,0:0:0:0:
329,192,16109,1,0,0:0:0:0:
109,192,16109,1,0,0:0:0:0:
36,192,16281,1,0,0:0:0:0:
182,192,16454,1,0,0:0:0:0:
109,192,16626,1,0,0:0:0:0:
256,192,16799,1,0,0:0:0:0:
402,192,16799,1,0,0:0:0:0:
182,192,16971,1,0,0:0:0:0:
329,192,17143,128,0,17230:0:0:0:0:
36,192,17143,1,0,0:0:0:0:
475,192,17316,128,0,17402:0:0:0:0:
182,192,17316,1,0,0:0:0:0:
36,192,17488,1,0,0:0:0:0:
329,192,17488,1,0,0:0:0:0:
36,192,17661,1,0,0:0:0:0:
109,192,17833,1,0,0:0:0:0:
109,192,18005,1,0,0:0:0:0:
182,192,18178,1,0,0:0:0:0:
182,192,18350,1,0,0:0:0:0:
475,192,18350,128,0,18437:0:0:0:0:
329,192,18523,128,0,18781:0:0:0:0:
36,192,18523,1,0,0:0:0:0:
475,192,18695,128,0,18781:0:0:0:0:
182,192,18695,1,0,0:0:0:0:
109,192,18868,1,0,0:0:0:0:
256,192,19040,1,0,0:0:0:0:
109,192,19212,1,0,0:0:0:0:
256,192,19385,1,0,0:0:0:0:
36,192,19557,1,0,0:0:0:0:
36,192,19730,1,0,0:0:0:0:
182,192,19902,1,0,0:0:0:0:
182,192,20074,1,0,0:0:0:0:
329,192,20074,128,0,20161:0:0:0:0:
36,192,20247,1,0,0:0:0:0:
475,192,20247,128,0,20333:0:0:0:0:
182,192,20419,1,0,0:0:0:0:
402,192,20419,128,0,20505:0:0:0:0:
109,192,20592,1,0,0:0:0:0:
329,192,20764,128,0,20850:0:0:0:0:
109,192,20764,1,0,0:0:0:0:
182,192,20937,1,0,0:0:0:0:
329,192,21109,128,0,21195:0:0:0:0:
182,192,21109,1,0,0:0:0:0:
402,192,21281,128,0,21368:0:0:0:0:
36,192,21281,1,0,0:0:0:0:
475,192,21454,128,0,21540:0:0:0:0:
36,192,21454,1,0,0:0:0:0:
182,192,21626,1,0,0:0:0:0:
329,192,21626,1,0,0:0:0:0:
182,192,21799,128,0,21971:0:0:0:0:
109,192,21885,128,0,22057:0:0:0:0:
36,192,21971,128,0,22143:0:0:0:0:
329,192,22057,128,0,22230:0:0:0:0:
402,192,22143,128,0,22316:0:0:0:0:
475,192,22230,128,0,22402:0:0:0:0:
36,192,22316,128,0,22488:0:0:0:0:
182,192,22402,128,0,22574:0:0:0:0:
329,192,22488,128,0,22661:0:0:0:0:
475,192,22574,128,0,22747:0:0:0:0:
36,192,22661,128,0,22833:0:0:0:0:
182,192,22747,128,0,22919:0:0:0:0:
329,192,22833,128,0,23005:0:0:0:0:
475,192,22919,128,0,23005:0:0:0:0:
182,192,23005,1,0,0:0:0:0:
36,192,23005,1,0,0:0:0:0:
182,192,23178,1,0,0:0:0:0:
402,192,23350,128,0,23609:0:0:0:0:
109,192,23350,1,0,0:0:0:0:
109,192,23523,1,0,0:0:0:0:
329,192,23695,128,0,23781:0:0:0:0:
36,192,23695,1,0,0:0:0:0:
402,192,23868,128,0,23954:0:0:0:0:
109,192,23868,1,0,0:0:0:0:
182,192,24040,1,0,0:0:0:0:
475,192,24212,128,0,24299:0:0:0:0:
182,192,24212,1,0,0:0:0:0:
475,192,24385,128,0,24471:0:0:0:0:
109,192,24385,1,0,0:0:0:0:
402,192,24557,128,0,24643:0:0:0:0:
109,192,24557,1,0,0:0:0:0:
329,192,24730,128,0,24816:0:0:0:0:
36,192,24730,1,0,0:0:0:0:
402,192,24902,128,0,24988:0:0:0:0:
36,192,24902,1,0,0:0:0:0:
182,192,25074,1,0,0:0:0:0:
182,192,25247,1,0,0:0:0:0:
329,192,25419,128,0,25505:0:0:0:0:
109,192,25419,1,0,0:0:0:0:
402,192,25592,128,0,25678:0:0:0:0:
182,192,25592,1,0,0:0:0:0:
475,192,25764,128,0,26109:0:0:0:0:
36,192,25764,1,0,0:0:0:0:
36,192,25937,1,0,0:0:0:0:
329,192,26109,128,0,26195:0:0:0:0:
182,192,26109,1,0,0:0:0:0:
402,192,26281,128,0,26626:0:0:0:0:
109,192,26281,1,0,0:0:0:0:
36,192,26454,1,0,0:0:0:0:
36,192,26626,1,0,0:0:0:0:
109,192,26799,1,0,0:0:0:0:
329,192,26799,128,0,26885:0:0:0:0:
475,192,26971,128,0,27316:0:0:0:0:
182,192,26971,1,0,0:0:0:0:
36,192,27143,1,0,0:0:0:0:
256,192,27143,1,0,0:0:0:0:
402,192,27143,128,0,27316:0:0:0:0:
36,192,27316,1,0,0:0:0:0:
109,192,27488,1,0,0:0:0:0:
256,192,27488,1,0,0:0:0:0:
109,192,27661,1,0,0:0:0:0:
402,192,27833,128,0,27919:0:0:0:0:
182,192,27833,1,0,0:0:0:0:
36,192,27833,1,0,0:0:0:0:
402,192,28005,128,0,28092:0:0:0:0:
182,192,28005,1,0,0:0:0:0:
329,192,28178,128,0,28264:0:0:0:0:
109,192,28178,1,0,0:0:0:0:
36,192,28178,1,0,0:0:0:0:
475,192,28350,128,0,28695:0:0:0:0:
182,192,28350,1,0,0:0:0:0:
256,192,28523,1,0,0:0:0:0:
36,192,28523,1,0,0:0:0:0:
256,192,28695,1,0,0:0:0:0:
36,192,28695,1,0,0:0:0:0:
182,192,28868,1,0,0:0:0:0:
36,192,28868,1,0,0:0:0:0:
182,192,29040,1,0,0:0:0:0:
36,192,29040,1,0,0:0:0:0:
256,192,29212,1,0,0:0:0:0:
109,192,29212,1,0,0:0:0:0:
402,192,29385,128,0,29471:0:0:0:0:
256,192,29385,1,0,0:0:0:0:
109,192,29385,1,0,0:0:0:0:
182,192,29557,1,0,0:0:0:0:
36,192,29557,1,0,0:0:0:0:
329,192,29557,128,0,29643:0:0:0:0:
475,192,29730,128,0,29816:0:0:0:0:
182,192,29730,1,0,0:0:0:0:
36,192,29730,1,0,0:0:0:0:
109,192,29902,1,0,0:0:0:0:
329,192,29902,1,0,0:0:0:0:
329,192,30074,1,0,0:0:0:0:
109,192,30074,1,0,0:0:0:0:
256,192,30247,1,0,0:0:0:0:
36,192,30247,1,0,0:0:0:0:
256,192,30419,1,0,0:0:0:0:
36,192,30419,1,0,0:0:0:0:
402,192,30592,1,0,0:0:0:0:
182,192,30592,1,0,0:0:0:0:
402,192,30764,1,0,0:0:0:0:
182,192,30764,1,0,0:0:0:0:
256,192,30937,1,0,0:0:0:0:
109,192,30937,1,0,0:0:0:0:
475,192,31109,128,0,31195:0:0:0:0:
256,192,31109,1,0,0:0:0:0:
109,192,31109,1,0,0:0:0:0:
36,192,31281,1,0,0:0:0:0:
402,192,31281,1,0,0:0:0:0:
182,192,31281,128,0,31368:0:0:0:0:
329,192,31368,1,0,0:0:0:0:
109,192,31454,1,0,0:0:0:0:
256,192,31454,128,0,31540:0:0:0:0:
475,192,31454,1,0,0:0:0:0:
36,192,31540,1,0,0:0:0:0:
329,192,31626,128,0,31712:0:0:0:0:
182,192,31626,1,0,0:0:0:0:
475,192,31626,1,0,0:0:0:0:
109,192,31712,1,0,0:0:0:0:
256,192,31799,1,0,0:0:0:0:
402,192,31799,1,0,0:0:0:0:
182,192,31885,1,0,0:0:0:0:
329,192,31971,1,0,0:0:0:0:
475,192,31971,1,0,0:0:0:0:
36,192,31971,1,0,0:0:0:0:
182,192,32057,1,0,0:0:0:0:
402,192,32143,1,0,0:0:0:0:
109,192,32143,1,0,0:0:0:0:
256,192,32143,128,0,32230:0:0:0:0:
475,192,32230,1,0,0:0:0:0:
329,192,32316,1,0,0:0:0:0:
36,192,32316,1,0,0:0:0:0:
182,192,32316,128,0,32402:0:0:0:0:
402,192,32402,1,0,0:0:0:0:
256,192,32488,1,0,0:0:0:0:
109,192,32488,1,0,0:0:0:0:
329,192,32574,1,0,0:0:0:0:
109,192,32661,1,0,0:0:0:0:
36,192,32661,1,0,0:0:0:0:
402,192,32661,1,0,0:0:0:0:
475,192,32661,1,0,0:0:0:0:
36,192,32833,1,0,0:0:0:0:
109,192,32833,1,0,0:0:0:0:
402,192,32833,1,0,0:0:0:0:
475,192,32833,1,0,0:0:0:0:
475,192,33005,1,0,0:0:0:0:
402,192,33005,1,0,0:0:0:0:
109,192,33005,1,0,0:0:0:0:
36,192,33005,1,0,0:0:0:0:
36,192,33178,1,0,0:0:0:0:
109,192,33178,1,0,0:0:0:0:
402,192,33178,1,0,0:0:0:0:
475,192,33178,1,0,0:0:0:0:
256,192,33350,128,0,34040:0:0:0:0:
475,192,34040,128,0,35419:0:0:0:50:LR4_BassKickReverbXD.wav
329,192,34040,128,0,35419:0:0:0:0:
182,192,34040,128,0,34385:0:0:0:0:
36,192,34471,128,0,34557:0:0:0:0:
182,192,34557,128,0,34643:0:0:0:0:
402,192,34902,128,0,35419:0:0:0:0:
256,192,34902,128,0,34988:0:0:0:0:
182,192,35074,128,0,35161:0:0:0:0:
109,192,35247,128,0,35333:0:0:0:0:
36,192,35419,128,0,36799:0:0:0:0:
475,192,35764,128,0,35850:0:0:0:0:
182,192,35937,128,0,36799:0:0:0:0:
329,192,35937,128,0,36023:0:0:0:0:
109,192,36109,128,0,36799:0:0:0:0:
402,192,36281,128,0,36540:0:0:0:0:
329,192,36626,128,0,36712:0:0:0:0:
475,192,36799,128,0,37143:0:0:0:0:
402,192,36799,1,0,0:0:0:0:
256,192,36799,128,0,38178:0:0:0:0:
182,192,37143,1,0,0:0:0:0:
329,192,37316,128,0,38005:0:0:0:0:
36,192,37316,128,0,37661:0:0:0:0:
475,192,37488,128,0,38005:0:0:0:0:
182,192,37488,128,0,37833:0:0:0:0:
36,192,37833,128,0,38178:0:0:0:0:
182,192,38005,128,0,38178:0:0:0:0:
475,192,38178,128,0,39557:0:0:0:0:
329,192,38178,128,0,38523:0:0:0:0:
402,192,38178,1,0,0:0:0:0:
109,192,38523,128,0,38868:0:0:0:0:
329,192,38695,128,0,38868:0:0:0:0:
36,192,38868,128,0,39212:0:0:0:0:
256,192,38868,1,0,0:0:0:0:
182,192,39040,128,0,39557:0:0:0:0:
402,192,39040,128,0,39557:0:0:0:0:
109,192,39385,128,0,39557:0:0:0:0:
36,192,39557,128,0,40937:0:0:0:0:
329,192,39557,128,0,39902:0:0:0:0:
256,192,39988,1,0,0:0:0:0:
182,192,40074,128,0,40161:0:0:0:0:
475,192,40074,128,0,40937:0:0:0:0:
256,192,40419,128,0,40592:0:0:0:0:
329,192,40592,128,0,40764:0:0:0:0:
182,192,40764,128,0,40937:0:0:0:0:
329,192,40937,128,0,42230:0:0:0:0:
109,192,40937,1,0,0:0:0:0:
182,192,41109,128,0,41626:0:0:0:0:
109,192,41281,128,0,41626:0:0:0:0:
36,192,41454,128,0,41626:0:0:0:0:
475,192,41799,128,0,42230:0:0:0:0:
182,192,41971,128,0,42230:0:0:0:0:
36,192,42143,128,0,42230:0:0:0:0:
36,192,42316,1,0,0:0:0:0:
475,192,42316,1,0,0:0:0:0:
402,192,42402,1,0,0:0:0:0:
329,192,42488,1,0,0:0:0:0:
36,192,42488,1,0,0:0:0:0:
256,192,42574,1,0,0:0:0:0:
475,192,42661,1,0,0:0:0:0:
109,192,42661,1,0,0:0:0:0:
402,192,42747,1,0,0:0:0:0:
329,192,42833,1,0,0:0:0:0:
109,192,42833,1,0,0:0:0:0:
256,192,42919,1,0,0:0:0:0:
36,192,43005,1,0,0:0:0:0:
402,192,43005,1,0,0:0:0:0:
109,192,43092,1,0,0:0:0:0:
182,192,43178,1,0,0:0:0:0:
402,192,43178,1,0,0:0:0:0:
256,192,43264,1,0,0:0:0:0:
109,192,43350,1,0,0:0:0:0:
475,192,43350,1,0,0:0:0:0:
182,192,43437,1,0,0:0:0:0:
256,192,43523,1,0,0:0:0:0:
475,192,43523,1,0,0:0:0:0:
329,192,43609,1,0,0:0:0:0:
475,192,43695,128,0,43868:0:0:0:0:
36,192,43781,128,0,43954:0:0:0:0:
182,192,43868,128,0,44040:0:0:0:0:
329,192,43954,128,0,44126:0:0:0:0:
475,192,44040,128,0,44212:0:0:0:0:
109,192,44126,128,0,44299:0:0:0:0:
256,192,44212,128,0,44385:0:0:0:0:
402,192,44299,128,0,44471:0:0:0:0:
36,192,44385,128,0,44557:0:0:0:0:
182,192,44471,128,0,44643:0:0:0:0:
475,192,44557,128,0,44730:0:0:0:0:
329,192,44643,128,0,44816:0:0:0:0:
36,192,44730,128,0,44902:0:0:0:0:
182,192,44816,128,0,44988:0:0:0:0:
329,192,44902,128,0,45074:0:0:0:0:
475,192,44988,128,0,45074:0:0:0:0:
36,192,45074,1,0,0:0:0:50:LR4_BassKickReverbXD.wav
109,192,45074,1,0,0:0:0:0:
475,192,45592,128,0,45678:0:0:0:0:
329,192,45937,128,0,46023:0:0:0:0:
402,192,46109,128,0,46195:0:0:0:0:
36,192,46281,128,0,46799:0:0:0:0:
182,192,46454,128,0,46799:0:0:0:0:
475,192,46799,128,0,46885:0:0:0:0:
329,192,46971,128,0,47057:0:0:0:0:
109,192,47316,128,0,47488:0:0:0:0:
182,192,47661,128,0,47833:0:0:0:0:
402,192,47833,128,0,49212:0:0:0:0:
256,192,47833,128,0,48178:0:0:0:0:
109,192,48178,1,0,0:0:0:0:
36,192,48350,128,0,48695:0:0:0:0:
182,192,48523,128,0,48868:0:0:0:0:
36,192,48868,128,0,49212:0:0:0:0:
182,192,49040,128,0,49212:0:0:0:0:
475,192,49212,128,0,50592:0:0:0:0:
329,192,49212,128,0,49557:0:0:0:0:
182,192,49557,128,0,49902:0:0:0:0:
329,192,49730,128,0,49902:0:0:0:0:
36,192,49902,1,0,0:0:0:0:
109,192,50074,128,0,50419:0:0:0:0:
256,192,50419,128,0,50592:0:0:0:0:
36,192,50592,128,0,51971:0:0:0:0:
109,192,50592,1,0,0:0:0:0:
402,192,50592,128,0,50937:0:0:0:0:
329,192,51023,1,0,0:0:0:0:
182,192,51109,128,0,51281:0:0:0:0:
329,192,51454,128,0,51540:0:0:0:0:
256,192,51626,128,0,51712:0:0:0:0:
182,192,51799,128,0,51885:0:0:0:0:
329,192,51971,128,0,53350:0:0:0:0:
475,192,51971,128,0,52143:0:0:0:0:
36,192,52143,128,0,53178:0:0:0:0:
109,192,52316,128,0,53005:0:0:0:0:
182,192,52488,128,0,52833:0:0:0:0:
256,192,52833,128,0,52919:0:0:0:0:
182,192,53005,128,0,53092:0:0:0:0:
109,192,53178,128,0,53264:0:0:0:0:
36,192,53350,128,0,54730:0:0:0:0:
475,192,53350,128,0,53695:0:0:0:0:
256,192,53350,1,0,0:0:0:0:
109,192,53695,128,0,54212:0:0:0:0:
256,192,53868,128,0,54040:0:0:0:0:
329,192,54040,128,0,54126:0:0:0:0:
475,192,54040,128,0,54126:0:0:0:0:
256,192,54212,128,0,54299:0:0:0:0:
402,192,54212,128,0,54299:0:0:0:0:
182,192,54385,128,0,54471:0:0:0:0:
329,192,54385,128,0,54471:0:0:0:0:
109,192,54557,128,0,54643:0:0:0:0:
256,192,54557,128,0,54643:0:0:0:0:
182,192,54730,1,0,0:0:0:0:
329,192,54816,1,0,0:0:0:0:
182,192,54902,1,0,0:0:0:0:
329,192,54988,1,0,0:0:0:0:
182,192,55074,1,0,0:0:0:0:
36,192,55074,1,0,0:0:0:0:
402,192,55161,1,0,0:0:0:0:
109,192,55247,1,0,0:0:0:0:
402,192,55333,1,0,0:0:0:0:
182,192,55419,1,0,0:0:0:0:
36,192,55419,1,0,0:0:0:0:
329,192,55505,1,0,0:0:0:0:
475,192,55505,1,0,0:0:0:0:
182,192,55592,1,0,0:0:0:0:
36,192,55592,1,0,0:0:0:0:
329,192,55678,1,0,0:0:0:0:
475,192,55678,1,0,0:0:0:0:
182,192,55764,1,0,0:0:0:50:snare.wav
36,192,55764,1,0,0:0:0:0:
256,192,55764,1,0,0:0:0:0:
36,192,56109,128,0,56454:0:0:0:50:cymbal.wav
109,192,56109,128,0,56454:0:0:0:50:kick.wav
475,192,56109,128,0,56454:0:0:0:0:
402,192,56109,128,0,56454:0:0:0:0:
256,192,56109,1,0,0:0:0:0:
475,192,56626,128,0,58350:0:0:0:50:cymbal.wav
182,192,56626,128,0,58350:0:0:0:50:kick.wav
329,192,56626,128,0,58350:0:0:0:0:
36,192,56626,128,0,58350:0:0:0:0:
256,192,56626,1,0,0:0:0:0:
402,192,58523,128,0,58781:0:0:0:0:
109,192,58523,128,0,58781:0:0:0:0:
256,192,58523,128,0,58781:0:0:0:0:
256,192,58868,1,0,0:0:0:50:cymbal.wav
109,192,58868,128,0,59212:0:0:0:0:
475,192,58868,128,0,59212:0:0:0:0:
36,192,58868,128,0,59212:0:0:0:50:kick.wav
402,192,58868,128,0,59212:0:0:0:0:
256,192,59385,1,0,0:0:0:50:cymbal.wav
36,192,59385,128,0,61109:0:0:0:50:kick.wav
182,192,59385,128,0,60764:0:0:0:0:
329,192,59385,128,0,60592:0:0:0:0:
475,192,59385,128,0,61109:0:0:0:0:
402,192,60592,1,0,0:0:0:0:
329,192,60678,1,0,0:0:0:0:
256,192,60764,1,0,0:0:0:0:
182,192,60850,1,0,0:0:0:0:
109,192,60937,1,0,0:0:0:0:
182,192,60980,1,0,0:0:0:0:
256,192,61023,1,0,0:0:0:0:
329,192,61066,1,0,0:0:0:0:
402,192,61109,1,0,0:0:0:0:
182,192,61195,1,0,0:0:0:0:
329,192,61281,1,0,0:0:0:0:
36,192,61368,1,0,0:0:0:0:
109,192,61411,1,0,0:0:0:0:
182,192,61454,1,0,0:0:0:0:
475,192,61454,1,0,0:0:0:0:
402,192,61497,1,0,0:0:0:0:
329,192,61540,1,0,0:0:0:0:
256,192,61583,1,0,0:0:0:0:
36,192,61626,128,0,61971:0:0:0:50:cymbal.wav
182,192,61626,128,0,61971:0:0:0:50:kick.wav
475,192,61626,128,0,61971:0:0:0:0:
402,192,61626,128,0,61971:0:0:0:0:
475,192,62143,128,0,63868:0:0:0:50:cymbal.wav
256,192,62143,1,0,0:0:0:50:kick.wav
36,192,62143,128,0,63868:0:0:0:0:
109,192,62143,128,0,63868:0:0:0:0:
402,192,62143,128,0,63868:0:0:0:0:
402,192,64040,128,0,64299:0:0:0:0:
256,192,64040,128,0,64299:0:0:0:0:
109,192,64040,128,0,64299:0:0:0:0:
256,192,64385,1,0,0:0:0:50:cymbal.wav
329,192,64385,128,0,64730:0:0:0:50:kick.wav
402,192,64385,128,0,64730:0:0:0:0:
182,192,64385,128,0,64730:0:0:0:0:
109,192,64385,128,0,64730:0:0:0:0:
475,192,64902,128,0,66626:0:0:0:50:cymbal.wav
402,192,64902,128,0,66626:0:0:0:50:kick.wav
36,192,64902,128,0,66626:0:0:0:0:
109,192,64902,128,0,66626:0:0:0:0:
256,192,64902,1,0,0:0:0:0:
182,192,66109,1,0,0:0:0:0:
182,192,66195,1,0,0:0:0:0:
329,192,66454,1,0,0:0:0:0:
329,192,66540,1,0,0:0:0:0:
329,192,66799,1,0,0:0:0:50:snare.wav
182,192,66799,1,0,0:0:0:0:
475,192,66799,1,0,0:0:0:0:
36,192,66799,1,0,0:0:0:0:
182,192,66914,1,0,0:0:0:0:
329,192,66914,1,0,0:0:0:0:
36,192,67143,128,0,69385:0:0:0:50:cymbal.wav
109,192,67143,128,0,69385:0:0:0:50:kick.wav
475,192,67143,128,0,67488:0:0:0:0:
402,192,67143,128,0,67488:0:0:0:0:
256,192,67143,1,0,0:0:0:0:
329,192,67143,128,0,67488:0:0:0:0:
329,192,67661,128,0,69385:0:0:0:50:cymbal.wav
475,192,67661,128,0,69385:0:0:0:50:kick.wav
182,192,67661,128,0,69385:0:0:0:0:
256,192,67661,1,0,0:0:0:0:
109,192,69557,128,0,69816:0:0:0:0:
402,192,69557,128,0,69816:0:0:0:0:
329,192,69557,128,0,69816:0:0:0:0:
36,192,69902,128,0,70247:0:0:0:50:cymbal.wav
109,192,69902,128,0,70247:0:0:0:50:kick.wav
182,192,69902,128,0,70247:0:0:0:0:
256,192,69902,1,0,0:0:0:0:
475,192,69902,128,0,72143:0:0:0:0:
402,192,69902,128,0,72143:0:0:0:0:
36,192,70419,128,0,71971:0:0:0:50:cymbal.wav
256,192,70419,1,0,0:0:0:50:kick.wav
109,192,70419,128,0,71799:0:0:0:0:
329,192,70419,128,0,72143:0:0:0:0:
256,192,71799,1,0,0:0:0:50:kick.wav
182,192,71799,1,0,0:0:0:0:
182,192,71971,1,0,0:0:0:50:snare.wav
109,192,71971,1,0,0:0:0:0:
36,192,72143,1,0,0:0:0:50:kick.wav
109,192,72143,1,0,0:0:0:0:
256,192,72143,1,0,0:0:0:0:
402,192,72402,1,0,0:0:0:50:kick.wav
475,192,72402,1,0,0:0:0:0:
256,192,72402,1,0,0:0:0:0:
475,192,72661,128,0,73005:0:0:0:50:cymbal.wav
329,192,72661,128,0,73005:0:0:0:50:kick.wav
402,192,72661,128,0,73005:0:0:0:0:
256,192,72661,1,0,0:0:0:0:
36,192,72661,128,0,74902:0:0:0:0:
109,192,72661,128,0,74902:0:0:0:0:
182,192,73178,128,0,74902:0:0:0:50:cymbal.wav
475,192,73178,128,0,74902:0:0:0:50:kick.wav
256,192,73178,1,0,0:0:0:0:
329,192,73178,128,0,74902:0:0:0:0:
256,192,75074,128,0,75419:0:0:0:0:
36,192,75419,128,0,75764:0:0:0:50:cymbal.wav
109,192,75419,128,0,75764:0:0:0:50:kick.wav
402,192,75419,128,0,76281:0:0:0:0:
475,192,75419,128,0,76281:0:0:0:0:
329,192,75419,1,0,0:0:0:0:
256,192,75937,128,0,76281:0:0:0:50:cymbal.wav
329,192,75937,128,0,76281:0:0:0:50:kick.wav
36,192,75937,128,0,76281:0:0:0:0:
109,192,75937,128,0,76281:0:0:0:0:
36,192,76454,128,0,77143:0:0:0:50:cymbal.wav
109,192,76454,128,0,77143:0:0:0:50:kick.wav
402,192,76454,128,0,76799:0:0:0:0:
475,192,76454,128,0,76799:0:0:0:0:
182,192,76454,1,0,0:0:0:0:
402,192,76971,128,0,77316:0:0:0:50:cymbal.wav
475,192,76971,128,0,77316:0:0:0:50:kick.wav
329,192,76971,128,0,77316:0:0:0:0:
256,192,76971,128,0,77316:0:0:0:0:
109,192,77316,1,0,0:0:0:50:kick.wav
36,192,77316,1,0,0:0:0:0:
329,192,77488,1,0,0:0:0:50:snare.wav
475,192,77488,1,0,0:0:0:0:
182,192,77488,1,0,0:0:0:0:
256,192,77661,1,0,0:0:0:50:snare2.wav
402,192,77661,1,0,0:0:0:0:
182,192,77833,1,0,0:0:0:50:snare2.wav
329,192,77833,1,0,0:0:0:0:
256,192,78005,1,0,0:0:0:50:snare2.wav
109,192,78005,1,0,0:0:0:0:
36,192,78178,1,0,0:0:0:25:kick.wav
475,192,78178,1,0,0:0:0:0:
182,192,78178,1,0,0:0:0:0:
402,192,78350,1,0,0:0:0:0:
329,192,78523,1,0,0:0:0:25:kick.wav
36,192,78523,1,0,0:0:0:0:
182,192,78523,1,0,0:0:0:0:
109,192,78695,1,0,0:0:0:0:
402,192,78781,1,0,0:0:0:0:
109,192,78868,1,0,0:0:0:25:kick.wav
36,192,78868,1,0,0:0:0:0:
402,192,79040,1,0,0:0:0:0:
256,192,79040,1,0,0:0:0:0:
109,192,79212,1,0,0:0:0:25:kick.wav
36,192,79212,1,0,0:0:0:0:
182,192,79299,1,0,0:0:0:0:
402,192,79385,1,0,0:0:0:0:
329,192,79471,1,0,0:0:0:0:
36,192,79557,1,0,0:0:0:25:kick.wav
475,192,79557,1,0,0:0:0:0:
256,192,79557,1,0,0:0:0:0:
402,192,79730,1,0,0:0:0:0:
36,192,79902,1,0,0:0:0:25:kick.wav
182,192,79902,1,0,0:0:0:0:
329,192,79902,1,0,0:0:0:0:
109,192,80074,1,0,0:0:0:0:
402,192,80161,1,0,0:0:0:0:
36,192,80247,1,0,0:0:0:25:kick.wav
109,192,80247,1,0,0:0:0:0:
402,192,80333,1,0,0:0:0:0:
182,192,80419,1,0,0:0:0:0:
256,192,80419,1,0,0:0:0:0:
36,192,80592,1,0,0:0:0:25:kick.wav
109,192,80592,1,0,0:0:0:0:
329,192,80678,1,0,0:0:0:0:
182,192,80764,1,0,0:0:0:0:
329,192,80850,1,0,0:0:0:0:
36,192,80937,1,0,0:0:0:25:kick.wav
256,192,80937,1,0,0:0:0:0:
475,192,80937,1,0,0:0:0:0:
402,192,81109,1,0,0:0:0:0:
36,192,81281,1,0,0:0:0:25:kick.wav
182,192,81281,1,0,0:0:0:0:
329,192,81281,1,0,0:0:0:0:
109,192,81454,1,0,0:0:0:0:
402,192,81540,1,0,0:0:0:0:
36,192,81626,1,0,0:0:0:25:kick.wav
109,192,81626,1,0,0:0:0:0:
402,192,81799,1,0,0:0:0:0:
256,192,81799,1,0,0:0:0:0:
36,192,81971,1,0,0:0:0:25:kick.wav
109,192,81971,1,0,0:0:0:0:
182,192,82057,1,0,0:0:0:0:
402,192,82143,1,0,0:0:0:0:
329,192,82230,1,0,0:0:0:0:
36,192,82316,1,0,0:0:0:25:kick.wav
256,192,82316,1,0,0:0:0:0:
475,192,82316,1,0,0:0:0:0:
402,192,82488,1,0,0:0:0:0:
36,192,82661,1,0,0:0:0:25:kick.wav
182,192,82661,1,0,0:0:0:0:
329,192,82661,1,0,0:0:0:0:
109,192,82833,1,0,0:0:0:0:
402,192,82919,1,0,0:0:0:0:
36,192,83005,1,0,0:0:0:25:kick.wav
109,192,83005,1,0,0:0:0:0:
402,192,83092,1,0,0:0:0:0:
182,192,83178,1,0,0:0:0:0:
256,192,83178,1,0,0:0:0:0:
36,192,83350,1,0,0:0:0:25:kick.wav
109,192,83350,1,0,0:0:0:0:
329,192,83437,1,0,0:0:0:0:
182,192,83523,1,0,0:0:0:0:
329,192,83609,1,0,0:0:0:0:
36,192,83695,1,0,0:0:0:25:kick.wav
256,192,83695,1,0,0:0:0:0:
475,192,83695,128,0,84040:0:0:0:0:
256,192,83868,1,0,0:0:0:0:
36,192,84040,1,0,0:0:0:25:kick.wav
109,192,84040,1,0,0:0:0:0:
402,192,84040,1,0,0:0:0:0:
329,192,84212,128,0,84730:0:0:0:0:
182,192,84212,1,0,0:0:0:0:
36,192,84299,1,0,0:0:0:0:
182,192,84385,1,0,0:0:0:25:kick.wav
475,192,84385,1,0,0:0:0:0:
36,192,84471,1,0,0:0:0:0:
182,192,84557,1,0,0:0:0:0:
109,192,84557,1,0,0:0:0:0:
475,192,84730,1,0,0:0:0:25:kick.wav
36,192,84730,1,0,0:0:0:0:
402,192,84816,1,0,0:0:0:0:
329,192,84902,1,0,0:0:0:0:
182,192,84902,1,0,0:0:0:0:
109,192,84988,1,0,0:0:0:0:
36,192,85074,1,0,0:0:0:30:kick.wav
256,192,85074,1,0,0:0:0:0:
475,192,85074,128,0,85419:0:0:0:0:
256,192,85247,1,0,0:0:0:0:
182,192,85419,1,0,0:0:0:30:kick.wav
36,192,85419,1,0,0:0:0:0:
402,192,85419,1,0,0:0:0:0:
329,192,85592,128,0,85937:0:0:0:0:
109,192,85592,1,0,0:0:0:0:
182,192,85678,1,0,0:0:0:0:
36,192,85764,1,0,0:0:0:30:kick.wav
402,192,85764,1,0,0:0:0:0:
109,192,85850,1,0,0:0:0:0:
475,192,85937,1,0,0:0:0:0:
182,192,85937,1,0,0:0:0:0:
329,192,86109,128,0,86454:0:0:0:30:kick.wav
36,192,86109,1,0,0:0:0:0:
475,192,86109,1,0,0:0:0:0:
182,192,86195,1,0,0:0:0:0:
36,192,86281,1,0,0:0:0:0:
182,192,86368,1,0,0:0:0:0:
256,192,86454,1,0,0:0:0:30:kick.wav
475,192,86454,128,0,86799:0:0:0:0:
36,192,86454,1,0,0:0:0:0:
256,192,86626,1,0,0:0:0:0:
402,192,86799,1,0,0:0:0:30:kick.wav
36,192,86799,1,0,0:0:0:0:
182,192,86799,1,0,0:0:0:0:
109,192,86971,1,0,0:0:0:0:
329,192,86971,128,0,87488:0:0:0:0:
182,192,87057,1,0,0:0:0:0:
36,192,87143,1,0,0:0:0:30:kick.wav
402,192,87143,1,0,0:0:0:0:
182,192,87230,1,0,0:0:0:0:
109,192,87316,1,0,0:0:0:0:
475,192,87316,1,0,0:0:0:0:
36,192,87488,1,0,0:0:0:30:kick.wav
475,192,87488,1,0,0:0:0:0:
402,192,87574,1,0,0:0:0:0:
109,192,87661,1,0,0:0:0:0:
329,192,87661,1,0,0:0:0:0:
182,192,87747,1,0,0:0:0:0:
256,192,87833,1,0,0:0:0:35:kick.wav
36,192,87833,1,0,0:0:0:0:
475,192,87833,128,0,88178:0:0:0:0:
256,192,88005,1,0,0:0:0:0:
36,192,88178,1,0,0:0:0:35:kick.wav
402,192,88178,1,0,0:0:0:0:
109,192,88178,1,0,0:0:0:0:
329,192,88350,128,0,88695:0:0:0:0:
182,192,88350,1,0,0:0:0:0:
109,192,88437,1,0,0:0:0:0:
36,192,88523,1,0,0:0:0:35:kick.wav
402,192,88523,1,0,0:0:0:0:
109,192,88609,1,0,0:0:0:0:
475,192,88695,1,0,0:0:0:0:
182,192,88695,1,0,0:0:0:0:
36,192,88868,1,0,0:0:0:35:kick.wav
475,192,88868,128,0,89126:0:0:0:0:
329,192,88868,1,0,0:0:0:0:
182,192,88954,1,0,0:0:0:0:
329,192,89040,1,0,0:0:0:0:
182,192,89126,1,0,0:0:0:0:
36,192,89212,1,0,0:0:0:40:kick.wav
329,192,89212,1,0,0:0:0:40:clap.wav
475,192,89212,1,0,0:0:0:0:
109,192,89385,1,0,0:0:0:0:
256,192,89385,1,0,0:0:0:0:
475,192,89557,1,0,0:0:0:40:clap.wav
329,192,89557,1,0,0:0:0:40:kick.wav
36,192,89557,1,0,0:0:0:0:
109,192,89730,1,0,0:0:0:0:
256,192,89730,1,0,0:0:0:0:
329,192,89816,1,0,0:0:0:0:
182,192,89902,1,0,0:0:0:40:clap.wav
36,192,89902,1,0,0:0:0:40:kick.wav
475,192,89902,1,0,0:0:0:0:
402,192,90074,1,0,0:0:0:0:
256,192,90074,1,0,0:0:0:0:
36,192,90247,1,0,0:0:0:40:clap.wav
182,192,90247,1,0,0:0:0:40:kick.wav
475,192,90247,1,0,0:0:0:0:
402,192,90333,1,0,0:0:0:0:
329,192,90419,1,0,0:0:0:0:
182,192,90419,1,0,0:0:0:0:
109,192,90505,1,0,0:0:0:0:
475,192,90592,1,0,0:0:0:45:clap.wav
329,192,90592,1,0,0:0:0:45:kick.wav
36,192,90592,1,0,0:0:0:0:
256,192,90764,1,0,0:0:0:0:
109,192,90764,1,0,0:0:0:0:
475,192,90937,1,0,0:0:0:45:clap.wav
36,192,90937,1,0,0:0:0:45:kick.wav
182,192,90937,1,0,0:0:0:0:
402,192,91109,1,0,0:0:0:0:
256,192,91109,1,0,0:0:0:0:
182,192,91195,1,0,0:0:0:0:
329,192,91281,1,0,0:0:0:45:clap.wav
475,192,91281,1,0,0:0:0:45:kick.wav
36,192,91281,1,0,0:0:0:0:
182,192,91368,1,0,0:0:0:0:
109,192,91454,1,0,0:0:0:0:
256,192,91454,1,0,0:0:0:0:
182,192,91626,1,0,0:0:0:45:clap.wav
36,192,91626,1,0,0:0:0:45:kick.wav
475,192,91626,1,0,0:0:0:0:
256,192,91799,1,0,0:0:0:0:
402,192,91799,1,0,0:0:0:0:
475,192,91971,1,0,0:0:0:45:clap.wav
182,192,91971,1,0,0:0:0:45:kick.wav
36,192,91971,1,0,0:0:0:0:
402,192,91971,1,0,0:0:0:0:
329,192,92057,1,0,0:0:0:0:
256,192,92143,1,0,0:0:0:0:
475,192,92143,1,0,0:0:0:0:
402,192,92230,1,0,0:0:0:0:
182,192,92316,1,0,0:0:0:45:clap.wav
329,192,92316,1,0,0:0:0:45:kick.wav
36,192,92316,1,0,0:0:0:0:
109,192,92316,1,0,0:0:0:0:
402,192,92402,1,0,0:0:0:0:
475,192,92488,1,0,0:0:0:0:
256,192,92488,1,0,0:0:0:0:
329,192,92574,1,0,0:0:0:0:
182,192,92574,1,0,0:0:0:0:
475,192,92661,1,0,0:0:0:45:clap.wav
36,192,92661,1,0,0:0:0:45:kick.wav
109,192,92661,1,0,0:0:0:0:
402,192,92661,1,0,0:0:0:0:
329,192,92747,1,0,0:0:0:0:
182,192,92833,1,0,0:0:0:0:
109,192,92833,1,0,0:0:0:0:
256,192,92919,1,0,0:0:0:0:
475,192,93005,1,0,0:0:0:45:clap.wav
329,192,93005,1,0,0:0:0:45:kick.wav
36,192,93005,1,0,0:0:0:0:
109,192,93005,1,0,0:0:0:0:
402,192,93092,1,0,0:0:0:0:
36,192,93178,1,0,0:0:0:0:
256,192,93178,1,0,0:0:0:0:
109,192,93264,1,0,0:0:0:0:
329,192,93264,1,0,0:0:0:0:
256,192,93350,1,0,0:0:0:50:clap.wav
475,192,93350,1,0,0:0:0:50:kick.wav
182,192,93350,1,0,0:0:0:0:
402,192,93350,1,0,0:0:0:0:
109,192,93437,1,0,0:0:0:0:
475,192,93523,1,0,0:0:0:0:
36,192,93523,1,0,0:0:0:0:
182,192,93609,1,0,0:0:0:0:
329,192,93609,1,0,0:0:0:0:
109,192,93695,1,0,0:0:0:50:clap.wav
36,192,93695,1,0,0:0:0:50:kick.wav
256,192,93695,1,0,0:0:0:0:
475,192,93695,1,0,0:0:0:0:
402,192,93781,1,0,0:0:0:0:
109,192,93868,1,0,0:0:0:0:
329,192,93868,1,0,0:0:0:0:
402,192,93954,1,0,0:0:0:0:
182,192,93954,1,0,0:0:0:0:
109,192,94040,1,0,0:0:0:50:clap.wav
36,192,94040,1,0,0:0:0:50:kick.wav
256,192,94040,1,0,0:0:0:0:
475,192,94040,1,0,0:0:0:0:
402,192,94126,1,0,0:0:0:0:
329,192,94126,1,0,0:0:0:0:
182,192,94212,1,0,0:0:0:0:
109,192,94212,1,0,0:0:0:0:
256,192,94299,1,0,0:0:0:0:
109,192,94385,1,0,0:0:0:50:clap.wav
402,192,94385,1,0,0:0:0:50:kick.wav
36,192,94385,1,0,0:0:0:0:
475,192,94385,1,0,0:0:0:0:
329,192,94471,1,0,0:0:0:0:
182,192,94471,1,0,0:0:0:0:
256,192,94557,1,0,0:0:0:0:
36,192,94557,1,0,0:0:0:0:
109,192,94643,1,0,0:0:0:0:
329,192,94643,1,0,0:0:0:0:
182,192,94730,1,0,0:0:0:50:clap.wav
402,192,94730,1,0,0:0:0:50:kick.wav
475,192,94730,1,0,0:0:0:0:
36,192,94730,1,0,0:0:0:0:
329,192,94816,1,0,0:0:0:0:
256,192,94902,1,0,0:0:0:50:clap.wav
109,192,94902,1,0,0:0:0:50:kick.wav
36,192,94902,1,0,0:0:0:0:
329,192,94988,1,0,0:0:0:0:
402,192,95074,1,0,0:0:0:50:clap.wav
475,192,95074,1,0,0:0:0:50:kick.wav
182,192,95074,1,0,0:0:0:0:
109,192,95074,1,0,0:0:0:0:
256,192,95161,1,0,0:0:0:0:
36,192,95247,1,0,0:0:0:50:clap.wav
329,192,95247,1,0,0:0:0:50:kick.wav
109,192,95247,1,0,0:0:0:0:
256,192,95333,1,0,0:0:0:0:
182,192,95419,1,0,0:0:0:50:clap.wav
475,192,95419,1,0,0:0:0:50:kick.wav
402,192,95419,1,0,0:0:0:0:
36,192,95419,1,0,0:0:0:0:
256,192,95505,1,0,0:0:0:0:
329,192,95592,1,0,0:0:0:50:clap.wav
109,192,95592,1,0,0:0:0:50:kick.wav
36,192,95592,1,0,0:0:0:0:
256,192,95678,1,0,0:0:0:0:
182,192,95764,1,0,0:0:0:50:clap.wav
402,192,95764,1,0,0:0:0:50:kick.wav
475,192,95764,1,0,0:0:0:0:
36,192,95764,1,0,0:0:0:0:
329,192,95850,1,0,0:0:0:0:
256,192,95937,1,0,0:0:0:50:clap.wav
36,192,95937,1,0,0:0:0:50:kick.wav
109,192,95937,1,0,0:0:0:0:
475,192,95937,1,0,0:0:0:0:
329,192,96023,1,0,0:0:0:0:
402,192,96109,1,0,0:0:0:50:clap.wav
475,192,96109,1,0,0:0:0:50:kick.wav
182,192,96109,1,0,0:0:0:0:
256,192,96109,1,0,0:0:0:0:
109,192,96195,1,0,0:0:0:0:
36,192,96281,1,0,0:0:0:50:kick.wav
256,192,96281,1,0,0:0:0:50:clap.wav
329,192,96281,1,0,0:0:0:0:
402,192,96281,1,0,0:0:0:0:
182,192,96368,1,0,0:0:0:0:
109,192,96454,1,0,0:0:0:50:kick.wav
329,192,96454,1,0,0:0:0:50:clap.wav
475,192,96454,1,0,0:0:0:0:
36,192,96454,1,0,0:0:0:0:
256,192,96540,1,0,0:0:0:0:
182,192,96626,1,0,0:0:0:50:kick.wav
402,192,96626,1,0,0:0:0:50:clap.wav
36,192,96626,1,0,0:0:0:0:
329,192,96712,1,0,0:0:0:0:
256,192,96799,1,0,0:0:0:50:kick.wav
475,192,96799,1,0,0:0:0:50:clap.wav
109,192,96799,1,0,0:0:0:0:
36,192,96799,1,0,0:0:0:0:
402,192,96885,1,0,0:0:0:0:
329,192,96971,1,0,0:0:0:50:kick.wav
36,192,96971,1,0,0:0:0:50:clap.wav
109,192,96971,1,0,0:0:0:0:
182,192,97057,1,0,0:0:0:0:
256,192,97143,1,0,0:0:0:50:kick.wav
402,192,97143,1,0,0:0:0:50:clap.wav
475,192,97143,1,0,0:0:0:0:
36,192,97143,1,0,0:0:0:0:
182,192,97230,1,0,0:0:0:0:
109,192,97316,1,0,0:0:0:50:clap.wav
36,192,97316,1,0,0:0:0:50:kick.wav
329,192,97316,1,0,0:0:0:0:
256,192,97402,1,0,0:0:0:0:
182,192,97488,1,0,0:0:0:50:clap.wav
475,192,97488,1,0,0:0:0:50:kick.wav
402,192,97488,1,0,0:0:0:0:
36,192,97574,1,0,0:0:0:50:kick.wav
109,192,97574,1,0,0:0:0:50:clap.wav
256,192,97661,1,0,0:0:0:50:clap.wav
402,192,97661,1,0,0:0:0:50:kick.wav
475,192,97661,1,0,0:0:0:0:
182,192,97747,1,0,0:0:0:50:kick.wav
36,192,97747,1,0,0:0:0:50:clap.wav
475,192,97833,1,0,0:0:0:50:clap.wav
402,192,97833,1,0,0:0:0:50:kick.wav
329,192,97833,1,0,0:0:0:0:
256,192,97919,1,0,0:0:0:50:kick.wav
182,192,97919,1,0,0:0:0:50:clap.wav
329,192,98005,1,0,0:0:0:50:clap.wav
109,192,98005,1,0,0:0:0:50:kick.wav
36,192,98005,1,0,0:0:0:0:
402,192,98092,1,0,0:0:0:50:kick.wav
475,192,98092,1,0,0:0:0:50:clap.wav
256,192,98178,1,0,0:0:0:50:clap.wav
109,192,98178,1,0,0:0:0:50:kick.wav
36,192,98178,1,0,0:0:0:0:
329,192,98264,1,0,0:0:0:50:kick.wav
475,192,98264,1,0,0:0:0:50:clap.wav
36,192,98350,1,0,0:0:0:50:clap.wav
109,192,98350,1,0,0:0:0:50:kick.wav
182,192,98350,1,0,0:0:0:0:
329,192,98437,1,0,0:0:0:50:kick.wav
402,192,98437,1,0,0:0:0:50:clap.wav
182,192,98523,1,0,0:0:0:50:kick.wav
475,192,98523,1,0,0:0:0:0:
36,192,98523,1,0,0:0:0:0:
329,192,98695,1,0,0:0:0:50:snare.wav
36,192,98695,1,0,0:0:0:0:
475,192,98695,1,0,0:0:0:0:
256,192,98868,1,0,0:0:0:50:kick.wav
256,192,99040,1,0,0:0:0:0:
36,192,99212,1,0,0:0:0:50:snare2.wav
475,192,99212,1,0,0:0:0:0:
256,192,99385,1,0,0:0:0:50:kick.wav
256,192,99557,1,0,0:0:0:0:
475,192,99730,1,0,0:0:0:50:snare2.wav
36,192,99730,1,0,0:0:0:0:
402,192,99902,1,0,0:0:0:50:snare.wav
256,192,99902,1,0,0:0:0:0:
109,192,99902,1,0,0:0:0:0:
36,192,100247,128,0,100505:0:0:0:50:cymbal.wav
475,192,100247,128,0,100505:0:0:0:50:kick.wav
329,192,100247,128,0,100592:0:0:0:0:
182,192,100247,128,0,100592:0:0:0:0:
256,192,100247,1,0,0:0:0:0:
36,192,100592,128,0,100707:0:0:0:50:snare.wav
475,192,100592,128,0,100707:0:0:0:0:
109,192,100649,128,0,100764:0:0:0:0:
402,192,100649,128,0,100764:0:0:0:0:
329,192,100707,128,0,100822:0:0:0:0:
182,192,100707,128,0,100822:0:0:0:0:
36,192,101109,128,0,101626:0:0:0:50:kick.wav
475,192,101109,128,0,101626:0:0:0:0:
402,192,101109,1,0,0:0:0:0:
109,192,101109,1,0,0:0:0:0:
329,192,101281,128,0,101540:0:0:0:50:snare.wav
182,192,101281,128,0,101540:0:0:0:0:
182,192,101626,1,0,0:0:0:50:kick.wav
329,192,101626,1,0,0:0:0:0:
109,192,101799,1,0,0:0:0:0:
402,192,101799,1,0,0:0:0:0:
182,192,101971,128,0,102028:0:0:0:50:snare.wav
109,192,101971,128,0,102086:0:0:0:0:
36,192,101971,128,0,102143:0:0:0:0:
256,192,101971,1,0,0:0:0:0:
402,192,102143,128,0,102488:0:0:0:0:
329,192,102143,1,0,0:0:0:0:
475,192,102143,128,0,102488:0:0:0:0:
109,192,102488,1,0,0:0:0:50:kick.wav
256,192,102488,1,0,0:0:0:0:
475,192,102661,128,0,103005:0:0:0:50:snare.wav
402,192,102661,1,0,0:0:0:0:
36,192,102661,1,0,0:0:0:0:
256,192,102661,128,0,103005:0:0:0:0:
182,192,102833,1,0,0:0:0:0:
36,192,103005,128,0,103350:0:0:0:50:kick.wav
109,192,103005,128,0,103350:0:0:0:0:
329,192,103005,1,0,0:0:0:0:
402,192,103005,1,0,0:0:0:0:
182,192,103005,128,0,103350:0:0:0:0:
475,192,103350,128,0,103523:0:0:0:50:snare.wav
402,192,103350,128,0,103465:0:0:0:0:
329,192,103350,128,0,103408:0:0:0:0:
256,192,103523,128,0,103609:0:0:0:0:
182,192,103566,128,0,103652:0:0:0:0:
109,192,103609,128,0,103695:0:0:0:0:
36,192,103652,128,0,103738:0:0:0:0:
329,192,103695,128,0,103781:0:0:0:0:
402,192,103868,128,0,104212:0:0:0:50:kick.wav
475,192,103868,128,0,104212:0:0:0:0:
256,192,104040,1,0,0:0:0:50:snare.wav
36,192,104040,128,0,104385:0:0:0:0:
109,192,104040,128,0,104385:0:0:0:0:
402,192,104385,128,0,104730:0:0:0:50:kick.wav
329,192,104385,128,0,104730:0:0:0:0:
182,192,104385,1,0,0:0:0:0:
475,192,104385,128,0,104730:0:0:0:0:
36,192,104730,128,0,104902:0:0:0:0:
182,192,104730,128,0,104787:0:0:0:0:
109,192,104730,128,0,104845:0:0:0:0:
256,192,104730,1,0,0:0:0:0:
402,192,104902,128,0,105247:0:0:0:0:
256,192,104902,128,0,105247:0:0:0:0:
182,192,105074,1,0,0:0:0:0:
329,192,105247,1,0,0:0:0:50:kick.wav
475,192,105247,1,0,0:0:0:0:
109,192,105419,128,0,105678:0:0:0:50:snare.wav
36,192,105419,128,0,105678:0:0:0:0:
402,192,105419,1,0,0:0:0:0:
256,192,105419,128,0,105678:0:0:0:0:
36,192,105764,128,0,106339:0:0:0:50:kick.wav
475,192,105764,128,0,106339:0:0:0:0:
329,192,105764,1,0,0:0:0:0:
182,192,105764,1,0,0:0:0:0:
256,192,105937,1,0,0:0:0:0:
402,192,106109,1,0,0:0:0:50:snare.wav
256,192,106109,1,0,0:0:0:0:
109,192,106109,1,0,0:0:0:0:
402,192,106281,128,0,106396:0:0:0:0:
109,192,106281,128,0,106396:0:0:0:0:
329,192,106339,128,0,106454:0:0:0:0:
182,192,106339,128,0,106454:0:0:0:0:
256,192,106396,128,0,106511:0:0:0:0:
402,192,106626,128,0,107057:0:0:0:50:kick.wav
109,192,106626,128,0,107057:0:0:0:0:
36,192,106799,128,0,107057:0:0:0:50:snare.wav
475,192,106799,128,0,107057:0:0:0:0:
256,192,106799,1,0,0:0:0:0:
36,192,107143,128,0,107258:0:0:0:0:
475,192,107143,1,0,0:0:0:70:kick.wav
109,192,107201,128,0,107316:0:0:0:0:
402,192,107201,1,0,0:0:0:0:
182,192,107258,128,0,107373:0:0:0:0:
329,192,107258,1,0,0:0:0:0:
475,192,107316,128,0,107431:0:0:0:0:
36,192,107316,1,0,0:0:0:0:
402,192,107373,128,0,107488:0:0:0:0:
109,192,107373,1,0,0:0:0:0:
329,192,107431,128,0,107546:0:0:0:0:
182,192,107431,1,0,0:0:0:0:
36,192,107488,128,0,107833:0:0:0:0:
475,192,107488,1,0,0:0:0:70:snare2.wav
402,192,107546,1,0,0:0:0:0:
109,192,107546,128,0,107776:0:0:0:0:
329,192,107603,1,0,0:0:0:0:
182,192,107603,128,0,107718:0:0:0:0:
475,192,107661,128,0,108005:0:0:0:0:
402,192,107718,128,0,107948:0:0:0:0:
329,192,107776,128,0,107891:0:0:0:0:
182,192,107833,1,0,0:0:0:0:
256,192,107891,1,0,0:0:0:0:
329,192,107948,1,0,0:0:0:0:
36,192,108005,128,0,108350:0:0:0:50:kick.wav
182,192,108005,128,0,108350:0:0:0:0:
109,192,108005,1,0,0:0:0:0:
402,192,108005,1,0,0:0:0:0:
329,192,108178,1,0,0:0:0:50:snare.wav
475,192,108178,128,0,108523:0:0:0:0:
402,192,108178,128,0,108523:0:0:0:0:
256,192,108350,1,0,0:0:0:0:
109,192,108523,128,0,108868:0:0:0:50:kick.wav
36,192,108523,128,0,109212:0:0:0:0:
182,192,108523,1,0,0:0:0:0:
256,192,108695,1,0,0:0:0:0:
329,192,108868,1,0,0:0:0:50:snare.wav
475,192,108868,1,0,0:0:0:0:
402,192,108868,1,0,0:0:0:0:
182,192,109040,128,0,109212:0:0:0:0:
329,192,109097,128,0,109212:0:0:0:0:
475,192,109155,128,0,109212:0:0:0:0:
36,192,109385,128,0,109816:0:0:0:50:kick.wav
109,192,109385,128,0,109816:0:0:0:0:
402,192,109557,128,0,109902:0:0:0:50:snare.wav
475,192,109557,128,0,109902:0:0:0:0:
256,192,109557,1,0,0:0:0:0:
36,192,109902,128,0,110419:0:0:0:50:kick.wav
182,192,109902,128,0,110247:0:0:0:0:
329,192,109902,1,0,0:0:0:0:
256,192,110074,1,0,0:0:0:0:
329,192,110247,128,0,110304:0:0:0:50:snare.wav
402,192,110247,128,0,110362:0:0:0:0:
475,192,110247,128,0,110419:0:0:0:0:
256,192,110419,128,0,110937:0:0:0:0:
182,192,110419,128,0,110764:0:0:0:0:
402,192,110592,1,0,0:0:0:0:
475,192,110764,1,0,0:0:0:50:kick.wav
329,192,110764,1,0,0:0:0:0:
109,192,110937,1,0,0:0:0:50:snare.wav
402,192,110937,1,0,0:0:0:0:
475,192,110937,128,0,111195:0:0:0:0:
36,192,110937,128,0,111195:0:0:0:0:
109,192,111109,1,0,0:0:0:50:kick.wav
402,192,111109,1,0,0:0:0:0:
182,192,111195,1,0,0:0:0:50:snare.wav
329,192,111195,1,0,0:0:0:0:
475,192,111281,128,0,111540:0:0:0:50:cymbal.wav
36,192,111281,128,0,111540:0:0:0:50:kick.wav
109,192,111281,128,0,111540:0:0:0:0:
402,192,111281,128,0,111540:0:0:0:0:
256,192,111281,1,0,0:0:0:0:
36,192,111626,128,0,111741:0:0:0:50:snare.wav
475,192,111626,128,0,111741:0:0:0:0:
402,192,111684,128,0,111799:0:0:0:0:
109,192,111684,128,0,111799:0:0:0:0:
329,192,111741,128,0,111856:0:0:0:0:
182,192,111741,128,0,111856:0:0:0:0:
256,192,111799,128,0,112143:0:0:0:0:
36,192,112143,128,0,112574:0:0:0:50:kick.wav
475,192,112143,128,0,112574:0:0:0:0:
329,192,112143,1,0,0:0:0:0:
182,192,112143,1,0,0:0:0:0:
402,192,112316,128,0,112574:0:0:0:50:snare.wav
256,192,112316,1,0,0:0:0:0:
109,192,112316,128,0,112574:0:0:0:0:
36,192,112661,128,0,112747:0:0:0:50:kick.wav
109,192,112661,128,0,112747:0:0:0:0:
475,192,112661,128,0,113005:0:0:0:0:
256,192,112776,128,0,112891:0:0:0:0:
182,192,112833,128,0,112948:0:0:0:0:
109,192,112891,128,0,113005:0:0:0:0:
36,192,112948,128,0,113063:0:0:0:0:
402,192,113005,1,0,0:0:0:50:snare.wav
329,192,113005,1,0,0:0:0:0:
329,192,113178,128,0,113523:0:0:0:0:
475,192,113178,128,0,113695:0:0:0:0:
182,192,113178,1,0,0:0:0:0:
36,192,113350,1,0,0:0:0:0:
109,192,113523,1,0,0:0:0:50:kick.wav
256,192,113523,1,0,0:0:0:0:
402,192,113695,1,0,0:0:0:50:snare.wav
36,192,113695,1,0,0:0:0:0:
329,192,113695,128,0,114040:0:0:0:0:
182,192,113695,128,0,114040:0:0:0:0:
475,192,114040,128,0,114155:0:0:0:50:kick.wav
36,192,114040,128,0,114155:0:0:0:0:
402,192,114097,128,0,114212:0:0:0:0:
109,192,114097,128,0,114212:0:0:0:0:
182,192,114155,128,0,114270:0:0:0:0:
329,192,114155,128,0,114270:0:0:0:0:
256,192,114212,128,0,114327:0:0:0:0:
36,192,114385,128,0,114557:0:0:0:50:snare.wav
402,192,114385,128,0,114471:0:0:0:0:
475,192,114385,128,0,114471:0:0:0:0:
109,192,114471,128,0,114557:0:0:0:0:
182,192,114471,128,0,114557:0:0:0:0:
329,192,114557,128,0,114643:0:0:0:0:
475,192,114557,128,0,114643:0:0:0:0:
182,192,114643,128,0,114730:0:0:0:0:
36,192,114643,128,0,114730:0:0:0:0:
475,192,114730,128,0,114902:0:0:0:0:
402,192,114730,128,0,114816:0:0:0:0:
329,192,114730,128,0,114816:0:0:0:0:
36,192,114816,128,0,114902:0:0:0:0:
109,192,114816,128,0,114902:0:0:0:0:
329,192,114902,1,0,0:0:0:50:kick.wav
182,192,114902,1,0,0:0:0:0:
475,192,115074,1,0,0:0:0:50:snare.wav
36,192,115074,1,0,0:0:0:0:
329,192,115074,128,0,115419:0:0:0:0:
182,192,115074,128,0,115419:0:0:0:0:
256,192,115074,1,0,0:0:0:0:
475,192,115419,128,0,115850:0:0:0:50:kick.wav
402,192,115419,128,0,115764:0:0:0:0:
109,192,115419,128,0,115764:0:0:0:0:
36,192,115419,128,0,115850:0:0:0:0:
256,192,115764,128,0,115879:0:0:0:50:snare.wav
182,192,115822,128,0,115937:0:0:0:0:
329,192,115822,128,0,115937:0:0:0:0:
109,192,115879,128,0,115994:0:0:0:0:
402,192,115879,128,0,115994:0:0:0:0:
36,192,115937,128,0,116051:0:0:0:0:
475,192,115937,128,0,116051:0:0:0:0:
182,192,116023,1,0,0:0:0:50:kick.wav
329,192,116023,1,0,0:0:0:0:
329,192,116281,1,0,0:0:0:50:kick.wav
182,192,116281,1,0,0:0:0:0:
109,192,116454,1,0,0:0:0:50:snare.wav
36,192,116454,1,0,0:0:0:0:
475,192,116454,1,0,0:0:0:0:
402,192,116454,1,0,0:0:0:0:
182,192,116540,1,0,0:0:0:50:kick.wav
329,192,116540,1,0,0:0:0:0:
329,192,116626,1,0,0:0:0:50:kick.wav
182,192,116626,1,0,0:0:0:0:
109,192,116712,1,0,0:0:0:50:snare.wav
36,192,116712,1,0,0:0:0:0:
402,192,116712,1,0,0:0:0:0:
475,192,116712,1,0,0:0:0:0:
182,192,116799,128,0,117143:0:0:0:0:
329,192,116799,128,0,117143:0:0:0:50:kick.wav
36,192,117143,128,0,117488:0:0:0:50:snare.wav
109,192,117143,128,0,117488:0:0:0:0:
475,192,117143,128,0,117661:0:0:0:0:
402,192,117143,1,0,0:0:0:0:
256,192,117143,1,0,0:0:0:0:
182,192,117316,1,0,0:0:0:0:
402,192,117488,128,0,117661:0:0:0:0:
329,192,117546,128,0,117661:0:0:0:0:
256,192,117603,128,0,117661:0:0:0:0:
36,192,117661,128,0,118092:0:0:0:50:kick.wav
109,192,117661,128,0,118092:0:0:0:0:
329,192,117833,1,0,0:0:0:50:snare.wav
402,192,117833,1,0,0:0:0:0:
475,192,117833,1,0,0:0:0:0:
256,192,118005,1,0,0:0:0:0:
402,192,118178,128,0,118437:0:0:0:50:kick.wav
475,192,118178,128,0,118437:0:0:0:0:
36,192,118178,128,0,118695:0:0:0:0:
182,192,118178,1,0,0:0:0:0:
256,192,118350,1,0,0:0:0:0:
109,192,118523,128,0,118695:0:0:0:50:snare.wav
329,192,118523,1,0,0:0:0:0:
475,192,118523,1,0,0:0:0:0:
182,192,118580,128,0,118695:0:0:0:0:
256,192,118638,128,0,118695:0:0:0:0:
402,192,118695,128,0,119040:0:0:0:0:
475,192,118695,128,0,119212:0:0:0:0:
109,192,118868,1,0,0:0:0:0:
329,192,119040,1,0,0:0:0:50:kick.wav
182,192,119040,1,0,0:0:0:0:
182,192,119212,128,0,119557:0:0:0:50:snare.wav
36,192,119212,128,0,119557:0:0:0:0:
402,192,119212,1,0,0:0:0:0:
475,192,119385,1,0,0:0:0:0:
329,192,119557,128,0,120161:0:0:0:50:kick.wav
475,192,119557,128,0,120161:0:0:0:0:
256,192,119557,1,0,0:0:0:0:
402,192,119730,1,0,0:0:0:0:
182,192,119902,1,0,0:0:0:50:snare.wav
109,192,119902,1,0,0:0:0:0:
36,192,119902,1,0,0:0:0:0:
256,192,120074,1,0,0:0:0:0:
36,192,120247,128,0,120764:0:0:0:50:kick.wav
109,192,120247,128,0,120592:0:0:0:0:
329,192,120247,1,0,0:0:0:0:
475,192,120247,1,0,0:0:0:0:
475,192,120419,128,0,120764:0:0:0:0:
402,192,120419,128,0,120592:0:0:0:0:
256,192,120419,1,0,0:0:0:0:
182,192,120592,1,0,0:0:0:50:snare.wav
329,192,120592,1,0,0:0:0:0:
109,192,120764,1,0,0:0:0:50:kick.wav
402,192,120764,1,0,0:0:0:0:
182,192,120937,1,0,0:0:0:50:snare.wav
329,192,120937,1,0,0:0:0:0:
475,192,120937,1,0,0:0:0:0:
36,192,120937,1,0,0:0:0:0:
329,192,121023,1,0,0:0:0:50:snare.wav
475,192,121023,1,0,0:0:0:0:
36,192,121109,1,0,0:0:0:50:kick.wav
109,192,121109,1,0,0:0:0:0:
182,192,121195,1,0,0:0:0:50:kick.wav
256,192,121195,1,0,0:0:0:0:
329,192,121281,1,0,0:0:0:50:snare.wav
475,192,121281,1,0,0:0:0:0:
36,192,121281,1,0,0:0:0:0:
109,192,121281,1,0,0:0:0:0:
329,192,121368,1,0,0:0:0:50:snare.wav
475,192,121368,1,0,0:0:0:0:
109,192,121454,1,0,0:0:0:50:kick.wav
36,192,121454,1,0,0:0:0:0:
182,192,121540,1,0,0:0:0:50:kick.wav
256,192,121540,1,0,0:0:0:0:
109,192,121626,1,0,0:0:0:50:snare3.wav
36,192,121626,1,0,0:0:0:0:
475,192,121626,1,0,0:0:0:0:
402,192,121626,1,0,0:0:0:0:
329,192,121712,1,0,0:0:0:0:
475,192,121799,1,0,0:0:0:0:
329,192,121885,1,0,0:0:0:0:
475,192,121971,1,0,0:0:0:0:
329,192,122057,1,0,0:0:0:0:
475,192,122143,1,0,0:0:0:0:
329,192,122230,1,0,0:0:0:0:
475,192,122316,1,0,0:0:0:50:cymbal.wav
402,192,122316,1,0,0:0:0:50:kick.wav
36,192,122316,128,0,123350:0:0:0:0:
182,192,122316,128,0,122661:0:0:0:0:
109,192,122316,1,0,0:0:0:0:
402,192,122661,128,0,122833:0:0:0:50:snare.wav
475,192,122661,128,0,122833:0:0:0:0:
329,192,122661,1,0,0:0:0:0:
109,192,122833,1,0,0:0:0:0:
256,192,122833,1,0,0:0:0:0:
329,192,122919,1,0,0:0:0:0:
402,192,123005,1,0,0:0:0:0:
182,192,123005,1,0,0:0:0:0:
329,192,123092,1,0,0:0:0:0:
475,192,123178,1,0,0:0:0:50:kick.wav
256,192,123178,1,0,0:0:0:0:
109,192,123178,1,0,0:0:0:0:
402,192,123350,1,0,0:0:0:50:snare.wav
182,192,123350,1,0,0:0:0:0:
109,192,123350,1,0,0:0:0:0:
475,192,123350,1,0,0:0:0:0:
329,192,123523,1,0,0:0:0:0:
402,192,123609,128,0,124040:0:0:0:0:
475,192,123695,128,0,124040:0:0:0:50:kick.wav
182,192,123695,1,0,0:0:0:0:
36,192,123695,1,0,0:0:0:0:
256,192,123868,1,0,0:0:0:0:
182,192,124040,1,0,0:0:0:50:snare.wav
36,192,124040,128,0,124126:0:0:0:0:
109,192,124040,128,0,124126:0:0:0:0:
329,192,124040,1,0,0:0:0:0:
402,192,124212,128,0,124299:0:0:0:0:
475,192,124212,128,0,124299:0:0:0:0:
256,192,124212,1,0,0:0:0:0:
182,192,124299,1,0,0:0:0:0:
109,192,124385,1,0,0:0:0:0:
329,192,124385,1,0,0:0:0:0:
182,192,124471,1,0,0:0:0:0:
402,192,124557,1,0,0:0:0:50:kick.wav
36,192,124557,128,0,124730:0:0:0:0:
256,192,124557,1,0,0:0:0:0:
329,192,124730,1,0,0:0:0:50:snare.wav
475,192,124730,1,0,0:0:0:0:
109,192,124730,1,0,0:0:0:0:
256,192,124902,1,0,0:0:0:0:
402,192,124902,1,0,0:0:0:0:
36,192,125074,128,0,125333:0:0:0:50:kick.wav
475,192,125074,128,0,125333:0:0:0:0:
182,192,125074,128,0,126454:0:0:0:0:
329,192,125074,1,0,0:0:0:0:
475,192,125419,1,0,0:0:0:50:snare.wav
36,192,125419,1,0,0:0:0:0:
256,192,125419,1,0,0:0:0:0:
109,192,125592,128,0,126109:0:0:0:0:
329,192,125592,1,0,0:0:0:0:
402,192,125678,1,0,0:0:0:0:
36,192,125764,128,0,126281:0:0:0:0:
475,192,125764,1,0,0:0:0:0:
256,192,125764,1,0,0:0:0:0:
329,192,125850,1,0,0:0:0:0:
475,192,125937,1,0,0:0:0:50:kick.wav
402,192,125937,1,0,0:0:0:0:
475,192,126109,128,0,126454:0:0:0:50:snare.wav
329,192,126109,1,0,0:0:0:0:
256,192,126109,1,0,0:0:0:0:
402,192,126281,128,0,126454:0:0:0:0:
109,192,126281,1,0,0:0:0:0:
256,192,126454,1,0,0:0:0:50:kick.wav
329,192,126454,1,0,0:0:0:0:
36,192,126454,128,0,126712:0:0:0:0:
109,192,126454,128,0,126712:0:0:0:0:
182,192,126626,1,0,0:0:0:0:
109,192,126799,1,0,0:0:0:50:snare.wav
329,192,126799,1,0,0:0:0:0:
36,192,126799,1,0,0:0:0:0:
475,192,126799,1,0,0:0:0:0:
475,192,126971,128,0,127316:0:0:0:0:
256,192,126971,1,0,0:0:0:0:
402,192,126971,1,0,0:0:0:0:
182,192,127057,1,0,0:0:0:0:
109,192,127143,1,0,0:0:0:0:
329,192,127143,1,0,0:0:0:0:
256,192,127230,1,0,0:0:0:0:
182,192,127316,1,0,0:0:0:50:kick.wav
402,192,127316,1,0,0:0:0:0:
36,192,127316,128,0,127661:0:0:0:0:
475,192,127488,1,0,0:0:0:50:snare.wav
329,192,127488,128,0,127833:0:0:0:0:
256,192,127488,1,0,0:0:0:0:
182,192,127661,128,0,127833:0:0:0:0:
475,192,127833,128,0,128868:0:0:0:50:kick.wav
36,192,127833,1,0,0:0:0:0:
256,192,127833,1,0,0:0:0:0:
402,192,127833,128,0,128178:0:0:0:0:
182,192,128005,1,0,0:0:0:0:
36,192,128178,128,0,128350:0:0:0:50:snare.wav
109,192,128178,128,0,128350:0:0:0:0:
329,192,128178,1,0,0:0:0:0:
402,192,128350,1,0,0:0:0:0:
182,192,128350,1,0,0:0:0:0:
256,192,128437,1,0,0:0:0:0:
329,192,128523,1,0,0:0:0:0:
109,192,128523,1,0,0:0:0:0:
182,192,128609,1,0,0:0:0:0:
402,192,128695,1,0,0:0:0:50:kick.wav
36,192,128695,1,0,0:0:0:0:
256,192,128695,1,0,0:0:0:0:
402,192,128868,1,0,0:0:0:50:snare.wav
109,192,128868,1,0,0:0:0:0:
36,192,128868,1,0,0:0:0:0:
329,192,128868,1,0,0:0:0:0:
182,192,129040,1,0,0:0:0:0:
109,192,129126,128,0,129385:0:0:0:0:
36,192,129212,128,0,129557:0:0:0:50:kick.wav
475,192,129212,1,0,0:0:0:0:
329,192,129212,1,0,0:0:0:0:
182,192,129385,128,0,129471:0:0:0:0:
329,192,129385,128,0,129471:0:0:0:0:
109,192,129557,128,0,129643:0:0:0:50:snare.wav
256,192,129557,128,0,129643:0:0:0:0:
475,192,129557,1,0,0:0:0:0:
402,192,129557,1,0,0:0:0:0:
36,192,129730,128,0,129816:0:0:0:0:
182,192,129730,128,0,129816:0:0:0:0:
402,192,129730,1,0,0:0:0:0:
329,192,129816,1,0,0:0:0:0:
475,192,129902,1,0,0:0:0:0:
256,192,129902,1,0,0:0:0:0:
329,192,129988,1,0,0:0:0:0:
36,192,130074,128,0,130161:0:0:0:50:kick.wav
182,192,130074,128,0,130161:0:0:0:0:
402,192,130074,1,0,0:0:0:0:
109,192,130247,128,0,130333:0:0:0:50:snare.wav
256,192,130247,128,0,130333:0:0:0:0:
475,192,130247,1,0,0:0:0:0:
402,192,130247,1,0,0:0:0:0:
182,192,130419,128,0,130505:0:0:0:0:
329,192,130419,128,0,130505:0:0:0:0:
256,192,130592,128,0,130937:0:0:0:50:kick.wav
402,192,130592,128,0,130937:0:0:0:0:
36,192,130592,1,0,0:0:0:0:
109,192,130592,1,0,0:0:0:0:
475,192,130592,1,0,0:0:0:0:
329,192,130764,1,0,0:0:0:0:
182,192,130937,1,0,0:0:0:50:snare.wav
36,192,130937,1,0,0:0:0:0:
475,192,130937,1,0,0:0:0:0:
109,192,130937,1,0,0:0:0:0:
329,192,131109,1,0,0:0:0:0:
402,192,131109,1,0,0:0:0:0:
109,192,131109,1,0,0:0:0:0:
475,192,131281,128,0,131368:0:0:0:0:
329,192,131281,128,0,131368:0:0:0:0:
182,192,131281,128,0,131540:0:0:0:0:
109,192,131454,128,0,131540:0:0:0:50:kick.wav
475,192,131454,128,0,131540:0:0:0:0:
329,192,131454,128,0,131540:0:0:0:0:
36,192,131626,128,0,131712:0:0:0:50:snare.wav
182,192,131626,128,0,131712:0:0:0:0:
402,192,131626,128,0,131885:0:0:0:0:
182,192,131799,128,0,131885:0:0:0:0:
36,192,131799,128,0,131885:0:0:0:0:
329,192,131799,128,0,131885:0:0:0:0:
36,192,131971,128,0,132316:0:0:0:50:kick.wav
182,192,131971,128,0,132143:0:0:0:0:
329,192,131971,1,0,0:0:0:0:
475,192,131971,1,0,0:0:0:0:
329,192,132143,128,0,132316:0:0:0:0:
109,192,132316,1,0,0:0:0:50:snare.wav
475,192,132316,1,0,0:0:0:0:
256,192,132316,1,0,0:0:0:0:
36,192,132488,128,0,132833:0:0:0:0:
475,192,132488,128,0,132833:0:0:0:0:
402,192,132488,128,0,132574:0:0:0:0:
256,192,132488,128,0,132574:0:0:0:0:
329,192,132661,128,0,132747:0:0:0:0:
182,192,132661,128,0,132747:0:0:0:0:
256,192,132833,128,0,132919:0:0:0:50:kick.wav
109,192,132833,128,0,132919:0:0:0:0:
475,192,133005,128,0,133264:0:0:0:50:snare.wav
182,192,133005,128,0,133092:0:0:0:0:
402,192,133005,128,0,133264:0:0:0:0:
36,192,133005,128,0,133092:0:0:0:0:
256,192,133178,128,0,133264:0:0:0:0:
109,192,133178,128,0,133264:0:0:0:0:
475,192,133350,128,0,134385:0:0:0:50:cymbal.wav
329,192,133350,128,0,133695:0:0:0:50:kick.wav
36,192,133350,1,0,0:0:0:0:
182,192,133350,1,0,0:0:0:0:
182,192,133695,1,0,0:0:0:50:snare.wav
36,192,133695,128,0,133868:0:0:0:0:
109,192,133695,128,0,133868:0:0:0:0:
402,192,133868,1,0,0:0:0:0:
256,192,133868,1,0,0:0:0:0:
182,192,133954,1,0,0:0:0:0:
329,192,134040,1,0,0:0:0:0:
109,192,134040,1,0,0:0:0:0:
182,192,134126,1,0,0:0:0:0:
36,192,134212,1,0,0:0:0:50:kick.wav
256,192,134212,1,0,0:0:0:0:
402,192,134212,1,0,0:0:0:0:
402,192,134385,1,0,0:0:0:50:snare.wav
109,192,134385,1,0,0:0:0:0:
36,192,134385,1,0,0:0:0:0:
329,192,134385,1,0,0:0:0:0:
182,192,134557,1,0,0:0:0:0:
109,192,134643,128,0,135074:0:0:0:0:
36,192,134730,128,0,135074:0:0:0:50:kick.wav
475,192,134730,1,0,0:0:0:0:
329,192,134730,1,0,0:0:0:0:
256,192,134902,1,0,0:0:0:0:
329,192,135074,1,0,0:0:0:50:snare.wav
402,192,135074,128,0,135161:0:0:0:0:
475,192,135074,128,0,135161:0:0:0:0:
182,192,135074,1,0,0:0:0:0:
256,192,135247,1,0,0:0:0:0:
109,192,135247,128,0,135333:0:0:0:0:
36,192,135247,128,0,135333:0:0:0:0:
329,192,135333,1,0,0:0:0:0:
402,192,135419,1,0,0:0:0:0:
182,192,135419,1,0,0:0:0:0:
256,192,135505,1,0,0:0:0:0:
329,192,135592,1,0,0:0:0:50:kick.wav
109,192,135592,1,0,0:0:0:0:
475,192,135592,128,0,135764:0:0:0:0:
402,192,135764,1,0,0:0:0:50:snare.wav
36,192,135764,1,0,0:0:0:0:
182,192,135764,1,0,0:0:0:0:
256,192,135937,1,0,0:0:0:0:
109,192,135937,1,0,0:0:0:0:
182,192,136109,1,0,0:0:0:50:kick.wav
36,192,136109,128,0,136368:0:0:0:0:
475,192,136109,128,0,136368:0:0:0:0:
329,192,136109,128,0,137488:0:0:0:0:
36,192,136454,1,0,0:0:0:50:snare.wav
475,192,136454,1,0,0:0:0:0:
256,192,136454,1,0,0:0:0:0:
402,192,136626,128,0,137143:0:0:0:0:
182,192,136626,1,0,0:0:0:0:
109,192,136712,1,0,0:0:0:0:
475,192,136799,128,0,137143:0:0:0:0:
36,192,136799,1,0,0:0:0:0:
256,192,136799,1,0,0:0:0:0:
182,192,136885,1,0,0:0:0:0:
36,192,136971,1,0,0:0:0:50:kick.wav
109,192,136971,1,0,0:0:0:0:
36,192,137143,128,0,137488:0:0:0:50:snare.wav
182,192,137143,1,0,0:0:0:0:
256,192,137143,1,0,0:0:0:0:
402,192,137316,1,0,0:0:0:0:
109,192,137316,128,0,137488:0:0:0:0:
475,192,137488,128,0,137747:0:0:0:50:kick.wav
182,192,137488,1,0,0:0:0:0:
256,192,137488,1,0,0:0:0:0:
402,192,137488,128,0,137747:0:0:0:0:
329,192,137661,1,0,0:0:0:0:
402,192,137833,1,0,0:0:0:50:snare.wav
182,192,137833,1,0,0:0:0:0:
475,192,137833,1,0,0:0:0:0:
36,192,137833,1,0,0:0:0:0:
109,192,138005,1,0,0:0:0:0:
329,192,138005,1,0,0:0:0:0:
36,192,138005,128,0,138350:0:0:0:0:
256,192,138092,1,0,0:0:0:0:
182,192,138178,1,0,0:0:0:0:
402,192,138178,1,0,0:0:0:0:
256,192,138264,1,0,0:0:0:0:
329,192,138350,1,0,0:0:0:50:kick.wav
109,192,138350,1,0,0:0:0:0:
475,192,138350,128,0,138695:0:0:0:0:
109,192,138523,1,0,0:0:0:50:snare.wav
182,192,138523,128,0,138868:0:0:0:0:
36,192,138523,1,0,0:0:0:0:
329,192,138695,128,0,138868:0:0:0:0:
36,192,138868,128,0,139902:0:0:0:50:kick.wav
475,192,138868,1,0,0:0:0:0:
256,192,138868,1,0,0:0:0:0:
109,192,138868,128,0,139212:0:0:0:0:
329,192,139040,1,0,0:0:0:0:
402,192,139212,128,0,139385:0:0:0:50:snare.wav
475,192,139212,128,0,139385:0:0:0:0:
182,192,139212,1,0,0:0:0:0:
256,192,139385,1,0,0:0:0:0:
109,192,139385,1,0,0:0:0:0:
329,192,139471,1,0,0:0:0:0:
402,192,139557,1,0,0:0:0:0:
182,192,139557,1,0,0:0:0:0:
256,192,139643,1,0,0:0:0:0:
329,192,139730,1,0,0:0:0:50:kick.wav
109,192,139730,1,0,0:0:0:0:
475,192,139730,1,0,0:0:0:0:
475,192,139902,1,0,0:0:0:50:snare.wav
182,192,139902,1,0,0:0:0:0:
109,192,139902,1,0,0:0:0:0:
402,192,139902,1,0,0:0:0:0:
329,192,140074,1,0,0:0:0:0:
402,192,140161,128,0,140419:0:0:0:0:
475,192,140247,128,0,140592:0:0:0:50:kick.wav
36,192,140247,1,0,0:0:0:0:
182,192,140247,1,0,0:0:0:0:
329,192,140419,128,0,140505:0:0:0:0:
182,192,140419,128,0,140505:0:0:0:0:
402,192,140592,128,0,140678:0:0:0:50:snare.wav
256,192,140592,128,0,140678:0:0:0:0:
36,192,140592,1,0,0:0:0:0:
109,192,140592,1,0,0:0:0:0:
475,192,140764,128,0,140850:0:0:0:0:
329,192,140764,128,0,140850:0:0:0:0:
109,192,140764,1,0,0:0:0:0:
182,192,140850,1,0,0:0:0:0:
36,192,140937,1,0,0:0:0:0:
256,192,140937,1,0,0:0:0:0:
182,192,141023,1,0,0:0:0:0:
475,192,141109,128,0,141195:0:0:0:50:kick.wav
329,192,141109,128,0,141195:0:0:0:0:
109,192,141109,1,0,0:0:0:0:
402,192,141281,128,0,141368:0:0:0:50:snare.wav
256,192,141281,128,0,141368:0:0:0:0:
36,192,141281,1,0,0:0:0:0:
109,192,141281,1,0,0:0:0:0:
329,192,141454,128,0,141540:0:0:0:0:
182,192,141454,128,0,141540:0:0:0:0:
256,192,141626,128,0,141971:0:0:0:50:kick.wav
109,192,141626,128,0,141971:0:0:0:0:
475,192,141626,1,0,0:0:0:0:
402,192,141626,1,0,0:0:0:0:
36,192,141626,1,0,0:0:0:0:
329,192,141971,1,0,0:0:0:50:snare.wav
475,192,141971,1,0,0:0:0:0:
36,192,141971,1,0,0:0:0:0:
402,192,141971,1,0,0:0:0:0:
475,192,142143,128,0,142230:0:0:0:0:
329,192,142143,128,0,142230:0:0:0:0:
36,192,142143,128,0,142661:0:0:0:0:
402,192,142316,128,0,142402:0:0:0:50:kick.wav
256,192,142316,128,0,142402:0:0:0:0:
109,192,142316,128,0,142488:0:0:0:0:
329,192,142488,128,0,142574:0:0:0:0:
475,192,142488,128,0,143005:0:0:0:0:
182,192,142488,128,0,142574:0:0:0:0:
256,192,142661,128,0,142747:0:0:0:50:snare.wav
109,192,142661,128,0,142747:0:0:0:0:
402,192,142661,128,0,143005:0:0:0:0:
182,192,142833,128,0,142919:0:0:0:0:
36,192,142833,128,0,142919:0:0:0:0:
329,192,142833,128,0,143005:0:0:0:0:
36,192,143005,1,0,0:0:0:50:kick.wav
109,192,143005,1,0,0:0:0:0:
256,192,143005,1,0,0:0:0:0:
329,192,143178,1,0,0:0:0:0:
182,192,143178,1,0,0:0:0:0:
256,192,143350,1,0,0:0:0:50:snare.wav
475,192,143350,1,0,0:0:0:0:
402,192,143350,1,0,0:0:0:0:
36,192,143350,1,0,0:0:0:0:
475,192,143523,128,0,143609:0:0:0:50:kick.wav
329,192,143523,128,0,143609:0:0:0:0:
36,192,143523,128,0,143868:0:0:0:0:
109,192,143523,128,0,143868:0:0:0:0:
402,192,143695,128,0,143781:0:0:0:0:
256,192,143695,128,0,143781:0:0:0:0:
182,192,143868,128,0,143954:0:0:0:50:snare.wav
329,192,143868,128,0,143954:0:0:0:0:
256,192,144040,128,0,144212:0:0:0:50:snare3.wav
36,192,144040,1,0,0:0:0:0:
475,192,144040,1,0,0:0:0:0:
329,192,144126,128,0,144299:0:0:0:0:
109,192,144126,1,0,0:0:0:0:
402,192,144212,128,0,144385:0:0:0:0:
182,192,144212,1,0,0:0:0:0:
475,192,144299,128,0,144385:0:0:0:0:
256,192,144299,1,0,0:0:0:0:
109,192,144385,1,0,0:0:0:50:cymbal.wav
182,192,144385,1,0,0:0:0:50:kick.wav
36,192,144385,128,0,146626:0:0:0:0:
329,192,144385,1,0,0:0:0:0:
329,192,144557,1,0,0:0:0:0:
475,192,144557,1,0,0:0:0:0:
475,192,144730,128,0,144816:0:0:0:50:snare.wav
402,192,144730,128,0,144816:0:0:0:0:
182,192,144730,128,0,144816:0:0:0:0:
109,192,144730,128,0,144816:0:0:0:0:
256,192,144902,1,0,0:0:0:0:
109,192,144902,1,0,0:0:0:0:
402,192,144988,1,0,0:0:0:0:
182,192,145074,1,0,0:0:0:0:
329,192,145074,1,0,0:0:0:0:
256,192,145247,1,0,0:0:0:50:kick.wav
109,192,145247,1,0,0:0:0:0:
402,192,145247,1,0,0:0:0:0:
475,192,145419,128,0,145505:0:0:0:50:snare.wav
329,192,145419,128,0,145505:0:0:0:0:
182,192,145419,128,0,145505:0:0:0:0:
109,192,145419,128,0,145505:0:0:0:0:
402,192,145592,1,0,0:0:0:0:
256,192,145592,1,0,0:0:0:0:
109,192,145764,1,0,0:0:0:50:kick.wav
475,192,145764,1,0,0:0:0:0:
256,192,145764,1,0,0:0:0:0:
329,192,145937,1,0,0:0:0:0:
182,192,145937,1,0,0:0:0:0:
475,192,146109,128,0,146195:0:0:0:50:snare.wav
402,192,146109,128,0,146195:0:0:0:0:
182,192,146109,128,0,146195:0:0:0:0:
109,192,146109,128,0,146195:0:0:0:0:
256,192,146281,1,0,0:0:0:0:
109,192,146281,1,0,0:0:0:0:
402,192,146368,1,0,0:0:0:0:
182,192,146454,1,0,0:0:0:0:
329,192,146454,1,0,0:0:0:0:
109,192,146626,1,0,0:0:0:50:kick.wav
402,192,146626,1,0,0:0:0:0:
475,192,146626,1,0,0:0:0:0:
329,192,146799,128,0,146885:0:0:0:50:snare.wav
475,192,146799,128,0,146885:0:0:0:0:
182,192,146799,128,0,146885:0:0:0:0:
36,192,146799,128,0,146885:0:0:0:0:
109,192,146971,1,0,0:0:0:0:
256,192,146971,1,0,0:0:0:0:
182,192,147143,1,0,0:0:0:50:kick.wav
36,192,147143,1,0,0:0:0:0:
475,192,147143,128,0,148523:0:0:0:0:
402,192,147143,1,0,0:0:0:0:
109,192,147316,1,0,0:0:0:0:
329,192,147316,1,0,0:0:0:0:
36,192,147488,128,0,147574:0:0:0:50:snare.wav
109,192,147488,128,0,147574:0:0:0:0:
329,192,147488,128,0,147574:0:0:0:0:
402,192,147488,128,0,147574:0:0:0:0:
256,192,147661,1,0,0:0:0:0:
402,192,147661,1,0,0:0:0:0:
109,192,147747,1,0,0:0:0:0:
329,192,147833,1,0,0:0:0:0:
182,192,147833,1,0,0:0:0:0:
402,192,148005,1,0,0:0:0:50:kick.wav
109,192,148005,1,0,0:0:0:0:
36,192,148005,1,0,0:0:0:0:
402,192,148178,128,0,148264:0:0:0:50:snare.wav
329,192,148178,128,0,148264:0:0:0:0:
182,192,148178,128,0,148264:0:0:0:0:
36,192,148178,128,0,148264:0:0:0:0:
109,192,148350,1,0,0:0:0:0:
256,192,148350,1,0,0:0:0:0:
402,192,148523,1,0,0:0:0:50:kick.wav
329,192,148523,1,0,0:0:0:0:
36,192,148523,128,0,148868:0:0:0:0:
182,192,148523,128,0,148868:0:0:0:0:
402,192,148695,1,0,0:0:0:0:
329,192,148868,1,0,0:0:0:50:snare.wav
475,192,148868,1,0,0:0:0:0:
256,192,148868,1,0,0:0:0:0:
402,192,149040,128,0,149557:0:0:0:0:
475,192,149040,128,0,149557:0:0:0:0:
182,192,149040,1,0,0:0:0:0:
109,192,149126,1,0,0:0:0:0:
329,192,149212,1,0,0:0:0:0:
36,192,149212,1,0,0:0:0:0:
182,192,149385,1,0,0:0:0:50:kick.wav
109,192,149385,1,0,0:0:0:0:
329,192,149385,1,0,0:0:0:0:
109,192,149557,1,0,0:0:0:50:snare.wav
36,192,149557,1,0,0:0:0:0:
256,192,149557,1,0,0:0:0:0:
329,192,149730,1,0,0:0:0:0:
182,192,149730,1,0,0:0:0:0:
36,192,149902,128,0,151626:0:0:0:50:kick.wav
256,192,149902,1,0,0:0:0:0:
475,192,149902,1,0,0:0:0:0:
402,192,149902,1,0,0:0:0:0:
182,192,150074,1,0,0:0:0:0:
329,192,150074,1,0,0:0:0:0:
475,192,150247,128,0,150333:0:0:0:50:snare.wav
402,192,150247,128,0,150333:0:0:0:0:
256,192,150247,128,0,150333:0:0:0:0:
109,192,150247,128,0,150333:0:0:0:0:
182,192,150419,1,0,0:0:0:0:
329,192,150419,1,0,0:0:0:0:
402,192,150505,1,0,0:0:0:0:
109,192,150592,1,0,0:0:0:0:
256,192,150592,1,0,0:0:0:0:
402,192,150764,1,0,0:0:0:50:kick.wav
475,192,150764,1,0,0:0:0:0:
182,192,150764,1,0,0:0:0:0:
109,192,150937,128,0,151023:0:0:0:50:snare.wav
329,192,150937,128,0,151023:0:0:0:0:
402,192,150937,128,0,151023:0:0:0:0:
475,192,150937,128,0,151023:0:0:0:0:
329,192,151109,1,0,0:0:0:0:
182,192,151109,1,0,0:0:0:0:
109,192,151281,1,0,0:0:0:50:kick.wav
182,192,151281,1,0,0:0:0:0:
475,192,151281,128,0,151626:0:0:0:0:
402,192,151281,128,0,151626:0:0:0:0:
256,192,151454,1,0,0:0:0:0:
109,192,151626,1,0,0:0:0:50:snare.wav
329,192,151626,1,0,0:0:0:0:
182,192,151626,1,0,0:0:0:0:
256,192,151799,128,0,152316:0:0:0:0:
475,192,151799,1,0,0:0:0:0:
402,192,151885,1,0,0:0:0:0:
329,192,151971,1,0,0:0:0:0:
36,192,151971,1,0,0:0:0:0:
475,192,152143,1,0,0:0:0:50:kick.wav
182,192,152143,1,0,0:0:0:0:
109,192,152143,1,0,0:0:0:0:
329,192,152316,1,0,0:0:0:50:snare.wav
36,192,152316,1,0,0:0:0:0:
475,192,152316,128,0,152661:0:0:0:0:
402,192,152316,1,0,0:0:0:0:
256,192,152488,1,0,0:0:0:0:
402,192,152661,1,0,0:0:0:50:kick.wav
182,192,152661,128,0,153005:0:0:0:0:
36,192,152661,128,0,153005:0:0:0:0:
109,192,152661,1,0,0:0:0:0:
329,192,152833,1,0,0:0:0:0:
256,192,153005,128,0,153092:0:0:0:50:snare.wav
402,192,153005,128,0,153092:0:0:0:0:
475,192,153005,128,0,153092:0:0:0:0:
36,192,153178,128,0,153264:0:0:0:0:
182,192,153178,128,0,153264:0:0:0:0:
329,192,153178,128,0,153264:0:0:0:0:
475,192,153350,128,0,153695:0:0:0:0:
402,192,153350,128,0,153437:0:0:0:0:
329,192,153523,128,0,153868:0:0:0:50:kick.wav
256,192,153523,128,0,153609:0:0:0:0:
182,192,153695,128,0,154040:0:0:0:50:snare.wav
109,192,153695,128,0,153781:0:0:0:0:
36,192,153868,128,0,154040:0:0:0:0:
475,192,153868,128,0,154040:0:0:0:0:
256,192,153868,128,0,153954:0:0:0:0:
109,192,154040,128,0,154557:0:0:0:50:kick.wav
402,192,154040,128,0,154557:0:0:0:0:
182,192,154212,128,0,154385:0:0:0:0:
329,192,154212,128,0,154385:0:0:0:0:
475,192,154385,128,0,154902:0:0:0:50:snare.wav
36,192,154385,128,0,154902:0:0:0:0:
182,192,154557,128,0,154902:0:0:0:0:
329,192,154557,128,0,154902:0:0:0:0:
402,192,154902,1,0,0:0:0:50:kick.wav
109,192,154902,1,0,0:0:0:0:
256,192,154902,1,0,0:0:0:0:
36,192,155074,128,0,155247:0:0:0:50:snare.wav
329,192,155074,1,0,0:0:0:0:
109,192,155161,128,0,155333:0:0:0:0:
402,192,155161,1,0,0:0:0:0:
182,192,155247,128,0,155419:0:0:0:0:
475,192,155247,1,0,0:0:0:0:
402,192,155333,1,0,0:0:0:0:
256,192,155333,128,0,155419:0:0:0:0:
36,192,155419,128,0,157488:0:0:0:50:cymbal.wav
109,192,155419,1,0,0:0:0:50:kick.wav
329,192,155419,1,0,0:0:0:0:
475,192,155419,1,0,0:0:0:0:
256,192,155592,1,0,0:0:0:0:
402,192,155592,1,0,0:0:0:0:
109,192,155764,128,0,155850:0:0:0:50:snare.wav
182,192,155764,128,0,155850:0:0:0:0:
402,192,155764,128,0,155850:0:0:0:0:
475,192,155764,128,0,155850:0:0:0:0:
475,192,155937,1,0,0:0:0:0:
256,192,155937,1,0,0:0:0:0:
402,192,156023,1,0,0:0:0:0:
329,192,156109,1,0,0:0:0:0:
109,192,156109,1,0,0:0:0:0:
475,192,156281,1,0,0:0:0:50:kick.wav
402,192,156281,1,0,0:0:0:0:
256,192,156281,1,0,0:0:0:0:
182,192,156454,128,0,156540:0:0:0:50:snare.wav
109,192,156454,128,0,156540:0:0:0:0:
329,192,156454,128,0,156540:0:0:0:0:
475,192,156454,128,0,156540:0:0:0:0:
402,192,156626,1,0,0:0:0:0:
256,192,156626,1,0,0:0:0:0:
329,192,156799,1,0,0:0:0:50:kick.wav
109,192,156799,1,0,0:0:0:0:
182,192,156799,1,0,0:0:0:0:
402,192,156971,1,0,0:0:0:0:
475,192,156971,1,0,0:0:0:0:
182,192,157143,128,0,157230:0:0:0:50:snare.wav
109,192,157143,128,0,157230:0:0:0:0:
329,192,157143,128,0,157230:0:0:0:0:
475,192,157143,128,0,157230:0:0:0:0:
182,192,157316,1,0,0:0:0:0:
329,192,157316,1,0,0:0:0:0:
402,192,157402,1,0,0:0:0:0:
475,192,157488,1,0,0:0:0:0:
109,192,157488,1,0,0:0:0:0:
256,192,157661,1,0,0:0:0:50:kick.wav
36,192,157661,1,0,0:0:0:0:
329,192,157661,1,0,0:0:0:0:
475,192,157833,128,0,157919:0:0:0:50:snare.wav
402,192,157833,128,0,157919:0:0:0:0:
182,192,157833,128,0,157919:0:0:0:0:
36,192,157833,128,0,157919:0:0:0:0:
329,192,158005,1,0,0:0:0:0:
109,192,158005,1,0,0:0:0:0:
475,192,158178,128,0,159557:0:0:0:50:kick.wav
36,192,158178,1,0,0:0:0:0:
256,192,158178,1,0,0:0:0:0:
402,192,158178,1,0,0:0:0:0:
109,192,158350,1,0,0:0:0:0:
256,192,158350,1,0,0:0:0:0:
329,192,158523,128,0,158609:0:0:0:50:snare.wav
402,192,158523,128,0,158609:0:0:0:0:
182,192,158523,128,0,158609:0:0:0:0:
36,192,158523,128,0,158609:0:0:0:0:
256,192,158695,1,0,0:0:0:0:
36,192,158695,1,0,0:0:0:0:
109,192,158781,1,0,0:0:0:0:
182,192,158868,1,0,0:0:0:0:
402,192,158868,1,0,0:0:0:0:
256,192,159040,1,0,0:0:0:50:kick.wav
109,192,159040,1,0,0:0:0:0:
329,192,159040,1,0,0:0:0:0:
329,192,159212,128,0,159299:0:0:0:50:snare.wav
402,192,159212,128,0,159299:0:0:0:0:
36,192,159212,128,0,159299:0:0:0:0:
182,192,159212,128,0,159299:0:0:0:0:
256,192,159385,1,0,0:0:0:0:
109,192,159385,1,0,0:0:0:0:
402,192,159557,1,0,0:0:0:50:kick.wav
109,192,159557,128,0,159902:0:0:0:0:
36,192,159557,128,0,159902:0:0:0:0:
329,192,159557,1,0,0:0:0:0:
256,192,159730,1,0,0:0:0:0:
402,192,159902,1,0,0:0:0:50:snare.wav
475,192,159902,1,0,0:0:0:0:
182,192,159902,1,0,0:0:0:0:
329,192,160074,128,0,160592:0:0:0:0:
475,192,160074,128,0,160592:0:0:0:0:
109,192,160074,1,0,0:0:0:0:
182,192,160161,1,0,0:0:0:0:
36,192,160247,1,0,0:0:0:0:
109,192,160247,1,0,0:0:0:0:
109,192,160419,1,0,0:0:0:50:kick.wav
256,192,160419,1,0,0:0:0:0:
402,192,160419,1,0,0:0:0:0:
402,192,160592,1,0,0:0:0:50:snare.wav
36,192,160592,1,0,0:0:0:0:
182,192,160592,1,0,0:0:0:0:
329,192,160764,1,0,0:0:0:0:
475,192,160764,1,0,0:0:0:0:
256,192,160850,1,0,0:0:0:0:
475,192,160937,1,0,0:0:0:50:kick.wav
109,192,160937,128,0,162316:0:0:0:0:
402,192,160937,1,0,0:0:0:0:
36,192,160937,1,0,0:0:0:0:
182,192,160937,1,0,0:0:0:0:
256,192,161109,1,0,0:0:0:0:
329,192,161109,1,0,0:0:0:0:
475,192,161281,128,0,161368:0:0:0:50:snare.wav
402,192,161281,128,0,161368:0:0:0:0:
36,192,161281,128,0,161368:0:0:0:0:
329,192,161281,128,0,161368:0:0:0:0:
182,192,161454,1,0,0:0:0:0:
256,192,161454,1,0,0:0:0:0:
329,192,161540,1,0,0:0:0:0:
182,192,161626,1,0,0:0:0:0:
402,192,161626,1,0,0:0:0:0:
475,192,161799,1,0,0:0:0:50:kick.wav
329,192,161799,1,0,0:0:0:0:
36,192,161799,1,0,0:0:0:0:
402,192,161971,128,0,162057:0:0:0:50:snare.wav
475,192,161971,128,0,162057:0:0:0:0:
182,192,161971,128,0,162057:0:0:0:0:
36,192,161971,128,0,162057:0:0:0:0:
182,192,162143,1,0,0:0:0:0:
329,192,162143,1,0,0:0:0:0:
475,192,162316,1,0,0:0:0:50:kick.wav
329,192,162316,1,0,0:0:0:0:
36,192,162316,1,0,0:0:0:0:
256,192,162488,1,0,0:0:0:0:
109,192,162488,1,0,0:0:0:0:
475,192,162661,128,0,162747:0:0:0:50:snare.wav
329,192,162661,128,0,162747:0:0:0:0:
182,192,162661,128,0,162747:0:0:0:0:
36,192,162661,128,0,162747:0:0:0:0:
256,192,162833,1,0,0:0:0:0:
402,192,162833,1,0,0:0:0:0:
182,192,162919,1,0,0:0:0:0:
329,192,163005,1,0,0:0:0:0:
109,192,163005,128,0,163350:0:0:0:0:
182,192,163178,1,0,0:0:0:50:kick.wav
402,192,163178,1,0,0:0:0:0:
36,192,163178,1,0,0:0:0:0:
475,192,163350,1,0,0:0:0:50:snare.wav
402,192,163350,128,0,163695:0:0:0:0:
329,192,163350,1,0,0:0:0:0:
182,192,163350,1,0,0:0:0:0:
109,192,163523,1,0,0:0:0:0:
36,192,163695,128,0,164040:0:0:0:50:kick.wav
182,192,163695,128,0,164040:0:0:0:0:
329,192,163695,1,0,0:0:0:0:
475,192,163695,1,0,0:0:0:0:
256,192,164040,128,0,164126:0:0:0:50:snare.wav
402,192,164040,128,0,164126:0:0:0:0:
475,192,164040,128,0,164126:0:0:0:0:
182,192,164212,128,0,164299:0:0:0:0:
329,192,164212,128,0,164299:0:0:0:0:
402,192,164212,128,0,164299:0:0:0:0:
109,192,164385,128,0,164471:0:0:0:50:kick.wav
36,192,164385,128,0,165074:0:0:0:0:
256,192,164385,128,0,164557:0:0:0:0:
182,192,164557,128,0,164643:0:0:0:0:
329,192,164557,128,0,164730:0:0:0:0:
256,192,164730,128,0,164816:0:0:0:50:snare.wav
109,192,164730,128,0,165074:0:0:0:0:
402,192,164730,128,0,164902:0:0:0:0:
329,192,164902,128,0,164988:0:0:0:50:kick.wav
475,192,164902,128,0,165074:0:0:0:0:
182,192,165074,1,0,0:0:0:50:snare.wav
256,192,165074,1,0,0:0:0:0:
402,192,165074,1,0,0:0:0:0:
329,192,165247,1,0,0:0:0:45:kick.wav
475,192,165247,1,0,0:0:0:0:
36,192,165333,1,0,0:0:0:45:kick.wav
182,192,165333,1,0,0:0:0:0:
329,192,165419,1,0,0:0:0:45:kick.wav
475,192,165419,1,0,0:0:0:0:
475,192,165592,1,0,0:0:0:50:snare.wav
329,192,165592,1,0,0:0:0:0:
182,192,165764,1,0,0:0:0:40:kick.wav
36,192,165764,1,0,0:0:0:0:
329,192,165850,1,0,0:0:0:40:snare.wav
475,192,165850,1,0,0:0:0:0:
182,192,165937,1,0,0:0:0:40:kick.wav
36,192,165937,1,0,0:0:0:0:
36,192,166454,1,0,0:0:0:0:
256,192,166454,1,0,0:0:0:0:
475,192,166454,1,0,0:0:0:0:
182,192,166799,1,0,0:0:0:0:
329,192,166971,1,0,0:0:0:0:
182,192,167143,128,0,167488:0:0:0:0:
36,192,167143,1,0,0:0:0:0:
329,192,167488,128,0,167833:0:0:0:0:
182,192,167661,128,0,168005:0:0:0:0:
329,192,168005,1,0,0:0:0:0:
475,192,168005,1,0,0:0:0:0:
182,192,168178,1,0,0:0:0:0:
329,192,168350,1,0,0:0:0:0:
36,192,168523,1,0,0:0:0:0:
182,192,168523,128,0,168868:0:0:0:0:
475,192,168695,1,0,0:0:0:0:
329,192,168695,128,0,169040:0:0:0:0:
182,192,169040,1,0,0:0:0:0:
36,192,169212,1,0,0:0:0:0:
329,192,169212,1,0,0:0:0:0:
475,192,169212,1,0,0:0:0:0:
109,192,169557,1,0,0:0:0:0:
402,192,169730,1,0,0:0:0:0:
109,192,169902,128,0,170247:0:0:0:0:
36,192,169902,1,0,0:0:0:0:
402,192,170247,1,0,0:0:0:0:
109,192,170419,1,0,0:0:0:0:
256,192,170419,128,0,170764:0:0:0:0:
329,192,170592,1,0,0:0:0:0:
475,192,170592,1,0,0:0:0:0:
109,192,170764,1,0,0:0:0:0:
402,192,170937,1,0,0:0:0:0:
109,192,171109,1,0,0:0:0:0:
329,192,171281,1,0,0:0:0:0:
402,192,171281,128,0,171626:0:0:0:0:
182,192,171454,1,0,0:0:0:0:
109,192,171454,128,0,171799:0:0:0:0:
402,192,171799,1,0,0:0:0:0:
109,192,171971,1,0,0:0:0:0:
402,192,171971,1,0,0:0:0:0:
256,192,171971,1,0,0:0:0:0:
475,192,172316,1,0,0:0:0:0:
36,192,172488,1,0,0:0:0:0:
475,192,172661,128,0,173005:0:0:0:0:
329,192,172661,1,0,0:0:0:0:
36,192,173005,128,0,173350:0:0:0:0:
475,192,173178,128,0,173523:0:0:0:0:
36,192,173523,1,0,0:0:0:0:
475,192,173695,1,0,0:0:0:0:
36,192,173868,1,0,0:0:0:0:
329,192,174040,1,0,0:0:0:0:
475,192,174040,128,0,174385:0:0:0:0:
182,192,174212,1,0,0:0:0:0:
36,192,174212,128,0,174557:0:0:0:0:
256,192,174212,128,0,174557:0:0:0:0:
475,192,174557,1,0,0:0:0:0:
36,192,174730,1,0,0:0:0:0:
256,192,174730,1,0,0:0:0:0:
475,192,174730,1,0,0:0:0:0:
329,192,175074,1,0,0:0:0:0:
182,192,175247,1,0,0:0:0:0:
329,192,175419,128,0,175764:0:0:0:0:
475,192,175419,1,0,0:0:0:0:
182,192,175764,1,0,0:0:0:0:
329,192,175937,1,0,0:0:0:0:
182,192,176109,1,0,0:0:0:0:
36,192,176109,1,0,0:0:0:0:
329,192,176281,1,0,0:0:0:0:
182,192,176454,128,0,176799:0:0:0:0:
329,192,176799,128,0,177143:0:0:0:0:
475,192,176799,1,0,0:0:0:0:
36,192,176971,1,0,0:0:0:0:
182,192,176971,128,0,177316:0:0:0:0:
329,192,177316,1,0,0:0:0:0:
475,192,177488,1,0,0:0:0:0:
182,192,177488,1,0,0:0:0:0:
36,192,177488,1,0,0:0:0:0:
402,192,177833,1,0,0:0:0:0:
109,192,178005,1,0,0:0:0:0:
402,192,178178,128,0,178523:0:0:0:0:
475,192,178178,1,0,0:0:0:0:
109,192,178523,128,0,178868:0:0:0:0:
182,192,178523,1,0,0:0:0:0:
402,192,178695,128,0,179040:0:0:0:0:
329,192,178695,1,0,0:0:0:0:
109,192,179040,1,0,0:0:0:0:
402,192,179212,1,0,0:0:0:0:
109,192,179385,1,0,0:0:0:0:
329,192,179557,1,0,0:0:0:0:
402,192,179557,128,0,179902:0:0:0:0:
182,192,179730,1,0,0:0:0:0:
109,192,179730,128,0,180074:0:0:0:0:
402,192,180074,1,0,0:0:0:0:
109,192,180247,1,0,0:0:0:0:
256,192,180247,1,0,0:0:0:0:
402,192,180247,1,0,0:0:0:0:
36,192,180592,1,0,0:0:0:0:
475,192,180764,1,0,0:0:0:0:
36,192,180937,128,0,181281:0:0:0:0:
182,192,180937,1,0,0:0:0:0:
475,192,181281,128,0,181626:0:0:0:0:
329,192,181281,1,0,0:0:0:0:
36,192,181454,128,0,181799:0:0:0:0:
182,192,181454,1,0,0:0:0:0:
329,192,181626,1,0,0:0:0:0:
475,192,181799,1,0,0:0:0:0:
36,192,181971,1,0,0:0:0:0:
475,192,182143,1,0,0:0:0:0:
182,192,182316,1,0,0:0:0:0:
36,192,182316,128,0,182661:0:0:0:0:
475,192,182488,128,0,182833:0:0:0:0:
329,192,182488,1,0,0:0:0:0:
36,192,182833,1,0,0:0:0:0:
256,192,183005,1,0,0:0:0:0:
36,192,183005,1,0,0:0:0:0:
475,192,183005,1,0,0:0:0:0:
182,192,183350,1,0,0:0:0:0:
182,192,183523,1,0,0:0:0:0:
329,192,183695,128,0,184040:0:0:0:0:
475,192,183695,1,0,0:0:0:0:
109,192,184040,1,0,0:0:0:0:
109,192,184212,1,0,0:0:0:0:
36,192,184557,1,0,0:0:0:0:
182,192,184557,1,0,0:0:0:0:
402,192,184730,1,0,0:0:0:0:
182,192,184902,1,0,0:0:0:0:
329,192,185074,1,0,0:0:0:0:
475,192,185074,128,0,185592:0:0:0:0:
182,192,185247,1,0,0:0:0:0:
36,192,185247,128,0,185592:0:0:0:0:
256,192,185592,1,0,0:0:0:0:
475,192,185764,1,0,0:0:0:0:
36,192,185764,1,0,0:0:0:0:
256,192,185764,1,0,0:0:0:0:
329,192,186109,1,0,0:0:0:0:
329,192,186281,1,0,0:0:0:0:
182,192,186454,128,0,186799:0:0:0:0:
36,192,186454,1,0,0:0:0:0:
402,192,186799,1,0,0:0:0:0:
402,192,186971,1,0,0:0:0:0:
182,192,187143,1,0,0:0:0:0:
36,192,187143,1,0,0:0:0:0:
475,192,187316,1,0,0:0:0:0:
329,192,187316,1,0,0:0:0:0:
109,192,187488,1,0,0:0:0:0:
329,192,187661,1,0,0:0:0:0:
182,192,187833,1,0,0:0:0:0:
36,192,187833,128,0,188350:0:0:0:0:
329,192,188005,1,0,0:0:0:0:
475,192,188005,128,0,188350:0:0:0:0:
256,192,188350,1,0,0:0:0:0:
36,192,188523,1,0,0:0:0:15:kick.wav
475,192,188523,1,0,0:0:0:0:
256,192,188523,1,0,0:0:0:0:
475,192,188695,1,0,0:0:0:15:kick.wav
36,192,188695,1,0,0:0:0:0:
402,192,189040,1,0,0:0:0:0:
182,192,189212,1,0,0:0:0:25:snare2.wav
36,192,189212,1,0,0:0:0:0:
329,192,189385,1,0,0:0:0:0:
475,192,189385,1,0,0:0:0:0:
109,192,189557,1,0,0:0:0:0:
402,192,189730,1,0,0:0:0:0:
109,192,189902,1,0,0:0:0:15:kick.wav
256,192,189902,1,0,0:0:0:0:
402,192,190074,1,0,0:0:0:0:
109,192,190247,1,0,0:0:0:0:
402,192,190419,1,0,0:0:0:0:
182,192,190592,1,0,0:0:0:25:snare2.wav
36,192,190592,1,0,0:0:0:0:
329,192,190764,1,0,0:0:0:0:
182,192,190937,1,0,0:0:0:15:kick.wav
329,192,191109,1,0,0:0:0:15:kick.wav
475,192,191281,1,0,0:0:0:15:kick.wav
36,192,191281,1,0,0:0:0:0:
475,192,191454,1,0,0:0:0:15:kick.wav
36,192,191454,1,0,0:0:0:0:
182,192,191626,1,0,0:0:0:0:
256,192,191799,1,0,0:0:0:15:kick.wav
329,192,191971,1,0,0:0:0:25:snare2.wav
475,192,191971,1,0,0:0:0:0:
182,192,192143,1,0,0:0:0:0:
329,192,192316,1,0,0:0:0:0:
182,192,192488,1,0,0:0:0:0:
402,192,192661,1,0,0:0:0:15:kick.wav
475,192,192661,1,0,0:0:0:0:
109,192,192833,1,0,0:0:0:0:
402,192,193005,1,0,0:0:0:15:kick.wav
109,192,193178,1,0,0:0:0:15:kick.wav
402,192,193350,1,0,0:0:0:25:snare2.wav
329,192,193350,1,0,0:0:0:0:
182,192,193523,1,0,0:0:0:0:
109,192,193523,1,0,0:0:0:0:
182,192,193868,1,0,0:0:0:0:
109,192,193868,1,0,0:0:0:0:
475,192,194040,1,0,0:0:0:15:kick.wav
402,192,194040,1,0,0:0:0:0:
256,192,194040,1,0,0:0:0:0:
402,192,194212,1,0,0:0:0:15:kick.wav
475,192,194212,1,0,0:0:0:0:
182,192,194557,1,0,0:0:0:0:
329,192,194730,1,0,0:0:0:25:snare2.wav
475,192,194730,1,0,0:0:0:0:
182,192,194902,1,0,0:0:0:0:
402,192,195074,1,0,0:0:0:0:
109,192,195247,1,0,0:0:0:0:
402,192,195419,1,0,0:0:0:15:kick.wav
256,192,195419,1,0,0:0:0:0:
109,192,195592,1,0,0:0:0:15:kick.wav
402,192,195764,1,0,0:0:0:0:
109,192,195937,1,0,0:0:0:0:
329,192,196109,1,0,0:0:0:25:snare2.wav
475,192,196109,1,0,0:0:0:0:
182,192,196281,1,0,0:0:0:0:
329,192,196454,1,0,0:0:0:15:kick.wav
182,192,196626,1,0,0:0:0:15:kick.wav
329,192,196799,1,0,0:0:0:15:kick.wav
475,192,196799,1,0,0:0:0:0:
36,192,196799,1,0,0:0:0:0:
329,192,196971,1,0,0:0:0:15:kick.wav
475,192,196971,1,0,0:0:0:0:
182,192,197143,1,0,0:0:0:0:
256,192,197316,1,0,0:0:0:15:kick.wav
475,192,197488,1,0,0:0:0:25:snare2.wav
329,192,197488,1,0,0:0:0:0:
36,192,197661,1,0,0:0:0:0:
475,192,197833,1,0,0:0:0:0:
329,192,197833,1,0,0:0:0:0:
36,192,198005,1,0,0:0:0:15:kick.wav
475,192,198178,128,0,198264:0:0:0:15:kick.wav
182,192,198178,1,0,0:0:0:0:
329,192,198178,128,0,198264:0:0:0:0:
36,192,198350,1,0,0:0:0:0:
402,192,198523,128,0,198609:0:0:0:15:kick.wav
182,192,198523,1,0,0:0:0:0:
256,192,198523,128,0,198609:0:0:0:0:
36,192,198695,1,0,0:0:0:15:kick.wav
329,192,198868,128,0,198954:0:0:0:25:snare2.wav
475,192,198868,1,0,0:0:0:0:
182,192,198868,128,0,198954:0:0:0:0:
36,192,199040,1,0,0:0:0:15:kick.wav
256,192,199212,128,0,199299:0:0:0:15:kick.wav
475,192,199212,1,0,0:0:0:0:
109,192,199212,128,0,199299:0:0:0:0:
109,192,199385,1,0,0:0:0:15:kick.wav
329,192,199557,1,0,0:0:0:15:kick.wav
182,192,199557,128,0,199643:0:0:0:0:
475,192,199557,128,0,199902:0:0:0:0:
36,192,199557,128,0,199643:0:0:0:0:
329,192,199730,1,0,0:0:0:15:kick.wav
36,192,199730,1,0,0:0:0:0:
475,192,199988,128,0,200074:0:0:0:0:
36,192,200247,1,0,0:0:0:25:snare2.wav
109,192,200247,1,0,0:0:0:0:
329,192,200419,128,0,200505:0:0:0:0:
182,192,200419,1,0,0:0:0:0:
402,192,200592,128,0,200678:0:0:0:0:
36,192,200592,1,0,0:0:0:0:
475,192,200764,128,0,201454:0:0:0:0:
182,192,200764,1,0,0:0:0:0:
329,192,200937,128,0,201281:0:0:0:15:kick.wav
36,192,200937,1,0,0:0:0:0:
109,192,201109,1,0,0:0:0:15:kick.wav
36,192,201281,128,0,201368:0:0:0:0:
182,192,201454,128,0,201540:0:0:0:0:
329,192,201626,1,0,0:0:0:25:snare2.wav
475,192,201626,1,0,0:0:0:0:
182,192,201799,1,0,0:0:0:0:
36,192,201799,1,0,0:0:0:0:
256,192,201799,128,0,202057:0:0:0:0:
182,192,202143,128,0,202230:0:0:0:15:kick.wav
402,192,202143,1,0,0:0:0:0:
109,192,202316,128,0,202661:0:0:0:15:kick.wav
475,192,202316,1,0,0:0:0:0:
329,192,202316,1,0,0:0:0:0:
475,192,202488,1,0,0:0:0:15:kick.wav
329,192,202488,1,0,0:0:0:0:
182,192,202661,1,0,0:0:0:0:
36,192,202833,128,0,203523:0:0:0:15:kick.wav
329,192,202833,1,0,0:0:0:0:
182,192,203005,128,0,203350:0:0:0:25:snare2.wav
256,192,203005,1,0,0:0:0:0:
475,192,203350,128,0,203695:0:0:0:0:
329,192,203523,128,0,203695:0:0:0:0:
182,192,203695,1,0,0:0:0:15:kick.wav
36,192,203695,128,0,204385:0:0:0:0:
329,192,203868,1,0,0:0:0:15:kick.wav
475,192,204040,128,0,204385:0:0:0:15:kick.wav
182,192,204040,1,0,0:0:0:0:
256,192,204212,128,0,204385:0:0:0:15:kick.wav
109,192,204385,1,0,0:0:0:25:snare2.wav
402,192,204385,1,0,0:0:0:0:
329,192,204557,128,0,205074:0:0:0:0:
182,192,204557,1,0,0:0:0:0:
182,192,204902,128,0,205074:0:0:0:15:kick.wav
475,192,205074,1,0,0:0:0:15:kick.wav
36,192,205074,1,0,0:0:0:0:
256,192,205074,128,0,205419:0:0:0:0:
475,192,205247,1,0,0:0:0:15:kick.wav
36,192,205247,1,0,0:0:0:0:
182,192,205505,128,0,205592:0:0:0:0:
329,192,205592,1,0,0:0:0:15:kick.wav
109,192,205764,1,0,0:0:0:25:snare2.wav
36,192,205764,1,0,0:0:0:0:
475,192,205764,1,0,0:0:0:0:
329,192,205937,128,0,206023:0:0:0:0:
182,192,205937,1,0,0:0:0:0:
402,192,206109,128,0,206195:0:0:0:0:
36,192,206109,1,0,0:0:0:0:
475,192,206281,128,0,206712:0:0:0:0:
182,192,206281,1,0,0:0:0:0:
36,192,206454,128,0,206712:0:0:0:15:kick.wav
329,192,206626,128,0,206971:0:0:0:15:kick.wav
182,192,206626,128,0,206971:0:0:0:0:
402,192,206799,128,0,207143:0:0:0:0:
109,192,206799,128,0,207143:0:0:0:0:
475,192,206971,128,0,207143:0:0:0:0:
36,192,206971,128,0,207143:0:0:0:0:
182,192,207143,1,0,0:0:0:25:snare2.wav
329,192,207143,1,0,0:0:0:0:
256,192,207316,128,0,207402:0:0:0:0:
402,192,207316,128,0,207402:0:0:0:0:
182,192,207488,128,0,207574:0:0:0:15:kick.wav
329,192,207488,128,0,207574:0:0:0:0:
109,192,207661,128,0,207747:0:0:0:15:kick.wav
256,192,207661,128,0,207747:0:0:0:0:
36,192,207833,128,0,209040:0:0:0:15:kick.wav
182,192,207833,1,0,0:0:0:0:
402,192,207833,1,0,0:0:0:0:
475,192,207833,1,0,0:0:0:0:
402,192,208005,1,0,0:0:0:15:kick.wav
475,192,208005,1,0,0:0:0:0:
109,192,208178,128,0,208868:0:0:0:0:
182,192,208178,128,0,208264:0:0:0:0:
329,192,208178,128,0,208264:0:0:0:0:
256,192,208350,128,0,208437:0:0:0:15:kick.wav
402,192,208350,128,0,208437:0:0:0:0:
182,192,208523,128,0,208695:0:0:0:25:snare2.wav
475,192,208523,128,0,208609:0:0:0:0:
329,192,208523,128,0,208609:0:0:0:0:
402,192,208695,128,0,208781:0:0:0:0:
256,192,208695,128,0,208781:0:0:0:0:
329,192,208868,128,0,208954:0:0:0:0:
182,192,208868,128,0,208954:0:0:0:0:
256,192,209040,128,0,209126:0:0:0:0:
109,192,209040,128,0,209126:0:0:0:0:
475,192,209212,128,0,210419:0:0:0:15:kick.wav
36,192,209212,1,0,0:0:0:0:
182,192,209212,1,0,0:0:0:0:
182,192,209385,1,0,0:0:0:0:
36,192,209385,1,0,0:0:0:0:
402,192,209557,128,0,210247:0:0:0:15:kick.wav
329,192,209557,1,0,0:0:0:0:
256,192,209730,128,0,209816:0:0:0:15:kick.wav
109,192,209730,128,0,209816:0:0:0:0:
36,192,209902,128,0,209988:0:0:0:25:snare2.wav
182,192,209902,128,0,209988:0:0:0:0:
329,192,209902,128,0,210074:0:0:0:0:
109,192,210074,128,0,210161:0:0:0:15:kick.wav
256,192,210074,128,0,210161:0:0:0:0:
182,192,210247,128,0,210333:0:0:0:15:kick.wav
329,192,210247,128,0,210333:0:0:0:0:
256,192,210419,128,0,210505:0:0:0:15:kick.wav
402,192,210419,128,0,210505:0:0:0:0:
475,192,210592,1,0,0:0:0:0:
329,192,210592,1,0,0:0:0:0:
182,192,210592,1,0,0:0:0:0:
36,192,210592,1,0,0:0:0:0:
475,192,210764,1,0,0:0:0:0:
329,192,210764,1,0,0:0:0:0:
36,192,210937,1,0,0:0:0:15:snare2.wav
109,192,210937,1,0,0:0:0:0:
329,192,211109,1,0,0:0:0:0:
182,192,211195,1,0,0:0:0:0:
329,192,211281,1,0,0:0:0:0:
182,192,211368,1,0,0:0:0:0:
329,192,211454,1,0,0:0:0:15:snare2.wav
475,192,211454,1,0,0:0:0:0:
109,192,211626,1,0,0:0:0:0:
402,192,211712,1,0,0:0:0:0:
109,192,211799,1,0,0:0:0:0:
402,192,211885,1,0,0:0:0:0:
256,192,211971,1,0,0:0:0:0:
109,192,211971,1,0,0:0:0:0:
329,192,212143,1,0,0:0:0:0:
475,192,212143,1,0,0:0:0:0:
182,192,212316,1,0,0:0:0:15:snare2.wav
36,192,212316,1,0,0:0:0:0:
109,192,212488,1,0,0:0:0:0:
402,192,212574,1,0,0:0:0:0:
109,192,212661,1,0,0:0:0:0:
402,192,212747,1,0,0:0:0:0:
109,192,212833,1,0,0:0:0:15:snare2.wav
256,192,212833,1,0,0:0:0:0:
475,192,213005,1,0,0:0:0:0:
329,192,213092,1,0,0:0:0:0:
475,192,213178,1,0,0:0:0:0:
329,192,213264,1,0,0:0:0:0:
36,192,213350,1,0,0:0:0:0:
182,192,213350,1,0,0:0:0:0:
475,192,213350,1,0,0:0:0:0:
182,192,213523,1,0,0:0:0:0:
36,192,213523,1,0,0:0:0:0:
36,192,213695,1,0,0:0:0:15:snare2.wav
109,192,213695,1,0,0:0:0:0:
182,192,213868,1,0,0:0:0:0:
329,192,213954,1,0,0:0:0:0:
182,192,214040,1,0,0:0:0:0:
329,192,214126,1,0,0:0:0:0:
182,192,214212,1,0,0:0:0:15:snare2.wav
36,192,214212,1,0,0:0:0:0:
402,192,214385,1,0,0:0:0:0:
109,192,214471,1,0,0:0:0:0:
402,192,214557,1,0,0:0:0:0:
109,192,214643,1,0,0:0:0:0:
256,192,214730,1,0,0:0:0:0:
402,192,214730,1,0,0:0:0:0:
182,192,214902,1,0,0:0:0:0:
36,192,214902,1,0,0:0:0:0:
329,192,215074,1,0,0:0:0:15:snare2.wav
475,192,215074,1,0,0:0:0:0:
402,192,215247,1,0,0:0:0:0:
109,192,215333,1,0,0:0:0:0:
402,192,215419,1,0,0:0:0:0:
109,192,215505,1,0,0:0:0:0:
402,192,215592,1,0,0:0:0:15:snare2.wav
256,192,215592,1,0,0:0:0:0:
36,192,215764,1,0,0:0:0:0:
182,192,215850,1,0,0:0:0:0:
36,192,215937,1,0,0:0:0:0:
182,192,216023,1,0,0:0:0:0:
329,192,216109,1,0,0:0:0:0:
475,192,216109,1,0,0:0:0:0:
36,192,216109,1,0,0:0:0:0:
329,192,216281,1,0,0:0:0:0:
475,192,216281,1,0,0:0:0:0:
182,192,216454,1,0,0:0:0:15:snare2.wav
109,192,216454,1,0,0:0:0:0:
402,192,216626,1,0,0:0:0:0:
256,192,216712,1,0,0:0:0:0:
402,192,216799,1,0,0:0:0:0:
256,192,216885,1,0,0:0:0:0:
402,192,216971,1,0,0:0:0:15:snare2.wav
109,192,216971,1,0,0:0:0:0:
182,192,217143,1,0,0:0:0:0:
36,192,217230,1,0,0:0:0:0:
182,192,217316,1,0,0:0:0:0:
36,192,217402,1,0,0:0:0:0:
402,192,217488,1,0,0:0:0:0:
475,192,217488,1,0,0:0:0:0:
256,192,217488,1,0,0:0:0:0:
475,192,217661,1,0,0:0:0:0:
402,192,217661,1,0,0:0:0:0:
36,192,217833,1,0,0:0:0:15:snare2.wav
182,192,217833,1,0,0:0:0:0:
402,192,218005,1,0,0:0:0:0:
182,192,218092,1,0,0:0:0:0:
402,192,218178,1,0,0:0:0:0:
182,192,218264,1,0,0:0:0:0:
329,192,218350,1,0,0:0:0:15:snare2.wav
475,192,218350,1,0,0:0:0:0:
109,192,218523,1,0,0:0:0:0:
329,192,218609,1,0,0:0:0:0:
109,192,218695,1,0,0:0:0:0:
329,192,218781,1,0,0:0:0:0:
36,192,218868,1,0,0:0:0:0:
475,192,218868,1,0,0:0:0:0:
182,192,218868,1,0,0:0:0:0:
36,192,219040,1,0,0:0:0:0:
182,192,219040,1,0,0:0:0:0:
329,192,219212,1,0,0:0:0:15:snare2.wav
402,192,219212,1,0,0:0:0:0:
109,192,219385,1,0,0:0:0:0:
256,192,219471,1,0,0:0:0:0:
109,192,219557,1,0,0:0:0:0:
256,192,219643,1,0,0:0:0:0:
402,192,219730,1,0,0:0:0:15:snare2.wav
109,192,219730,1,0,0:0:0:0:
329,192,219902,1,0,0:0:0:0:
475,192,219988,1,0,0:0:0:0:
329,192,220074,1,0,0:0:0:0:
475,192,220161,1,0,0:0:0:0:
256,192,220247,1,0,0:0:0:0:
36,192,220247,1,0,0:0:0:0:
109,192,220247,1,0,0:0:0:0:
109,192,220419,1,0,0:0:0:0:
36,192,220419,1,0,0:0:0:0:
475,192,220592,1,0,0:0:0:15:snare2.wav
329,192,220592,1,0,0:0:0:0:
109,192,220764,1,0,0:0:0:0:
329,192,220850,1,0,0:0:0:0:
109,192,220937,1,0,0:0:0:0:
329,192,221023,1,0,0:0:0:0:
36,192,221109,1,0,0:0:0:15:snare2.wav
182,192,221109,1,0,0:0:0:0:
402,192,221281,1,0,0:0:0:0:
182,192,221368,1,0,0:0:0:0:
402,192,221454,1,0,0:0:0:0:
182,192,221540,1,0,0:0:0:0:
329,192,221626,1,0,0:0:0:0:
36,192,221626,1,0,0:0:0:0:
475,192,221626,1,0,0:0:0:0:
36,192,221799,1,0,0:0:0:0:
475,192,221799,1,0,0:0:0:0:
256,192,221971,1,0,0:0:0:25:snare2.wav
475,192,221971,1,0,0:0:0:0:
256,192,222143,1,0,0:0:0:0:
475,192,222143,1,0,0:0:0:0:
36,192,222316,1,0,0:0:0:0:
475,192,222316,1,0,0:0:0:0:
36,192,222488,1,0,0:0:0:25:snare2.wav
475,192,222488,1,0,0:0:0:0:
182,192,222661,1,0,0:0:0:0:
475,192,222661,1,0,0:0:0:0:
182,192,222833,1,0,0:0:0:0:
475,192,222833,1,0,0:0:0:0:
36,192,223005,1,0,0:0:0:0:
402,192,223005,1,0,0:0:0:0:
36,192,223178,1,0,0:0:0:0:
402,192,223178,1,0,0:0:0:0:
109,192,223350,1,0,0:0:0:35:snare2.wav
402,192,223350,1,0,0:0:0:0:
109,192,223523,1,0,0:0:0:0:
402,192,223523,1,0,0:0:0:0:
182,192,223695,1,0,0:0:0:0:
402,192,223695,1,0,0:0:0:0:
182,192,223868,1,0,0:0:0:35:snare2.wav
402,192,223868,1,0,0:0:0:0:
256,192,224040,1,0,0:0:0:0:
402,192,224040,1,0,0:0:0:0:
256,192,224212,1,0,0:0:0:0:
402,192,224212,1,0,0:0:0:0:
36,192,224385,1,0,0:0:0:0:
182,192,224385,1,0,0:0:0:0:
475,192,224385,1,0,0:0:0:0:
475,192,224557,1,0,0:0:0:0:
36,192,224557,1,0,0:0:0:0:
402,192,224730,1,0,0:0:0:45:snare2.wav
36,192,224730,1,0,0:0:0:0:
182,192,224730,1,0,0:0:0:0:
402,192,224902,1,0,0:0:0:0:
36,192,224902,1,0,0:0:0:0:
329,192,225074,1,0,0:0:0:0:
36,192,225074,1,0,0:0:0:0:
475,192,225074,1,0,0:0:0:0:
329,192,225247,1,0,0:0:0:45:snare2.wav
36,192,225247,1,0,0:0:0:0:
256,192,225419,1,0,0:0:0:0:
36,192,225419,1,0,0:0:0:0:
475,192,225419,1,0,0:0:0:0:
256,192,225592,1,0,0:0:0:0:
36,192,225592,1,0,0:0:0:0:
182,192,225764,1,0,0:0:0:0:
36,192,225764,1,0,0:0:0:0:
475,192,225764,1,0,0:0:0:0:
36,192,225937,1,0,0:0:0:0:
475,192,225937,1,0,0:0:0:0:
182,192,225937,1,0,0:0:0:0:
109,192,226109,1,0,0:0:0:50:snare2.wav
475,192,226109,1,0,0:0:0:0:
256,192,226109,1,0,0:0:0:0:
109,192,226281,1,0,0:0:0:0:
475,192,226281,1,0,0:0:0:0:
256,192,226281,1,0,0:0:0:0:
182,192,226454,1,0,0:0:0:0:
475,192,226454,1,0,0:0:0:0:
329,192,226454,1,0,0:0:0:0:
182,192,226626,1,0,0:0:0:50:snare2.wav
475,192,226626,1,0,0:0:0:0:
329,192,226626,1,0,0:0:0:0:
256,192,226799,1,0,0:0:0:0:
475,192,226799,1,0,0:0:0:0:
402,192,226799,1,0,0:0:0:0:
256,192,226971,1,0,0:0:0:0:
475,192,226971,1,0,0:0:0:0:
402,192,226971,1,0,0:0:0:0:
36,192,227143,1,0,0:0:0:0:
182,192,227143,1,0,0:0:0:25:kick.wav
329,192,227143,1,0,0:0:0:0:
402,192,227230,1,0,0:0:0:0:
182,192,227316,1,0,0:0:0:25:kick.wav
36,192,227316,1,0,0:0:0:0:
329,192,227316,1,0,0:0:0:0:
402,192,227402,1,0,0:0:0:0:
256,192,227488,1,0,0:0:0:50:snare2.wav
109,192,227488,1,0,0:0:0:25:kick.wav
36,192,227488,1,0,0:0:0:0:
475,192,227574,1,0,0:0:0:0:
256,192,227661,1,0,0:0:0:0:
109,192,227661,1,0,0:0:0:25:kick.wav
36,192,227661,1,0,0:0:0:0:
475,192,227747,1,0,0:0:0:0:
182,192,227833,1,0,0:0:0:25:kick.wav
36,192,227833,1,0,0:0:0:0:
329,192,227833,1,0,0:0:0:0:
402,192,227919,1,0,0:0:0:0:
182,192,228005,1,0,0:0:0:50:snare2.wav
329,192,228005,1,0,0:0:0:25:kick.wav
36,192,228005,1,0,0:0:0:0:
402,192,228092,1,0,0:0:0:20:kick.wav
256,192,228178,1,0,0:0:0:25:kick.wav
36,192,228178,1,0,0:0:0:0:
109,192,228178,1,0,0:0:0:0:
402,192,228264,1,0,0:0:0:50:snare2.wav
256,192,228350,1,0,0:0:0:25:kick.wav
36,192,228350,1,0,0:0:0:0:
109,192,228350,1,0,0:0:0:0:
402,192,228437,1,0,0:0:0:50:snare2.wav
475,192,228523,1,0,0:0:0:50:snare2.wav
182,192,228523,1,0,0:0:0:30:kick.wav
329,192,228523,1,0,0:0:0:0:
109,192,228609,1,0,0:0:0:30:kick.wav
182,192,228695,1,0,0:0:0:30:kick.wav
402,192,228695,1,0,0:0:0:0:
329,192,228695,1,0,0:0:0:0:
109,192,228781,1,0,0:0:0:30:kick.wav
402,192,228868,1,0,0:0:0:50:snare2.wav
256,192,228868,1,0,0:0:0:30:kick.wav
475,192,228868,1,0,0:0:0:0:
36,192,228954,1,0,0:0:0:30:kick.wav
402,192,229040,1,0,0:0:0:40:kick.wav
256,192,229040,1,0,0:0:0:0:
475,192,229040,1,0,0:0:0:0:
36,192,229126,1,0,0:0:0:40:kick.wav
182,192,229212,1,0,0:0:0:40:kick.wav
329,192,229212,1,0,0:0:0:0:
475,192,229212,1,0,0:0:0:0:
109,192,229299,1,0,0:0:0:40:kick.wav
182,192,229385,1,0,0:0:0:50:snare2.wav
402,192,229385,1,0,0:0:0:40:kick.wav
329,192,229385,1,0,0:0:0:0:
109,192,229471,1,0,0:0:0:40:kick.wav
36,192,229557,1,0,0:0:0:40:kick.wav
329,192,229557,1,0,0:0:0:0:
475,192,229557,1,0,0:0:0:0:
256,192,229643,1,0,0:0:0:40:kick.wav
402,192,229730,1,0,0:0:0:50:snare2.wav
109,192,229730,1,0,0:0:0:40:kick.wav
182,192,229730,1,0,0:0:0:0:
475,192,229816,1,0,0:0:0:40:kick.wav
36,192,229902,1,0,0:0:0:50:kick.wav
182,192,229902,1,0,0:0:0:0:
329,192,229902,1,0,0:0:0:0:
402,192,229988,1,0,0:0:0:50:kick.wav
475,192,229988,1,0,0:0:0:0:
36,192,230074,1,0,0:0:0:50:kick.wav
182,192,230074,1,0,0:0:0:0:
256,192,230074,1,0,0:0:0:0:
329,192,230161,1,0,0:0:0:50:kick.wav
402,192,230161,1,0,0:0:0:0:
182,192,230247,1,0,0:0:0:50:snare2.wav
36,192,230247,1,0,0:0:0:50:kick.wav
109,192,230247,1,0,0:0:0:0:
256,192,230333,1,0,0:0:0:50:kick.wav
329,192,230333,1,0,0:0:0:0:
36,192,230419,1,0,0:0:0:50:kick.wav
475,192,230419,1,0,0:0:0:0:
402,192,230419,1,0,0:0:0:0:
182,192,230505,1,0,0:0:0:50:kick.wav
256,192,230505,1,0,0:0:0:0:
475,192,230592,1,0,0:0:0:50:kick.wav
402,192,230592,1,0,0:0:0:0:
329,192,230592,1,0,0:0:0:0:
36,192,230678,1,0,0:0:0:50:kick.wav
109,192,230678,1,0,0:0:0:0:
329,192,230764,1,0,0:0:0:50:snare2.wav
256,192,230764,1,0,0:0:0:50:kick.wav
475,192,230764,1,0,0:0:0:0:
182,192,230850,1,0,0:0:0:50:kick.wav
109,192,230850,1,0,0:0:0:0:
329,192,230937,1,0,0:0:0:50:kick.wav
402,192,230937,1,0,0:0:0:0:
475,192,230937,1,0,0:0:0:0:
256,192,231023,1,0,0:0:0:50:kick.wav
182,192,231023,1,0,0:0:0:0:
36,192,231109,1,0,0:0:0:50:kick.wav
109,192,231109,1,0,0:0:0:0:
402,192,231109,1,0,0:0:0:0:
256,192,231195,1,0,0:0:0:50:kick.wav
329,192,231195,1,0,0:0:0:0:
36,192,231281,1,0,0:0:0:50:kick.wav
475,192,231281,1,0,0:0:0:0:
109,192,231281,1,0,0:0:0:0:
256,192,231368,1,0,0:0:0:50:kick.wav
402,192,231368,1,0,0:0:0:0:
182,192,231368,1,0,0:0:0:0:
475,192,231454,1,0,0:0:0:50:kick.wav
109,192,231454,1,0,0:0:0:0:
36,192,231454,1,0,0:0:0:0:
182,192,231540,1,0,0:0:0:50:kick.wav
402,192,231540,1,0,0:0:0:0:
256,192,231540,1,0,0:0:0:0:
36,192,231626,1,0,0:0:0:50:kick.wav
109,192,231626,1,0,0:0:0:0:
475,192,231626,1,0,0:0:0:0:
182,192,231712,1,0,0:0:0:50:kick.wav
402,192,231712,1,0,0:0:0:0:
329,192,231712,1,0,0:0:0:0:
36,192,231799,1,0,0:0:0:50:kick.wav
475,192,231799,1,0,0:0:0:0:
109,192,231799,1,0,0:0:0:0:
329,192,231885,1,0,0:0:0:50:kick.wav
402,192,231885,1,0,0:0:0:0:
182,192,231885,1,0,0:0:0:0:
36,192,231971,1,0,0:0:0:50:snare3.wav
475,192,231971,1,0,0:0:0:0:
256,192,231971,128,0,232230:0:0:0:0:
329,192,232057,128,0,232316:0:0:0:0:
182,192,232057,128,0,232316:0:0:0:0:
402,192,232143,128,0,232402:0:0:0:0:
109,192,232143,128,0,232402:0:0:0:0:
475,192,232230,128,0,232488:0:0:0:0:
36,192,232230,128,0,232488:0:0:0:0:
256,192,232316,1,0,0:0:0:0:
329,192,232402,1,0,0:0:0:0:
182,192,232402,1,0,0:0:0:0:
109,192,232488,1,0,0:0:0:0:
402,192,232488,1,0,0:0:0:0:
475,192,232574,1,0,0:0:0:0:
36,192,232574,1,0,0:0:0:0:
329,192,232661,128,0,232833:0:0:0:50:cymbal.wav
182,192,232661,128,0,232833:0:0:0:50:kick.wav
256,192,232661,1,0,0:0:0:0:
109,192,232747,128,0,232919:0:0:0:0:
402,192,232747,128,0,232919:0:0:0:0:
36,192,232833,128,0,233005:0:0:0:0:
475,192,232833,128,0,233005:0:0:0:0:
182,192,233005,128,0,233178:0:0:0:50:snare.wav
329,192,233005,128,0,233178:0:0:0:50:kick.wav
109,192,233092,128,0,233264:0:0:0:0:
402,192,233178,128,0,233350:0:0:0:0:
475,192,233178,128,0,233350:0:0:0:0:
256,192,233264,128,0,233437:0:0:0:0:
36,192,233350,128,0,233523:0:0:0:50:kick.wav
109,192,233350,128,0,233523:0:0:0:0:
475,192,233437,128,0,233609:0:0:0:0:
402,192,233437,128,0,233609:0:0:0:0:
256,192,233609,128,0,233781:0:0:0:0:
182,192,233695,128,0,233868:0:0:0:50:snare.wav
475,192,233695,128,0,233781:0:0:0:50:kick.wav
109,192,233781,128,0,233954:0:0:0:0:
329,192,233781,128,0,233868:0:0:0:0:
36,192,233868,128,0,234040:0:0:0:0:
402,192,233868,128,0,233954:0:0:0:0:
256,192,233954,128,0,234040:0:0:0:0:
475,192,234040,128,0,234385:0:0:0:50:kick.wav
182,192,234040,128,0,234212:0:0:0:0:
402,192,234126,128,0,234385:0:0:0:0:
36,192,234126,128,0,234385:0:0:0:0:
329,192,234212,128,0,234385:0:0:0:0:
256,192,234385,128,0,234557:0:0:0:50:snare.wav
109,192,234385,128,0,234557:0:0:0:50:kick.wav
329,192,234471,128,0,234643:0:0:0:0:
402,192,234557,128,0,234730:0:0:0:0:
182,192,234557,128,0,234730:0:0:0:0:
475,192,234643,128,0,234816:0:0:0:0:
329,192,234730,128,0,234816:0:0:0:50:kick.wav
36,192,234730,128,0,235074:0:0:0:0:
256,192,234816,128,0,234902:0:0:0:0:
402,192,234902,128,0,234988:0:0:0:0:
109,192,234902,128,0,235074:0:0:0:0:
329,192,234988,128,0,235074:0:0:0:0:
256,192,234988,128,0,235161:0:0:0:0:
182,192,235074,128,0,235247:0:0:0:50:snare.wav
475,192,235074,128,0,235161:0:0:0:50:kick.wav
109,192,235161,128,0,235333:0:0:0:0:
402,192,235161,128,0,235247:0:0:0:0:
36,192,235247,128,0,235419:0:0:0:0:
256,192,235247,128,0,235333:0:0:0:0:
329,192,235333,128,0,235419:0:0:0:0:
475,192,235419,128,0,235592:0:0:0:50:kick.wav
182,192,235419,128,0,235592:0:0:0:0:
402,192,235505,128,0,235678:0:0:0:0:
109,192,235505,128,0,235678:0:0:0:0:
329,192,235592,128,0,235764:0:0:0:0:
36,192,235592,128,0,235764:0:0:0:0:
182,192,235764,128,0,235937:0:0:0:50:snare.wav
475,192,235764,128,0,235937:0:0:0:50:kick.wav
256,192,235850,128,0,236023:0:0:0:0:
329,192,235937,128,0,236109:0:0:0:0:
109,192,235937,128,0,236109:0:0:0:0:
475,192,236023,128,0,236195:0:0:0:0:
36,192,236109,128,0,236281:0:0:0:50:kick.wav
402,192,236109,128,0,236281:0:0:0:0:
256,192,236195,128,0,236368:0:0:0:0:
182,192,236281,128,0,236454:0:0:0:0:
109,192,236368,128,0,236540:0:0:0:0:
36,192,236454,128,0,236626:0:0:0:50:snare.wav
475,192,236454,128,0,236799:0:0:0:50:kick.wav
329,192,236454,128,0,236540:0:0:0:0:
256,192,236540,128,0,236626:0:0:0:0:
402,192,236626,128,0,236799:0:0:0:0:
109,192,236626,128,0,236712:0:0:0:0:
182,192,236712,128,0,236799:0:0:0:0:
329,192,236799,128,0,237057:0:0:0:50:kick.wav
36,192,236799,128,0,237057:0:0:0:0:
256,192,237057,128,0,237230:0:0:0:0:
475,192,237143,128,0,237488:0:0:0:50:snare.wav
329,192,237143,128,0,237316:0:0:0:50:kick.wav
36,192,237143,128,0,237230:0:0:0:0:
182,192,237230,128,0,237316:0:0:0:0:
402,192,237316,128,0,237488:0:0:0:0:
109,192,237316,128,0,237402:0:0:0:0:
256,192,237402,128,0,237488:0:0:0:0:
36,192,237488,128,0,237747:0:0:0:50:kick.wav
329,192,237488,128,0,237833:0:0:0:0:
109,192,237574,128,0,237833:0:0:0:0:
182,192,237661,128,0,237833:0:0:0:0:
256,192,237747,128,0,237833:0:0:0:0:
475,192,237833,128,0,238178:0:0:0:50:snare.wav
36,192,237833,128,0,238092:0:0:0:50:kick.wav
402,192,237919,128,0,238178:0:0:0:0:
329,192,238005,128,0,238178:0:0:0:0:
256,192,238092,128,0,238178:0:0:0:0:
36,192,238178,128,0,238437:0:0:0:50:kick.wav
109,192,238178,128,0,238437:0:0:0:0:
182,192,238178,1,0,0:0:0:0:
329,192,238264,128,0,238523:0:0:0:0:
402,192,238350,128,0,238523:0:0:0:0:
475,192,238437,128,0,238523:0:0:0:0:
109,192,238523,128,0,238781:0:0:0:50:snare.wav
182,192,238523,128,0,238781:0:0:0:50:kick.wav
329,192,238609,128,0,238868:0:0:0:0:
475,192,238609,128,0,238868:0:0:0:0:
256,192,238781,128,0,238954:0:0:0:0:
36,192,238868,128,0,239040:0:0:0:50:kick.wav
182,192,238868,128,0,239040:0:0:0:0:
475,192,238954,128,0,239212:0:0:0:0:
402,192,238954,128,0,239212:0:0:0:0:
256,192,239126,128,0,239299:0:0:0:0:
182,192,239212,128,0,239385:0:0:0:50:snare.wav
329,192,239212,128,0,239299:0:0:0:50:kick.wav
109,192,239299,128,0,239471:0:0:0:0:
402,192,239299,128,0,239385:0:0:0:0:
36,192,239385,128,0,239557:0:0:0:0:
256,192,239385,128,0,239471:0:0:0:0:
329,192,239471,128,0,239557:0:0:0:0:
109,192,239557,128,0,239902:0:0:0:50:kick.wav
182,192,239557,128,0,239902:0:0:0:0:
475,192,239557,128,0,239643:0:0:0:0:
329,192,239643,128,0,239902:0:0:0:0:
475,192,239730,128,0,239902:0:0:0:0:
256,192,239902,128,0,240074:0:0:0:50:snare.wav
402,192,239902,128,0,240074:0:0:0:50:kick.wav
182,192,239988,128,0,240161:0:0:0:0:
329,192,240074,128,0,240247:0:0:0:0:
109,192,240074,128,0,240247:0:0:0:0:
36,192,240161,128,0,240333:0:0:0:0:
475,192,240247,128,0,240592:0:0:0:50:kick.wav
256,192,240247,128,0,240333:0:0:0:0:
329,192,240333,128,0,240419:0:0:0:0:
109,192,240419,128,0,240505:0:0:0:0:
402,192,240419,128,0,240592:0:0:0:0:
36,192,240505,128,0,240592:0:0:0:0:
256,192,240505,128,0,240678:0:0:0:0:
329,192,240592,128,0,240764:0:0:0:50:snare.wav
182,192,240592,128,0,240678:0:0:0:50:kick.wav
402,192,240678,128,0,240850:0:0:0:0:
109,192,240678,128,0,240764:0:0:0:0:
475,192,240764,128,0,240937:0:0:0:0:
256,192,240764,128,0,240850:0:0:0:0:
182,192,240850,128,0,240937:0:0:0:0:
36,192,240937,1,0,0:0:0:50:kick.wav
402,192,240937,1,0,0:0:0:0:
329,192,240937,1,0,0:0:0:0:
109,192,240937,1,0,0:0:0:0:
256,192,241109,1,0,0:0:0:0:
256,192,241195,1,0,0:0:0:0:
475,192,241281,1,0,0:0:0:50:snare.wav
402,192,241281,1,0,0:0:0:50:kick.wav
36,192,241281,1,0,0:0:0:0:
109,192,241281,128,0,241368:0:0:0:0:
182,192,241368,128,0,241454:0:0:0:0:
475,192,241454,1,0,0:0:0:0:
329,192,241454,128,0,241540:0:0:0:0:
256,192,241540,128,0,241626:0:0:0:0:
36,192,241626,1,0,0:0:0:50:kick.wav
182,192,241626,1,0,0:0:0:0:
475,192,241626,128,0,241712:0:0:0:0:
402,192,241712,128,0,241799:0:0:0:0:
109,192,241799,1,0,0:0:0:0:
256,192,241799,128,0,241885:0:0:0:0:
329,192,241885,128,0,241971:0:0:0:0:
475,192,241971,1,0,0:0:0:50:snare.wav
36,192,241971,1,0,0:0:0:50:kick.wav
402,192,241971,1,0,0:0:0:0:
182,192,241971,128,0,242057:0:0:0:0:
256,192,242057,128,0,242143:0:0:0:0:
329,192,242143,128,0,242230:0:0:0:0:
109,192,242143,1,0,0:0:0:0:
402,192,242230,128,0,242316:0:0:0:0:
182,192,242316,128,0,242574:0:0:0:50:kick.wav
36,192,242316,128,0,242574:0:0:0:0:
329,192,242402,128,0,242488:0:0:0:0:
475,192,242402,128,0,242488:0:0:0:0:
329,192,242574,128,0,242833:0:0:0:0:
475,192,242574,128,0,242833:0:0:0:0:
182,192,242661,128,0,242747:0:0:0:50:snare.wav
36,192,242661,128,0,242747:0:0:0:50:kick.wav
182,192,242833,128,0,243092:0:0:0:0:
36,192,242833,128,0,243092:0:0:0:0:
329,192,242919,128,0,243005:0:0:0:0:
475,192,242919,128,0,243005:0:0:0:0:
475,192,243092,128,0,243264:0:0:0:0:
329,192,243092,128,0,243264:0:0:0:0:
182,192,243178,128,0,243264:0:0:0:0:
36,192,243178,128,0,243264:0:0:0:0:
402,192,243350,1,0,0:0:0:50:snare.wav
109,192,243350,1,0,0:0:0:50:kick.wav
329,192,243437,1,0,0:0:0:0:
182,192,243437,1,0,0:0:0:0:
36,192,243523,1,0,0:0:0:0:
475,192,243523,1,0,0:0:0:0:
329,192,243609,1,0,0:0:0:0:
182,192,243609,1,0,0:0:0:0:
475,192,243695,1,0,0:0:0:50:kick.wav
36,192,243695,1,0,0:0:0:0:
402,192,243695,1,0,0:0:0:0:
109,192,243695,1,0,0:0:0:0:
36,192,244040,128,0,244212:0:0:0:50:snare.wav
475,192,244040,128,0,244212:0:0:0:50:kick.wav
402,192,244040,1,0,0:0:0:0:
109,192,244040,1,0,0:0:0:0:
256,192,244040,1,0,0:0:0:0:
329,192,244126,128,0,244299:0:0:0:0:
182,192,244126,128,0,244299:0:0:0:0:
36,192,244299,128,0,244385:0:0:0:0:
475,192,244299,128,0,244385:0:0:0:0:
402,192,244385,128,0,244643:0:0:0:50:kick.wav
109,192,244385,128,0,244643:0:0:0:0:
329,192,244471,128,0,244643:0:0:0:0:
182,192,244471,128,0,244643:0:0:0:0:
36,192,244643,128,0,244816:0:0:0:0:
475,192,244643,128,0,244730:0:0:0:0:
329,192,244730,128,0,244816:0:0:0:50:snare.wav
109,192,244730,128,0,244902:0:0:0:50:kick.wav
182,192,244816,128,0,244988:0:0:0:0:
475,192,244816,128,0,244902:0:0:0:0:
256,192,244902,128,0,245074:0:0:0:0:
402,192,244902,128,0,244988:0:0:0:0:
329,192,244988,128,0,245074:0:0:0:0:
36,192,245074,128,0,245333:0:0:0:50:kick.wav
109,192,245074,128,0,245247:0:0:0:0:
182,192,245074,128,0,245161:0:0:0:0:
475,192,245161,128,0,245419:0:0:0:0:
402,192,245247,128,0,245419:0:0:0:0:
329,192,245333,128,0,245419:0:0:0:0:
182,192,245419,128,0,245592:0:0:0:50:snare.wav
36,192,245419,128,0,245592:0:0:0:50:kick.wav
329,192,245505,128,0,245678:0:0:0:0:
475,192,245505,128,0,245678:0:0:0:0:
256,192,245592,128,0,245764:0:0:0:0:
109,192,245678,128,0,245850:0:0:0:0:
182,192,245678,128,0,245850:0:0:0:0:
475,192,245764,128,0,245937:0:0:0:50:kick.wav
402,192,245764,128,0,245937:0:0:0:0:
329,192,245850,128,0,246023:0:0:0:0:
36,192,245937,128,0,246109:0:0:0:0:
256,192,245937,128,0,246109:0:0:0:0:
182,192,246023,128,0,246195:0:0:0:0:
402,192,246109,128,0,246195:0:0:0:50:snare.wav
109,192,246109,128,0,246454:0:0:0:50:kick.wav
475,192,246195,128,0,246281:0:0:0:0:
256,192,246281,128,0,246368:0:0:0:0:
36,192,246281,128,0,246454:0:0:0:0:
329,192,246368,128,0,246454:0:0:0:0:
475,192,246454,128,0,246799:0:0:0:50:kick.wav
402,192,246454,128,0,246799:0:0:0:0:
182,192,246454,128,0,246626:0:0:0:0:
36,192,246540,128,0,246799:0:0:0:0:
329,192,246626,128,0,246799:0:0:0:0:
256,192,246799,128,0,246885:0:0:0:50:snare.wav
109,192,246799,128,0,246971:0:0:0:50:kick.wav
329,192,246885,128,0,246971:0:0:0:0:
475,192,246971,128,0,247057:0:0:0:0:
182,192,246971,128,0,247143:0:0:0:0:
402,192,247057,128,0,247143:0:0:0:0:
36,192,247143,128,0,247488:0:0:0:50:kick.wav
256,192,247143,128,0,247316:0:0:0:0:
329,192,247230,128,0,247488:0:0:0:0:
109,192,247316,128,0,247488:0:0:0:0:
402,192,247316,128,0,247488:0:0:0:0:
475,192,247402,128,0,247488:0:0:0:0:
256,192,247488,128,0,247747:0:0:0:50:snare.wav
182,192,247574,128,0,247747:0:0:0:0:
109,192,247661,128,0,247833:0:0:0:0:
402,192,247661,128,0,247833:0:0:0:0:
36,192,247747,128,0,247833:0:0:0:0:
182,192,247833,128,0,248092:0:0:0:50:kick.wav
475,192,247833,128,0,248092:0:0:0:0:
329,192,248005,128,0,248178:0:0:0:0:
256,192,248092,128,0,248264:0:0:0:0:
402,192,248178,128,0,248264:0:0:0:50:snare.wav
36,192,248178,128,0,248523:0:0:0:50:kick.wav
182,192,248178,128,0,248350:0:0:0:0:
109,192,248178,128,0,248523:0:0:0:0:
475,192,248264,128,0,248350:0:0:0:0:
256,192,248350,128,0,248437:0:0:0:0:
329,192,248437,128,0,248523:0:0:0:0:
475,192,248523,128,0,248781:0:0:0:50:kick.wav
182,192,248523,128,0,248868:0:0:0:0:
402,192,248609,128,0,248868:0:0:0:0:
329,192,248695,128,0,248868:0:0:0:0:
256,192,248781,128,0,248868:0:0:0:0:
36,192,248868,128,0,249212:0:0:0:50:snare.wav
475,192,248868,128,0,249126:0:0:0:50:kick.wav
109,192,248954,128,0,249212:0:0:0:0:
182,192,249040,128,0,249212:0:0:0:0:
256,192,249126,128,0,249212:0:0:0:0:
475,192,249212,128,0,249471:0:0:0:50:kick.wav
402,192,249212,128,0,249385:0:0:0:0:
329,192,249212,128,0,249299:0:0:0:0:
36,192,249299,128,0,249557:0:0:0:0:
109,192,249385,128,0,249557:0:0:0:0:
182,192,249471,128,0,249557:0:0:0:0:
329,192,249557,128,0,249730:0:0:0:50:snare.wav
475,192,249557,128,0,249730:0:0:0:50:kick.wav
256,192,249643,128,0,249816:0:0:0:0:
182,192,249730,128,0,249902:0:0:0:0:
402,192,249730,128,0,249902:0:0:0:0:
109,192,249816,128,0,249988:0:0:0:0:
36,192,249902,128,0,250247:0:0:0:50:kick.wav
329,192,249902,128,0,250074:0:0:0:0:
475,192,249902,128,0,250074:0:0:0:0:
182,192,249988,128,0,250247:0:0:0:0:
329,192,250161,128,0,250333:0:0:0:0:
475,192,250247,128,0,250505:0:0:0:50:snare.wav
402,192,250247,128,0,250505:0:0:0:50:kick.wav
109,192,250247,128,0,250333:0:0:0:0:
182,192,250333,128,0,250419:0:0:0:0:
256,192,250419,128,0,250505:0:0:0:0:
329,192,250505,128,0,250592:0:0:0:0:
36,192,250592,128,0,250850:0:0:0:50:kick.wav
109,192,250592,128,0,250764:0:0:0:0:
182,192,250592,128,0,250678:0:0:0:0:
475,192,250678,128,0,250937:0:0:0:0:
402,192,250764,128,0,250937:0:0:0:0:
329,192,250850,128,0,250937:0:0:0:0:
36,192,250937,128,0,251109:0:0:0:50:snare.wav
256,192,250937,128,0,251109:0:0:0:50:kick.wav
109,192,251023,128,0,251195:0:0:0:0:
182,192,251109,128,0,251281:0:0:0:0:
402,192,251109,128,0,251281:0:0:0:0:
256,192,251195,128,0,251368:0:0:0:0:
36,192,251281,128,0,251540:0:0:0:50:kick.wav
475,192,251281,128,0,251454:0:0:0:0:
109,192,251368,128,0,251540:0:0:0:0:
182,192,251454,128,0,251540:0:0:0:0:
329,192,251454,128,0,251626:0:0:0:0:
402,192,251540,128,0,251626:0:0:0:0:
256,192,251626,128,0,251712:0:0:0:50:snare.wav
36,192,251626,128,0,251971:0:0:0:50:kick.wav
475,192,251626,128,0,251799:0:0:0:0:
329,192,251712,128,0,251799:0:0:0:0:
402,192,251799,128,0,251885:0:0:0:0:
109,192,251799,128,0,251971:0:0:0:0:
475,192,251885,128,0,251971:0:0:0:0:
182,192,251971,1,0,0:0:0:50:kick.wav
329,192,251971,1,0,0:0:0:0:
256,192,251971,1,0,0:0:0:0:
256,192,252143,1,0,0:0:0:0:
256,192,252230,1,0,0:0:0:0:
36,192,252316,1,0,0:0:0:50:snare.wav
109,192,252316,1,0,0:0:0:50:kick.wav
475,192,252316,1,0,0:0:0:0:
402,192,252316,128,0,252402:0:0:0:0:
329,192,252402,128,0,252488:0:0:0:0:
36,192,252488,1,0,0:0:0:0:
182,192,252488,128,0,252574:0:0:0:0:
256,192,252574,128,0,252661:0:0:0:0:
475,192,252661,1,0,0:0:0:50:kick.wav
329,192,252661,1,0,0:0:0:0:
109,192,252661,128,0,252747:0:0:0:0:
36,192,252747,128,0,252833:0:0:0:0:
402,192,252833,1,0,0:0:0:0:
256,192,252833,128,0,252919:0:0:0:0:
182,192,252919,128,0,253005:0:0:0:0:
36,192,253005,1,0,0:0:0:50:snare.wav
109,192,253005,1,0,0:0:0:50:kick.wav
475,192,253005,128,0,253092:0:0:0:0:
402,192,253092,128,0,253178:0:0:0:0:
329,192,253178,128,0,253264:0:0:0:0:
182,192,253178,1,0,0:0:0:0:
256,192,253264,128,0,253350:0:0:0:0:
475,192,253350,1,0,0:0:0:50:kick.wav
402,192,253350,1,0,0:0:0:0:
329,192,253350,1,0,0:0:0:0:
109,192,253437,1,0,0:0:0:50:kick.wav
36,192,253437,1,0,0:0:0:0:
182,192,253437,1,0,0:0:0:0:
402,192,253523,1,0,0:0:0:50:kick.wav
475,192,253523,1,0,0:0:0:0:
329,192,253523,1,0,0:0:0:0:
109,192,253609,1,0,0:0:0:50:kick.wav
36,192,253609,1,0,0:0:0:0:
182,192,253609,1,0,0:0:0:0:
329,192,253695,1,0,0:0:0:50:snare.wav
402,192,253695,1,0,0:0:0:50:kick.wav
475,192,253695,1,0,0:0:0:0:
182,192,253781,1,0,0:0:0:50:kick.wav
109,192,253781,1,0,0:0:0:0:
36,192,253781,1,0,0:0:0:0:
329,192,253868,1,0,0:0:0:50:kick.wav
402,192,253868,1,0,0:0:0:0:
475,192,253868,1,0,0:0:0:0:
182,192,253954,1,0,0:0:0:50:kick.wav
109,192,253954,1,0,0:0:0:0:
36,192,253954,1,0,0:0:0:0:
475,192,254040,1,0,0:0:0:0:
329,192,254126,1,0,0:0:0:0:
475,192,254212,1,0,0:0:0:0:
329,192,254299,1,0,0:0:0:0:
475,192,254385,1,0,0:0:0:0:
329,192,254471,1,0,0:0:0:0:
475,192,254557,1,0,0:0:0:0:
329,192,254643,1,0,0:0:0:0:
402,192,254730,128,0,254902:0:0:0:50:cymbal.wav
475,192,254730,128,0,254902:0:0:0:50:kick.wav
256,192,254730,1,0,0:0:0:0:
36,192,254730,128,0,254902:0:0:0:0:
109,192,254730,128,0,254902:0:0:0:0:
256,192,255074,1,0,0:0:0:50:snare.wav
109,192,255074,1,0,0:0:0:50:kick.wav
475,192,255074,128,0,255247:0:0:0:0:
329,192,255074,128,0,255247:0:0:0:0:
182,192,255161,128,0,255333:0:0:0:0:
36,192,255161,128,0,255333:0:0:0:0:
256,192,255333,1,0,0:0:0:0:
402,192,255333,1,0,0:0:0:0:
475,192,255419,1,0,0:0:0:50:kick.wav
36,192,255419,1,0,0:0:0:0:
109,192,255419,128,0,255592:0:0:0:0:
182,192,255419,128,0,255592:0:0:0:0:
402,192,255505,128,0,255678:0:0:0:0:
329,192,255505,128,0,255678:0:0:0:0:
36,192,255678,128,0,255764:0:0:0:0:
182,192,255678,128,0,255764:0:0:0:0:
475,192,255764,128,0,255850:0:0:0:50:snare.wav
329,192,255764,128,0,255850:0:0:0:50:kick.wav
109,192,255850,128,0,255937:0:0:0:0:
256,192,255850,128,0,255937:0:0:0:0:
475,192,255937,128,0,256023:0:0:0:0:
402,192,255937,128,0,256023:0:0:0:0:
182,192,256023,128,0,256109:0:0:0:0:
329,192,256023,128,0,256109:0:0:0:0:
402,192,256109,128,0,256281:0:0:0:50:kick.wav
475,192,256109,128,0,256281:0:0:0:0:
109,192,256109,128,0,256281:0:0:0:0:
256,192,256109,1,0,0:0:0:0:
36,192,256109,128,0,256281:0:0:0:0:
36,192,256454,1,0,0:0:0:50:snare.wav
182,192,256454,128,0,256540:0:0:0:50:kick.wav
475,192,256454,1,0,0:0:0:0:
256,192,256454,1,0,0:0:0:0:
109,192,256540,128,0,256626:0:0:0:0:
402,192,256540,1,0,0:0:0:0:
36,192,256626,128,0,256712:0:0:0:0:
329,192,256626,1,0,0:0:0:0:
182,192,256712,128,0,256799:0:0:0:0:
402,192,256712,1,0,0:0:0:0:
329,192,256799,128,0,256885:0:0:0:50:kick.wav
36,192,256799,1,0,0:0:0:0:
475,192,256799,1,0,0:0:0:0:
402,192,256885,128,0,256971:0:0:0:0:
109,192,256885,1,0,0:0:0:0:
475,192,256971,128,0,257057:0:0:0:0:
182,192,256971,1,0,0:0:0:0:
329,192,257057,128,0,257143:0:0:0:0:
109,192,257057,1,0,0:0:0:0:
475,192,257143,128,0,257316:0:0:0:50:snare.wav
36,192,257143,128,0,257316:0:0:0:50:kick.wav
256,192,257143,1,0,0:0:0:0:
402,192,257230,128,0,257402:0:0:0:0:
109,192,257230,128,0,257402:0:0:0:0:
329,192,257316,128,0,257488:0:0:0:0:
182,192,257316,128,0,257488:0:0:0:0:
256,192,257402,128,0,257488:0:0:0:0:
402,192,257488,128,0,257661:0:0:0:50:kick.wav
475,192,257488,128,0,257661:0:0:0:0:
36,192,257488,128,0,257661:0:0:0:0:
109,192,257488,128,0,257661:0:0:0:0:
475,192,257833,1,0,0:0:0:50:snare.wav
329,192,257833,1,0,0:0:0:50:kick.wav
256,192,257833,1,0,0:0:0:0:
109,192,257833,1,0,0:0:0:0:
36,192,257919,1,0,0:0:0:0:
182,192,257919,1,0,0:0:0:0:
475,192,258005,1,0,0:0:0:0:
329,192,258005,1,0,0:0:0:0:
109,192,258092,1,0,0:0:0:0:
256,192,258092,1,0,0:0:0:0:
329,192,258178,128,0,258437:0:0:0:50:kick.wav
36,192,258178,128,0,258437:0:0:0:0:
402,192,258264,128,0,258437:0:0:0:0:
109,192,258264,128,0,258437:0:0:0:0:
182,192,258350,128,0,258437:0:0:0:0:
475,192,258350,128,0,258437:0:0:0:0:
475,192,258523,128,0,258609:0:0:0:50:snare.wav
256,192,258523,128,0,258609:0:0:0:50:kick.wav
109,192,258609,128,0,258695:0:0:0:0:
329,192,258609,128,0,258695:0:0:0:0:
182,192,258695,128,0,258781:0:0:0:0:
402,192,258695,128,0,258781:0:0:0:0:
36,192,258781,128,0,258868:0:0:0:0:
256,192,258781,128,0,258868:0:0:0:0:
182,192,258868,128,0,259040:0:0:0:50:kick.wav
109,192,258868,128,0,259040:0:0:0:0:
475,192,258868,128,0,259040:0:0:0:0:
402,192,258868,128,0,259040:0:0:0:0:
329,192,258868,1,0,0:0:0:0:
256,192,259126,1,0,0:0:0:0:
402,192,259126,1,0,0:0:0:0:
182,192,259212,1,0,0:0:0:50:snare.wav
475,192,259212,128,0,259299:0:0:0:50:kick.wav
36,192,259212,128,0,259385:0:0:0:0:
109,192,259212,128,0,259385:0:0:0:0:
329,192,259212,1,0,0:0:0:0:
402,192,259299,128,0,259385:0:0:0:0:
329,192,259385,128,0,259471:0:0:0:0:
256,192,259471,128,0,259557:0:0:0:0:
36,192,259557,128,0,259643:0:0:0:50:kick.wav
329,192,259557,1,0,0:0:0:0:
475,192,259557,128,0,259730:0:0:0:0:
402,192,259557,128,0,259730:0:0:0:0:
182,192,259557,1,0,0:0:0:0:
109,192,259643,128,0,259730:0:0:0:0:
182,192,259730,128,0,259816:0:0:0:0:
256,192,259816,128,0,259902:0:0:0:0:
402,192,259902,128,0,259988:0:0:0:50:snare.wav
109,192,259902,128,0,259988:0:0:0:50:kick.wav
475,192,259902,128,0,260074:0:0:0:0:
36,192,259902,128,0,260074:0:0:0:0:
329,192,259988,128,0,260074:0:0:0:0:
182,192,259988,128,0,260074:0:0:0:0:
256,192,260074,128,0,260161:0:0:0:0:
329,192,260161,128,0,260247:0:0:0:0:
182,192,260161,128,0,260247:0:0:0:0:
36,192,260247,128,0,260419:0:0:0:50:kick.wav
109,192,260247,128,0,260419:0:0:0:0:
402,192,260247,128,0,260419:0:0:0:0:
475,192,260247,128,0,260419:0:0:0:0:
256,192,260247,1,0,0:0:0:0:
36,192,260592,128,0,260764:0:0:0:50:snare.wav
182,192,260592,128,0,260764:0:0:0:50:kick.wav
256,192,260592,1,0,0:0:0:0:
402,192,260592,1,0,0:0:0:0:
475,192,260678,128,0,260850:0:0:0:0:
329,192,260678,128,0,260850:0:0:0:0:
109,192,260850,1,0,0:0:0:0:
256,192,260850,1,0,0:0:0:0:
402,192,260937,128,0,261109:0:0:0:50:kick.wav
329,192,260937,128,0,261109:0:0:0:0:
36,192,260937,1,0,0:0:0:0:
475,192,260937,1,0,0:0:0:0:
182,192,261023,128,0,261195:0:0:0:0:
109,192,261023,128,0,261195:0:0:0:0:
329,192,261195,128,0,261281:0:0:0:0:
475,192,261195,128,0,261281:0:0:0:0:
182,192,261281,128,0,261368:0:0:0:50:snare.wav
36,192,261281,128,0,261368:0:0:0:50:kick.wav
256,192,261368,128,0,261454:0:0:0:0:
402,192,261368,128,0,261454:0:0:0:0:
109,192,261454,128,0,261540:0:0:0:0:
36,192,261454,128,0,261540:0:0:0:0:
182,192,261540,128,0,261626:0:0:0:0:
329,192,261540,128,0,261626:0:0:0:0:
256,192,261626,1,0,0:0:0:50:kick.wav
475,192,261626,128,0,261799:0:0:0:0:
402,192,261626,128,0,261799:0:0:0:0:
109,192,261626,128,0,261799:0:0:0:0:
36,192,261626,128,0,261799:0:0:0:0:
36,192,261971,1,0,0:0:0:50:snare.wav
329,192,261971,128,0,262057:0:0:0:50:kick.wav
475,192,261971,1,0,0:0:0:0:
109,192,262057,1,0,0:0:0:0:
402,192,262057,128,0,262143:0:0:0:0:
182,192,262143,1,0,0:0:0:0:
475,192,262143,128,0,262230:0:0:0:0:
109,192,262230,1,0,0:0:0:0:
329,192,262230,128,0,262316:0:0:0:0:
36,192,262316,1,0,0:0:0:50:kick.wav
475,192,262316,1,0,0:0:0:0:
182,192,262316,128,0,262402:0:0:0:0:
402,192,262402,1,0,0:0:0:0:
109,192,262402,128,0,262488:0:0:0:0:
329,192,262488,1,0,0:0:0:0:
36,192,262488,128,0,262574:0:0:0:0:
402,192,262574,1,0,0:0:0:0:
182,192,262574,128,0,262661:0:0:0:0:
256,192,262661,1,0,0:0:0:50:snare.wav
475,192,262661,128,0,262833:0:0:0:50:kick.wav
36,192,262661,128,0,262833:0:0:0:0:
402,192,262747,128,0,262919:0:0:0:0:
109,192,262747,128,0,262919:0:0:0:0:
329,192,262833,128,0,263005:0:0:0:0:
182,192,262833,128,0,263005:0:0:0:0:
256,192,262919,128,0,263005:0:0:0:0:
475,192,263005,1,0,0:0:0:50:kick.wav
402,192,263005,1,0,0:0:0:0:
109,192,263005,1,0,0:0:0:0:
36,192,263005,1,0,0:0:0:0:
256,192,263092,1,0,0:0:0:0:
329,192,263178,1,0,0:0:0:0:
475,192,263178,1,0,0:0:0:0:
256,192,263264,1,0,0:0:0:0:
182,192,263350,1,0,0:0:0:50:snare.wav
36,192,263350,1,0,0:0:0:50:kick.wav
402,192,263350,1,0,0:0:0:0:
109,192,263350,1,0,0:0:0:0:
329,192,263437,1,0,0:0:0:0:
475,192,263523,1,0,0:0:0:0:
182,192,263523,1,0,0:0:0:0:
256,192,263609,1,0,0:0:0:0:
329,192,263695,1,0,0:0:0:50:kick.wav
475,192,263695,1,0,0:0:0:0:
109,192,263695,1,0,0:0:0:0:
182,192,263781,1,0,0:0:0:0:
329,192,263868,1,0,0:0:0:0:
36,192,263868,1,0,0:0:0:0:
256,192,263954,1,0,0:0:0:0:
182,192,264040,1,0,0:0:0:50:snare.wav
36,192,264040,1,0,0:0:0:50:kick.wav
475,192,264040,1,0,0:0:0:0:
402,192,264040,1,0,0:0:0:0:
329,192,264126,1,0,0:0:0:0:
402,192,264212,1,0,0:0:0:0:
182,192,264212,1,0,0:0:0:0:
256,192,264299,1,0,0:0:0:0:
36,192,264385,128,0,264557:0:0:0:50:kick.wav
475,192,264385,128,0,265074:0:0:0:0:
329,192,264385,1,0,0:0:0:0:
109,192,264471,128,0,264643:0:0:0:0:
182,192,264557,128,0,264730:0:0:0:0:
256,192,264643,128,0,264816:0:0:0:0:
109,192,264730,128,0,264902:0:0:0:50:snare.wav
402,192,264730,128,0,265074:0:0:0:50:kick.wav
36,192,264730,1,0,0:0:0:0:
182,192,264816,128,0,264988:0:0:0:0:
256,192,264902,128,0,265074:0:0:0:0:
329,192,264988,128,0,265161:0:0:0:0:
182,192,265074,128,0,265247:0:0:0:50:kick.wav
36,192,265074,128,0,265764:0:0:0:0:
109,192,265074,1,0,0:0:0:0:
256,192,265161,128,0,265333:0:0:0:0:
329,192,265247,128,0,265419:0:0:0:0:
402,192,265333,128,0,265505:0:0:0:0:
256,192,265419,128,0,265592:0:0:0:50:snare.wav
109,192,265419,128,0,265764:0:0:0:50:kick.wav
182,192,265419,1,0,0:0:0:0:
329,192,265505,128,0,265678:0:0:0:0:
402,192,265592,128,0,265764:0:0:0:0:
475,192,265678,128,0,265764:0:0:0:0:
256,192,265764,1,0,0:0:0:50:cymbal.wav
329,192,265764,1,0,0:0:0:50:kick.wav
182,192,265764,1,0,0:0:0:0:
329,192,266109,1,0,0:0:0:50:snare.wav
475,192,266109,1,0,0:0:0:50:kick.wav
182,192,266109,1,0,0:0:0:0:
256,192,266109,1,0,0:0:0:0:
109,192,266195,1,0,0:0:0:0:
36,192,266195,1,0,0:0:0:0:
329,192,266281,1,0,0:0:0:0:
475,192,266281,1,0,0:0:0:0:
182,192,266368,1,0,0:0:0:0:
109,192,266368,1,0,0:0:0:0:
256,192,266454,1,0,0:0:0:50:kick.wav
402,192,266454,1,0,0:0:0:0:
475,192,266454,1,0,0:0:0:0:
329,192,266540,128,0,266712:0:0:0:0:
109,192,266540,128,0,266712:0:0:0:0:
36,192,266540,128,0,266712:0:0:0:0:
182,192,266712,1,0,0:0:0:0:
475,192,266712,1,0,0:0:0:0:
329,192,266799,1,0,0:0:0:50:snare.wav
36,192,266799,1,0,0:0:0:50:kick.wav
109,192,266885,1,0,0:0:0:0:
402,192,266885,1,0,0:0:0:0:
475,192,266971,1,0,0:0:0:0:
182,192,266971,1,0,0:0:0:0:
256,192,267057,1,0,0:0:0:0:
36,192,267057,1,0,0:0:0:0:
475,192,267143,128,0,267316:0:0:0:50:kick.wav
182,192,267143,128,0,267316:0:0:0:0:
109,192,267143,128,0,267316:0:0:0:0:
402,192,267143,128,0,267316:0:0:0:0:
329,192,267143,1,0,0:0:0:0:
36,192,267488,1,0,0:0:0:50:snare.wav
475,192,267488,1,0,0:0:0:50:kick.wav
256,192,267488,1,0,0:0:0:0:
109,192,267574,1,0,0:0:0:0:
329,192,267574,1,0,0:0:0:0:
182,192,267661,1,0,0:0:0:0:
402,192,267661,1,0,0:0:0:0:
329,192,267747,1,0,0:0:0:0:
109,192,267747,1,0,0:0:0:0:
36,192,267833,1,0,0:0:0:50:kick.wav
256,192,267833,1,0,0:0:0:0:
475,192,267833,1,0,0:0:0:0:
402,192,267919,1,0,0:0:0:0:
182,192,267919,1,0,0:0:0:0:
329,192,268005,1,0,0:0:0:0:
109,192,268005,1,0,0:0:0:0:
402,192,268092,1,0,0:0:0:0:
182,192,268092,1,0,0:0:0:0:
475,192,268178,1,0,0:0:0:50:snare.wav
256,192,268178,1,0,0:0:0:50:kick.wav
36,192,268178,1,0,0:0:0:0:
109,192,268264,1,0,0:0:0:0:
402,192,268264,1,0,0:0:0:0:
329,192,268350,1,0,0:0:0:0:
182,192,268350,1,0,0:0:0:0:
109,192,268437,1,0,0:0:0:0:
402,192,268437,1,0,0:0:0:0:
36,192,268523,128,0,268609:0:0:0:50:kick.wav
475,192,268523,128,0,268609:0:0:0:0:
256,192,268523,1,0,0:0:0:0:
182,192,268609,128,0,268781:0:0:0:0:
329,192,268609,128,0,268781:0:0:0:0:
475,192,268695,128,0,268781:0:0:0:0:
36,192,268695,128,0,268781:0:0:0:0:
475,192,268868,1,0,0:0:0:50:snare.wav
402,192,268868,1,0,0:0:0:50:kick.wav
109,192,268868,1,0,0:0:0:0:
36,192,268868,1,0,0:0:0:0:
182,192,268954,1,0,0:0:0:0:
256,192,269040,1,0,0:0:0:0:
402,192,269040,1,0,0:0:0:0:
182,192,269126,1,0,0:0:0:0:
36,192,269126,1,0,0:0:0:0:
329,192,269212,1,0,0:0:0:50:kick.wav
475,192,269212,1,0,0:0:0:0:
109,192,269212,1,0,0:0:0:0:
256,192,269299,1,0,0:0:0:0:
402,192,269299,1,0,0:0:0:0:
182,192,269385,1,0,0:0:0:0:
329,192,269385,1,0,0:0:0:0:
109,192,269471,1,0,0:0:0:0:
402,192,269471,1,0,0:0:0:0:
36,192,269557,1,0,0:0:0:50:snare.wav
256,192,269557,1,0,0:0:0:50:kick.wav
475,192,269557,1,0,0:0:0:0:
109,192,269643,1,0,0:0:0:0:
329,192,269643,1,0,0:0:0:0:
402,192,269730,1,0,0:0:0:0:
182,192,269730,1,0,0:0:0:0:
256,192,269816,1,0,0:0:0:0:
475,192,269816,1,0,0:0:0:0:
109,192,269902,1,0,0:0:0:50:kick.wav
36,192,269902,1,0,0:0:0:0:
329,192,269902,1,0,0:0:0:0:
402,192,269902,1,0,0:0:0:0:
182,192,270161,1,0,0:0:0:0:
329,192,270161,1,0,0:0:0:0:
36,192,270247,128,0,270419:0:0:0:50:snare.wav
475,192,270247,1,0,0:0:0:50:kick.wav
256,192,270247,1,0,0:0:0:0:
182,192,270333,128,0,270592:0:0:0:0:
402,192,270333,1,0,0:0:0:0:
109,192,270419,128,0,270592:0:0:0:0:
329,192,270419,1,0,0:0:0:0:
36,192,270505,128,0,270592:0:0:0:0:
402,192,270505,1,0,0:0:0:0:
475,192,270592,128,0,270764:0:0:0:50:kick.wav
256,192,270592,1,0,0:0:0:0:
329,192,270678,128,0,270937:0:0:0:0:
182,192,270678,1,0,0:0:0:0:
402,192,270764,128,0,270937:0:0:0:0:
109,192,270764,1,0,0:0:0:0:
475,192,270850,128,0,270937:0:0:0:0:
182,192,270850,1,0,0:0:0:0:
36,192,270937,128,0,271023:0:0:0:50:snare.wav
256,192,270937,128,0,271023:0:0:0:50:kick.wav
109,192,271023,128,0,271109:0:0:0:0:
329,192,271023,128,0,271109:0:0:0:0:
182,192,271109,128,0,271195:0:0:0:0:
402,192,271109,128,0,271195:0:0:0:0:
256,192,271195,128,0,271281:0:0:0:0:
475,192,271195,128,0,271281:0:0:0:0:
36,192,271281,128,0,271454:0:0:0:50:kick.wav
109,192,271281,128,0,271454:0:0:0:0:
329,192,271281,128,0,271454:0:0:0:0:
402,192,271281,128,0,271454:0:0:0:0:
182,192,271281,1,0,0:0:0:0:
36,192,271626,1,0,0:0:0:50:snare.wav
329,192,271626,128,0,271799:0:0:0:50:kick.wav
475,192,271626,1,0,0:0:0:0:
402,192,271626,128,0,271799:0:0:0:0:
109,192,271712,128,0,271885:0:0:0:0:
182,192,271712,128,0,271885:0:0:0:0:
329,192,271885,1,0,0:0:0:0:
475,192,271885,1,0,0:0:0:0:
182,192,271971,128,0,272143:0:0:0:50:kick.wav
256,192,271971,1,0,0:0:0:0:
36,192,271971,128,0,272143:0:0:0:0:
402,192,271971,1,0,0:0:0:0:
329,192,272057,128,0,272230:0:0:0:0:
475,192,272057,128,0,272230:0:0:0:0:
182,192,272230,128,0,272316:0:0:0:0:
36,192,272230,128,0,272316:0:0:0:0:
402,192,272316,128,0,272402:0:0:0:50:snare.wav
329,192,272316,128,0,272402:0:0:0:50:kick.wav
109,192,272402,128,0,272488:0:0:0:0:
256,192,272402,128,0,272488:0:0:0:0:
475,192,272488,128,0,272574:0:0:0:0:
402,192,272488,128,0,272574:0:0:0:0:
329,192,272574,128,0,272661:0:0:0:0:
182,192,272574,128,0,272661:0:0:0:0:
36,192,272661,1,0,0:0:0:50:kick.wav
475,192,272661,1,0,0:0:0:0:
256,192,272661,1,0,0:0:0:0:
109,192,272747,1,0,0:0:0:0:
182,192,272833,1,0,0:0:0:0:
402,192,272833,1,0,0:0:0:0:
256,192,272919,1,0,0:0:0:0:
329,192,273005,1,0,0:0:0:50:snare.wav
36,192,273005,128,0,273092:0:0:0:0:
475,192,273005,128,0,273092:0:0:0:70:kick.wav
109,192,273092,128,0,273178:0:0:0:0:
402,192,273092,128,0,273178:0:0:0:0:
182,192,273178,128,0,273264:0:0:0:0:
329,192,273178,128,0,273264:0:0:0:0:
256,192,273264,128,0,273350:0:0:0:0:
402,192,273264,128,0,273350:0:0:0:0:
109,192,273350,1,0,0:0:0:50:kick.wav
182,192,273350,128,0,273437:0:0:0:0:
36,192,273350,128,0,273437:0:0:0:0:
475,192,273437,128,0,273523:0:0:0:0:
329,192,273437,128,0,273523:0:0:0:0:
109,192,273523,128,0,273609:0:0:0:0:
256,192,273523,128,0,273609:0:0:0:0:
329,192,273609,128,0,273695:0:0:0:0:
475,192,273609,128,0,273695:0:0:0:0:
402,192,273695,1,0,0:0:0:50:snare.wav
36,192,273695,128,0,273781:0:0:0:70:kick.wav
256,192,273695,128,0,273781:0:0:0:0:
109,192,273781,128,0,273868:0:0:0:0:
475,192,273781,128,0,273868:0:0:0:0:
182,192,273868,128,0,273954:0:0:0:0:
402,192,273868,128,0,273954:0:0:0:0:
109,192,273954,128,0,274040:0:0:0:0:
329,192,273954,128,0,274040:0:0:0:0:
475,192,274040,1,0,0:0:0:50:kick.wav
36,192,274040,1,0,0:0:0:0:
256,192,274040,1,0,0:0:0:0:
402,192,274040,1,0,0:0:0:0:
402,192,274212,1,0,0:0:0:50:kick.wav
475,192,274212,1,0,0:0:0:0:
256,192,274212,1,0,0:0:0:0:
36,192,274212,1,0,0:0:0:0:
182,192,274385,1,0,0:0:0:50:snare.wav
36,192,274385,1,0,0:0:0:50:kick.wav
329,192,274385,1,0,0:0:0:0:
475,192,274385,1,0,0:0:0:0:
109,192,274557,1,0,0:0:0:50:kick.wav
182,192,274557,1,0,0:0:0:0:
329,192,274557,1,0,0:0:0:0:
402,192,274557,1,0,0:0:0:0:
109,192,274730,1,0,0:0:0:50:kick.wav
256,192,274730,1,0,0:0:0:0:
475,192,274730,1,0,0:0:0:0:
36,192,274730,1,0,0:0:0:0:
256,192,274902,1,0,0:0:0:50:kick.wav
36,192,274902,1,0,0:0:0:0:
109,192,274902,1,0,0:0:0:0:
475,192,274902,1,0,0:0:0:0:
475,192,275074,1,0,0:0:0:50:snare.wav
329,192,275074,1,0,0:0:0:50:kick.wav
36,192,275074,1,0,0:0:0:0:
182,192,275074,1,0,0:0:0:0:
109,192,275247,1,0,0:0:0:50:kick.wav
182,192,275247,1,0,0:0:0:0:
329,192,275247,1,0,0:0:0:0:
402,192,275247,1,0,0:0:0:0:
36,192,275419,1,0,0:0:0:50:snare.wav
475,192,275419,1,0,0:0:0:50:kick.wav
109,192,275419,1,0,0:0:0:0:
329,192,275505,1,0,0:0:0:50:kick.wav
182,192,275505,1,0,0:0:0:0:
402,192,275505,1,0,0:0:0:0:
475,192,275592,1,0,0:0:0:50:kick.wav
109,192,275592,1,0,0:0:0:0:
36,192,275592,1,0,0:0:0:0:
329,192,275678,1,0,0:0:0:50:kick.wav
182,192,275678,1,0,0:0:0:0:
256,192,275678,1,0,0:0:0:0:
475,192,275764,1,0,0:0:0:50:snare.wav
36,192,275764,1,0,0:0:0:50:kick.wav
402,192,275764,1,0,0:0:0:0:
182,192,275850,1,0,0:0:0:50:kick.wav
329,192,275850,1,0,0:0:0:0:
109,192,275850,1,0,0:0:0:0:
475,192,275937,1,0,0:0:0:50:kick.wav
36,192,275937,1,0,0:0:0:0:
402,192,275937,1,0,0:0:0:0:
182,192,276023,1,0,0:0:0:50:kick.wav
329,192,276023,1,0,0:0:0:0:
256,192,276023,1,0,0:0:0:0:
36,192,276109,1,0,0:0:0:50:snare3.wav
475,192,276109,1,0,0:0:0:0:
109,192,276109,1,0,0:0:0:0:
402,192,276109,1,0,0:0:0:0:
36,192,276454,1,0,0:0:0:50:snare.wav
182,192,276454,1,0,0:0:0:50:kick.wav
475,192,276454,1,0,0:0:0:0:
329,192,276540,1,0,0:0:0:50:kick.wav
256,192,276540,1,0,0:0:0:0:
475,192,276626,1,0,0:0:0:50:kick.wav
182,192,276626,1,0,0:0:0:0:
36,192,276626,1,0,0:0:0:0:
329,192,276712,1,0,0:0:0:50:kick.wav
256,192,276712,1,0,0:0:0:0:
36,192,276799,1,0,0:0:0:50:cymbal.wav
475,192,276799,1,0,0:0:0:50:kick.wav
109,192,276799,1,0,0:0:0:0:
402,192,276799,1,0,0:0:0:0:
182,192,276885,1,0,0:0:0:0:
329,192,276885,1,0,0:0:0:0:
36,192,276971,1,0,0:0:0:0:
475,192,276971,1,0,0:0:0:0:
256,192,276971,1,0,0:0:0:0:
402,192,277143,1,0,0:0:0:50:snare.wav
475,192,277143,1,0,0:0:0:50:kick.wav
182,192,277143,1,0,0:0:0:0:
36,192,277143,1,0,0:0:0:0:
329,192,277230,1,0,0:0:0:0:
109,192,277230,1,0,0:0:0:0:
256,192,277316,1,0,0:0:0:0:
475,192,277316,1,0,0:0:0:0:
329,192,277402,1,0,0:0:0:0:
402,192,277488,1,0,0:0:0:50:kick.wav
182,192,277488,1,0,0:0:0:0:
36,192,277488,1,0,0:0:0:0:
256,192,277574,128,0,277747:0:0:0:0:
475,192,277574,128,0,277747:0:0:0:0:
109,192,277574,128,0,277747:0:0:0:0:
182,192,277747,1,0,0:0:0:0:
329,192,277747,1,0,0:0:0:0:
256,192,277833,1,0,0:0:0:50:snare.wav
36,192,277833,1,0,0:0:0:50:kick.wav
475,192,277833,1,0,0:0:0:0:
402,192,277919,1,0,0:0:0:0:
182,192,277919,1,0,0:0:0:0:
36,192,278005,1,0,0:0:0:0:
329,192,278005,1,0,0:0:0:0:
182,192,278092,1,0,0:0:0:0:
402,192,278092,1,0,0:0:0:0:
36,192,278178,1,0,0:0:0:50:kick.wav
475,192,278178,1,0,0:0:0:0:
109,192,278178,1,0,0:0:0:0:
256,192,278178,1,0,0:0:0:0:
402,192,278264,1,0,0:0:0:0:
182,192,278264,1,0,0:0:0:0:
475,192,278350,1,0,0:0:0:0:
36,192,278350,1,0,0:0:0:0:
329,192,278350,1,0,0:0:0:0:
475,192,278523,1,0,0:0:0:50:snare.wav
36,192,278523,1,0,0:0:0:50:kick.wav
256,192,278523,1,0,0:0:0:0:
109,192,278609,1,0,0:0:0:0:
329,192,278609,1,0,0:0:0:0:
182,192,278695,1,0,0:0:0:0:
402,192,278695,1,0,0:0:0:0:
109,192,278781,1,0,0:0:0:0:
329,192,278781,1,0,0:0:0:0:
475,192,278868,1,0,0:0:0:50:kick.wav
182,192,278868,1,0,0:0:0:0:
36,192,278868,1,0,0:0:0:0:
256,192,278954,1,0,0:0:0:0:
402,192,278954,1,0,0:0:0:0:
329,192,279040,1,0,0:0:0:0:
109,192,279040,1,0,0:0:0:0:
182,192,279126,1,0,0:0:0:0:
402,192,279126,1,0,0:0:0:0:
256,192,279212,1,0,0:0:0:50:snare.wav
475,192,279212,1,0,0:0:0:50:kick.wav
36,192,279212,1,0,0:0:0:0:
402,192,279299,1,0,0:0:0:0:
109,192,279299,1,0,0:0:0:0:
329,192,279385,1,0,0:0:0:0:
182,192,279385,1,0,0:0:0:0:
402,192,279471,1,0,0:0:0:0:
109,192,279471,1,0,0:0:0:0:
475,192,279557,1,0,0:0:0:50:kick.wav
36,192,279557,1,0,0:0:0:0:
256,192,279557,1,0,0:0:0:0:
329,192,279643,1,0,0:0:0:0:
182,192,279643,1,0,0:0:0:0:
475,192,279730,1,0,0:0:0:0:
36,192,279730,1,0,0:0:0:0:
256,192,279730,1,0,0:0:0:0:
402,192,279902,1,0,0:0:0:50:snare.wav
182,192,279902,1,0,0:0:0:50:kick.wav
36,192,279902,1,0,0:0:0:0:
329,192,279988,1,0,0:0:0:0:
109,192,279988,1,0,0:0:0:0:
475,192,280074,1,0,0:0:0:0:
182,192,280074,1,0,0:0:0:0:
402,192,280161,1,0,0:0:0:0:
256,192,280161,1,0,0:0:0:0:
109,192,280247,1,0,0:0:0:50:kick.wav
329,192,280247,1,0,0:0:0:0:
475,192,280247,1,0,0:0:0:0:
182,192,280333,1,0,0:0:0:0:
402,192,280333,1,0,0:0:0:0:
36,192,280419,1,0,0:0:0:0:
256,192,280419,1,0,0:0:0:0:
109,192,280505,1,0,0:0:0:0:
329,192,280505,1,0,0:0:0:0:
475,192,280592,1,0,0:0:0:50:snare.wav
36,192,280592,1,0,0:0:0:50:kick.wav
182,192,280592,1,0,0:0:0:0:
402,192,280678,1,0,0:0:0:0:
256,192,280678,1,0,0:0:0:0:
182,192,280764,1,0,0:0:0:0:
36,192,280764,1,0,0:0:0:0:
329,192,280850,1,0,0:0:0:0:
475,192,280850,1,0,0:0:0:0:
402,192,280937,128,0,281109:0:0:0:50:kick.wav
256,192,280937,128,0,281109:0:0:0:0:
109,192,280937,128,0,281109:0:0:0:0:
36,192,280937,128,0,281109:0:0:0:0:
182,192,281195,1,0,0:0:0:0:
329,192,281195,1,0,0:0:0:0:
475,192,281281,1,0,0:0:0:50:snare.wav
36,192,281281,1,0,0:0:0:50:kick.wav
256,192,281281,1,0,0:0:0:0:
109,192,281368,1,0,0:0:0:0:
402,192,281368,1,0,0:0:0:0:
182,192,281454,1,0,0:0:0:0:
329,192,281454,1,0,0:0:0:0:
109,192,281540,1,0,0:0:0:0:
256,192,281540,1,0,0:0:0:0:
36,192,281626,1,0,0:0:0:50:kick.wav
475,192,281626,1,0,0:0:0:0:
329,192,281626,1,0,0:0:0:0:
402,192,281712,1,0,0:0:0:0:
109,192,281712,1,0,0:0:0:0:
329,192,281799,1,0,0:0:0:0:
182,192,281799,1,0,0:0:0:0:
402,192,281885,1,0,0:0:0:0:
256,192,281885,1,0,0:0:0:0:
475,192,281971,1,0,0:0:0:50:snare.wav
36,192,281971,1,0,0:0:0:50:kick.wav
109,192,281971,1,0,0:0:0:0:
329,192,282057,1,0,0:0:0:0:
182,192,282057,1,0,0:0:0:0:
36,192,282143,1,0,0:0:0:0:
475,192,282143,1,0,0:0:0:0:
182,192,282230,1,0,0:0:0:0:
329,192,282230,1,0,0:0:0:0:
36,192,282316,1,0,0:0:0:50:kick.wav
475,192,282316,1,0,0:0:0:0:
109,192,282316,1,0,0:0:0:0:
402,192,282316,1,0,0:0:0:0:
182,192,282402,1,0,0:0:0:0:
329,192,282402,1,0,0:0:0:0:
36,192,282488,1,0,0:0:0:0:
475,192,282488,1,0,0:0:0:0:
256,192,282488,1,0,0:0:0:0:
109,192,282661,1,0,0:0:0:50:snare.wav
36,192,282661,1,0,0:0:0:50:kick.wav
329,192,282661,1,0,0:0:0:0:
475,192,282661,1,0,0:0:0:0:
182,192,282747,1,0,0:0:0:0:
402,192,282747,1,0,0:0:0:0:
256,192,282833,1,0,0:0:0:0:
36,192,282833,1,0,0:0:0:0:
182,192,282919,1,0,0:0:0:0:
109,192,283005,1,0,0:0:0:50:kick.wav
329,192,283005,1,0,0:0:0:0:
475,192,283005,1,0,0:0:0:0:
256,192,283092,128,0,283264:0:0:0:0:
36,192,283092,128,0,283264:0:0:0:0:
402,192,283092,128,0,283264:0:0:0:0:
329,192,283264,1,0,0:0:0:0:
182,192,283264,1,0,0:0:0:0:
256,192,283350,1,0,0:0:0:50:snare.wav
475,192,283350,1,0,0:0:0:50:kick.wav
36,192,283350,1,0,0:0:0:0:
402,192,283437,1,0,0:0:0:0:
109,192,283437,1,0,0:0:0:0:
329,192,283523,1,0,0:0:0:0:
182,192,283523,1,0,0:0:0:0:
402,192,283609,1,0,0:0:0:0:
256,192,283609,1,0,0:0:0:0:
475,192,283695,1,0,0:0:0:50:kick.wav
36,192,283695,1,0,0:0:0:0:
109,192,283695,1,0,0:0:0:0:
329,192,283695,1,0,0:0:0:0:
256,192,283781,1,0,0:0:0:0:
182,192,283781,1,0,0:0:0:0:
475,192,283868,1,0,0:0:0:0:
402,192,283868,1,0,0:0:0:0:
36,192,283868,1,0,0:0:0:0:
36,192,284040,1,0,0:0:0:50:snare.wav
475,192,284040,1,0,0:0:0:50:kick.wav
256,192,284040,1,0,0:0:0:0:
402,192,284126,1,0,0:0:0:0:
182,192,284126,1,0,0:0:0:0:
329,192,284212,1,0,0:0:0:0:
109,192,284212,1,0,0:0:0:0:
402,192,284299,1,0,0:0:0:0:
182,192,284299,1,0,0:0:0:0:
36,192,284385,1,0,0:0:0:50:kick.wav
329,192,284385,1,0,0:0:0:0:
475,192,284385,1,0,0:0:0:0:
256,192,284471,1,0,0:0:0:0:
109,192,284471,1,0,0:0:0:0:
182,192,284557,1,0,0:0:0:0:
402,192,284557,1,0,0:0:0:0:
329,192,284643,1,0,0:0:0:0:
109,192,284643,1,0,0:0:0:0:
256,192,284730,1,0,0:0:0:50:snare.wav
36,192,284730,1,0,0:0:0:50:kick.wav
475,192,284730,1,0,0:0:0:0:
109,192,284816,1,0,0:0:0:0:
402,192,284816,1,0,0:0:0:0:
182,192,284902,1,0,0:0:0:0:
329,192,284902,1,0,0:0:0:0:
109,192,284988,1,0,0:0:0:0:
402,192,284988,1,0,0:0:0:0:
36,192,285074,1,0,0:0:0:50:kick.wav
475,192,285074,1,0,0:0:0:0:
256,192,285074,1,0,0:0:0:0:
182,192,285161,1,0,0:0:0:0:
109,192,285247,1,0,0:0:0:0:
402,192,285247,1,0,0:0:0:0:
109,192,285333,1,0,0:0:0:0:
402,192,285333,1,0,0:0:0:0:
36,192,285419,1,0,0:0:0:50:snare.wav
475,192,285419,1,0,0:0:0:50:kick.wav
256,192,285419,1,0,0:0:0:0:
329,192,285505,1,0,0:0:0:0:
402,192,285592,1,0,0:0:0:0:
109,192,285592,1,0,0:0:0:0:
402,192,285678,1,0,0:0:0:0:
109,192,285678,1,0,0:0:0:0:
182,192,285764,1,0,0:0:0:50:kick.wav
36,192,285764,1,0,0:0:0:0:
329,192,285850,1,0,0:0:0:0:
475,192,285850,1,0,0:0:0:0:
182,192,285937,1,0,0:0:0:0:
36,192,285937,1,0,0:0:0:0:
329,192,286023,1,0,0:0:0:0:
36,192,286109,1,0,0:0:0:50:snare.wav
256,192,286109,1,0,0:0:0:50:kick.wav
475,192,286109,1,0,0:0:0:0:
109,192,286195,1,0,0:0:0:0:
402,192,286195,1,0,0:0:0:0:
182,192,286281,1,0,0:0:0:0:
329,192,286281,1,0,0:0:0:0:
256,192,286368,1,0,0:0:0:0:
402,192,286368,1,0,0:0:0:0:
475,192,286454,1,0,0:0:0:50:kick.wav
36,192,286454,1,0,0:0:0:0:
109,192,286454,1,0,0:0:0:0:
182,192,286540,128,0,286712:0:0:0:0:
329,192,286540,128,0,286712:0:0:0:0:
36,192,286712,5,0,0:0:0:0:
475,192,286712,1,0,0:0:0:0:
256,192,286799,1,0,0:0:0:50:snare.wav
109,192,286799,128,0,286971:0:0:0:50:kick.wav
402,192,286799,128,0,286971:0:0:0:0:
329,192,286971,1,0,0:0:0:0:
182,192,286971,1,0,0:0:0:0:
475,192,287057,128,0,287143:0:0:0:0:
36,192,287057,128,0,287143:0:0:0:0:
256,192,287143,1,0,0:0:0:50:kick.wav
402,192,287143,1,0,0:0:0:0:
109,192,287143,1,0,0:0:0:0:
402,192,287316,128,0,287402:0:0:0:0:
109,192,287316,128,0,287402:0:0:0:0:
256,192,287488,1,0,0:0:0:50:snare.wav
475,192,287488,128,0,287574:0:0:0:50:kick.wav
36,192,287488,128,0,287574:0:0:0:0:
329,192,287574,128,0,287661:0:0:0:0:
182,192,287574,128,0,287661:0:0:0:0:
402,192,287661,128,0,287747:0:0:0:0:
109,192,287661,128,0,287747:0:0:0:0:
256,192,287747,128,0,287833:0:0:0:0:
36,192,287833,128,0,289902:0:0:0:50:cymbal.wav
109,192,287833,128,0,288005:0:0:0:50:kick.wav
402,192,287833,128,0,288005:0:0:0:0:
475,192,287833,128,0,288005:0:0:0:0:
329,192,287833,1,0,0:0:0:0:
182,192,287919,128,0,288092:0:0:0:0:
256,192,288005,128,0,288178:0:0:0:0:
475,192,288178,128,0,288264:0:0:0:50:snare.wav
329,192,288178,128,0,288264:0:0:0:50:kick.wav
402,192,288178,128,0,288264:0:0:0:0:
182,192,288264,128,0,288350:0:0:0:0:
109,192,288264,128,0,288350:0:0:0:0:
329,192,288350,128,0,288437:0:0:0:0:
402,192,288350,128,0,288437:0:0:0:0:
256,192,288437,128,0,288523:0:0:0:0:
182,192,288437,128,0,288523:0:0:0:0:
475,192,288523,128,0,288695:0:0:0:50:kick.wav
329,192,288523,128,0,288695:0:0:0:0:
182,192,288609,128,0,288781:0:0:0:0:
109,192,288609,128,0,288781:0:0:0:0:
402,192,288781,128,0,288868:0:0:0:0:
256,192,288868,128,0,288954:0:0:0:50:snare.wav
329,192,288868,128,0,288954:0:0:0:50:kick.wav
475,192,288868,128,0,288954:0:0:0:0:
109,192,288954,128,0,289040:0:0:0:0:
182,192,288954,128,0,289040:0:0:0:0:
402,192,289040,128,0,289126:0:0:0:0:
329,192,289040,128,0,289126:0:0:0:0:
182,192,289126,128,0,289212:0:0:0:0:
109,192,289126,128,0,289212:0:0:0:0:
475,192,289212,128,0,289385:0:0:0:50:kick.wav
256,192,289212,128,0,289385:0:0:0:0:
402,192,289299,128,0,289471:0:0:0:0:
329,192,289385,128,0,289557:0:0:0:0:
109,192,289557,128,0,289643:0:0:0:50:snare.wav
182,192,289557,128,0,289643:0:0:0:50:kick.wav
256,192,289557,128,0,289643:0:0:0:0:
475,192,289643,128,0,289730:0:0:0:0:
402,192,289643,128,0,289730:0:0:0:0:
256,192,289730,128,0,289816:0:0:0:0:
182,192,289730,128,0,289816:0:0:0:0:
402,192,289816,128,0,289902:0:0:0:0:
329,192,289816,128,0,289902:0:0:0:0:
475,192,289902,128,0,290074:0:0:0:50:kick.wav
182,192,289902,128,0,290074:0:0:0:0:
329,192,289988,128,0,290161:0:0:0:0:
36,192,289988,128,0,290161:0:0:0:0:
402,192,290074,128,0,290247:0:0:0:0:
109,192,290074,128,0,290247:0:0:0:0:
475,192,290161,128,0,290333:0:0:0:0:
182,192,290161,128,0,290333:0:0:0:0:
36,192,290247,128,0,290505:0:0:0:50:snare.wav
329,192,290247,128,0,290505:0:0:0:50:kick.wav
109,192,290333,128,0,290505:0:0:0:0:
402,192,290333,128,0,290505:0:0:0:0:
182,192,290419,128,0,290505:0:0:0:0:
475,192,290419,128,0,290505:0:0:0:0:
256,192,290505,1,0,0:0:0:0:
475,192,290592,128,0,291971:0:0:0:50:kick.wav
36,192,290592,128,0,290764:0:0:0:0:
402,192,290592,128,0,290764:0:0:0:0:
109,192,290592,128,0,290764:0:0:0:0:
182,192,290592,1,0,0:0:0:0:
329,192,290678,128,0,290850:0:0:0:0:
256,192,290764,128,0,290937:0:0:0:0:
109,192,290937,128,0,291023:0:0:0:50:snare.wav
36,192,290937,128,0,291023:0:0:0:50:kick.wav
182,192,290937,128,0,291023:0:0:0:0:
329,192,291023,128,0,291109:0:0:0:0:
402,192,291023,128,0,291109:0:0:0:0:
182,192,291109,128,0,291195:0:0:0:0:
109,192,291109,128,0,291195:0:0:0:0:
256,192,291195,128,0,291281:0:0:0:0:
329,192,291195,128,0,291281:0:0:0:0:
402,192,291281,128,0,291454:0:0:0:50:kick.wav
36,192,291281,128,0,291368:0:0:0:0:
182,192,291281,128,0,291368:0:0:0:0:
329,192,291368,128,0,291540:0:0:0:0:
256,192,291454,128,0,291626:0:0:0:0:
182,192,291540,128,0,291626:0:0:0:0:
36,192,291626,128,0,291712:0:0:0:50:snare.wav
109,192,291626,128,0,291712:0:0:0:50:kick.wav
402,192,291626,128,0,291712:0:0:0:0:
329,192,291712,128,0,291799:0:0:0:0:
182,192,291712,128,0,291799:0:0:0:0:
256,192,291799,128,0,291885:0:0:0:0:
109,192,291799,128,0,291885:0:0:0:0:
329,192,291885,128,0,291971:0:0:0:0:
36,192,291885,128,0,291971:0:0:0:0:
256,192,291971,128,0,292143:0:0:0:50:kick.wav
182,192,291971,128,0,292143:0:0:0:0:
402,192,291971,128,0,292143:0:0:0:0:
109,192,291971,128,0,292143:0:0:0:0:
109,192,292230,1,0,0:0:0:0:
182,192,292230,1,0,0:0:0:0:
36,192,292316,128,0,292574:0:0:0:50:snare.wav
475,192,292316,1,0,0:0:0:50:kick.wav
329,192,292316,1,0,0:0:0:0:
256,192,292316,1,0,0:0:0:0:
109,192,292402,128,0,292574:0:0:0:0:
402,192,292402,1,0,0:0:0:0:
182,192,292488,128,0,292574:0:0:0:0:
329,192,292488,1,0,0:0:0:0:
256,192,292574,1,0,0:0:0:0:
475,192,292661,128,0,292919:0:0:0:50:kick.wav
36,192,292661,1,0,0:0:0:0:
329,192,292661,1,0,0:0:0:0:
182,192,292661,1,0,0:0:0:0:
402,192,292747,128,0,292919:0:0:0:0:
109,192,292747,1,0,0:0:0:0:
329,192,292833,128,0,292919:0:0:0:0:
182,192,292833,1,0,0:0:0:0:
256,192,292919,1,0,0:0:0:0:
36,192,293005,128,0,293264:0:0:0:50:snare.wav
475,192,293005,128,0,293264:0:0:0:50:kick.wav
329,192,293005,1,0,0:0:0:0:
182,192,293005,1,0,0:0:0:0:
109,192,293092,128,0,293264:0:0:0:0:
402,192,293092,128,0,293264:0:0:0:0:
182,192,293178,128,0,293264:0:0:0:0:
329,192,293178,128,0,293264:0:0:0:0:
256,192,293264,1,0,0:0:0:0:
36,192,293350,128,0,293523:0:0:0:50:kick.wav
109,192,293350,128,0,293523:0:0:0:0:
402,192,293350,128,0,293523:0:0:0:0:
475,192,293350,128,0,295074:0:0:0:0:
182,192,293350,1,0,0:0:0:0:
329,192,293437,128,0,293609:0:0:0:0:
256,192,293523,128,0,293695:0:0:0:0:
182,192,293695,128,0,293781:0:0:0:50:snare.wav
36,192,293695,128,0,293781:0:0:0:50:kick.wav
109,192,293695,128,0,293781:0:0:0:0:
402,192,293781,128,0,293868:0:0:0:0:
329,192,293781,128,0,293868:0:0:0:0:
109,192,293868,128,0,293954:0:0:0:0:
182,192,293868,128,0,293954:0:0:0:0:
329,192,293954,128,0,294040:0:0:0:0:
256,192,293954,128,0,294040:0:0:0:0:
182,192,294040,128,0,294212:0:0:0:50:kick.wav
36,192,294040,128,0,294212:0:0:0:0:
402,192,294126,128,0,294299:0:0:0:0:
329,192,294126,128,0,294299:0:0:0:0:
109,192,294299,128,0,294385:0:0:0:0:
182,192,294385,128,0,294471:0:0:0:50:snare.wav
256,192,294385,128,0,294471:0:0:0:50:kick.wav
36,192,294385,128,0,294471:0:0:0:0:
402,192,294471,128,0,294557:0:0:0:0:
329,192,294471,128,0,294557:0:0:0:0:
109,192,294557,128,0,294643:0:0:0:0:
182,192,294557,128,0,294643:0:0:0:0:
329,192,294643,128,0,294730:0:0:0:0:
402,192,294643,128,0,294730:0:0:0:0:
36,192,294730,128,0,294902:0:0:0:50:kick.wav
109,192,294730,128,0,294902:0:0:0:0:
256,192,294730,128,0,294902:0:0:0:0:
329,192,294816,128,0,294988:0:0:0:0:
402,192,294902,128,0,295074:0:0:0:0:
329,192,295074,128,0,295161:0:0:0:50:snare.wav
182,192,295074,128,0,295161:0:0:0:50:kick.wav
256,192,295074,128,0,295161:0:0:0:0:
475,192,295161,128,0,295247:0:0:0:0:
36,192,295161,128,0,295247:0:0:0:0:
402,192,295247,128,0,295333:0:0:0:0:
109,192,295247,128,0,295333:0:0:0:0:
329,192,295333,128,0,295419:0:0:0:0:
182,192,295333,128,0,295419:0:0:0:0:
475,192,295419,128,0,295592:0:0:0:50:kick.wav
36,192,295419,128,0,295592:0:0:0:0:
329,192,295505,128,0,295678:0:0:0:0:
182,192,295505,128,0,295678:0:0:0:0:
402,192,295592,128,0,295764:0:0:0:0:
109,192,295592,128,0,295764:0:0:0:0:
475,192,295678,128,0,295850:0:0:0:0:
36,192,295678,128,0,295850:0:0:0:0:
329,192,295764,128,0,296023:0:0:0:50:snare.wav
182,192,295764,128,0,296023:0:0:0:50:kick.wav
402,192,295850,128,0,296023:0:0:0:0:
109,192,295850,128,0,296023:0:0:0:0:
475,192,295937,128,0,296023:0:0:0:0:
36,192,295937,128,0,296023:0:0:0:0:
256,192,296023,1,0,0:0:0:0:
109,192,296109,1,0,0:0:0:50:kick.wav
36,192,296109,1,0,0:0:0:0:
402,192,296109,1,0,0:0:0:0:
475,192,296109,1,0,0:0:0:0:
256,192,296195,1,0,0:0:0:0:
402,192,296281,1,0,0:0:0:50:kick.wav
329,192,296281,1,0,0:0:0:0:
36,192,296281,1,0,0:0:0:0:
182,192,296368,1,0,0:0:0:0:
109,192,296454,1,0,0:0:0:50:snare.wav
36,192,296454,1,0,0:0:0:50:kick.wav
329,192,296454,1,0,0:0:0:0:
256,192,296454,1,0,0:0:0:0:
402,192,296540,1,0,0:0:0:0:
36,192,296626,1,0,0:0:0:50:kick.wav
256,192,296626,1,0,0:0:0:0:
182,192,296626,1,0,0:0:0:0:
329,192,296712,1,0,0:0:0:0:
402,192,296799,1,0,0:0:0:50:kick.wav
109,192,296799,1,0,0:0:0:0:
36,192,296799,1,0,0:0:0:0:
475,192,296799,1,0,0:0:0:0:
256,192,296885,1,0,0:0:0:0:
109,192,296971,1,0,0:0:0:50:kick.wav
182,192,296971,1,0,0:0:0:0:
475,192,296971,1,0,0:0:0:0:
36,192,297057,1,0,0:0:0:0:
475,192,297143,1,0,0:0:0:50:snare.wav
402,192,297143,1,0,0:0:0:50:kick.wav
182,192,297143,1,0,0:0:0:0:
256,192,297143,1,0,0:0:0:0:
109,192,297230,1,0,0:0:0:0:
475,192,297316,1,0,0:0:0:50:kick.wav
256,192,297316,1,0,0:0:0:0:
329,192,297316,1,0,0:0:0:0:
182,192,297402,1,0,0:0:0:0:
36,192,297488,1,0,0:0:0:50:snare.wav
109,192,297488,1,0,0:0:0:50:kick.wav
329,192,297488,1,0,0:0:0:0:
475,192,297574,1,0,0:0:0:50:kick.wav
402,192,297574,1,0,0:0:0:0:
109,192,297661,1,0,0:0:0:50:kick.wav
36,192,297661,1,0,0:0:0:0:
256,192,297661,1,0,0:0:0:0:
402,192,297747,1,0,0:0:0:50:kick.wav
475,192,297747,1,0,0:0:0:0:
36,192,297833,1,0,0:0:0:50:snare.wav
182,192,297833,1,0,0:0:0:50:kick.wav
329,192,297833,1,0,0:0:0:0:
109,192,297833,1,0,0:0:0:0:
475,192,297919,1,0,0:0:0:50:kick.wav
402,192,297919,1,0,0:0:0:0:
256,192,298005,1,0,0:0:0:50:kick.wav
109,192,298005,1,0,0:0:0:0:
36,192,298005,1,0,0:0:0:0:
402,192,298092,1,0,0:0:0:50:kick.wav
475,192,298092,1,0,0:0:0:0:
36,192,298178,1,0,0:0:0:50:snare.wav
329,192,298178,1,0,0:0:0:50:kick.wav
182,192,298178,1,0,0:0:0:0:
402,192,298264,1,0,0:0:0:50:kick.wav
475,192,298264,1,0,0:0:0:0:
36,192,298350,1,0,0:0:0:50:snare.wav
256,192,298350,1,0,0:0:0:50:kick.wav
109,192,298350,1,0,0:0:0:0:
475,192,298437,1,0,0:0:0:50:kick.wav
402,192,298437,1,0,0:0:0:0:
36,192,298523,1,0,0:0:0:50:snare.wav
182,192,298523,1,0,0:0:0:50:kick.wav
329,192,298523,1,0,0:0:0:0:
256,192,298609,1,0,0:0:0:50:kick.wav
402,192,298609,1,0,0:0:0:0:
109,192,298609,1,0,0:0:0:0:
475,192,298695,1,0,0:0:0:50:kick.wav
329,192,298695,1,0,0:0:0:0:
182,192,298695,1,0,0:0:0:0:
109,192,298781,1,0,0:0:0:50:kick.wav
402,192,298781,1,0,0:0:0:0:
256,192,298781,1,0,0:0:0:0:
182,192,298868,1,0,0:0:0:50:LR4_BassKickReverbXD.wav
36,192,298868,1,0,0:0:0:50:kick.wav
329,192,298868,1,0,0:0:0:0:
475,192,298868,1,0,0:0:0:0:
475,192,299212,1,0,0:0:0:0:
36,192,299212,1,0,0:0:0:0:
329,192,299385,1,0,0:0:0:0:
109,192,299385,1,0,0:0:0:0:
475,192,299557,1,0,0:0:0:0:
182,192,299557,128,0,299902:0:0:0:0:
402,192,299902,1,0,0:0:0:0:
36,192,299902,1,0,0:0:0:0:
402,192,300074,1,0,0:0:0:0:
36,192,300074,128,0,300419:0:0:0:0:
475,192,300419,1,0,0:0:0:0:
182,192,300419,1,0,0:0:0:0:
329,192,300592,1,0,0:0:0:0:
36,192,300592,1,0,0:0:0:0:
475,192,300764,1,0,0:0:0:0:
182,192,300764,1,0,0:0:0:0:
329,192,300937,1,0,0:0:0:0:
402,192,300937,1,0,0:0:0:0:
109,192,300937,1,0,0:0:0:0:
329,192,301109,1,0,0:0:0:0:
402,192,301109,1,0,0:0:0:0:
109,192,301109,128,0,301454:0:0:0:0:
182,192,301454,1,0,0:0:0:0:
36,192,301626,1,0,0:0:0:0:
475,192,301626,1,0,0:0:0:0:
329,192,301626,1,0,0:0:0:0:
475,192,301971,1,0,0:0:0:0:
36,192,301971,1,0,0:0:0:0:
329,192,302143,1,0,0:0:0:0:
109,192,302143,1,0,0:0:0:0:
475,192,302316,1,0,0:0:0:0:
182,192,302316,128,0,302661:0:0:0:0:
329,192,302661,1,0,0:0:0:0:
475,192,302661,1,0,0:0:0:0:
109,192,302661,1,0,0:0:0:0:
475,192,302833,1,0,0:0:0:0:
329,192,302833,1,0,0:0:0:0:
109,192,302833,1,0,0:0:0:0:
402,192,303005,1,0,0:0:0:0:
36,192,303005,1,0,0:0:0:0:
475,192,303178,1,0,0:0:0:0:
109,192,303178,1,0,0:0:0:0:
402,192,303350,1,0,0:0:0:0:
36,192,303350,1,0,0:0:0:0:
475,192,303523,1,0,0:0:0:0:
109,192,303523,1,0,0:0:0:0:
329,192,303695,1,0,0:0:0:0:
402,192,303695,1,0,0:0:0:0:
36,192,303695,1,0,0:0:0:0:
329,192,303868,1,0,0:0:0:0:
402,192,303868,1,0,0:0:0:0:
36,192,303868,128,0,304212:0:0:0:0:
182,192,304212,1,0,0:0:0:0:
329,192,304212,1,0,0:0:0:0:
475,192,304385,1,0,0:0:0:0:
256,192,304385,1,0,0:0:0:0:
36,192,304385,1,0,0:0:0:0:
36,192,304730,1,0,0:0:0:0:
475,192,304730,1,0,0:0:0:0:
182,192,304902,1,0,0:0:0:0:
402,192,304902,1,0,0:0:0:0:
36,192,305074,1,0,0:0:0:0:
329,192,305074,128,0,305419:0:0:0:0:
109,192,305419,1,0,0:0:0:0:
475,192,305419,1,0,0:0:0:0:
109,192,305592,1,0,0:0:0:0:
475,192,305592,128,0,305937:0:0:0:0:
36,192,305937,1,0,0:0:0:0:
329,192,305937,1,0,0:0:0:0:
182,192,306109,1,0,0:0:0:0:
475,192,306109,1,0,0:0:0:0:
36,192,306281,1,0,0:0:0:0:
329,192,306281,1,0,0:0:0:0:
182,192,306454,1,0,0:0:0:0:
109,192,306454,1,0,0:0:0:0:
402,192,306454,1,0,0:0:0:0:
182,192,306626,1,0,0:0:0:0:
109,192,306626,1,0,0:0:0:0:
402,192,306626,128,0,306971:0:0:0:0:
329,192,306971,1,0,0:0:0:0:
182,192,307143,1,0,0:0:0:0:
36,192,307143,1,0,0:0:0:0:
475,192,307143,1,0,0:0:0:0:
475,192,307488,1,0,0:0:0:0:
36,192,307488,1,0,0:0:0:0:
329,192,307661,1,0,0:0:0:0:
109,192,307661,1,0,0:0:0:0:
475,192,307833,1,0,0:0:0:0:
182,192,307833,128,0,308178:0:0:0:0:
329,192,308178,1,0,0:0:0:0:
475,192,308178,1,0,0:0:0:0:
109,192,308178,1,0,0:0:0:0:
475,192,308350,1,0,0:0:0:0:
329,192,308350,1,0,0:0:0:0:
109,192,308350,1,0,0:0:0:0:
36,192,308523,1,0,0:0:0:0:
329,192,308523,1,0,0:0:0:0:
109,192,308695,1,0,0:0:0:0:
402,192,308695,1,0,0:0:0:0:
36,192,308868,1,0,0:0:0:0:
475,192,308868,128,0,308954:0:0:0:0:
329,192,308868,1,0,0:0:0:0:
109,192,309040,1,0,0:0:0:0:
402,192,309040,1,0,0:0:0:0:
36,192,309212,1,0,0:0:0:0:
402,192,309212,128,0,309299:0:0:0:0:
329,192,309212,1,0,0:0:0:0:
182,192,309385,128,0,309730:0:0:0:0:
475,192,309385,1,0,0:0:0:0:
329,192,309557,128,0,309643:0:0:0:0:
109,192,309730,1,0,0:0:0:0:
402,192,309730,1,0,0:0:0:0:
256,192,309902,128,0,309988:0:0:0:0:
36,192,309902,1,0,0:0:0:0:
475,192,309902,1,0,0:0:0:0:
475,192,310247,1,0,0:0:0:0:
36,192,310247,1,0,0:0:0:0:
329,192,310419,1,0,0:0:0:0:
109,192,310419,1,0,0:0:0:0:
475,192,310592,1,0,0:0:0:0:
182,192,310592,128,0,310937:0:0:0:0:
402,192,310937,1,0,0:0:0:0:
36,192,310937,1,0,0:0:0:0:
402,192,311109,1,0,0:0:0:0:
36,192,311109,128,0,311454:0:0:0:0:
475,192,311454,1,0,0:0:0:0:
182,192,311454,1,0,0:0:0:0:
329,192,311626,1,0,0:0:0:0:
36,192,311626,1,0,0:0:0:0:
475,192,311799,1,0,0:0:0:0:
182,192,311799,1,0,0:0:0:0:
329,192,311971,1,0,0:0:0:0:
402,192,311971,1,0,0:0:0:0:
109,192,311971,1,0,0:0:0:0:
329,192,312143,1,0,0:0:0:0:
402,192,312143,1,0,0:0:0:0:
109,192,312143,128,0,312488:0:0:0:0:
182,192,312488,1,0,0:0:0:0:
36,192,312661,1,0,0:0:0:0:
475,192,312661,1,0,0:0:0:0:
329,192,312661,1,0,0:0:0:0:
475,192,313005,1,0,0:0:0:0:
36,192,313005,1,0,0:0:0:0:
329,192,313178,1,0,0:0:0:0:
109,192,313178,1,0,0:0:0:0:
475,192,313350,1,0,0:0:0:0:
182,192,313350,128,0,313695:0:0:0:0:
329,192,313695,1,0,0:0:0:0:
475,192,313695,1,0,0:0:0:0:
109,192,313695,1,0,0:0:0:0:
475,192,313868,1,0,0:0:0:0:
329,192,313868,1,0,0:0:0:0:
109,192,313868,1,0,0:0:0:0:
402,192,314040,1,0,0:0:0:0:
36,192,314040,1,0,0:0:0:0:
475,192,314212,1,0,0:0:0:0:
109,192,314212,1,0,0:0:0:0:
402,192,314385,1,0,0:0:0:0:
36,192,314385,1,0,0:0:0:0:
475,192,314557,1,0,0:0:0:0:
109,192,314557,1,0,0:0:0:0:
329,192,314730,1,0,0:0:0:0:
402,192,314730,1,0,0:0:0:0:
36,192,314730,1,0,0:0:0:0:
329,192,314902,1,0,0:0:0:0:
402,192,314902,1,0,0:0:0:0:
36,192,314902,128,0,315247:0:0:0:0:
182,192,315247,1,0,0:0:0:0:
329,192,315247,1,0,0:0:0:0:
475,192,315419,1,0,0:0:0:0:
256,192,315419,1,0,0:0:0:0:
36,192,315419,1,0,0:0:0:0:
36,192,315764,1,0,0:0:0:0:
475,192,315764,1,0,0:0:0:0:
182,192,315937,1,0,0:0:0:0:
402,192,315937,1,0,0:0:0:0:
36,192,316109,1,0,0:0:0:0:
329,192,316109,128,0,316454:0:0:0:0:
109,192,316454,1,0,0:0:0:0:
475,192,316454,1,0,0:0:0:0:
109,192,316626,1,0,0:0:0:0:
475,192,316626,128,0,316971:0:0:0:0:
36,192,316971,1,0,0:0:0:0:
329,192,316971,1,0,0:0:0:0:
182,192,317143,1,0,0:0:0:0:
475,192,317143,1,0,0:0:0:0:
36,192,317316,1,0,0:0:0:0:
329,192,317316,1,0,0:0:0:0:
182,192,317488,1,0,0:0:0:0:
109,192,317488,1,0,0:0:0:0:
402,192,317488,1,0,0:0:0:0:
182,192,317661,1,0,0:0:0:0:
109,192,317661,1,0,0:0:0:0:
402,192,317661,128,0,318005:0:0:0:0:
329,192,318005,1,0,0:0:0:0:
475,192,318178,1,0,0:0:0:0:
36,192,318178,1,0,0:0:0:0:
182,192,318178,1,0,0:0:0:0:
329,192,318264,1,0,0:0:0:0:
182,192,318350,1,0,0:0:0:0:
36,192,318437,1,0,0:0:0:0:
475,192,318523,1,0,0:0:0:0:
329,192,318609,1,0,0:0:0:0:
182,192,318695,1,0,0:0:0:0:
36,192,318781,1,0,0:0:0:0:
475,192,318868,1,0,0:0:0:0:
329,192,318954,1,0,0:0:0:0:
182,192,319040,1,0,0:0:0:0:
36,192,319126,1,0,0:0:0:0:
475,192,319212,1,0,0:0:0:0:
329,192,319299,1,0,0:0:0:0:
182,192,319385,1,0,0:0:0:0:
36,192,319471,1,0,0:0:0:0:
402,192,319557,128,0,319643:0:0:0:0:
109,192,319643,128,0,319730:0:0:0:0:
402,192,319730,128,0,319816:0:0:0:0:
109,192,319816,128,0,319902:0:0:0:0:
475,192,319902,128,0,319988:0:0:0:0:
329,192,319988,128,0,320074:0:0:0:0:
182,192,320074,128,0,320161:0:0:0:0:
36,192,320161,128,0,320247:0:0:0:0:
475,192,320247,128,0,320333:0:0:0:0:
329,192,320333,128,0,320419:0:0:0:0:
109,192,320419,128,0,320505:0:0:0:0:
402,192,320505,128,0,320592:0:0:0:0:
109,192,320592,128,0,320678:0:0:0:0:
402,192,320678,128,0,320764:0:0:0:0:
36,192,320764,128,0,320850:0:0:0:0:
182,192,320850,128,0,320937:0:0:0:0:
475,192,320937,1,0,0:0:0:0:
329,192,321023,1,0,0:0:0:0:
36,192,321109,1,0,0:0:0:0:
182,192,321195,1,0,0:0:0:0:
475,192,321281,1,0,0:0:0:0:
329,192,321368,1,0,0:0:0:0:
36,192,321454,1,0,0:0:0:0:
182,192,321540,1,0,0:0:0:0:
475,192,321626,1,0,0:0:0:0:
329,192,321712,1,0,0:0:0:0:
36,192,321799,1,0,0:0:0:0:
182,192,321885,1,0,0:0:0:0:
475,192,321971,1,0,0:0:0:0:
329,192,322057,1,0,0:0:0:0:
36,192,322143,1,0,0:0:0:0:
182,192,322230,1,0,0:0:0:0:
475,192,322316,1,0,0:0:0:0:
