osu file format v14

[General]
AudioFilename: audio.mp3
AudioLeadIn: 0
PreviewTime: -1
Countdown: 1
SampleSet: Normal
StackLeniency: 0.2
Mode: 0
LetterboxInBreaks: 0
WidescreenStoryboard: 1

[Editor]
Bookmarks: 33979,56048,78117,100186,122255,144324,166393,188462,210531,232600,254669,276738,298807,319496,320876
DistanceSpacing: 1.4
BeatDivisor: 4
GridSize: 4
TimelineZoom: 2.3

[Metadata]
Title:
TitleUnicode:
Artist:kamome sano
ArtistUnicode:kamome sano
Creator:AJiSAI-
Version:
Source:
Tags:
BeatmapID:2085460
BeatmapSetID:996949

[Difficulty]
HPDrainRate:6
CircleSize:4.3
OverallDifficulty:8.4
ApproachRate:9.3
SliderMultiplier:1.8
SliderTickRate:1

[Events]
//Background and Video events
0,0,"70252947_p0.jpg",0,0
//Break Periods
2,109610,121701
//Storyboard Layer 0 (Background)
//Storyboard Layer 1 (Fail)
//Storyboard Layer 2 (Pass)
//Storyboard Layer 3 (Foreground)
//Storyboard Sound Samples

[TimingPoints]
876,344.827586206897,4,1,0,100,1,0
876,-125,4,1,0,30,0,0
11910,-142.857142857143,4,1,0,30,0,0
21565,-142.857142857143,4,1,0,30,0,0
22944,-142.857142857143,4,1,0,30,0,0
31220,-142.857142857143,4,1,0,30,0,0
32600,-142.857142857143,4,1,0,30,0,0
33289,-250.000000000001,4,1,0,30,0,0
33979,-125,4,1,0,14,0,0
34841,-250,4,1,0,14,0,0
35358,-125,4,1,0,14,0,0
36220,-250,4,1,0,14,0,0
36738,-125,4,1,0,14,0,0
39841,-250,4,1,0,14,0,0
40876,-125,4,1,0,14,0,0
41738,-250,4,1,0,14,0,0
42255,-100,4,1,0,16,0,0
42944,-100,4,1,0,20,0,0
43634,-100,4,1,0,17,0,0
43807,-100,4,1,0,23,0,0
43979,-100,4,1,0,26,0,0
44151,-100,4,1,0,29,0,0
44324,-100,4,1,0,35,0,0
44582,-100,4,1,0,40,0,0
45013,-500,4,1,0,5,0,0
46393,-384.615384615385,4,1,0,10,0,0
47772,-312.5,4,1,0,11,0,0
49151,-227.272727272727,4,1,0,13,0,0
50531,-172.413793103448,4,1,0,17,0,0
51910,-151.515151515152,4,1,0,25,0,0
53289,-76.9230769230769,4,1,0,30,0,0
53807,-58.8235294117647,4,1,0,40,0,0
54324,-40,4,1,0,60,0,0
54669,-125,4,1,0,20,0,0
55703,-434.782608695652,4,1,0,60,0,0
56048,-232.558139534884,4,1,0,60,0,0
58462,-158.730158730159,4,1,0,60,0,0
58807,-232.558139534884,4,1,0,60,0,0
62082,-158.730158730159,4,1,0,60,0,0
66048,-120.481927710844,4,1,0,60,0,0
66393,-97.0873786407768,4,1,0,60,0,0
66738,-75.187969924812,4,1,0,60,0,0
67082,-158.730158730159,4,1,0,60,0,0
71910,-100,4,1,0,60,0,0
72600,-158.730158730159,4,1,0,60,0,0
73117,-142.857142857143,4,1,0,60,0,0
75358,-166.666666666667,4,1,0,60,0,0
75876,-117.647058823529,4,1,0,60,0,0
76393,-95.2380952380954,4,1,0,60,0,0
76910,-80,4,1,0,60,0,0
78462,-117.647058823529,4,1,0,60,0,0
90531,-100,4,1,0,60,0,0
90876,-86.9565217391302,4,1,0,60,0,0
91565,-74.0740740740741,4,1,0,60,0,0
92944,-64.5161290322581,4,1,0,60,0,0
93289,-80,4,1,0,60,0,0
93634,-64.5161290322581,4,1,0,60,0,0
96393,-46.5116279069767,4,1,0,60,0,0
96565,-64.5161290322581,4,1,0,60,0,0
96910,-46.5116279069767,4,1,0,60,0,0
97082,-68.9655172413793,4,1,0,60,0,0
98634,-54.054054054054,4,1,0,60,0,0
100186,-50,4,2,1,30,0,1
100703,-55.5555555555556,4,2,1,30,0,1
100876,-55.5555555555556,4,2,1,5,0,1
101048,-55.5555555555556,4,2,1,30,0,1
101565,-55.5555555555556,4,2,1,30,0,1
101738,-66.6666666666667,4,2,1,30,0,1
102082,-55.5555555555556,4,2,1,30,0,1
102427,-55.5555555555556,4,2,1,30,0,1
102600,-55.5555555555556,4,2,1,30,0,1
102944,-50,4,2,1,30,0,1
103289,-55.5555555555556,4,2,1,30,0,1
103462,-50,4,2,1,30,0,1
103807,-56.4971751412429,4,2,1,30,0,1
103979,-83.3333333333333,4,2,1,30,0,1
104324,-62.5,4,2,1,30,0,1
104669,-62.5,4,2,1,30,0,1
105013,-50,4,2,1,30,0,1
105358,-50,4,2,1,30,0,1
105703,-55.5555555555556,4,2,1,30,0,1
106048,-62.5,4,2,1,30,0,1
106220,-50,4,2,1,30,0,1
106565,-62.5,4,2,1,30,0,1
106738,-71.4285714285714,4,2,1,30,0,1
107082,-50,4,2,1,30,0,1
107427,-62.5,4,2,1,30,0,1
107772,-55.5555555555556,4,2,1,30,0,1
108117,-55.5555555555556,4,2,1,30,0,1
108462,-50,4,2,1,30,0,1
108807,-55.5555555555556,4,2,1,30,0,1
108979,-62.5,4,2,1,30,0,1
109324,-55.5555555555556,4,2,1,30,0,1
109496,-55.5555555555556,4,2,1,30,0,1
109841,-55.5555555555556,4,2,1,30,0,1
110358,-55.5555555555556,4,2,1,30,0,1
110703,-55.5555555555556,4,2,1,30,0,1
111220,-55.5555555555556,4,2,1,30,0,1
121565,-125,4,1,0,30,0,0
122255,-40,4,1,0,30,0,1
122772,-50,4,1,0,30,0,1
123117,-43.4782608695652,4,1,0,30,0,1
123289,-50,4,1,0,30,0,1
123462,-76.9230769230769,4,1,0,30,0,1
123634,-43.4782608695652,4,1,0,30,0,1
124151,-50,4,1,0,30,0,1
124496,-43.4782608695652,4,1,0,30,0,1
125531,-76.9230769230769,4,1,0,30,0,1
125704,-50,4,1,0,30,0,1
125876,-43.4782608695652,4,1,0,30,0,1
126048,-50,4,1,0,30,0,1
126393,-43.4782608695652,4,1,0,30,0,1
126910,-50,4,1,0,30,0,1
127255,-76.9230769230769,4,1,0,30,0,1
127427,-50,4,1,0,30,0,1
127600,-43.4782608695652,4,1,0,30,0,1
127772,-40,4,1,0,30,0,1
128289,-50,4,1,0,30,0,1
128634,-43.4782608695652,4,1,0,30,0,1
128807,-50,4,1,0,30,0,1
128979,-76.9230769230769,4,1,0,30,0,1
129151,-43.4782608695652,4,1,0,30,0,1
129324,-50,4,1,0,30,0,1
129496,-76.9230769230769,4,1,0,30,0,1
129669,-50,4,1,0,30,0,1
130013,-43.4782608695652,4,1,0,30,0,1
130876,-50,4,1,0,30,0,1
131048,-76.9230769230769,4,1,0,30,0,1
131220,-50,4,1,0,30,0,1
131393,-43.4782608695652,4,1,0,30,0,1
131565,-50,4,1,0,30,0,1
131738,-76.9230769230769,4,1,0,30,0,1
131910,-50,4,1,0,30,0,1
132427,-43.4782608695652,4,1,0,30,0,1
132600,-50,4,1,0,30,0,1
132772,-76.9230769230769,4,1,0,30,0,1
132944,-50,4,1,0,30,0,1
133289,-40,4,1,0,30,0,1
133806,-50,4,1,0,30,0,1
134151,-43.4782608695652,4,1,0,30,0,1
134323,-50,4,1,0,30,0,1
134496,-76.9230769230769,4,1,0,30,0,1
134668,-43.4782608695652,4,1,0,30,0,1
135185,-50,4,1,0,30,0,1
135530,-43.4782608695652,4,1,0,30,0,1
136565,-76.9230769230769,4,1,0,30,0,1
136738,-50,4,1,0,30,0,1
136910,-43.4782608695652,4,1,0,30,0,1
137082,-50,4,1,0,30,0,1
137427,-43.4782608695652,4,1,0,30,0,1
137944,-50,4,1,0,30,0,1
138289,-76.9230769230769,4,1,0,30,0,1
138461,-50,4,1,0,30,0,1
138634,-43.4782608695652,4,1,0,30,0,1
138807,-40,4,1,0,30,0,1
139324,-50,4,1,0,30,0,1
139669,-43.4782608695652,4,1,0,30,0,1
139842,-50,4,1,0,30,0,1
140014,-76.9230769230769,4,1,0,30,0,1
140186,-43.4782608695652,4,1,0,30,0,1
140359,-50,4,1,0,30,0,1
140531,-76.9230769230769,4,1,0,30,0,1
140703,-50,4,1,0,30,0,1
141048,-43.4782608695652,4,1,0,30,0,1
141911,-50,4,1,0,30,0,1
142082,-76.9230769230769,4,1,0,30,0,1
142255,-50,4,1,0,30,0,1
142427,-43.4782608695652,4,1,0,30,0,1
142600,-50,4,1,0,30,0,1
142772,-76.9230769230769,4,1,0,30,0,1
142944,-50,4,1,0,30,0,1
143462,-43.4782608695652,4,1,0,30,0,1
143634,-50,4,1,0,30,0,1
143807,-43.4782608695652,4,1,0,30,0,1
143979,-50,4,1,0,30,0,1
144151,-333.333333333333,4,1,0,5,0,1
144324,-125,4,1,0,30,0,1
166393,-125,4,1,0,30,0,0
232600,-125,4,1,0,30,0,1
253979,-125,4,1,0,30,0,0
254669,-125,4,1,0,30,0,1
276393,-125,4,1,0,30,0,0
276738,-125,4,1,0,30,0,1
298807,-125,4,1,0,30,0,0

[Colours]
Combo1 : 83,92,213
Combo2 : 255,170,213
Combo3 : 155,255,255
Combo4 : 85,170,255

[HitObjects]
348,132,876,5,0,0:0:0:0:
348,132,1048,2,0,P|316:120|256:136,1,72
236,48,1393,5,0,0:0:0:0:
236,48,1565,2,0,P|209:69|193:129,1,72
108,104,1910,5,0,0:0:0:0:
108,104,2083,2,0,P|113:137|157:181,1,72
348,132,2427,5,0,0:0:0:0:
348,132,2600,2,0,P|316:120|256:135,1,72
332,266,2944,5,0,3:0:0:0:
332,266,3118,2,0,P|326:232|282:188,1,72,0|0,3:0|3:0,3:0:0:0:
209,317,3462,5,0,0:0:0:0:
209,317,3635,2,0,P|235:295|251:235,1,72
152,173,3979,5,0,0:0:0:0:
152,173,4151,2,0,L|168:245,1,72
278,123,4496,5,0,3:0:0:0:
278,123,4668,2,0,L|255:193,1,72,0|0,3:0|3:0,3:0:0:0:
376,272,5013,5,0,0:0:0:0:
376,272,5185,2,0,L|360:200,1,72
474,147,5531,5,0,3:0:0:0:
474,147,5703,2,0,L|453:216,1,72,0|0,3:0|3:0,3:0:0:0:
364,312,6048,6,0,L|352:360,2,48
376,272,6393,5,0,0:0:0:0:
256,192,6479,12,0,11565,0:0:0:0:
216,80,11910,5,2,0:0:0:0:
216,80,12255,2,0,B|208:128|208:128|192:152|192:152|184:200,1,125.999996154785
176,280,12772,1,0,0:0:0:0:
272,192,13117,5,0,0:0:0:0:
208,128,13289,1,0,0:0:0:0:
295,104,13462,1,0,0:0:0:0:
185,216,13634,1,0,0:0:0:0:
231,40,13807,5,0,0:0:0:0:
231,40,14324,1,0,0:0:0:0:
208,128,14496,1,0,0:0:0:0:
414,135,14669,2,0,B|366:127|366:127|342:111|342:111|294:103,1,125.999996154785
140,168,15186,6,0,L|236:184,1,94.499997116089
272,192,15531,1,0,0:0:0:0:
344,112,15703,1,0,0:0:0:0:
456,144,15876,2,0,P|460:184|452:216,1,62.9999980773926
348,332,17082,6,0,L|356:268,1,62.9999980773926
365,176,17427,1,4,0:0:0:0:
365,176,18289,5,0,0:0:0:0:
272,288,18462,1,0,0:0:0:0:
221,151,18634,1,0,0:0:0:0:
221,151,20013,5,0,0:0:0:0:
200,176,20186,2,0,L|112:184,1,62.9999980773926
164,100,20531,1,0,0:0:0:0:
292,224,20703,2,0,L|356:232,1,62.9999980773926
332,144,21048,5,0,0:0:0:0:
168,264,21220,1,0,0:0:0:0:
221,151,21393,1,0,0:0:0:0:
300,300,21565,6,0,L|348:304,1,31.4999990386963,2|0,0:0|0:0,0:0:0:0:
396,364,21738,1,0,0:0:0:0:
408,352,21824,1,0,0:0:0:0:
420,340,21910,5,0,0:0:0:0:
426,306,21996,1,0,0:0:0:0:
420,272,22082,1,0,0:0:0:0:
400,243,22168,1,0,0:0:0:0:
371,223,22255,5,0,0:0:0:0:
351,195,22340,1,0,0:0:0:0:
345,161,22426,1,0,0:0:0:0:
351,127,22513,1,0,0:0:0:0:
369,97,22600,1,0,0:0:0:0:
396,75,22686,1,0,0:0:0:0:
429,64,22772,1,0,0:0:0:0:
463,66,22858,1,0,3:0:0:0:
493,80,22944,5,0,3:0:0:0:
460,168,23289,6,0,B|412:160|412:160|388:144|388:144|340:136,1,125.999996154785
261,114,23807,1,0,0:0:0:0:
360,216,24151,5,0,0:0:0:0:
340,136,24324,1,0,0:0:0:0:
400,79,24496,1,0,0:0:0:0:
261,114,24669,1,0,0:0:0:0:
419,158,24841,5,0,0:0:0:0:
340,136,25358,1,0,0:0:0:0:
321,56,25531,1,0,0:0:0:0:
142,144,25703,2,0,B|190:136|190:136|214:120|214:120|262:112,1,125.999996154785
384,228,26220,6,0,L|284:212,1,94.499997116089
252,204,26565,1,0,0:0:0:0:
340,136,26738,1,0,0:0:0:0:
321,56,26910,1,0,0:0:0:0:
424,184,27082,6,0,L|440:116,1,62.9999980773926
266,265,27427,2,0,L|250:197,1,62.9999980773926
340,136,27772,5,0,0:0:0:0:
359,216,27944,1,0,0:0:0:0:
261,112,28117,1,0,0:0:0:0:
400,77,28290,1,0,0:0:0:0:
192,160,28462,6,0,P|180:128|180:96,1,62.9999980773926
268,204,28807,2,0,P|246:230|218:246,1,62.9999980773926
261,112,29151,2,8,P|294:117|322:133,1,62.9999980773926
192,160,29496,1,0,0:0:0:0:
242,32,29669,1,0,0:0:0:0:
365,90,29841,6,8,P|343:116|315:132,1,62.9999980773926
133,140,30186,2,8,P|166:145|194:161,1,62.9999980773926
292,315,30531,2,8,P|280:283|280:251,1,62.9999980773926
360,264,30876,1,0,0:0:0:0:
191,159,31048,1,0,0:0:0:0:
88,260,31220,6,8,P|109:233|137:217,1,62.9999980773926
240,340,31565,2,8,P|218:366|190:382,1,62.9999980773926,8|8,0:3|0:3,0:3:0:0:
164,300,31910,1,0,0:0:0:0:
191,159,32082,1,0,0:0:0:0:
299,252,32255,1,0,0:0:0:0:
219,239,32427,1,0,0:0:0:0:
245,99,32600,5,0,0:0:0:0:
136,225,32772,1,0,0:0:0:0:
240,340,32944,5,0,0:0:0:0:
295,182,33116,1,0,0:0:0:0:
24,264,33289,6,0,L|149:248,1,126,4|0,0:0|0:0,0:0:0:0:
265,242,33979,6,0,L|234:387,1,144
155,330,34496,1,0,0:0:0:0:
365,314,34841,6,0,L|317:321,2,36
468,343,35358,6,0,P|434:291|438:199,1,144
470,140,35876,1,0,0:0:0:0:
334,236,36220,6,0,B|329:220|308:205|308:205|324:225|325:245,1,72
337,137,36738,2,0,B|300:124|266:140|264:145|261:151|231:168|193:158,1,144
106,213,37255,5,0,0:0:0:0:
106,213,37427,2,0,P|125:155|76:83,1,144
216,88,37944,1,0,0:0:0:0:
216,88,38117,2,0,P|210:32|179:83,1,144
326,62,38634,5,0,0:0:0:0:
323,72,38807,1,0,0:0:0:0:
319,83,38979,2,0,B|404:91|375:41|463:48,1,144
444,122,39496,6,0,L|414:239,1,108
398,231,39841,2,0,L|410:277,1,36
400,272,40358,6,0,L|390:237,2,36
409,342,40876,6,0,P|381:340|342:310,1,72
300,370,41220,2,0,P|281:348|278:298,1,72
173,364,41738,6,0,P|196:362|211:369,2,36,0|0|0,0:0|0:0|0:0,0:0:0:0:
96,363,42255,6,0,L|111:310,3,45,0|0|0|0,0:0|0:0|0:0|0:0,0:0:0:0:
163,272,42600,2,0,L|150:228,3,45,0|0|0|0,0:0|0:0|0:0|0:0,0:0:0:0:
85,153,42944,6,0,L|148:158,1,45,0|0,0:0|0:0,0:0:0:0:
215,165,43117,2,0,L|278:170,1,45,0|0,0:0|0:0,0:0:0:0:
89,146,43289,6,0,L|152:151,1,45,0|0,0:0|0:0,0:0:0:0:
219,158,43462,2,0,L|282:163,1,45
400,168,43634,5,0,0:0:0:0:
403,203,43720,1,0,0:0:0:0:
387,165,43807,5,0,0:0:0:0:
391,209,43893,1,0,0:0:0:0:
374,250,43979,1,0,0:0:0:0:
339,277,44065,1,0,0:0:0:0:
295,284,44151,1,0,0:0:0:0:
254,262,44238,5,0,0:0:0:0:
194,248,44324,1,0,0:0:0:0:
139,275,44410,1,0,0:0:0:0:
113,330,44496,1,0,0:0:0:0:
135,384,44582,5,0,0:0:0:0:
205,380,44668,1,0,0:0:0:0:
275,376,44754,1,0,0:0:0:0:
345,369,44841,1,0,0:0:0:0:
415,363,44927,1,0,0:0:0:0:
485,355,45013,6,0,P|454:280|432:267,1,108
478,365,46393,6,0,P|449:287|393:264,1,140.399999143066
209,211,47772,6,0,B|230:193|244:157|243:133|243:133|251:156|278:181|304:191,1,172.8
192,222,49151,6,0,B|222:197|240:147|240:114|240:114|250:145|288:181|328:192,1,237.600007250977
124,245,50531,6,0,B|143:303|209:320|246:274|246:268|246:261|277:231|335:258|344:287|344:287|322:266|286:265,1,313.200009558106
116,249,51910,6,0,B|136:312|208:331|249:281|249:274|250:266|282:233|339:265|347:306|347:306|322:276|281:272,1,356.399998912354
21,160,53289,6,0,P|57:189|67:218,1,58.4999973220826
210,177,53462,2,0,P|193:220|168:239,1,58.4999973220826
141,138,53634,6,0,L|137:169,2,29.2499986610413
199,88,53807,70,0,P|244:76|267:50,1,76.5000014591217
376,152,53980,2,0,P|379:105|355:69,1,76.5000014591217
298,168,54152,6,0,L|303:123,2,38.2500007295609
393,226,54324,70,0,P|331:259|314:314,1,112.5
176,232,54496,2,0,P|188:301|235:334,1,112.5
252,253,54669,54,0,L|245:202,5,36
184,160,55186,70,0,L|194:109,1,36
242,21,55358,2,0,L|248:56,1,36
171,159,55531,2,0,L|181:108,1,36
378,47,55703,70,0,L|414:49,1,31.0499989576722,4|0,0:0|0:0,0:0:0:0:
395,152,56048,2,0,B|411:179|392:197|392:197|365:180|381:146,1,96.7500014762879
474,205,56565,6,0,B|456:282|396:290|349:279|324:240|324:240|360:296|330:339|330:339|302:282|242:282,1,406.350006200409
205,384,58462,2,0,B|243:363|243:363|196:371,1,85.0499974044801
112,384,58807,2,0,P|122:339|169:298,1,96.7500014762879
249,206,59324,6,0,B|206:248|156:231|156:231|138:163|192:118|231:113,1,251.550003838348
304,141,60531,5,0,0:0:0:0:
324,150,60617,2,0,L|328:136,1,9.67500014762879
349,148,60703,1,0,0:0:0:0:
370,140,60789,1,0,0:0:0:0:
429,82,60876,6,0,L|424:68,1,9.67500014762879
452,76,60962,2,0,L|451:63,1,9.67500014762879
473,75,61048,1,0,0:0:0:0:
495,81,61134,1,0,0:0:0:0:
463,161,61220,5,0,0:0:0:0:
462,209,61306,1,0,0:0:0:0:
462,257,61392,1,0,0:0:0:0:
462,306,61478,1,0,0:0:0:0:
414,381,61565,6,0,P|380:335|377:291,1,96.7500014762879
400,384,62082,2,0,B|363:360|355:310|368:264|368:264|335:235|284:263|284:263|260:277|241:283|241:283|199:287|178:263|178:263|215:253|241:283|241:283|265:316|262:363|216:408|164:390|141:356,1,595.34998183136
78,284,63979,2,0,B|100:279|113:301|113:301|91:312|71:293,1,85.0499974044801
1,249,64324,6,0,B|-28:202|0:157|0:157|13:181|-4:205,1,141.749995674133
75,125,64841,2,0,B|45:79|2:79|2:79|61:1|141:40|141:40|151:37|151:37|204:76|265:32,1,368.549988752747
330,37,66048,6,0,P|361:64|324:51,1,112.05000162426
400,149,66393,2,0,P|418:195|419:146,1,139.049998833046
423,311,66738,2,0,P|361:331|407:292,1,179.549992602768
292,185,67082,2,0,B|228:191|228:191|225:196|225:196|151:205,1,141.749995674133
128,313,67600,2,0,B|132:357|132:357|100:390|100:390|60:367|60:367|47:270|47:270|53:258|53:258|43:170|43:170|37:158|37:158|27:58|27:58|61:31|61:31|100:48|100:48|108:129,1,595.34998183136
188,122,69496,2,0,B|204:124|204:124|227:111|227:111|202:103|202:103|185:110,1,85.0499974044801
259,41,69841,6,0,B|293:56|306:93|306:93|331:63|380:68,1,141.749995674133
316,163,70358,2,0,B|315:97|402:89|420:140|420:140|427:148|427:148|427:213|369:222|369:222|434:227|436:300|436:300|424:280|405:270,1,425.2499870224
369,343,71738,1,0,0:0:0:0:
291,262,71910,2,0,L|291:223,1,22.5
184,311,72082,1,0,0:0:0:0:
111,133,72341,1,0,0:0:0:0:
73,312,72600,6,0,B|69:352|34:369|34:369|-1:343|-1:308,1,141.749995674133
83,310,73117,2,0,B|80:358|36:382|36:382|-32:338|-5:230|-5:230|7:226|7:226|46:166|2:91|2:91|47:149|108:133|108:133|112:134|112:134|112:129|112:129|141:68|85:17,1,661.499979812623
16,16,75013,2,0,B|-2:7|-12:-23|-12:-23|16:-15|25:11,1,94.499997116089
167,188,75358,2,0,B|210:189|248:283|146:234|160:193,1,141.749995674133
315,160,75876,2,0,B|361:195|330:327|255:195|303:161,1,191.250003647804
458,281,76393,2,0,B|467:353|324:440|374:260|446:271,1,236.249992790222
501,210,76910,2,0,B|520:171|497:126|497:126|477:79|501:34,1,168.75
511,22,77255,5,0,0:0:0:0:
304,89,77427,5,0,0:0:0:0:
181,36,77600,1,0,0:0:0:0:
108,86,77772,1,0,0:0:0:0:
32,41,77944,1,0,0:0:0:0:
111,168,78117,5,0,0:0:0:0:
112,185,78289,1,0,0:0:0:0:
0,186,78462,2,0,L|37:184,1,38.2500007295609
70,285,78634,1,0,0:0:0:0:
88,283,78720,1,0,0:0:0:0:
105,281,78807,2,0,L|158:278,1,38.2500007295609
228,272,78979,1,0,0:0:0:0:
237,384,79151,2,0,L|234:345,3,38.2500007295609
318,355,79496,5,0,0:0:0:0:
336,354,79669,1,0,0:0:0:0:
411,298,79841,2,0,P|413:281|408:258,1,38.2500007295609
298,194,80013,1,0,0:0:0:0:
310,200,80100,1,0,0:0:0:0:
323,204,80186,2,0,P|340:206|363:201,1,38.2500007295609
444,148,80358,1,0,0:0:0:0:
333,73,80531,2,0,L|353:105,3,38.2500007295609
288,4,80876,5,0,0:0:0:0:
249,76,81048,1,0,0:0:0:0:
201,10,81220,2,0,L|147:10,1,38.2500007295609
74,123,81393,1,0,0:0:0:0:
68,111,81479,1,0,0:0:0:0:
67,98,81565,2,0,P|65:71|79:40,1,38.2500007295609
171,86,81738,1,0,0:0:0:0:
154,207,81910,2,0,L|149:267,3,38.2500007295609
142,347,82255,5,0,0:0:0:0:
74,295,82427,1,0,0:0:0:0:
220,314,82600,2,0,L|278:323,1,38.2500007295609
348,381,82772,1,0,0:0:0:0:
350,365,82858,1,0,0:0:0:0:
352,350,82944,2,0,L|361:292,1,38.2500007295609
266,233,83117,2,0,L|324:242,1,38.2500007295609
396,169,83289,2,0,P|374:163|342:168,3,38.2500007295609
454,260,83634,5,0,0:0:0:0:
477,262,83807,1,0,0:0:0:0:
512,157,83979,2,0,P|513:126|500:102,1,38.2500007295609
394,54,84151,1,0,0:0:0:0:
405,63,84238,1,0,0:0:0:0:
419,68,84324,2,0,P|450:69|474:56,1,38.2500007295609
512,3,84496,1,0,0:0:0:0:
337,8,84669,1,0,0:0:0:0:
316,8,84755,1,0,0:0:0:0:
296,8,84841,1,0,0:0:0:0:
276,9,84927,1,0,0:0:0:0:
256,10,85013,5,0,0:0:0:0:
299,91,85186,1,0,0:0:0:0:
170,55,85358,2,0,L|103:57,1,38.2500007295609
35,9,85531,1,0,0:0:0:0:
33,23,85617,1,0,0:0:0:0:
33,38,85703,2,0,L|27:105,1,38.2500007295609
116,133,85876,2,0,L|121:200,1,38.2500007295609
0,243,86048,1,0,0:0:0:0:
17,235,86134,1,0,0:0:0:0:
35,231,86220,1,0,0:0:0:0:
54,233,86307,1,0,0:0:0:0:
71,240,86393,5,0,0:0:0:0:
40,330,86565,1,0,0:0:0:0:
165,260,86738,1,0,0:0:0:0:
150,369,86910,1,0,0:0:0:0:
150,369,86996,1,0,0:0:0:0:
150,369,87082,2,0,L|118:313,1,38.2500007295609
255,384,87255,1,0,0:0:0:0:
270,275,87427,1,0,0:0:0:0:
292,270,87513,1,0,0:0:0:0:
315,266,87599,1,0,0:0:0:0:
337,262,87685,1,0,0:0:0:0:
360,258,87771,5,0,0:0:0:0:
439,321,87944,1,0,0:0:0:0:
411,174,88117,1,0,0:0:0:0:
477,118,88289,1,0,0:0:0:0:
477,118,88376,1,0,0:0:0:0:
477,118,88462,2,0,P|451:97|418:94,1,38.2500007295609
385,34,88634,2,0,P|353:46|334:73,1,38.2500007295609
325,191,88807,1,0,0:0:0:0:
331,173,88893,1,0,0:0:0:0:
333,154,88979,1,0,0:0:0:0:
330,135,89065,1,0,0:0:0:0:
320,115,89151,6,0,P|271:131|249:160,1,76.5000014591217
254,279,89496,1,0,0:0:0:0:
198,93,89669,1,0,0:0:0:0:
198,93,89755,1,0,0:0:0:0:
198,93,89841,2,0,P|174:138|179:175,1,76.5000014591217
309,339,90186,1,0,0:0:0:0:
301,319,90272,1,0,0:0:0:0:
289,302,90358,1,0,0:0:0:0:
273,288,90444,1,0,0:0:0:0:
254,279,90531,6,0,P|210:271|166:288,1,90
27,384,90876,2,0,P|63:349|75:295,1,103.500001974106
111,167,91134,1,0,0:0:0:0:
111,167,91220,2,0,L|106:253,1,51.7500009870529
171,337,91393,2,0,L|166:251,1,51.7500009870529
29,126,91565,2,0,B|-10:100|-10:100|150:74,1,182.250000695229
174,108,91910,6,0,P|160:62|172:27,1,60.7500002317429
343,0,92082,2,0,P|284:13|246:59,1,121.500000463486
336,154,92427,2,0,L|333:94,1,60.7500002317429
456,209,92600,1,0,0:0:0:0:
453,238,92686,1,0,0:0:0:0:
451,268,92772,1,0,0:0:0:0:
448,299,92858,1,0,0:0:0:0:
446,329,92944,2,0,B|400:291|347:322|347:322|317:370|248:354,1,209.250001596451
203,306,93289,2,0,P|225:323|252:329,1,56.25
340,253,93462,2,0,P|338:280|324:305,1,56.25
232,199,93634,2,0,B|254:228|254:228|248:181,1,69.7500005321503
193,107,93807,1,0,0:0:0:0:
161,92,93893,1,0,0:0:0:0:
126,94,93979,1,0,0:0:0:0:
93,111,94065,2,0,L|91:197,1,69.7500005321503
7,69,94238,1,0,0:0:0:0:
7,69,94324,2,0,L|5:-17,1,69.7500005321503
36,277,94496,1,0,0:0:0:0:
36,291,94582,1,0,0:0:0:0:
36,309,94669,6,0,P|79:317|122:301,1,69.7500005321503
175,226,94841,2,0,P|209:221|243:230,1,69.7500005321503
298,384,95013,6,0,L|294:301,1,69.7500005321503
380,381,95186,2,0,L|376:298,1,69.7500005321503
175,226,95358,6,0,L|178:156,1,69.7500005321503
92,223,95531,2,0,L|95:153,1,69.7500005321503
365,91,95703,6,0,L|361:21,1,69.7500005321503
448,88,95876,2,0,L|444:18,1,69.7500005321503
344,227,96048,6,0,B|315:213|315:213|341:185,1,69.7500005321503
496,209,96220,2,0,B|522:181|522:181|493:167,1,69.7500005321503
401,104,96393,2,0,B|393:94|399:80|399:80|407:89|407:105,2,48.3750007381439
512,320,96565,6,0,B|538:292|538:292|509:278,1,69.7500005321503
360,338,96737,2,0,B|331:324|331:324|357:296,1,69.7500005321503
417,215,96910,2,0,B|409:205|415:191|415:191|423:200|423:216,2,48.3750007381439
445,384,97082,6,0,L|436:319,1,65.250001991272
262,277,97255,2,0,L|197:285,1,65.250001991272
73,384,97427,1,0,0:0:0:0:
99,347,97513,1,0,0:0:0:0:
108,302,97599,1,0,0:0:0:0:
96,258,97685,1,0,0:0:0:0:
67,224,97772,5,0,0:0:0:0:
23,176,97858,1,0,0:0:0:0:
12,112,97944,1,0,0:0:0:0:
36,53,98030,1,0,0:0:0:0:
88,15,98116,1,0,0:0:0:0:
153,11,98203,1,0,0:0:0:0:
210,43,98289,1,0,0:0:0:0:
267,74,98376,1,0,0:0:0:0:
286,73,98463,1,0,0:0:0:0:
386,44,98634,6,0,B|428:50|428:50|383:72,1,83.2499996824265
286,164,98807,2,0,B|312:154|312:154|365:172,1,83.2499996824265
512,203,98979,2,0,B|486:213|486:213|433:195,1,83.2499996824265
358,290,99151,2,0,L|373:251,1,41.6249998412132
431,362,99324,2,0,L|511:384,1,83.2499996824265
258,301,99496,2,0,L|177:278,1,83.2499996824265
68,351,99669,6,0,L|83:306,1,41.6249998412132
132,119,99841,1,0,0:0:0:0:
188,272,100186,6,0,B|260:192|204:96|204:96|160:108|156:152,1,270
268,300,100531,1,0,0:0:0:0:
506,181,100703,6,0,B|458:156|458:156|414:201|430:269,1,161.999995056153
428,256,101048,2,0,L|316:240,1,80.9999975280763
160,216,101220,2,0,B|20:196|20:196|96:264,1,242.999992584229,8|0,0:0|0:0,0:0:0:0:
244,272,101565,6,0,P|256:248|252:180,1,80.9999975280763
136,112,101738,6,0,L|208:104,1,67.5000025749208
288,96,101910,2,0,L|360:88,1,67.5000025749208,8|0,0:0|0:0,0:0:0:0:
88,32,102082,6,0,B|32:64|32:64|48:176,1,161.999995056153
52,276,102427,1,0,0:0:0:0:
312,136,102600,6,0,B|244:80|136:112|136:112|184:112|208:144,1,242.999992584229,8|0,0:0|0:0,0:0:0:0:
336,232,102944,6,0,B|384:216|404:168|404:168|376:340,1,270,4|0,0:0|0:0,0:0:0:0:
324,384,103289,2,0,L|340:289,1,80.9999975280763,8|0,0:0|0:0,0:0:0:0:
312,136,103462,6,0,B|248:120|248:120|208:128|208:128|112:112|112:112|152:128|164:164,1,270
62,278,103807,2,0,L|76:200,1,79.6500025826455,8|0,0:0|0:0,0:0:0:0:
56,16,103979,6,0,B|124:28|124:28|152:48|152:48|244:64,1,161.999995056153,8|0,0:0|0:0,0:0:0:0:
324,80,104324,6,0,P|220:80|180:184,1,216
184,216,104669,1,0,0:0:0:0:
343,171,104841,6,0,L|267:159,1,72
104,140,105013,1,0,0:0:0:0:
209,58,105186,1,0,0:0:0:0:
120,272,105358,2,8,P|32:300|114:240,1,270
176,344,105703,6,0,B|236:368|284:320|284:320|336:256|404:284,1,242.999992584229
393,280,106048,2,0,L|401:208,1,72,8|0,0:0|0:0,0:0:0:0:
268,114,106220,6,0,B|180:82|180:82|212:258,1,270
247,351,106565,6,0,L|175:343,1,72
24,240,106738,2,0,B|88:232|88:232|136:192|136:192|200:184,1,188.999994232178
336,152,107082,6,0,P|224:128|272:224,1,270
452,232,107427,6,0,B|404:280|344:256|344:256|308:304|308:304|244:292|204:336,1,288,8|0,0:0|0:0,0:0:0:0:
207,332,107944,2,0,L|216:252,1,80.9999975280763
100,124,108117,6,0,B|76:124|48:104|48:104|128:200|224:144,1,242.999992584229
392,72,108462,6,0,B|360:28|312:28|312:28|256:130|339:200,1,270,4|0,0:0|0:0,0:0:0:0:
380,248,108807,2,0,P|404:288|404:340,1,80.9999975280763,8|0,0:0|0:0,0:0:0:0:
206,322,108979,6,0,B|181:319|158:334|158:334|221:267|237:343|313:315,1,216
311,315,109324,2,0,L|295:235,1,80.9999975280763
456,133,122255,6,0,B|453:64|387:9|282:28|250:88|302:180|366:145,1,337.5
228,124,122600,6,0,B|207:72|207:72|207:129,1,112.5
29,125,122772,2,0,B|60:98|125:109|141:155|138:161|134:167|148:209|220:230|259:186,1,270
95,247,123117,6,0,P|109:279|103:371,1,103.500001974106
244,288,123289,2,0,P|237:322|179:394,1,90
368,346,123462,2,0,P|347:367|322:383,1,58.4999973220826
33,306,123634,6,0,P|187:312|324:383,1,310.500005922318
247,249,123979,6,0,B|241:221|216:204|216:204|233:223|236:251,1,103.500001974106
420,296,124151,2,0,P|385:194|328:286,1,270
100,105,124496,6,0,B|133:64|188:58|226:94|229:60|231:122|269:159|337:151|378:97,1,310.500005922318
285,5,124841,6,0,B|287:28|303:56|303:56|295:33|300:-1,1,103.500001974106
454,133,125013,2,0,B|448:80|488:40|488:40|431:95|430:179|468:231,1,310.500005922318
338,279,125358,5,0,0:0:0:0:
338,279,125531,6,0,P|349:252|371:234,1,58.4999973220826
259,166,125704,2,0,P|295:140|340:136,1,90
272,16,125876,2,0,P|324:16|370:42,1,103.500001974106
473,27,126048,6,0,L|461:159,1,90
457,207,126220,2,0,L|445:339,1,90
306,338,126393,6,0,B|366:387|419:353|409:278|349:245|292:264|308:368|221:373|157:268,1,310.500005922318
241,257,126738,6,0,B|255:232|282:221|282:221|247:228|237:257,1,103.500001974106
65,281,126910,2,0,P|95:175|163:262,1,270
71,49,127255,6,0,P|86:74|89:102,1,58.4999973220826
212,43,127427,2,0,P|207:87|182:129,1,90
330,157,127600,2,0,P|297:191|239:206,1,103.500001974106
371,277,127772,6,0,B|335:212|417:159|508:192|500:333|402:382,1,337.5
249,278,128117,6,0,B|290:280|305:309|305:309|286:288|262:286,1,112.5
150,362,128289,2,0,B|191:283|177:221|141:179|141:179|164:224|149:278,1,270
83,130,128634,6,0,P|132:106|188:122,1,103.500001974106
192,19,128807,2,0,P|234:34|261:69,1,90
347,32,128979,2,0,P|359:58|361:87,1,58.4999973220826
68,122,129151,6,0,P|128:90|195:102,1,103.500001974106
187,5,129324,2,0,P|242:26|279:73,1,90
360,20,129496,2,0,P|376:55|379:93,1,58.4999973220826
488,147,129669,2,0,B|357:159|357:159|347:167|347:167|216:177,1,270
81,319,130013,6,0,B|81:333|73:347|53:358|53:358|52:335|60:321|74:314,1,103.500001974106
216,256,130186,2,0,B|228:247|244:247|264:260|264:260|244:272|228:272|216:264,1,103.500001974106
93,172,130358,2,0,B|79:165|71:151|72:128|72:128|92:139|100:153|99:167,1,103.500001974106
0,113,130531,6,0,B|8:73|49:42|94:49|128:78|128:78|168:116|228:114|263:75,1,310.500005922318
186,6,130876,2,0,P|202:34|191:4,1,90
280,154,131048,6,0,P|265:180|261:209,1,58.4999973220826
160,173,131220,2,0,P|160:218|181:259,1,90
54,263,131393,2,0,P|81:308|128:334,1,103.500001974106
166,173,131565,2,0,P|166:217|186:257,1,90
286,154,131738,2,0,P|271:179|267:208,1,58.4999973220826
389,348,131910,6,0,P|368:216|368:216,1,90
361,170,132082,2,0,P|340:38|340:38,1,90
330,2,132255,1,0,0:0:0:0:
322,5,132427,6,0,P|255:59|254:120,1,103.500001974106
164,1,132600,2,0,P|148:49|160:96,1,90
42,81,132772,2,0,P|65:127|86:145,1,58.4999973220826
110,326,132944,6,0,B|101:300|87:285|87:285|96:310|94:329,1,90
110,216,133117,1,0,0:0:0:0:
110,216,133289,6,0,B|67:202|32:232|32:232|59:191|140:185|172:219|174:228|177:237|198:270|290:257|304:212,1,337.5
276,131,133634,6,0,B|249:150|235:175|235:175|240:142|258:128,1,112.5
87,131,133807,2,0,P|141:40|154:143,1,270
253,59,134151,6,0,P|310:63|354:112,1,103.500001974106
400,35,134324,2,0,P|422:73|422:117,1,90
499,137,134496,2,0,P|488:163|468:185,1,58.4999973220826
323,175,134669,6,0,B|368:177|399:211|399:211|352:151|236:133|191:213,1,310.500005922318
112,309,135013,6,0,B|82:268|82:268|56:315,1,103.500001974106
20,235,135186,2,0,B|55:183|115:191|145:237|145:237|178:278|236:274|263:233,1,270
366,347,135531,6,0,P|324:172|401:60,1,310.500005922318
271,103,135876,6,0,B|256:76|228:67|228:67|252:82|261:108,1,103.500001974106
429,168,136048,2,0,B|362:172|362:172|362:175|362:175|362:173|362:173|279:178|279:178|273:176|273:176|201:181|201:181|200:185|200:185|198:181|198:181|116:187,1,310.500005922318
176,258,136393,6,0,B|209:265|229:248|229:248|206:259|180:251,1,103.500001974106
15,171,136565,6,0,P|38:154|67:148,1,58.4999973220826
61,75,136738,2,0,P|89:77|137:126,1,90
183,56,136910,2,0,P|207:101|201:152,1,103.500001974106
176,258,137082,6,0,L|85:265,1,90
356,246,137255,2,0,L|263:253,1,90
446,230,137427,6,0,P|381:113|357:210,1,310.500005922318
454,354,137772,6,0,B|469:337|469:303|469:303|464:335|422:361,1,103.500001974106
174,352,137944,2,0,B|205:379|270:368|286:322|283:316|279:310|293:268|365:247|404:291,1,270
211,288,138289,6,0,P|213:233|230:201,1,58.4999973220826
101,231,138462,2,0,P|134:187|185:165,1,90
48,108,138634,2,0,P|100:91|154:103,1,103.500001974106
317,16,138807,2,0,B|336:172|336:172|324:203|324:203|342:350,1,337.5
399,211,139151,6,0,B|458:207|458:207|390:227,1,112.5
184,247,139324,2,0,B|151:186|232:156|307:201|267:325|190:326,1,270
481,253,139669,6,0,P|433:254|380:204,1,103.500001974106
381,333,139841,2,0,P|337:309|315:240,1,103.500001974106,0|0,0:0|0:0,2:0:0:0:
239,347,140013,2,0,P|220:307|236:236,1,90,0|0,0:0|0:0,2:0:0:0:
507,259,140186,6,0,P|449:269|374:228,1,103.500001974106
395,350,140358,2,0,P|339:330|302:254,1,103.500001974106,0|0,0:0|0:0,2:0:0:0:
236,365,140530,2,0,P|213:322|219:238,1,90,0|0,0:0|0:0,2:0:0:0:
96,317,140703,6,0,B|72:268|115:208|142:199|151:196|160:193|195:184|219:120|187:76,1,270
127,116,141048,6,0,B|104:130|74:118|74:118|105:121|126:108,1,103.500001974106
253,50,141220,2,0,B|252:23|276:3|276:3|258:28|259:53,1,103.500001974106
265,194,141393,2,0,B|288:206|293:237|293:237|280:209|259:197,1,103.500001974106
90,39,141565,6,0,B|130:28|163:46|163:46|97:-16|-6:30|2:123,1,310.500005922318
30,252,141910,2,0,B|-22:262|-22:262|46:259,1,103.500001974106
115,213,142082,6,0,L|124:283,1,58.4999973220826
202,203,142255,2,0,L|217:322,1,90
293,189,142427,2,0,L|307:307,1,103.500001974106
196,204,142600,2,0,L|211:323,1,90
103,214,142772,2,0,L|112:284,1,58.4999973220826
142,25,142944,6,0,B|133:68|133:68|128:22,1,90
72,112,143117,2,0,B|100:147|147:152|179:121|182:150|184:97|216:65|275:72|312:114,1,270
400,135,143462,6,0,P|369:186|369:255,1,103.500001974106
488,96,143634,2,0,P|431:116|388:169,1,90
274,239,143807,6,0,P|305:290|305:359,1,103.500001974106
186,200,143979,2,0,P|242:220|285:273,1,90
297,167,144151,2,0,L|295:158,3,6.74999979400635
