osu file format v14

[General]
AudioFilename: audio.mp3
AudioLeadIn: 0
PreviewTime: -1
Countdown: 1
SampleSet: None
StackLeniency: 0.7
Mode: 2
LetterboxInBreaks: 0
WidescreenStoryboard: 0

[Editor]
DistanceSpacing: 0.8
BeatDivisor: 8
GridSize: 16
TimelineZoom: 4.799997

[Metadata]
Title:
TitleUnicode:
Artist:kamome sano
ArtistUnicode:kamome sano
Creator:- Yaeger -
Version:Emotion
Source:
Tags:
BeatmapID:1325406
BeatmapSetID:628702

[Difficulty]
HPDrainRate:6.5
CircleSize:4
OverallDifficulty:9
ApproachRate:9.2
SliderMultiplier:1.4
SliderTickRate:1

[Events]
//Background and Video events
0,0,"495521.jpg",0,0
//Break Periods
//Storyboard Layer 0 (Background)
//Storyboard Layer 1 (Fail)
//Storyboard Layer 2 (Pass)
//Storyboard Layer 3 (Foreground)
//Storyboard Sound Samples

[TimingPoints]
0,344.827586206897,4,1,0,40,1,0
6034,-133.333333333333,4,1,0,20,0,0
12241,-66.6666666666667,4,1,0,70,0,0
12413,-66.6666666666667,4,1,0,30,0,0
12586,-153.846153846153,4,1,0,50,0,0
12629,-153.846153846153,4,1,0,35,0,0
12758,-153.846153846153,4,1,0,50,0,0
12801,-153.846153846153,4,1,0,35,0,0
13103,-153.846153846153,4,1,0,50,0,0
13146,-153.846153846153,4,1,0,20,0,0
13275,-153.846153846153,4,1,0,50,0,0
13318,-153.846153846153,4,1,0,20,0,0
13448,-153.846153846153,4,1,0,50,0,0
13491,-153.846153846153,4,1,0,20,0,0
13620,-153.846153846153,4,1,0,50,0,0
13793,-153.846153846153,4,1,0,35,0,0
14310,-153.846153846153,4,1,0,50,0,0
14353,-153.846153846153,4,1,0,35,0,0
14482,-153.846153846153,4,1,0,50,0,0
14525,-153.846153846153,4,1,0,35,0,0
14655,-133.333333333333,4,1,0,70,0,0
20000,-133.333333333333,4,1,0,40,0,0
20301,-133.333333333333,4,1,0,20,0,0
20689,-133.333333333333,4,1,0,40,0,0
21034,-133.333333333333,4,1,0,20,0,0
21551,-133.333333333333,4,1,0,100,0,0
23275,-200,4,1,0,50,0,0
23620,-133.333333333333,4,1,0,50,0,0
26034,-66.6666666666667,4,1,0,50,0,0
26422,-133.333333333333,4,1,0,50,0,0
27758,-100,4,1,0,50,0,0
28103,-133.333333333333,4,1,0,50,0,0
31077,-100,4,1,0,50,0,0
33275,-133.333333333333,4,1,0,40,0,0
33965,-200,4,1,0,15,0,0
34383,-200,4,1,0,15,0,0
40991,-66.6666666666667,4,1,0,15,0,0
41724,-133.333333333333,4,1,0,40,0,0
43965,-100,4,1,0,40,0,0
45086,-200,4,1,0,20,0,0
54482,-142.857142857143,4,1,0,20,0,0
56034,-50,4,1,0,20,0,0
60517,-100,4,1,0,20,0,0
61594,-50,4,1,0,20,0,0

[Colours]
Combo1 : 255,215,174
Combo2 : 117,186,255
Combo3 : 255,183,183
Combo4 : 174,255,174

[HitObjects]
160,288,862,5,0,0:0:0:0:
96,224,1034,1,0,0:0:0:0:
128,128,1206,1,0,0:0:0:0:
329,311,1379,1,0,0:0:0:0:
403,192,1551,1,0,0:0:0:0:
330,72,1724,1,0,0:0:0:0:
160,320,1896,5,0,0:0:0:0:
128,320,2068,1,0,0:0:0:0:
160,320,2241,1,0,0:0:0:0:
224,320,2413,1,0,0:0:0:0:
256,320,2586,1,0,0:0:0:0:
224,320,2758,1,0,0:0:0:0:
101,226,2931,5,0,0:0:0:0:
59,212,3103,1,0,0:0:0:0:
43,172,3275,1,0,0:0:0:0:
356,218,3448,1,0,0:0:0:0:
404,234,3620,1,0,0:0:0:0:
432,195,3793,1,0,0:0:0:0:
128,256,3965,5,0,0:0:0:0:
96,256,4137,1,0,0:0:0:0:
160,256,4310,1,0,0:0:0:0:
416,256,4482,5,0,0:0:0:0:
448,256,4655,1,0,0:0:0:0:
384,256,4827,1,0,0:0:0:0:
117,271,5000,5,0,0:0:0:0:
71,178,5172,1,0,0:0:0:0:
120,83,5344,1,0,0:0:0:0:
391,291,5517,5,0,0:0:0:0:
483,172,5689,1,0,0:0:0:0:
387,55,5862,1,0,0:0:0:0:
98,193,6034,6,0,L|79:193,6,13.125000500679
256,192,6379,1,0,0:0:0:0:
256,192,6465,12,0,12068,0:0:0:0:
192,261,12241,6,0,L|135:161,1,105.000004005432
446,213,12586,6,0,L|455:206,1,11.3749994792938
318,217,12758,2,0,L|310:209,1,11.3749994792938
55,302,13103,6,0,L|55:291,1,11.3749994792938
141,300,13275,2,0,L|141:289,1,11.3749994792938
224,302,13448,2,0,L|224:291,1,11.3749994792938
452,325,13620,2,0,P|471:300|467:281,1,45.4999979171754
445,193,14310,6,0,L|445:177,1,11.3749994792938
367,191,14482,2,0,L|367:174,1,11.3749994792938
126,196,14655,6,0,P|92:162|88:105,1,105.000004005432
395,240,15172,2,0,P|417:221|419:144,1,105.000004005432
260,125,15689,1,0,0:0:0:0:
92,198,15862,2,0,P|41:168|36:118,1,105.000004005432
112,192,17068,5,0,0:0:0:0:
400,192,17241,1,0,0:0:0:0:
368,192,18275,1,0,0:0:0:0:
112,192,18448,1,0,0:0:0:0:
368,192,18620,1,0,0:0:0:0:
240,256,20000,6,0,P|192:224|192:192,1,91.8750035047532
272,144,20517,1,0,0:0:0:0:
352,96,20689,2,0,P|400:80|384:32,1,105.000004005432
304,32,21206,1,0,0:0:0:0:
224,32,21379,1,0,0:0:0:0:
224,32,21551,5,0,0:0:0:0:
208,80,21637,1,0,0:0:0:0:
352,32,21724,5,0,0:0:0:0:
336,80,21810,1,0,0:0:0:0:
192,128,21896,5,0,0:0:0:0:
176,176,21982,1,0,0:0:0:0:
320,128,22069,5,0,0:0:0:0:
304,176,22155,1,0,0:0:0:0:
160,224,22241,5,0,0:0:0:0:
144,272,22327,1,0,0:0:0:0:
288,224,22414,5,0,0:0:0:0:
272,272,22500,1,0,0:0:0:0:
128,320,22586,5,0,0:0:0:0:
112,368,22672,1,0,0:0:0:0:
256,320,22759,5,0,0:0:0:0:
240,368,22845,1,0,0:0:0:0:
400,320,23275,6,0,P|416:304|416:288,1,35
128,272,23620,2,0,L|119:263,1,13.125000500679
176,224,23793,2,0,L|160:208,1,13.125000500679
448,208,24137,6,0,L|448:192,1,13.125000500679
320,176,24310,2,0,L|320:160,1,13.125000500679
96,192,24482,1,0,0:0:0:0:
64,128,24655,1,0,0:0:0:0:
96,64,24827,1,0,0:0:0:0:
64,256,25344,6,0,L|64:240,1,13.125000500679
208,240,25517,2,0,L|208:224,1,13.125000500679
352,256,25689,2,0,P|368:224|352:208,1,52.5000020027161
96,192,26034,2,0,P|16:144|16:128,2,105.000004005432
384,288,26551,6,0,L|384:272,1,13.125000500679
256,288,26724,1,0,0:0:0:0:
96,288,26896,2,0,P|48:256|64:208,1,105.000004005432
384,304,27758,6,0,P|400:256|368:160,1,140
96,304,28275,2,0,L|64:256,2,52.5000020027161
141,303,29310,1,0,0:0:0:0:
330,287,29482,2,0,P|362:271|362:207,1,105.000004005432
341,292,31034,5,0,0:0:0:0:
156,318,31206,2,0,P|80:318|80:318,2,70
395,169,32068,2,0,L|418:89,2,70
252,68,32586,1,0,0:0:0:0:
256,306,33275,2,0,L|234:307,14,13.125000500679
80,304,33965,6,0,P|63:289|87:252,1,70
381,302,34482,2,0,P|397:282|378:243,1,70
240,256,35000,1,0,0:0:0:0:
128,256,35172,1,0,0:0:0:0:
380,292,35344,2,0,P|405:241|405:241,1,52.5
160,320,35689,2,0,L|123:320,1,35
125,320,36034,5,0,0:0:0:0:
179,319,36206,1,0,0:0:0:0:
302,318,36379,1,0,0:0:0:0:
411,260,36551,1,0,0:0:0:0:
177,320,36724,2,0,P|162:289|179:256,1,70
367,314,37241,2,0,P|378:298|369:280,2,35
128,336,37758,6,0,L|96:320,1,35
64,256,38103,1,0,0:0:0:0:
48,176,38275,1,0,0:0:0:0:
80,96,38448,1,0,0:0:0:0:
320,320,38620,2,0,L|336:288,1,35
159,320,38965,2,0,L|128:320,3,26.25
132,320,39525,2,0,P|116:304|132:272,1,61.25
400,336,40000,6,0,B|417:307|417:285|412:280,1,52.5
192,320,40344,2,0,P|160:320|160:304,1,52.5
304,320,40689,2,0,P|320:304|320:272,1,52.5
176,272,41034,5,0,0:0:0:0:
80,272,41206,1,0,0:0:0:0:
160,272,41379,1,0,0:0:0:0:
64,272,41551,1,0,0:0:0:0:
416,320,41724,6,0,L|448:320,1,26.2500010013581
304,240,41896,1,0,0:0:0:0:
448,160,42068,1,0,0:0:0:0:
496,16,42241,5,0,0:0:0:0:
480,64,42327,1,0,0:0:0:0:
336,16,42413,5,0,0:0:0:0:
320,64,42500,1,0,0:0:0:0:
464,112,42586,5,0,0:0:0:0:
448,160,42672,1,0,0:0:0:0:
304,112,42758,1,0,0:0:0:0:
288,160,42844,1,0,0:0:0:0:
432,208,42931,5,0,0:0:0:0:
416,256,43017,1,0,0:0:0:0:
272,208,43103,5,0,0:0:0:0:
256,256,43189,1,0,0:0:0:0:
80,16,43275,5,0,0:0:0:0:
64,64,43362,1,0,0:0:0:0:
208,16,43448,5,0,0:0:0:0:
192,64,43534,1,0,0:0:0:0:
48,112,43620,5,0,0:0:0:0:
32,160,43706,1,0,0:0:0:0:
176,112,43793,5,0,0:0:0:0:
160,160,43879,1,0,0:0:0:0:
143,219,43965,5,0,0:0:0:0:
146,253,44051,1,0,0:0:0:0:
158,286,44137,1,0,0:0:0:0:
178,315,44223,1,0,0:0:0:0:
205,337,44309,1,0,0:0:0:0:
236,352,44396,1,0,0:0:0:0:
270,359,44482,1,0,0:0:0:0:
305,357,44568,1,0,0:0:0:0:
338,347,44654,1,0,0:0:0:0:
368,328,44740,1,0,0:0:0:0:
392,303,44827,1,0,0:0:0:0:
408,272,44913,1,0,0:0:0:0:
417,238,44999,1,0,0:0:0:0:
112,192,45086,6,0,L|56:192,1,52.5
207,193,45517,2,0,L|246:192,1,35
317,192,45862,1,0,0:0:0:0:
400,192,46034,1,0,0:0:0:0:
479,192,46206,2,0,P|479:175|442:115,1,87.5
384,64,46724,1,0,0:0:0:0:
304,32,46896,1,0,0:0:0:0:
315,337,47241,6,0,P|299:321|299:305,1,35
201,223,47586,1,0,0:0:0:0:
102,110,47758,2,0,P|102:94|123:42,1,70
369,311,48275,6,0,P|375:290|371:277,2,35
282,317,48793,2,0,P|269:305|268:288,1,35
258,216,49137,1,0,0:0:0:0:
284,140,49310,1,0,0:0:0:0:
343,95,49482,2,0,B|367:79|368:70|367:70,1,35
174,304,49827,5,0,0:0:0:0:
112,247,50000,2,0,P|104:217|127:188,1,70
351,334,50517,6,0,B|359:315|368:289|357:280,1,52.5
245,320,50862,2,0,P|230:314|229:292,1,35
117,319,51379,5,0,0:0:0:0:
76,239,51551,1,0,0:0:0:0:
89,147,51724,1,0,0:0:0:0:
144,78,51896,2,0,P|173:59|180:57,1,35
419,55,52155,2,0,L|452:54,2,26.25
170,333,52758,6,0,L|145:302,2,35
369,327,53275,2,0,P|381:303|376:258,1,70
168,326,53706,1,0,0:0:0:0:
127,252,53793,1,0,0:0:0:0:
275,188,53965,6,0,L|275:178,1,8.75
359,187,54094,2,0,L|359:177,1,8.75
171,172,54224,1,0,0:0:0:0:
120,113,54310,1,0,0:0:0:0:
217,85,54482,6,0,P|195:77|165:67,1,48.9999985046387
309,90,54827,2,0,P|335:79|357:70,1,48.9999985046387
255,192,55172,1,0,0:0:0:0:
255,192,55344,1,0,0:0:0:0:
169,304,56034,6,0,P|97:296|17:121,1,280
258,380,56551,2,0,P|483:67|114:344,1,1400
320,276,58448,2,0,L|448:208,1,140
176,235,58793,2,0,P|108:215|124:25,1,280
122,164,59310,2,0,P|565:157|496:-9,1,840
40,82,60517,5,0,0:0:0:0:
72,64,60560,2,0,L|64:46,1,17.5
107,52,60646,1,0,0:0:0:0:
151,42,60689,1,0,0:0:0:0:
195,41,60732,2,0,L|195:21,1,17.5
243,51,60818,1,0,0:0:0:0:
289,71,60862,1,0,0:0:0:0:
333,107,60905,2,0,L|347:90,1,17.5
360,146,60991,1,0,0:0:0:0:
384,190,61034,2,0,L|409:173,1,17.5
403,234,61120,1,0,0:0:0:0:
415,273,61163,1,0,0:0:0:0:
422,314,61206,2,0,L|451:313,8,17.5
304,224,61594,6,0,B|176:320|-32:256|-16:256,1,315
176,192,62068,2,0,P|640:112|192:256,1,1400
256,304,64310,2,0,P|96:240|128:112,1,315
224,0,64827,2,0,P|320:0|96:256,1,840
80,160,66034,1,0,0:0:0:0:
144,96,66379,1,0,0:0:0:0:
224,80,66724,1,0,0:0:0:0:
