osu file format v14

[General]
AudioFilename: eclair au chocolat (extended bittersweet mix).mp3
AudioLeadIn: 0
PreviewTime: 63846
Countdown: 0
SampleSet: Soft
StackLeniency: 0.7
Mode: 3
LetterboxInBreaks: 0
SpecialStyle: 0
WidescreenStoryboard: 0

[Editor]
DistanceSpacing: 1.2
BeatDivisor: 8
GridSize: 4
TimelineZoom: 2.2

[Metadata]
Title:eclair au chocolat (extended bittersweet mix)
TitleUnicode:éclair au chocolat (extended bittersweet mix)
Artist:kamome sano
ArtistUnicode:kamome sano
Creator:Lenfried-
Version:Gourmet Chocolate
Source:SOUND VOLTEX BOOTH
Tags:marathon comiket 84 c84 ultimate tracks legend of floor kac2012 オリジナル楽曲コンテスト original song contest of sdvx reflec beat colette summer event 夏の星空+beta_20130812 II infinite infection
BeatmapID:1074472
BeatmapSetID:505048

[Difficulty]
HPDrainRate:8.5
CircleSize:7
OverallDifficulty:8
ApproachRate:5
SliderMultiplier:2
SliderTickRate:1

[Events]
//Background and Video events
0,0,"Eclair+au+Chocolate+1920x1080.jpg",0,0
//Break Periods
//Storyboard Layer 0 (Background)
//Storyboard Layer 1 (Fail)
//Storyboard Layer 2 (Pass)
//Storyboard Layer 3 (Foreground)
//Storyboard Sound Samples

[TimingPoints]
550,329.67032967033,4,2,1,40,1,0
37473,-99.009900990099,4,2,1,40,0,0
37692,-98.0392156862745,4,2,1,40,0,0
37912,-97.0873786407767,4,2,1,40,0,0
38132,-96.1538461538462,4,2,1,40,0,0
38352,-95.2380952380952,4,2,1,40,0,0
38571,-94.3396226415095,4,2,1,40,0,0
38791,-93.4579439252337,4,2,1,40,0,0
39011,-94.3396226415095,4,2,1,40,0,0
39231,-95.2380952380952,4,2,1,40,0,0
39451,-96.1538461538462,4,2,1,40,0,0
39670,-97.0873786407767,4,2,1,40,0,0
39890,-98.0392156862745,4,2,1,40,0,0
40012,-99.009900990099,4,2,1,40,0,0
40110,-100,4,2,1,40,0,0
40275,-105.263157894737,4,2,1,40,0,0
40440,-111.111111111111,4,2,1,40,0,0
40604,-117.647058823529,4,2,1,40,0,0
40769,-125,4,2,1,40,0,0
40934,-133.333333333333,4,2,1,40,0,0
41099,-142.857142857143,4,2,1,40,0,0
41264,-153.846153846154,4,2,1,40,0,0
41429,-166.666666666667,4,2,1,40,0,0
42747,-125,4,2,1,40,0,0
53297,-111.111111111111,4,2,1,40,0,0
58242,-105.263157894737,4,2,1,40,0,0
58571,-100,4,2,1,40,0,0
66154,-66.6666666666667,4,2,1,40,0,0
66319,-200,4,2,1,40,0,0
66484,-100,4,2,1,40,0,1
84615,-66.6666666666667,4,2,1,40,0,1
84780,-200,4,2,1,40,0,1
84945,-100,4,2,1,40,0,0
95495,-100,4,2,1,40,0,1
106044,-100,4,2,1,40,0,0
113874,-10,4,2,1,40,0,0
113956,-100,4,2,1,40,0,0
116593,-100,4,2,1,40,0,0
126813,-50,4,2,1,40,0,0
126896,-200,4,2,1,40,0,0
127060,-100,4,2,1,40,0,1
148242,-100,4,2,1,40,0,0
218132,-111.111111111111,4,2,1,40,0,0
219451,-100,4,2,1,40,0,0
222088,-100,4,2,1,40,0,1
230000,-66.6666666666667,4,2,1,40,0,1
230082,-200,4,2,1,40,0,1
230165,-66.6666666666667,4,2,1,40,0,1
230247,-200,4,2,1,40,0,1
230330,-100,4,2,1,40,0,1
233956,-100,4,2,1,30,0,1
235275,-100,4,2,1,40,0,1
239890,-200,4,2,1,40,0,1
240137,-66.6666666666667,4,2,1,40,0,1
240220,-200,4,2,1,40,0,1
240467,-66.6666666666667,4,2,1,40,0,1
240550,-100,4,2,1,40,0,1
243187,-125,4,2,1,40,0,0
248462,-111.111111111111,4,2,1,40,0,0
251099,-100,4,2,1,40,0,0
264286,-100,4,2,1,40,0,1
274835,-100,4,2,1,40,0,0
285385,-10,4,2,1,40,0,0
285426,-100,4,2,1,40,0,0

[HitObjects]
36,192,550,5,0,0:0:0:0:
256,192,550,1,8,0:0:0:0:
182,192,550,1,0,0:0:0:0:
475,192,632,1,0,0:0:0:0:
329,192,714,1,0,0:0:0:0:
109,192,797,1,0,0:0:0:0:
475,192,879,1,0,0:0:0:0:
256,192,879,1,8,0:0:0:0:
402,192,879,1,0,0:0:0:0:
36,192,1044,1,0,0:0:0:0:
329,192,1126,1,0,0:0:0:0:
475,192,1209,1,0,0:0:0:0:
109,192,1209,1,0,0:0:0:0:
182,192,1209,1,8,0:0:0:0:
182,192,1374,1,0,0:0:0:0:
36,192,1539,1,0,0:0:0:0:
475,192,1539,1,0,0:0:0:0:
329,192,1539,1,8,0:0:0:0:
182,192,1621,1,0,0:0:0:0:
402,192,1786,1,0,0:0:0:0:
256,192,1868,1,0,0:0:0:0:
109,192,1868,1,0,0:0:0:0:
329,192,1868,1,8,0:0:0:0:
475,192,1951,1,0,0:0:0:0:
182,192,2033,1,0,0:0:0:0:
36,192,2115,1,0,0:0:0:0:
475,192,2198,1,0,0:0:0:0:
402,192,2198,1,8,0:0:0:0:
256,192,2198,1,0,0:0:0:0:
109,192,2280,1,0,0:0:0:0:
329,192,2363,1,0,0:0:0:0:
402,192,2445,1,0,0:0:0:0:
256,192,2528,1,0,0:0:0:0:
475,192,2528,1,0,0:0:0:0:
36,192,2528,1,8,0:0:0:0:
182,192,2610,1,0,0:0:0:0:
109,192,2692,1,0,0:0:0:0:
402,192,2775,1,0,0:0:0:0:
36,192,2857,1,0,0:0:0:0:
256,192,2857,1,0,0:0:0:0:
329,192,2857,1,8,0:0:0:0:
182,192,3022,1,0,0:0:0:0:
36,192,3187,1,0,0:0:0:0:
402,192,3187,1,0,0:0:0:0:
329,192,3187,1,8,0:0:0:0:
109,192,3269,1,0,0:0:0:0:
182,192,3352,1,0,0:0:0:0:
402,192,3517,1,8,0:0:0:0:
475,192,3517,1,0,0:0:0:0:
36,192,3517,1,0,0:0:0:0:
329,192,3599,1,0,0:0:0:0:
256,192,3681,1,0,0:0:0:0:
182,192,3764,1,0,0:0:0:0:
109,192,3846,1,0,0:0:0:0:
36,192,3846,1,0,0:0:0:0:
475,192,3846,1,8,0:0:0:0:
329,192,3929,1,0,0:0:0:0:
182,192,4011,1,0,0:0:0:0:
36,192,4176,1,0,0:0:0:0:
256,192,4176,1,0,0:0:0:0:
402,192,4176,1,8,0:0:0:0:
329,192,4258,1,0,0:0:0:0:
109,192,4341,1,0,0:0:0:0:
402,192,4423,1,0,0:0:0:0:
182,192,4506,1,8,0:0:0:0:
329,192,4506,1,0,0:0:0:0:
36,192,4506,1,0,0:0:0:0:
475,192,4588,1,0,0:0:0:0:
256,192,4670,1,0,0:0:0:0:
402,192,4753,1,0,0:0:0:0:
182,192,4835,1,8,0:0:0:0:
109,192,4835,1,0,0:0:0:0:
36,192,4835,1,0,0:0:0:0:
329,192,4918,1,0,0:0:0:0:
475,192,5000,1,0,0:0:0:0:
256,192,5082,1,0,0:0:0:0:
109,192,5165,1,0,0:0:0:0:
36,192,5165,1,0,0:0:0:0:
402,192,5165,1,8,0:0:0:0:
329,192,5247,1,0,0:0:0:0:
182,192,5330,1,0,0:0:0:0:
36,192,5412,1,0,0:0:0:0:
402,192,5495,1,8,0:0:0:0:
256,192,5495,1,0,0:0:0:0:
329,192,5495,1,0,0:0:0:0:
109,192,5577,1,0,0:0:0:0:
475,192,5659,1,0,0:0:0:0:
182,192,5742,1,0,0:0:0:0:
402,192,5824,1,0,0:0:0:0:
329,192,5824,1,8,0:0:0:0:
36,192,5824,1,0,0:0:0:0:
256,192,5989,1,0,0:0:0:0:
109,192,6071,1,0,0:0:0:0:
182,192,6154,1,0,0:0:0:0:
329,192,6154,1,8,0:0:0:0:
475,192,6154,1,0,0:0:0:0:
256,192,6319,1,0,0:0:0:0:
36,192,6401,1,0,0:0:0:0:
402,192,6484,1,0,0:0:0:0:
329,192,6484,1,8,0:0:0:0:
182,192,6484,1,0,0:0:0:0:
329,192,6648,1,0,0:0:0:0:
109,192,6813,1,0,0:0:0:0:
256,192,6813,1,8,0:0:0:0:
475,192,6813,1,0,0:0:0:0:
329,192,6896,1,0,0:0:0:0:
182,192,7060,1,0,0:0:0:0:
475,192,7143,1,0,0:0:0:0:
36,192,7143,1,0,0:0:0:0:
256,192,7143,1,8,0:0:0:0:
109,192,7225,1,0,0:0:0:0:
402,192,7308,1,0,0:0:0:0:
182,192,7390,1,0,0:0:0:0:
475,192,7473,1,0,0:0:0:0:
36,192,7473,1,0,0:0:0:0:
329,192,7473,1,8,0:0:0:0:
182,192,7555,1,0,0:0:0:0:
402,192,7637,1,0,0:0:0:0:
329,192,7720,1,0,0:0:0:0:
109,192,7802,1,0,0:0:0:0:
256,192,7802,1,8,0:0:0:0:
36,192,7802,1,0,0:0:0:0:
475,192,7967,1,0,0:0:0:0:
402,192,8050,1,0,0:0:0:0:
329,192,8132,1,0,0:0:0:0:
182,192,8132,1,8,0:0:0:0:
109,192,8132,1,0,0:0:0:0:
402,192,8297,1,0,0:0:0:0:
329,192,8379,1,0,0:0:0:0:
182,192,8462,1,8,0:0:0:0:
475,192,8462,1,0,0:0:0:0:
36,192,8462,1,0,0:0:0:0:
256,192,8544,1,0,0:0:0:0:
109,192,8626,1,0,0:0:0:0:
256,192,8709,1,0,0:0:0:0:
182,192,8791,1,0,0:0:0:0:
329,192,8791,1,8,0:0:0:0:
475,192,8791,1,0,0:0:0:0:
36,192,8874,1,0,0:0:0:0:
256,192,8956,1,0,0:0:0:0:
402,192,9039,1,0,0:0:0:0:
182,192,9121,1,0,0:0:0:0:
329,192,9121,1,8,0:0:0:0:
36,192,9121,1,0,0:0:0:0:
475,192,9286,1,0,0:0:0:0:
109,192,9286,1,0,0:0:0:0:
256,192,9451,1,0,0:0:0:0:
329,192,9451,1,8,0:0:0:0:
36,192,9451,1,0,0:0:0:0:
402,192,9533,1,0,0:0:0:0:
109,192,9615,1,0,0:0:0:0:
182,192,9698,1,0,0:0:0:0:
256,192,9780,1,0,0:0:0:0:
475,192,9780,1,8,0:0:0:0:
402,192,9780,1,0,0:0:0:0:
36,192,9863,1,0,0:0:0:0:
329,192,9945,1,0,0:0:0:0:
109,192,10028,1,0,0:0:0:0:
475,192,10110,1,0,0:0:0:0:
182,192,10110,1,0,0:0:0:0:
256,192,10110,1,8,0:0:0:0:
402,192,10192,1,0,0:0:0:0:
182,192,10275,1,0,0:0:0:0:
329,192,10357,1,0,0:0:0:0:
109,192,10440,1,8,0:0:0:0:
36,192,10440,1,0,0:0:0:0:
475,192,10440,1,0,0:0:0:0:
256,192,10522,1,0,0:0:0:0:
402,192,10604,1,0,0:0:0:0:
36,192,10687,1,0,0:0:0:0:
402,192,10769,1,8,0:0:0:0:
475,192,10769,1,0,0:0:0:0:
256,192,10769,1,0,0:0:0:0:
109,192,10852,1,0,0:0:0:0:
329,192,10934,1,0,0:0:0:0:
182,192,11017,1,0,0:0:0:0:
36,192,11099,1,0,0:0:0:0:
256,192,11099,1,8,0:0:0:0:
475,192,11099,1,0,0:0:0:0:
109,192,11181,1,0,0:0:0:0:
402,192,11264,1,0,0:0:0:0:
109,192,11346,1,0,0:0:0:0:
36,192,11429,1,0,0:0:0:0:
329,192,11429,1,2,0:0:0:0:
475,192,11429,1,0,0:0:0:0:
256,192,11429,1,8,0:0:0:0:
182,192,11593,1,0,0:0:0:0:
402,192,11676,1,0,0:0:0:0:
109,192,11758,1,0,0:0:0:0:
36,192,11758,1,0,0:0:0:0:
329,192,11758,1,8,0:0:0:0:
182,192,11923,1,0,0:0:0:0:
109,192,12088,1,0,0:0:0:0:
475,192,12088,1,0,0:0:0:0:
402,192,12088,1,0,0:0:0:0:
329,192,12088,1,10,0:0:0:0:
182,192,12170,1,0,0:0:0:0:
329,192,12335,1,0,0:0:0:0:
402,192,12418,1,0,0:0:0:0:
109,192,12418,1,8,0:0:0:0:
36,192,12418,1,0,0:0:0:0:
256,192,12500,1,0,0:0:0:0:
182,192,12582,1,0,0:0:0:0:
402,192,12624,1,0,0:0:0:0:
329,192,12665,1,0,0:0:0:0:
256,192,12706,1,0,0:0:0:0:
182,192,12747,1,10,0:0:0:0:
109,192,12747,1,0,0:0:0:0:
475,192,12747,1,0,0:0:0:0:
36,192,12747,1,0,0:0:0:0:
329,192,12830,1,0,0:0:0:0:
109,192,12912,1,0,0:0:0:0:
402,192,12995,1,0,0:0:0:0:
182,192,13077,1,0,0:0:0:0:
475,192,13077,1,0,0:0:0:0:
329,192,13077,1,8,0:0:0:0:
109,192,13159,1,0,0:0:0:0:
256,192,13242,1,0,0:0:0:0:
402,192,13324,1,0,0:0:0:0:
36,192,13407,1,0,0:0:0:0:
109,192,13407,1,0,0:0:0:0:
182,192,13407,1,10,0:0:0:0:
329,192,13407,1,0,0:0:0:0:
256,192,13571,1,0,0:0:0:0:
109,192,13736,1,0,0:0:0:0:
402,192,13736,1,8,0:0:0:0:
36,192,13736,1,0,0:0:0:0:
329,192,13819,1,0,0:0:0:0:
256,192,13901,1,0,0:0:0:0:
475,192,14066,1,0,0:0:0:0:
402,192,14066,1,10,0:0:0:0:
329,192,14066,1,0,0:0:0:0:
109,192,14066,1,0,0:0:0:0:
182,192,14148,1,0,0:0:0:0:
256,192,14231,1,0,0:0:0:0:
36,192,14313,1,0,0:0:0:0:
109,192,14396,1,0,0:0:0:0:
475,192,14396,1,0,0:0:0:0:
329,192,14396,1,8,0:0:0:0:
256,192,14478,1,0,0:0:0:0:
109,192,14560,1,0,0:0:0:0:
182,192,14725,1,0,0:0:0:0:
475,192,14725,1,0,0:0:0:0:
402,192,14725,1,10,0:0:0:0:
36,192,14725,1,0,0:0:0:0:
329,192,14808,1,0,0:0:0:0:
109,192,14890,1,0,0:0:0:0:
256,192,14973,1,0,0:0:0:0:
329,192,15055,1,8,0:0:0:0:
475,192,15055,1,0,0:0:0:0:
36,192,15055,1,0,0:0:0:0:
182,192,15137,1,0,0:0:0:0:
402,192,15220,1,0,0:0:0:0:
256,192,15302,1,0,0:0:0:0:
475,192,15385,1,0,0:0:0:0:
36,192,15385,1,0,0:0:0:0:
109,192,15385,1,10,0:0:0:0:
182,192,15385,1,0,0:0:0:0:
329,192,15467,1,0,0:0:0:0:
182,192,15550,1,0,0:0:0:0:
402,192,15632,1,0,0:0:0:0:
475,192,15714,1,0,0:0:0:0:
256,192,15714,1,8,0:0:0:0:
109,192,15714,1,0,0:0:0:0:
329,192,15797,1,0,0:0:0:0:
36,192,15879,1,0,0:0:0:0:
329,192,15962,1,0,0:0:0:0:
475,192,16044,1,0,0:0:0:0:
402,192,16044,1,0,0:0:0:0:
182,192,16044,1,10,0:0:0:0:
256,192,16044,1,0,0:0:0:0:
109,192,16126,1,0,0:0:0:0:
329,192,16209,1,0,0:0:0:0:
36,192,16291,1,0,0:0:0:0:
256,192,16374,1,0,0:0:0:0:
475,192,16374,1,0,0:0:0:0:
182,192,16374,1,8,0:0:0:0:
109,192,16539,1,0,0:0:0:0:
256,192,16621,1,0,0:0:0:0:
402,192,16703,1,10,0:0:0:0:
36,192,16703,1,0,0:0:0:0:
475,192,16703,1,0,0:0:0:0:
182,192,16703,1,0,0:0:0:0:
329,192,16868,1,0,0:0:0:0:
109,192,16951,1,0,0:0:0:0:
475,192,17033,1,0,0:0:0:0:
182,192,17033,1,8,0:0:0:0:
256,192,17033,1,0,0:0:0:0:
36,192,17198,1,0,0:0:0:0:
329,192,17239,1,0,0:0:0:0:
182,192,17280,1,0,0:0:0:0:
475,192,17321,1,0,0:0:0:0:
36,192,17363,1,0,0:0:0:0:
109,192,17363,1,0,0:0:0:0:
402,192,17363,1,0,0:0:0:0:
329,192,17363,1,10,0:0:0:0:
256,192,17445,1,0,0:0:0:0:
182,192,17528,1,0,0:0:0:0:
36,192,17610,1,0,0:0:0:0:
109,192,17692,1,0,0:0:0:0:
329,192,17692,1,8,0:0:0:0:
402,192,17692,1,0,0:0:0:0:
256,192,17775,1,0,0:0:0:0:
402,192,17857,1,0,0:0:0:0:
182,192,17940,1,0,0:0:0:0:
329,192,18022,1,0,0:0:0:0:
475,192,18022,1,0,0:0:0:0:
109,192,18022,1,10,0:0:0:0:
36,192,18022,1,0,0:0:0:0:
182,192,18104,1,0,0:0:0:0:
402,192,18187,1,0,0:0:0:0:
256,192,18269,1,0,0:0:0:0:
109,192,18352,1,0,0:0:0:0:
36,192,18352,1,0,0:0:0:0:
329,192,18352,1,8,0:0:0:0:
182,192,18434,1,0,0:0:0:0:
402,192,18517,1,0,0:0:0:0:
329,192,18599,1,0,0:0:0:0:
256,192,18681,1,10,0:0:0:0:
109,192,18681,1,0,0:0:0:0:
475,192,18681,1,0,0:0:0:0:
36,192,18681,1,0,0:0:0:0:
109,192,18764,1,0,0:0:0:0:
329,192,18846,1,0,0:0:0:0:
329,192,18929,1,0,0:0:0:0:
182,192,19011,1,0,0:0:0:0:
36,192,19011,1,0,0:0:0:0:
475,192,19011,1,8,0:0:0:0:
182,192,19093,1,0,0:0:0:0:
402,192,19176,1,0,0:0:0:0:
402,192,19258,1,0,0:0:0:0:
109,192,19341,1,0,0:0:0:0:
256,192,19341,1,10,0:0:0:0:
36,192,19341,1,0,0:0:0:0:
329,192,19341,1,0,0:0:0:0:
182,192,19423,1,0,0:0:0:0:
475,192,19506,1,0,0:0:0:0:
329,192,19588,1,0,0:0:0:0:
182,192,19670,1,8,0:0:0:0:
36,192,19670,1,0,0:0:0:0:
109,192,19670,1,0,0:0:0:0:
256,192,19835,1,0,0:0:0:0:
402,192,19835,1,0,0:0:0:0:
329,192,20000,1,10,0:0:0:0:
182,192,20000,1,0,0:0:0:0:
109,192,20000,1,0,0:0:0:0:
475,192,20000,1,0,0:0:0:0:
256,192,20082,1,0,0:0:0:0:
402,192,20165,1,0,0:0:0:0:
182,192,20247,1,0,0:0:0:0:
329,192,20330,1,8,0:0:0:0:
475,192,20330,1,0,0:0:0:0:
36,192,20330,1,0,0:0:0:0:
109,192,20412,1,0,0:0:0:0:
256,192,20495,1,0,0:0:0:0:
36,192,20577,1,0,0:0:0:0:
182,192,20659,1,10,0:0:0:0:
109,192,20659,1,0,0:0:0:0:
475,192,20659,1,0,0:0:0:0:
402,192,20659,1,0,0:0:0:0:
329,192,20742,1,0,0:0:0:0:
182,192,20824,1,0,0:0:0:0:
36,192,20907,1,0,0:0:0:0:
475,192,20989,1,0,0:0:0:0:
109,192,20989,1,0,0:0:0:0:
256,192,20989,1,8,0:0:0:0:
402,192,21071,1,0,0:0:0:0:
182,192,21154,1,0,0:0:0:0:
329,192,21236,1,0,0:0:0:0:
182,192,21319,1,10,0:0:0:0:
402,192,21319,1,0,0:0:0:0:
36,192,21319,1,0,0:0:0:0:
109,192,21319,1,0,0:0:0:0:
329,192,21401,1,0,0:0:0:0:
182,192,21484,1,0,0:0:0:0:
256,192,21484,1,8,0:0:0:0:
475,192,21484,1,0,0:0:0:0:
36,192,21566,1,0,0:0:0:0:
256,192,21648,1,12,0:0:0:0:
109,192,21648,1,0,0:0:0:0:
402,192,21648,128,0,22143:0:0:0:0:
329,192,21648,128,0,22143:0:0:0:0:
475,192,21648,1,0,0:0:0:0:
182,192,21813,1,0,0:0:0:0:
36,192,21978,1,0,0:0:0:0:
475,192,21978,1,0,0:0:0:0:
109,192,21978,1,10,0:0:0:0:
256,192,22143,1,0,0:0:0:0:
182,192,22225,1,0,0:0:0:0:
109,192,22308,1,0,0:0:0:0:
329,192,22308,1,8,0:0:0:0:
256,192,22473,128,0,22637:0:0:0:0:
475,192,22473,128,0,22637:0:0:0:0:
182,192,22473,1,0,0:0:0:0:
329,192,22637,1,10,0:0:0:0:
402,192,22637,1,0,0:0:0:0:
36,192,22637,1,0,0:0:0:0:
182,192,22802,128,0,23462:0:0:0:0:
256,192,22802,1,0,0:0:0:0:
475,192,22802,128,0,22967:0:0:0:0:
36,192,22967,1,0,0:0:0:0:
329,192,22967,1,8,0:0:0:0:
402,192,22967,128,0,23462:0:0:0:0:
109,192,23132,1,0,0:0:0:0:
256,192,23297,1,10,0:0:0:0:
329,192,23297,1,0,0:0:0:0:
36,192,23297,1,0,0:0:0:0:
109,192,23462,1,0,0:0:0:0:
182,192,23544,1,0,0:0:0:0:
256,192,23626,1,8,0:0:0:0:
475,192,23626,1,0,0:0:0:0:
109,192,23791,128,0,23956:0:0:0:0:
329,192,23791,128,0,23956:0:0:0:0:
36,192,23791,1,0,0:0:0:0:
402,192,23956,1,10,0:0:0:0:
475,192,23956,1,0,0:0:0:0:
256,192,23956,1,0,0:0:0:0:
182,192,24121,128,0,24780:0:0:0:0:
402,192,24121,128,0,24286:0:0:0:0:
109,192,24121,1,0,0:0:0:0:
256,192,24286,1,8,0:0:0:0:
36,192,24286,1,0,0:0:0:0:
329,192,24286,128,0,24780:0:0:0:0:
402,192,24451,1,0,0:0:0:0:
36,192,24615,1,0,0:0:0:0:
475,192,24615,1,0,0:0:0:0:
109,192,24615,1,10,0:0:0:0:
256,192,24780,1,0,0:0:0:0:
182,192,24863,1,0,0:0:0:0:
109,192,24945,1,0,0:0:0:0:
402,192,24945,1,8,0:0:0:0:
256,192,25110,128,0,25275:0:0:0:0:
475,192,25110,128,0,25275:0:0:0:0:
36,192,25110,1,0,0:0:0:0:
109,192,25275,1,0,0:0:0:0:
402,192,25275,1,0,0:0:0:0:
182,192,25275,1,10,0:0:0:0:
36,192,25440,128,0,25604:0:0:0:0:
329,192,25440,128,0,25604:0:0:0:0:
256,192,25440,1,0,0:0:0:0:
109,192,25604,1,0,0:0:0:0:
402,192,25604,1,8,0:0:0:0:
475,192,25769,128,0,25934:0:0:0:0:
182,192,25769,128,0,25934:0:0:0:0:
256,192,25769,1,0,0:0:0:0:
109,192,25934,1,0,0:0:0:0:
402,192,25934,1,0,0:0:0:0:
329,192,25934,1,10,0:0:0:0:
36,192,26099,128,0,26264:0:0:0:0:
256,192,26099,128,0,26264:0:0:0:0:
475,192,26099,1,0,0:0:0:0:
402,192,26181,1,0,0:0:0:0:
329,192,26264,1,8,0:0:0:0:
182,192,26264,1,0,0:0:0:0:
109,192,26429,128,0,26511:0:0:0:0:
475,192,26429,128,0,26511:0:0:0:0:
256,192,26429,1,0,0:0:0:0:
36,192,26593,1,0,0:0:0:0:
402,192,26593,1,0,0:0:0:0:
182,192,26593,1,10,0:0:0:0:
475,192,26758,128,0,26923:0:0:0:0:
256,192,26758,1,0,0:0:0:0:
36,192,26758,128,0,27418:0:0:0:0:
402,192,26923,128,0,27418:0:0:0:0:
182,192,26923,1,8,0:0:0:0:
256,192,27088,1,0,0:0:0:0:
109,192,27253,1,0,0:0:0:0:
182,192,27253,1,0,0:0:0:0:
329,192,27253,1,10,0:0:0:0:
475,192,27418,1,0,0:0:0:0:
402,192,27500,1,0,0:0:0:0:
329,192,27582,1,0,0:0:0:0:
109,192,27582,1,8,0:0:0:0:
182,192,27747,128,0,27912:0:0:0:0:
402,192,27747,128,0,27912:0:0:0:0:
475,192,27747,1,0,0:0:0:0:
36,192,27912,1,0,0:0:0:0:
329,192,27912,1,0,0:0:0:0:
256,192,27912,1,10,0:0:0:0:
109,192,28077,128,0,28736:0:0:0:0:
182,192,28077,1,0,0:0:0:0:
475,192,28077,128,0,28242:0:0:0:0:
36,192,28242,1,8,0:0:0:0:
402,192,28242,128,0,28736:0:0:0:0:
256,192,28407,1,0,0:0:0:0:
329,192,28571,1,10,0:0:0:0:
475,192,28571,1,0,0:0:0:0:
182,192,28571,1,0,0:0:0:0:
36,192,28736,1,0,0:0:0:0:
109,192,28819,1,0,0:0:0:0:
182,192,28901,1,8,0:0:0:0:
475,192,28901,1,0,0:0:0:0:
256,192,29066,128,0,29231:0:0:0:0:
36,192,29066,1,0,0:0:0:0:
402,192,29066,128,0,29231:0:0:0:0:
109,192,29231,1,0,0:0:0:0:
329,192,29231,1,10,0:0:0:0:
182,192,29231,1,0,0:0:0:0:
256,192,29396,128,0,29560:0:0:0:0:
36,192,29396,128,0,30055:0:0:0:0:
402,192,29396,1,0,0:0:0:0:
182,192,29560,1,8,0:0:0:0:
475,192,29560,128,0,30055:0:0:0:0:
329,192,29725,1,0,0:0:0:0:
109,192,29890,1,0,0:0:0:0:
182,192,29890,1,10,0:0:0:0:
402,192,29890,1,0,0:0:0:0:
329,192,30055,1,0,0:0:0:0:
256,192,30137,1,0,0:0:0:0:
182,192,30220,1,8,0:0:0:0:
475,192,30220,1,0,0:0:0:0:
402,192,30385,128,0,30550:0:0:0:0:
109,192,30385,128,0,30550:0:0:0:0:
36,192,30385,1,0,0:0:0:0:
182,192,30550,1,0,0:0:0:0:
475,192,30550,1,0,0:0:0:0:
329,192,30550,1,10,0:0:0:0:
256,192,30714,128,0,30879:0:0:0:0:
36,192,30714,128,0,30879:0:0:0:0:
402,192,30714,1,0,0:0:0:0:
109,192,30879,1,8,0:0:0:0:
329,192,30879,1,0,0:0:0:0:
182,192,31044,128,0,31209:0:0:0:0:
329,192,31044,128,0,31209:0:0:0:0:
475,192,31044,1,0,0:0:0:0:
402,192,31209,1,0,0:0:0:0:
36,192,31209,1,0,0:0:0:0:
109,192,31209,1,10,0:0:0:0:
256,192,31374,128,0,31539:0:0:0:0:
475,192,31374,128,0,31539:0:0:0:0:
182,192,31374,1,0,0:0:0:0:
109,192,31456,1,0,0:0:0:0:
329,192,31539,1,8,0:0:0:0:
36,192,31539,1,0,0:0:0:0:
109,192,31703,128,0,31786:0:0:0:0:
402,192,31703,128,0,31786:0:0:0:0:
182,192,31703,1,0,0:0:0:0:
36,192,31868,128,0,32198:0:0:0:0:
475,192,31868,128,0,32198:0:0:0:0:
329,192,31868,128,0,32198:0:0:0:0:
256,192,31868,1,10,0:0:0:0:
182,192,32033,1,0,0:0:0:0:
182,192,32198,128,0,32692:0:0:0:0:
109,192,32198,1,0,0:0:0:0:
402,192,32198,1,8,0:0:0:0:
329,192,32363,1,0,0:0:0:0:
475,192,32528,1,0,0:0:0:0:
109,192,32528,1,0,0:0:0:0:
256,192,32528,1,10,0:0:0:0:
402,192,32692,1,0,0:0:0:0:
36,192,32692,128,0,32857:0:0:0:0:
329,192,32775,1,0,0:0:0:0:
256,192,32857,1,8,0:0:0:0:
109,192,32857,1,0,0:0:0:0:
329,192,33022,128,0,33187:0:0:0:0:
182,192,33022,1,0,0:0:0:0:
475,192,33187,1,0,0:0:0:0:
36,192,33187,1,0,0:0:0:0:
109,192,33187,1,10,0:0:0:0:
256,192,33352,128,0,33517:0:0:0:0:
402,192,33352,1,0,0:0:0:0:
36,192,33517,1,8,0:0:0:0:
182,192,33517,128,0,33846:0:0:0:0:
329,192,33681,1,0,0:0:0:0:
475,192,33846,1,0,0:0:0:0:
402,192,33846,1,10,0:0:0:0:
109,192,33846,1,0,0:0:0:0:
36,192,34011,1,0,0:0:0:0:
329,192,34011,128,0,34176:0:0:0:0:
109,192,34093,1,0,0:0:0:0:
182,192,34176,1,8,0:0:0:0:
475,192,34176,1,0,0:0:0:0:
402,192,34341,128,0,34506:0:0:0:0:
109,192,34341,1,0,0:0:0:0:
36,192,34506,1,0,0:0:0:0:
256,192,34506,1,10,0:0:0:0:
475,192,34506,1,0,0:0:0:0:
109,192,34670,128,0,34835:0:0:0:0:
329,192,34670,1,0,0:0:0:0:
402,192,34835,1,8,0:0:0:0:
256,192,34835,128,0,35165:0:0:0:0:
182,192,35000,1,0,0:0:0:0:
36,192,35165,1,0,0:0:0:0:
475,192,35165,1,0,0:0:0:0:
329,192,35165,1,10,0:0:0:0:
182,192,35330,1,0,0:0:0:0:
402,192,35330,128,0,35495:0:0:0:0:
109,192,35412,1,0,0:0:0:0:
36,192,35495,1,0,0:0:0:0:
256,192,35495,1,8,0:0:0:0:
329,192,35659,128,0,35824:0:0:0:0:
182,192,35659,1,0,0:0:0:0:
109,192,35824,1,10,0:0:0:0:
475,192,35824,1,0,0:0:0:0:
402,192,35824,1,0,0:0:0:0:
256,192,35989,128,0,36154:0:0:0:0:
36,192,35989,1,0,0:0:0:0:
402,192,36154,1,0,0:0:0:0:
329,192,36154,1,8,0:0:0:0:
182,192,36319,128,0,36484:0:0:0:0:
109,192,36319,1,0,0:0:0:0:
475,192,36484,1,0,0:0:0:0:
256,192,36484,1,10,0:0:0:0:
329,192,36484,1,0,0:0:0:0:
109,192,36648,128,0,36813:0:0:0:0:
36,192,36648,1,0,0:0:0:0:
402,192,36648,1,0,0:0:0:0:
329,192,36731,1,0,0:0:0:0:
256,192,36813,1,8,0:0:0:0:
475,192,36813,1,0,0:0:0:0:
36,192,36978,128,0,37060:0:0:0:0:
329,192,36978,1,0,0:0:0:0:
109,192,37143,1,0,0:0:0:0:
402,192,37143,1,0,0:0:0:0:
329,192,37143,1,10,0:0:0:0:
475,192,37308,128,0,37473:0:0:0:0:
182,192,37308,128,0,37473:0:0:0:0:
256,192,37308,1,0,0:0:0:0:
36,192,37473,128,0,37967:0:0:0:0:
402,192,37473,1,8,0:0:0:0:
329,192,37637,1,0,0:0:0:0:
109,192,37802,1,0,0:0:0:0:
182,192,37802,1,10,0:0:0:0:
402,192,37802,1,0,0:0:0:0:
475,192,37967,128,0,38132:0:0:0:0:
256,192,37967,1,0,0:0:0:0:
182,192,38050,1,0,0:0:0:0:
402,192,38132,1,0,0:0:0:0:
109,192,38132,1,8,0:0:0:0:
329,192,38297,128,0,38462:0:0:0:0:
36,192,38297,1,0,0:0:0:0:
402,192,38462,1,0,0:0:0:0:
256,192,38462,1,10,0:0:0:0:
109,192,38462,1,0,0:0:0:0:
182,192,38626,128,0,38791:0:0:0:0:
36,192,38791,1,8,0:0:0:0:
329,192,38791,128,0,39121:0:0:0:0:
182,192,38956,1,0,0:0:0:0:
256,192,39121,1,10,0:0:0:0:
109,192,39121,1,0,0:0:0:0:
475,192,39121,1,0,0:0:0:0:
36,192,39286,1,0,0:0:0:0:
402,192,39286,128,0,39451:0:0:0:0:
109,192,39368,1,0,0:0:0:0:
182,192,39451,1,8,0:0:0:0:
329,192,39451,1,0,0:0:0:0:
256,192,39615,128,0,39780:0:0:0:0:
36,192,39615,1,0,0:0:0:0:
402,192,39780,1,10,0:0:0:0:
475,192,39780,1,0,0:0:0:0:
109,192,39780,1,0,0:0:0:0:
329,192,39945,128,0,41429:0:0:0:0:
182,192,39945,1,0,0:0:0:0:
36,192,40110,128,0,42747:0:0:0:0:
256,192,40110,1,8,0:0:0:0:
475,192,40110,1,0,0:0:0:0:
182,192,40275,128,0,40440:0:0:0:0:
402,192,40440,1,10,0:0:0:0:
475,192,40440,1,0,0:0:0:0:
109,192,40440,1,0,0:0:0:0:
182,192,40604,128,0,40769:0:0:0:0:
402,192,40769,1,0,0:0:0:0:
256,192,40769,1,8,0:0:0:0:
182,192,40934,128,0,41099:0:0:0:0:
402,192,41099,1,10,0:0:0:0:
475,192,41099,1,0,0:0:0:0:
109,192,41099,1,0,0:0:0:0:
182,192,41264,128,0,41429:0:0:0:0:
402,192,41593,128,0,41758:0:0:0:0:
256,192,41923,128,0,42088:0:0:0:0:
256,192,42253,1,0,0:0:0:0:
256,192,42418,128,0,42747:0:0:0:0:
402,192,42747,1,12,0:0:0:0:
109,192,42747,1,0,0:0:0:0:
475,192,42747,1,0,0:0:0:0:
182,192,42912,1,0,0:0:0:0:
329,192,43077,1,0,0:0:0:0:
109,192,43242,1,0,0:0:0:0:
36,192,43407,1,0,0:0:0:0:
402,192,43407,1,8,0:0:0:0:
182,192,43571,1,0,0:0:0:0:
475,192,43736,1,0,0:0:0:0:
109,192,43901,1,0,0:0:0:0:
402,192,44066,1,0,0:0:0:0:
256,192,44231,1,0,0:0:0:0:
109,192,44396,1,0,0:0:0:0:
256,192,44560,1,0,0:0:0:0:
475,192,44725,1,0,0:0:0:0:
182,192,44725,1,8,0:0:0:0:
329,192,44890,1,0,0:0:0:0:
36,192,45055,1,0,0:0:0:0:
182,192,45220,1,0,0:0:0:0:
475,192,45385,1,0,0:0:0:0:
109,192,45550,1,0,0:0:0:0:
329,192,45714,1,0,0:0:0:0:
36,192,45879,1,0,0:0:0:0:
402,192,46044,1,8,0:0:0:0:
256,192,46044,1,0,0:0:0:0:
109,192,46209,1,0,0:0:0:0:
475,192,46374,1,0,0:0:0:0:
182,192,46539,1,0,0:0:0:0:
402,192,46703,1,0,0:0:0:0:
256,192,46868,1,0,0:0:0:0:
36,192,47033,1,0,0:0:0:0:
329,192,47198,1,0,0:0:0:0:
475,192,47363,1,8,0:0:0:0:
182,192,47363,1,0,0:0:0:0:
36,192,47528,1,0,0:0:0:0:
256,192,47692,1,0,0:0:0:0:
109,192,47857,1,0,0:0:0:0:
475,192,48022,1,0,0:0:0:0:
182,192,48187,1,0,0:0:0:0:
329,192,48352,1,0,0:0:0:0:
36,192,48517,1,0,0:0:0:0:
402,192,48681,1,0,0:0:0:0:
182,192,48681,1,8,0:0:0:0:
329,192,48846,1,0,0:0:0:0:
475,192,49011,1,0,0:0:0:0:
256,192,49176,1,0,0:0:0:0:
402,192,49341,1,0,0:0:0:0:
182,192,49506,1,0,0:0:0:0:
36,192,49670,1,0,0:0:0:0:
109,192,49835,1,0,0:0:0:0:
329,192,50000,1,8,0:0:0:0:
475,192,50000,1,0,0:0:0:0:
182,192,50165,1,0,0:0:0:0:
36,192,50330,1,0,0:0:0:0:
256,192,50495,1,0,0:0:0:0:
402,192,50659,1,0,0:0:0:0:
182,192,50824,1,0,0:0:0:0:
329,192,50989,1,0,0:0:0:0:
109,192,51154,1,0,0:0:0:0:
402,192,51319,1,8,0:0:0:0:
36,192,51319,1,0,0:0:0:0:
256,192,51484,1,0,0:0:0:0:
475,192,51648,1,0,0:0:0:0:
182,192,51813,1,0,0:0:0:0:
402,192,51978,1,0,0:0:0:0:
109,192,52143,1,0,0:0:0:0:
329,192,52308,1,0,0:0:0:0:
36,192,52473,1,0,0:0:0:0:
475,192,52637,1,0,0:0:0:0:
256,192,52637,1,8,0:0:0:0:
182,192,52802,1,0,0:0:0:0:
36,192,52967,1,0,0:0:0:0:
329,192,53132,1,0,0:0:0:0:
475,192,53297,1,0,0:0:0:0:
182,192,53297,1,8,0:0:0:0:
109,192,53297,1,0,0:0:0:0:
256,192,53462,1,0,0:0:0:0:
402,192,53626,1,0,0:0:0:0:
109,192,53626,1,8,0:0:0:0:
329,192,53791,1,0,0:0:0:0:
36,192,53956,1,0,0:0:0:0:
182,192,53956,1,8,0:0:0:0:
256,192,53956,1,0,0:0:0:0:
402,192,54121,1,0,0:0:0:0:
109,192,54286,1,8,0:0:0:0:
475,192,54286,1,0,0:0:0:0:
329,192,54451,1,0,0:0:0:0:
402,192,54615,1,0,0:0:0:0:
109,192,54615,1,8,0:0:0:0:
329,192,54780,1,0,0:0:0:0:
256,192,54945,1,0,0:0:0:0:
109,192,54945,1,8,0:0:0:0:
329,192,55110,1,0,0:0:0:0:
182,192,55275,1,8,0:0:0:0:
36,192,55275,1,0,0:0:0:0:
475,192,55275,1,0,0:0:0:0:
329,192,55440,1,0,0:0:0:0:
256,192,55604,1,0,0:0:0:0:
109,192,55604,1,8,0:0:0:0:
475,192,55769,1,0,0:0:0:0:
329,192,55934,1,0,0:0:0:0:
402,192,55934,1,0,0:0:0:0:
109,192,55934,1,8,0:0:0:0:
256,192,56099,1,0,0:0:0:0:
182,192,56264,1,0,0:0:0:0:
402,192,56264,1,8,0:0:0:0:
109,192,56429,1,0,0:0:0:0:
329,192,56593,1,8,0:0:0:0:
475,192,56593,1,0,0:0:0:0:
36,192,56593,1,0,0:0:0:0:
109,192,56758,1,0,0:0:0:0:
402,192,56923,1,8,0:0:0:0:
256,192,56923,1,0,0:0:0:0:
109,192,57088,1,0,0:0:0:0:
182,192,57253,1,0,0:0:0:0:
402,192,57253,1,8,0:0:0:0:
36,192,57418,1,0,0:0:0:0:
109,192,57582,1,0,0:0:0:0:
402,192,57582,1,8,0:0:0:0:
182,192,57747,1,0,0:0:0:0:
329,192,57912,1,8,0:0:0:0:
475,192,57912,1,0,0:0:0:0:
256,192,57912,1,0,0:0:0:0:
109,192,58077,1,0,0:0:0:0:
329,192,58242,1,8,0:0:0:0:
475,192,58242,1,0,0:0:0:0:
402,192,58242,128,0,58571:0:0:0:0:
182,192,58242,1,0,0:0:0:0:
36,192,58407,1,0,0:0:0:0:
109,192,58571,1,0,0:0:0:0:
182,192,58571,1,8,0:0:0:0:
475,192,58571,1,0,0:0:0:0:
329,192,58654,1,8,0:0:0:0:
256,192,58736,1,8,0:0:0:0:
402,192,58736,1,0,0:0:0:0:
182,192,58819,1,8,0:0:0:0:
109,192,58901,1,8,0:0:0:0:
36,192,58901,1,0,0:0:0:0:
402,192,58901,1,0,0:0:0:0:
329,192,58984,1,8,0:0:0:0:
256,192,59066,1,8,0:0:0:0:
475,192,59066,1,0,0:0:0:0:
36,192,59148,1,8,0:0:0:0:
182,192,59231,1,8,0:0:0:0:
402,192,59231,1,0,0:0:0:0:
109,192,59231,1,0,0:0:0:0:
256,192,59313,1,8,0:0:0:0:
329,192,59396,1,8,0:0:0:0:
109,192,59396,1,0,0:0:0:0:
402,192,59478,1,8,0:0:0:0:
36,192,59560,1,0,0:0:0:0:
475,192,59560,1,8,0:0:0:0:
256,192,59560,1,0,0:0:0:0:
329,192,59643,1,8,0:0:0:0:
182,192,59725,1,0,0:0:0:0:
402,192,59725,1,8,0:0:0:0:
109,192,59808,1,8,0:0:0:0:
329,192,59890,1,8,0:0:0:0:
36,192,59890,1,0,0:0:0:0:
475,192,59890,1,0,0:0:0:0:
256,192,59973,1,8,0:0:0:0:
182,192,60055,1,8,0:0:0:0:
402,192,60055,1,0,0:0:0:0:
329,192,60137,1,8,0:0:0:0:
256,192,60220,1,8,0:0:0:0:
475,192,60220,1,0,0:0:0:0:
36,192,60220,1,0,0:0:0:0:
109,192,60302,1,8,0:0:0:0:
182,192,60385,1,8,0:0:0:0:
402,192,60385,1,0,0:0:0:0:
256,192,60467,1,8,0:0:0:0:
329,192,60550,1,8,0:0:0:0:
109,192,60550,1,0,0:0:0:0:
475,192,60550,1,0,0:0:0:0:
182,192,60632,1,8,0:0:0:0:
256,192,60714,1,8,0:0:0:0:
36,192,60714,1,0,0:0:0:0:
109,192,60797,1,8,0:0:0:0:
402,192,60879,1,0,0:0:0:0:
329,192,60879,1,0,0:0:0:0:
182,192,60879,1,8,0:0:0:0:
475,192,60962,1,8,0:0:0:0:
256,192,61044,1,8,0:0:0:0:
36,192,61044,1,0,0:0:0:0:
329,192,61126,1,8,0:0:0:0:
475,192,61209,1,0,0:0:0:0:
402,192,61209,1,8,0:0:0:0:
182,192,61291,1,8,0:0:0:0:
109,192,61291,1,0,0:0:0:0:
402,192,61374,1,0,0:0:0:0:
329,192,61374,1,8,0:0:0:0:
36,192,61456,1,0,0:0:0:0:
109,192,61456,1,8,0:0:0:0:
182,192,61539,1,8,0:0:0:0:
256,192,61539,1,0,0:0:0:0:
402,192,61621,1,8,0:0:0:0:
475,192,61621,1,0,0:0:0:0:
109,192,61703,1,0,0:0:0:0:
182,192,61703,1,8,0:0:0:0:
256,192,61786,1,8,0:0:0:0:
329,192,61786,1,0,0:0:0:0:
402,192,61868,1,8,0:0:0:0:
475,192,61868,1,0,0:0:0:0:
36,192,61951,1,0,0:0:0:0:
109,192,61951,1,8,0:0:0:0:
182,192,62033,1,8,0:0:0:0:
256,192,62033,1,0,0:0:0:0:
402,192,62115,1,0,0:0:0:0:
329,192,62115,1,8,0:0:0:0:
182,192,62198,1,8,0:0:0:0:
109,192,62198,1,0,0:0:0:0:
475,192,62280,1,0,0:0:0:0:
402,192,62280,1,8,0:0:0:0:
36,192,62363,1,0,0:0:0:0:
109,192,62363,1,8,0:0:0:0:
256,192,62445,1,0,0:0:0:0:
182,192,62445,1,8,0:0:0:0:
475,192,62528,1,0,0:0:0:0:
402,192,62528,1,8,0:0:0:0:
182,192,62610,1,8,0:0:0:0:
109,192,62610,1,0,0:0:0:0:
256,192,62692,1,0,0:0:0:0:
329,192,62692,1,8,0:0:0:0:
475,192,62775,1,0,0:0:0:0:
402,192,62775,1,8,0:0:0:0:
36,192,62857,1,0,0:0:0:0:
109,192,62857,1,8,0:0:0:0:
329,192,62940,1,8,0:0:0:0:
402,192,62940,1,0,0:0:0:0:
182,192,63022,1,8,0:0:0:0:
256,192,63022,1,0,0:0:0:0:
109,192,63104,1,8,0:0:0:0:
36,192,63104,1,0,0:0:0:0:
402,192,63187,1,8,0:0:0:0:
475,192,63187,1,0,0:0:0:0:
256,192,63269,1,0,0:0:0:0:
329,192,63269,1,8,0:0:0:0:
36,192,63352,1,0,0:0:0:0:
109,192,63352,1,8,0:0:0:0:
402,192,63434,1,8,0:0:0:0:
475,192,63434,1,0,0:0:0:0:
256,192,63517,1,8,0:0:0:0:
182,192,63517,1,0,0:0:0:0:
329,192,63599,1,8,0:0:0:0:
402,192,63599,1,0,0:0:0:0:
182,192,63681,1,8,0:0:0:0:
109,192,63681,1,0,0:0:0:0:
475,192,63764,1,0,0:0:0:0:
402,192,63764,1,8,0:0:0:0:
329,192,63846,1,12,0:0:0:0:
256,192,63846,1,0,0:0:0:0:
36,192,63846,1,0,0:0:0:0:
109,192,63846,128,0,64176:0:0:0:0:
402,192,64011,128,0,64176:0:0:0:0:
182,192,64011,128,0,64176:0:0:0:0:
256,192,64176,128,0,64670:0:0:0:0:
402,192,64341,128,0,64506:0:0:0:0:
109,192,64341,128,0,64670:0:0:0:0:
475,192,64670,128,0,64835:0:0:0:0:
182,192,64670,128,0,65000:0:0:0:0:
329,192,64835,128,0,65000:0:0:0:0:
475,192,65000,128,0,65165:0:0:0:0:
256,192,65000,128,0,65495:0:0:0:0:
36,192,65330,128,0,65495:0:0:0:0:
402,192,65330,128,0,65495:0:0:0:0:
329,192,65495,128,0,65824:0:0:0:0:
36,192,65659,128,0,65824:0:0:0:0:
182,192,65659,128,0,65824:0:0:0:0:
109,192,65989,1,0,0:0:0:0:
329,192,65989,1,0,0:0:0:0:
182,192,66154,1,0,0:0:0:0:
256,192,66154,1,12,0:0:0:0:
475,192,66154,1,0,0:0:0:0:
36,192,66154,1,0,0:0:0:0:
109,192,66154,1,0,0:0:0:0:
182,192,66484,1,8,0:0:0:0:
36,192,66484,1,0,0:0:0:0:
256,192,66648,1,0,0:0:0:0:
329,192,66648,128,0,66813:0:0:0:0:
109,192,66813,1,10,0:0:0:0:
402,192,66813,1,0,0:0:0:0:
475,192,66813,1,0,0:0:0:0:
182,192,66978,1,0,0:0:0:0:
36,192,66978,128,0,67143:0:0:0:0:
256,192,67143,1,8,0:0:0:0:
475,192,67143,1,0,0:0:0:0:
109,192,67308,1,0,0:0:0:0:
402,192,67308,128,0,67473:0:0:0:0:
182,192,67473,1,0,0:0:0:0:
36,192,67473,1,0,0:0:0:0:
256,192,67473,1,10,0:0:0:0:
402,192,67637,1,0,0:0:0:0:
329,192,67637,128,0,67802:0:0:0:0:
36,192,67802,1,0,0:0:0:0:
182,192,67802,1,8,0:0:0:0:
109,192,67967,1,0,0:0:0:0:
475,192,67967,128,0,68132:0:0:0:0:
329,192,68132,1,0,0:0:0:0:
182,192,68132,1,10,0:0:0:0:
402,192,68132,1,0,0:0:0:0:
36,192,68297,1,0,0:0:0:0:
256,192,68297,128,0,68462:0:0:0:0:
182,192,68462,1,8,0:0:0:0:
402,192,68462,1,0,0:0:0:0:
475,192,68626,128,0,68791:0:0:0:0:
109,192,68626,1,0,0:0:0:0:
182,192,68791,1,0,0:0:0:0:
256,192,68791,1,10,0:0:0:0:
36,192,68791,1,0,0:0:0:0:
329,192,68956,1,8,0:0:0:0:
109,192,68956,1,0,0:0:0:0:
256,192,69039,1,8,0:0:0:0:
182,192,69121,1,8,0:0:0:0:
402,192,69121,1,0,0:0:0:0:
475,192,69121,1,0,0:0:0:0:
256,192,69286,1,0,0:0:0:0:
36,192,69286,128,0,69451:0:0:0:0:
109,192,69451,1,0,0:0:0:0:
475,192,69451,1,0,0:0:0:0:
329,192,69451,1,10,0:0:0:0:
182,192,69615,1,0,0:0:0:0:
402,192,69615,128,0,69780:0:0:0:0:
36,192,69780,1,0,0:0:0:0:
256,192,69780,1,8,0:0:0:0:
109,192,69945,1,0,0:0:0:0:
329,192,69945,128,0,70110:0:0:0:0:
182,192,70110,1,10,0:0:0:0:
36,192,70110,1,0,0:0:0:0:
402,192,70110,1,0,0:0:0:0:
256,192,70275,1,0,0:0:0:0:
475,192,70275,128,0,70440:0:0:0:0:
109,192,70440,1,0,0:0:0:0:
329,192,70440,1,8,0:0:0:0:
182,192,70604,1,0,0:0:0:0:
402,192,70604,128,0,70769:0:0:0:0:
329,192,70769,1,10,0:0:0:0:
36,192,70769,1,0,0:0:0:0:
109,192,70769,1,0,0:0:0:0:
256,192,70934,1,0,0:0:0:0:
182,192,70934,128,0,71099:0:0:0:0:
36,192,71099,1,8,0:0:0:0:
402,192,71099,1,0,0:0:0:0:
475,192,71264,1,0,0:0:0:0:
256,192,71264,128,0,71429:0:0:0:0:
402,192,71429,1,0,0:0:0:0:
109,192,71429,1,10,0:0:0:0:
182,192,71429,1,0,0:0:0:0:
36,192,71593,128,0,71758:0:0:0:0:
329,192,71593,1,0,0:0:0:0:
109,192,71758,1,8,0:0:0:0:
475,192,71758,1,0,0:0:0:0:
182,192,71923,128,0,72088:0:0:0:0:
402,192,71923,1,0,0:0:0:0:
475,192,72088,1,0,0:0:0:0:
109,192,72088,1,0,0:0:0:0:
256,192,72088,1,10,0:0:0:0:
182,192,72253,1,0,0:0:0:0:
329,192,72253,128,0,72418:0:0:0:0:
109,192,72418,1,0,0:0:0:0:
402,192,72418,1,8,0:0:0:0:
329,192,72582,1,0,0:0:0:0:
36,192,72582,128,0,72747:0:0:0:0:
475,192,72747,1,0,0:0:0:0:
256,192,72747,1,10,0:0:0:0:
109,192,72747,1,0,0:0:0:0:
402,192,72912,1,0,0:0:0:0:
329,192,72912,128,0,73077:0:0:0:0:
109,192,73077,1,0,0:0:0:0:
182,192,73077,1,10,0:0:0:0:
36,192,73077,1,0,0:0:0:0:
109,192,73242,1,0,0:0:0:0:
256,192,73242,1,8,0:0:0:0:
402,192,73242,128,0,73407:0:0:0:0:
329,192,73407,1,0,0:0:0:0:
475,192,73407,1,0,0:0:0:0:
182,192,73407,1,10,0:0:0:0:
402,192,73571,1,8,0:0:0:0:
36,192,73571,1,0,0:0:0:0:
256,192,73571,128,0,73736:0:0:0:0:
329,192,73736,1,8,0:0:0:0:
182,192,73736,1,2,0:0:0:0:
475,192,73736,1,0,0:0:0:0:
402,192,73901,1,8,0:0:0:0:
182,192,73901,1,0,0:0:0:0:
36,192,73901,1,0,0:0:0:0:
402,192,74066,1,0,0:0:0:0:
329,192,74066,1,8,0:0:0:0:
36,192,74066,1,2,0:0:0:0:
329,192,74231,1,8,0:0:0:0:
109,192,74231,1,0,0:0:0:0:
402,192,74313,1,8,0:0:0:0:
182,192,74313,1,0,0:0:0:0:
475,192,74396,1,0,0:0:0:0:
36,192,74396,1,0,0:0:0:0:
256,192,74396,1,12,0:0:0:0:
475,192,74560,128,0,74725:0:0:0:0:
109,192,74560,1,0,0:0:0:0:
329,192,74725,1,2,0:0:0:0:
182,192,74725,1,8,0:0:0:0:
402,192,74725,1,0,0:0:0:0:
36,192,74890,128,0,75055:0:0:0:0:
256,192,74890,1,0,0:0:0:0:
329,192,74973,1,0,0:0:0:0:
109,192,75055,1,0,0:0:0:0:
475,192,75055,1,8,0:0:0:0:
402,192,75220,128,0,75385:0:0:0:0:
182,192,75220,1,0,0:0:0:0:
256,192,75385,1,10,0:0:0:0:
109,192,75385,1,0,0:0:0:0:
36,192,75385,1,0,0:0:0:0:
329,192,75550,128,0,75714:0:0:0:0:
475,192,75550,1,0,0:0:0:0:
182,192,75714,1,8,0:0:0:0:
109,192,75714,1,0,0:0:0:0:
256,192,75879,128,0,76044:0:0:0:0:
475,192,76044,1,0,0:0:0:0:
402,192,76044,1,10,0:0:0:0:
36,192,76044,1,0,0:0:0:0:
182,192,76209,128,0,76374:0:0:0:0:
109,192,76209,1,0,0:0:0:0:
329,192,76374,1,8,0:0:0:0:
402,192,76374,1,0,0:0:0:0:
256,192,76374,1,0,0:0:0:0:
109,192,76539,128,0,76703:0:0:0:0:
36,192,76539,1,0,0:0:0:0:
182,192,76703,1,0,0:0:0:0:
256,192,76703,1,10,0:0:0:0:
475,192,76786,1,0,0:0:0:30:
402,192,76786,1,2,0:0:0:0:
36,192,76868,1,0,0:0:0:30:
109,192,76868,1,2,0:0:0:0:
256,192,76951,1,2,0:0:0:30:
329,192,76951,1,0,0:0:0:0:
36,192,77033,128,0,77363:0:0:0:0:
475,192,77033,128,0,77363:0:0:0:0:
182,192,77033,1,8,0:0:0:0:
402,192,77198,1,0,0:0:0:0:
109,192,77363,1,0,0:0:0:0:
256,192,77363,1,0,0:0:0:0:
182,192,77363,1,10,0:0:0:0:
402,192,77528,128,0,77692:0:0:0:0:
329,192,77528,1,0,0:0:0:0:
36,192,77692,1,0,0:0:0:0:
256,192,77692,1,8,0:0:0:0:
182,192,77857,128,0,78022:0:0:0:0:
475,192,77857,1,0,0:0:0:0:
402,192,78022,1,0,0:0:0:0:
329,192,78022,1,10,0:0:0:0:
109,192,78022,1,0,0:0:0:0:
256,192,78187,128,0,78352:0:0:0:0:
36,192,78187,1,0,0:0:0:0:
182,192,78352,1,0,0:0:0:0:
402,192,78352,1,8,0:0:0:0:
109,192,78517,128,0,78681:0:0:0:0:
329,192,78517,1,0,0:0:0:0:
256,192,78681,1,0,0:0:0:0:
36,192,78681,1,0,0:0:0:0:
475,192,78681,1,10,0:0:0:0:
329,192,78846,128,0,79011:0:0:0:0:
182,192,78846,1,0,0:0:0:0:
109,192,79011,1,0,0:0:0:0:
475,192,79011,1,8,0:0:0:0:
256,192,79176,128,0,79341:0:0:0:0:
402,192,79176,1,0,0:0:0:0:
182,192,79341,1,0,0:0:0:0:
36,192,79341,1,0,0:0:0:0:
329,192,79341,1,10,0:0:0:0:
109,192,79506,1,8,0:0:0:0:
475,192,79506,1,0,0:0:0:0:
256,192,79588,1,8,0:0:0:30:
329,192,79670,1,8,0:0:0:0:
36,192,79670,1,0,0:0:0:0:
402,192,79835,128,0,80000:0:0:0:0:
182,192,79835,1,0,0:0:0:0:
36,192,80000,1,0,0:0:0:0:
475,192,80000,1,0,0:0:0:0:
256,192,80000,1,10,0:0:0:0:
109,192,80165,128,0,80330:0:0:0:0:
329,192,80165,1,0,0:0:0:0:
182,192,80330,1,0,0:0:0:0:
402,192,80330,1,8,0:0:0:0:
475,192,80495,128,0,80659:0:0:0:0:
256,192,80495,1,0,0:0:0:0:
36,192,80659,1,0,0:0:0:0:
182,192,80659,1,0,0:0:0:0:
402,192,80659,1,10,0:0:0:0:
329,192,80824,128,0,80989:0:0:0:0:
109,192,80824,1,0,0:0:0:0:
475,192,80989,1,0,0:0:0:0:
256,192,80989,1,8,0:0:0:0:
36,192,81154,128,0,81319:0:0:0:0:
402,192,81154,1,0,0:0:0:0:
329,192,81319,1,0,0:0:0:0:
256,192,81319,1,10,0:0:0:0:
109,192,81319,1,0,0:0:0:0:
182,192,81484,128,0,81648:0:0:0:0:
402,192,81484,1,0,0:0:0:0:
475,192,81648,1,0,0:0:0:0:
36,192,81648,1,8,0:0:0:0:
256,192,81813,1,0,0:0:0:0:
109,192,81813,128,0,81978:0:0:0:0:
182,192,81978,1,0,0:0:0:0:
475,192,81978,1,0,0:0:0:0:
329,192,81978,1,10,0:0:0:0:
402,192,82143,128,0,82308:0:0:0:0:
109,192,82143,1,0,0:0:0:0:
36,192,82308,1,0,0:0:0:0:
256,192,82308,1,8,0:0:0:0:
329,192,82308,1,0,0:0:0:0:
182,192,82473,1,2,0:0:0:40:
475,192,82473,1,0,0:0:0:0:
109,192,82473,1,0,0:0:0:0:
402,192,82637,1,0,0:0:0:0:
329,192,82637,1,8,0:0:0:0:
36,192,82637,1,0,0:0:0:0:
256,192,82802,1,2,0:0:0:40:
182,192,82802,1,0,0:0:0:0:
475,192,82802,1,0,0:0:0:0:
402,192,82967,1,0,0:0:0:0:
329,192,82967,1,8,0:0:0:0:
109,192,82967,1,0,0:0:0:0:
109,192,83132,1,0,0:0:0:40:
182,192,83132,1,2,0:0:0:0:
36,192,83132,1,0,0:0:0:0:
182,192,83297,1,0,0:0:0:0:
475,192,83297,1,8,0:0:0:0:
329,192,83297,1,0,0:0:0:0:
329,192,83462,1,2,0:0:0:40:
109,192,83462,1,0,0:0:0:0:
402,192,83462,1,0,0:0:0:0:
475,192,83626,1,8,0:0:0:0:
402,192,83626,1,0,0:0:0:0:
329,192,83709,1,0,0:0:0:0:
256,192,83709,1,8,0:0:0:0:
182,192,83791,1,8,0:0:0:0:
109,192,83791,1,0,0:0:0:0:
402,192,83874,1,0,0:0:0:0:
329,192,83874,1,8,0:0:0:0:
36,192,83956,1,0,0:0:0:0:
109,192,83956,1,8,0:0:0:0:
182,192,84039,1,8,0:0:0:0:
256,192,84039,1,0,0:0:0:0:
329,192,84121,1,8,0:0:0:0:
402,192,84121,1,0,0:0:0:0:
109,192,84203,1,0,0:0:0:0:
182,192,84203,1,8,0:0:0:0:
36,192,84286,1,8,0:0:0:0:
475,192,84286,1,0,0:0:0:0:
109,192,84368,1,8,0:0:0:0:
402,192,84368,1,0,0:0:0:0:
256,192,84451,1,8,0:0:0:0:
329,192,84533,1,0,0:0:0:0:
182,192,84533,1,8,0:0:0:0:
109,192,84615,1,10,0:0:0:0:
402,192,84615,1,0,0:0:0:0:
36,192,84615,1,0,0:0:0:0:
475,192,84615,1,0,0:0:0:0:
256,192,84945,1,8,0:0:0:0:
109,192,84945,1,0,0:0:0:0:
475,192,85110,1,0,0:0:0:0:
182,192,85110,1,0,0:0:0:0:
402,192,85192,1,0,0:0:0:0:
329,192,85275,1,0,0:0:0:0:
109,192,85275,1,10,0:0:0:0:
36,192,85275,1,0,0:0:0:0:
256,192,85440,1,0,0:0:0:0:
475,192,85440,1,0,0:0:0:0:
329,192,85522,1,0,0:0:0:0:
402,192,85604,1,8,0:0:0:0:
109,192,85604,1,0,0:0:0:0:
256,192,85769,1,0,0:0:0:0:
36,192,85769,1,0,0:0:0:0:
182,192,85852,1,0,0:0:0:0:
109,192,85934,1,0,0:0:0:0:
402,192,85934,1,10,0:0:0:0:
475,192,85934,1,0,0:0:0:0:
182,192,86099,1,0,0:0:0:0:
36,192,86099,1,0,0:0:0:0:
256,192,86181,1,0,0:0:0:0:
329,192,86264,1,8,0:0:0:0:
109,192,86264,1,0,0:0:0:0:
402,192,86429,1,0,0:0:0:0:
182,192,86429,1,0,0:0:0:0:
329,192,86511,1,0,0:0:0:0:
256,192,86593,1,0,0:0:0:0:
475,192,86593,1,10,0:0:0:0:
109,192,86593,1,0,0:0:0:0:
36,192,86758,1,0,0:0:0:0:
329,192,86758,1,0,0:0:0:0:
109,192,86841,1,0,0:0:0:0:
182,192,86923,1,0,0:0:0:0:
402,192,86923,1,8,0:0:0:0:
329,192,87088,1,0,0:0:0:0:
475,192,87088,1,0,0:0:0:0:
256,192,87170,1,0,0:0:0:0:
182,192,87253,1,10,0:0:0:0:
36,192,87253,1,0,0:0:0:0:
109,192,87253,1,0,0:0:0:0:
402,192,87335,1,0,0:0:0:0:
329,192,87335,1,2,0:0:0:0:
256,192,87418,1,2,0:0:0:0:
182,192,87418,1,0,0:0:0:0:
402,192,87500,1,2,0:0:0:0:
475,192,87500,1,0,0:0:0:0:
329,192,87582,1,8,0:0:0:0:
256,192,87582,1,0,0:0:0:0:
109,192,87582,1,0,0:0:0:0:
36,192,87747,1,0,0:0:0:0:
402,192,87747,1,0,0:0:0:0:
109,192,87830,1,0,0:0:0:0:
182,192,87912,1,0,0:0:0:0:
475,192,87912,1,0,0:0:0:0:
329,192,87912,1,10,0:0:0:0:
256,192,88077,1,0,0:0:0:0:
36,192,88077,1,0,0:0:0:0:
182,192,88159,1,0,0:0:0:0:
109,192,88242,1,0,0:0:0:0:
329,192,88242,1,8,0:0:0:0:
256,192,88407,1,0,0:0:0:0:
36,192,88407,1,0,0:0:0:0:
329,192,88489,1,0,0:0:0:0:
402,192,88571,1,10,0:0:0:0:
475,192,88571,1,0,0:0:0:0:
182,192,88571,1,0,0:0:0:0:
329,192,88736,1,0,0:0:0:0:
36,192,88736,1,0,0:0:0:0:
256,192,88819,1,0,0:0:0:0:
182,192,88901,1,8,0:0:0:0:
402,192,88901,1,0,0:0:0:0:
329,192,89066,1,0,0:0:0:0:
36,192,89066,1,0,0:0:0:0:
402,192,89148,1,0,0:0:0:0:
475,192,89231,1,10,0:0:0:0:
182,192,89231,1,0,0:0:0:0:
256,192,89231,1,0,0:0:0:0:
402,192,89396,1,0,0:0:0:0:
109,192,89396,1,0,0:0:0:0:
329,192,89478,1,0,0:0:0:0:
36,192,89560,1,0,0:0:0:0:
256,192,89560,1,8,0:0:0:0:
182,192,89725,1,8,0:0:0:0:
475,192,89725,1,0,0:0:0:0:
256,192,89890,1,0,0:0:0:0:
402,192,89890,1,10,0:0:0:0:
36,192,89890,1,0,0:0:0:0:
329,192,90055,1,0,0:0:0:0:
109,192,90055,1,8,0:0:0:0:
182,192,90137,1,8,0:0:0:0:
402,192,90137,1,0,0:0:0:0:
475,192,90220,1,0,0:0:0:0:
256,192,90220,1,8,0:0:0:0:
182,192,90385,1,0,0:0:0:0:
36,192,90385,1,0,0:0:0:0:
329,192,90467,1,0,0:0:0:0:
475,192,90550,1,0,0:0:0:0:
109,192,90550,1,0,0:0:0:0:
256,192,90550,1,10,0:0:0:0:
402,192,90714,1,0,0:0:0:0:
182,192,90714,1,0,0:0:0:0:
256,192,90797,1,0,0:0:0:0:
109,192,90879,1,8,0:0:0:0:
36,192,90879,1,0,0:0:0:0:
182,192,91044,1,0,0:0:0:0:
402,192,91044,1,0,0:0:0:0:
329,192,91126,1,0,0:0:0:0:
475,192,91209,1,0,0:0:0:0:
256,192,91209,1,10,0:0:0:0:
109,192,91209,1,0,0:0:0:0:
329,192,91374,1,0,0:0:0:0:
402,192,91374,1,0,0:0:0:0:
182,192,91456,1,0,0:0:0:0:
36,192,91539,1,0,0:0:0:0:
109,192,91539,1,8,0:0:0:0:
182,192,91703,1,0,0:0:0:0:
402,192,91703,1,0,0:0:0:0:
256,192,91786,1,0,0:0:0:0:
329,192,91868,1,10,0:0:0:0:
109,192,91868,1,0,0:0:0:0:
475,192,91868,1,0,0:0:0:0:
36,192,92033,1,0,0:0:0:0:
402,192,92033,1,0,0:0:0:0:
182,192,92115,1,0,0:0:0:0:
329,192,92198,1,8,0:0:0:0:
109,192,92198,1,0,0:0:0:0:
475,192,92363,1,0,0:0:0:0:
256,192,92363,1,0,0:0:0:0:
329,192,92445,1,0,0:0:0:0:
36,192,92528,1,0,0:0:0:0:
182,192,92528,1,10,0:0:0:0:
402,192,92528,1,0,0:0:0:0:
109,192,92692,1,0,0:0:0:0:
329,192,92692,1,0,0:0:0:0:
256,192,92775,1,0,0:0:0:0:
475,192,92857,1,8,0:0:0:0:
182,192,92857,1,0,0:0:0:0:
36,192,93022,1,0,0:0:0:0:
256,192,93022,1,0,0:0:0:0:
182,192,93104,1,0,0:0:0:0:
329,192,93187,1,10,0:0:0:0:
109,192,93187,1,0,0:0:0:0:
475,192,93187,1,0,0:0:0:0:
402,192,93352,1,0,0:0:0:0:
36,192,93352,1,0,0:0:0:0:
256,192,93434,1,0,0:0:0:0:
109,192,93517,1,0,0:0:0:0:
329,192,93517,1,8,0:0:0:0:
182,192,93681,1,0,0:0:0:0:
36,192,93681,1,0,0:0:0:0:
329,192,93764,1,0,0:0:0:0:
475,192,93846,1,0,0:0:0:0:
256,192,93846,1,0,0:0:0:0:
402,192,93846,1,10,0:0:0:0:
329,192,94011,1,0,0:0:0:0:
109,192,94011,1,0,0:0:0:0:
182,192,94093,1,0,0:0:0:0:
36,192,94176,1,0,0:0:0:0:
256,192,94176,1,8,0:0:0:0:
475,192,94176,1,0,0:0:0:0:
109,192,94341,1,0,0:0:0:0:
329,192,94341,1,8,0:0:0:0:
402,192,94341,1,0,0:0:0:0:
182,192,94506,1,0,0:0:0:0:
475,192,94506,1,0,0:0:0:0:
256,192,94506,1,10,0:0:0:0:
36,192,94670,1,0,0:0:0:0:
329,192,94670,1,8,0:0:0:0:
109,192,94753,1,0,0:0:0:0:
475,192,94753,1,0,0:0:0:0:
402,192,94753,1,8,0:0:0:0:
402,192,94918,1,8,0:0:0:0:
182,192,94918,1,0,0:0:0:0:
109,192,95000,1,0,0:0:0:0:
256,192,95000,1,0,0:0:0:0:
329,192,95000,1,8,0:0:0:0:
475,192,95165,1,0,0:0:0:0:
329,192,95165,1,10,0:0:0:0:
36,192,95165,1,0,0:0:0:0:
109,192,95330,1,0,0:0:0:0:
402,192,95330,1,0,0:0:0:0:
329,192,95412,1,0,0:0:0:0:
182,192,95412,1,0,0:0:0:0:
256,192,95495,128,0,95783:0:0:0:0:
36,192,95495,1,12,0:0:0:0:
475,192,95495,1,0,0:0:0:0:
182,192,95632,128,0,95783:0:0:0:0:
329,192,95632,128,0,95783:0:0:0:0:
475,192,95783,128,0,96154:0:0:0:0:
36,192,95948,128,0,96154:0:0:0:0:
402,192,95989,128,0,96154:0:0:0:0:
109,192,96071,128,0,96154:0:0:0:0:
256,192,96154,128,8,96484:0:0:0:0:
329,192,96236,128,0,96484:0:0:0:0:
182,192,96319,128,0,96484:0:0:0:0:
402,192,96401,128,0,96484:0:0:0:0:
475,192,96484,1,0,0:0:0:0:
109,192,96484,1,10,0:0:0:0:
36,192,96484,128,0,96566:0:0:0:0:
329,192,96648,128,0,96731:0:0:0:0:
475,192,96813,128,0,96978:0:0:0:0:
182,192,96813,1,8,0:0:0:0:
109,192,96813,128,0,96978:0:0:0:0:
329,192,96978,1,0,0:0:0:0:
36,192,97060,128,0,97225:0:0:0:0:
402,192,97060,128,0,97225:0:0:0:0:
109,192,97143,1,0,0:0:0:0:
182,192,97143,1,10,0:0:0:0:
256,192,97225,1,0,0:0:0:0:
329,192,97308,1,0,0:0:0:0:
329,192,97390,1,0,0:0:0:0:
109,192,97473,1,0,0:0:0:0:
182,192,97473,1,8,0:0:0:0:
109,192,97555,1,0,0:0:0:0:
402,192,97637,1,0,0:0:0:0:
475,192,97802,1,0,0:0:0:0:
36,192,97802,1,0,0:0:0:0:
182,192,97802,1,10,0:0:0:0:
402,192,97885,1,0,0:0:0:0:
329,192,97885,1,2,0:0:0:0:
256,192,97967,1,2,0:0:0:0:
182,192,97967,1,0,0:0:0:0:
475,192,98050,1,0,0:0:0:0:
402,192,98050,1,2,0:0:0:0:
109,192,98132,1,0,0:0:0:0:
36,192,98132,128,0,98462:0:0:0:0:
329,192,98132,1,8,0:0:0:0:
182,192,98214,128,0,98462:0:0:0:0:
256,192,98297,128,0,98462:0:0:0:0:
475,192,98462,128,0,98791:0:0:0:0:
402,192,98462,1,0,0:0:0:0:
109,192,98462,1,10,0:0:0:0:
329,192,98544,128,0,98791:0:0:0:0:
256,192,98626,128,0,98791:0:0:0:0:
402,192,98791,128,8,99121:0:0:0:0:
36,192,98791,1,0,0:0:0:0:
109,192,98874,128,0,99121:0:0:0:0:
329,192,98956,128,0,99121:0:0:0:0:
182,192,99039,128,0,99121:0:0:0:0:
36,192,99121,1,0,0:0:0:0:
256,192,99121,1,10,0:0:0:0:
475,192,99203,128,0,99451:0:0:0:0:
109,192,99286,128,0,99451:0:0:0:0:
256,192,99368,128,0,99451:0:0:0:0:
36,192,99451,128,0,99615:0:0:0:0:
329,192,99451,1,8,0:0:0:0:
402,192,99451,1,0,0:0:0:0:
182,192,99533,1,0,0:0:0:0:
402,192,99615,128,0,99780:0:0:0:0:
256,192,99698,1,0,0:0:0:0:
109,192,99780,128,0,99945:0:0:0:0:
475,192,99780,1,0,0:0:0:0:
36,192,99780,1,10,0:0:0:0:
329,192,99863,128,0,100440:0:0:0:0:
475,192,99945,128,0,100440:0:0:0:0:
182,192,100028,128,0,100440:0:0:0:0:
36,192,100110,128,8,100440:0:0:0:0:
256,192,100192,128,0,100357:0:0:0:0:
402,192,100440,1,0,0:0:0:0:
109,192,100440,1,0,0:0:0:0:
256,192,100440,1,10,0:0:0:0:
329,192,100522,1,0,0:0:0:0:
36,192,100604,1,0,0:0:0:0:
182,192,100604,1,8,0:0:0:0:
475,192,100687,1,0,0:0:0:0:
402,192,100687,1,8,0:0:0:0:
109,192,100769,1,0,0:0:0:0:
329,192,100769,1,8,0:0:0:0:
256,192,100769,1,0,0:0:0:0:
36,192,100852,1,0,0:0:0:0:
182,192,100934,1,0,0:0:0:0:
402,192,100934,1,0,0:0:0:0:
109,192,101017,1,0,0:0:0:0:
256,192,101099,1,0,0:0:0:0:
329,192,101099,1,10,0:0:0:0:
475,192,101099,1,0,0:0:0:0:
182,192,101209,1,0,0:0:0:0:
109,192,101264,128,0,101346:0:0:0:0:
36,192,101264,1,0,0:0:0:0:
182,192,101374,1,0,0:0:0:0:
329,192,101429,128,0,101758:0:0:0:0:
475,192,101429,1,8,0:0:0:0:
256,192,101593,128,0,101758:0:0:0:0:
182,192,101635,128,0,101758:0:0:0:0:
109,192,101676,128,0,101758:0:0:0:0:
36,192,101717,128,0,101758:0:0:0:0:
402,192,101758,1,10,0:0:0:0:
475,192,101758,128,0,102088:0:0:0:0:
182,192,101923,128,0,102088:0:0:0:0:
36,192,102006,1,0,0:0:0:0:
109,192,102088,128,0,102170:0:0:0:0:
402,192,102088,1,8,0:0:0:0:
256,192,102170,128,0,102253:0:0:0:0:
329,192,102253,128,0,102335:0:0:0:0:
182,192,102335,128,0,102418:0:0:0:0:
36,192,102418,128,0,102500:0:0:0:0:
402,192,102418,1,10,0:0:0:0:
475,192,102418,1,0,0:0:0:0:
256,192,102500,128,0,102582:0:0:0:0:
402,192,102582,128,0,102665:0:0:0:0:
182,192,102582,1,0,0:0:0:0:
109,192,102665,128,0,102747:0:0:0:0:
475,192,102747,1,0,0:0:0:0:
256,192,102747,1,8,0:0:0:0:
36,192,102747,1,0,0:0:0:0:
329,192,102830,1,0,0:0:0:0:
182,192,102912,1,0,0:0:0:0:
36,192,103077,1,0,0:0:0:0:
402,192,103077,1,10,0:0:0:0:
475,192,103077,1,0,0:0:0:0:
109,192,103159,1,0,0:0:0:0:
182,192,103159,1,2,0:0:0:0:
329,192,103242,1,2,0:0:0:0:
402,192,103242,1,0,0:0:0:0:
109,192,103324,1,0,0:0:0:0:
36,192,103324,1,2,0:0:0:0:
475,192,103407,128,0,103489:0:0:0:0:
329,192,103407,128,8,103489:0:0:0:0:
256,192,103489,1,0,0:0:0:0:
182,192,103571,128,8,103654:0:0:0:0:
36,192,103571,128,0,103654:0:0:0:0:
402,192,103654,1,0,0:0:0:0:
109,192,103736,1,0,0:0:0:0:
329,192,103736,1,0,0:0:0:0:
256,192,103736,1,10,0:0:0:0:
182,192,103736,1,0,0:0:0:0:
182,192,103901,1,0,0:0:0:0:
402,192,103901,1,0,0:0:0:0:
475,192,104066,1,0,0:0:0:0:
36,192,104066,1,0,0:0:0:0:
256,192,104066,1,8,0:0:0:0:
329,192,104148,1,0,0:0:0:0:
182,192,104148,1,0,0:0:0:0:
109,192,104231,1,0,0:0:0:0:
402,192,104231,1,0,0:0:0:0:
402,192,104396,128,0,104725:0:0:0:0:
182,192,104396,1,10,0:0:0:0:
36,192,104396,1,0,0:0:0:0:
329,192,104478,128,0,104725:0:0:0:0:
256,192,104560,128,0,104725:0:0:0:0:
109,192,104560,1,0,0:0:0:0:
182,192,104643,128,0,104725:0:0:0:0:
36,192,104725,1,0,0:0:0:0:
475,192,104725,1,8,0:0:0:0:
329,192,104890,1,0,0:0:0:0:
182,192,104890,1,0,0:0:0:0:
36,192,105055,128,0,105385:0:0:0:0:
256,192,105055,1,10,0:0:0:0:
109,192,105055,1,0,0:0:0:0:
475,192,105096,128,0,105385:0:0:0:0:
402,192,105179,128,0,105385:0:0:0:0:
182,192,105220,1,0,0:0:0:0:
329,192,105261,128,0,105385:0:0:0:0:
256,192,105385,1,8,0:0:0:0:
182,192,105385,1,0,0:0:0:0:
109,192,105385,1,0,0:0:0:0:
475,192,105550,1,0,0:0:0:0:
36,192,105550,1,8,0:0:0:0:
109,192,105632,1,8,0:0:0:0:
402,192,105632,1,0,0:0:0:0:
182,192,105714,1,10,0:0:0:0:
329,192,105714,1,0,0:0:0:0:
256,192,105714,1,0,0:0:0:0:
475,192,105797,1,0,0:0:0:0:
329,192,105879,1,0,0:0:0:0:
109,192,105879,1,8,0:0:0:0:
402,192,105962,1,0,0:0:0:0:
475,192,106044,1,0,0:0:0:0:
256,192,106044,128,0,106209:0:0:0:0:
36,192,106044,1,8,0:0:0:0:
329,192,106209,128,0,106374:0:0:0:0:
109,192,106209,1,0,0:0:0:0:
36,192,106374,1,0,0:0:0:0:
402,192,106374,1,0,0:0:0:0:
475,192,106374,1,10,0:0:0:0:
182,192,106374,128,0,106539:0:0:0:0:
109,192,106539,128,0,106703:0:0:0:0:
256,192,106539,1,0,0:0:0:0:
402,192,106703,128,0,106868:0:0:0:0:
182,192,106703,1,8,0:0:0:0:
475,192,106703,1,0,0:0:0:0:
36,192,106868,128,0,107033:0:0:0:0:
329,192,106868,1,0,0:0:0:0:
475,192,107033,128,0,107198:0:0:0:0:
402,192,107033,1,0,0:0:0:0:
256,192,107033,1,10,0:0:0:0:
109,192,107033,1,0,0:0:0:0:
182,192,107198,128,0,107363:0:0:0:0:
329,192,107198,1,0,0:0:0:0:
402,192,107363,1,8,0:0:0:0:
36,192,107363,1,0,0:0:0:0:
109,192,107528,1,0,0:0:0:0:
109,192,107610,1,0,0:0:0:0:
329,192,107692,1,0,0:0:0:0:
475,192,107692,1,10,0:0:0:0:
36,192,107692,1,0,0:0:0:0:
329,192,107775,1,0,0:0:0:0:
182,192,107857,1,0,0:0:0:0:
182,192,107940,1,0,0:0:0:0:
402,192,108022,1,8,0:0:0:0:
36,192,108022,1,0,0:0:0:0:
402,192,108104,1,0,0:0:0:0:
109,192,108187,1,0,0:0:0:0:
109,192,108269,1,0,0:0:0:0:
402,192,108352,1,0,0:0:0:0:
329,192,108352,1,10,0:0:0:0:
475,192,108352,1,0,0:0:0:0:
182,192,108434,1,0,0:0:0:0:
256,192,108434,1,2,0:0:0:0:
109,192,108517,1,2,0:0:0:0:
36,192,108517,1,0,0:0:0:0:
402,192,108599,1,0,0:0:0:0:
329,192,108599,1,2,0:0:0:0:
256,192,108681,128,8,109011:0:0:0:0:
36,192,108681,1,0,0:0:0:0:
182,192,108764,128,0,109011:0:0:0:0:
109,192,108846,128,0,109011:0:0:0:0:
329,192,108929,128,0,109011:0:0:0:0:
475,192,109011,1,0,0:0:0:0:
36,192,109011,1,0,0:0:0:0:
402,192,109011,1,10,0:0:0:0:
182,192,109176,1,0,0:0:0:0:
109,192,109258,1,0,0:0:0:0:
329,192,109341,1,8,0:0:0:0:
36,192,109341,1,0,0:0:0:0:
475,192,109341,1,0,0:0:0:0:
329,192,109423,1,0,0:0:0:0:
182,192,109506,128,0,109670:0:0:0:0:
256,192,109506,1,0,0:0:0:0:
402,192,109670,1,0,0:0:0:0:
329,192,109670,128,0,109835:0:0:0:0:
36,192,109670,1,0,0:0:0:0:
109,192,109670,1,10,0:0:0:0:
475,192,109835,128,0,110000:0:0:0:0:
182,192,109835,1,0,0:0:0:0:
329,192,110000,1,8,0:0:0:0:
109,192,110000,1,0,0:0:0:0:
36,192,110165,128,0,110330:0:0:0:0:
256,192,110165,1,0,0:0:0:0:
329,192,110330,1,0,0:0:0:0:
402,192,110330,1,10,0:0:0:0:
475,192,110330,1,0,0:0:0:0:
109,192,110330,128,0,110824:0:0:0:0:
256,192,110495,128,0,110824:0:0:0:0:
329,192,110577,128,0,110824:0:0:0:0:
402,192,110659,128,0,110824:0:0:0:0:
182,192,110742,128,0,110824:0:0:0:0:
475,192,110824,128,0,111319:0:0:0:0:
402,192,110907,128,0,111319:0:0:0:0:
329,192,110989,128,0,111319:0:0:0:0:
182,192,111071,128,0,111319:0:0:0:0:
109,192,111154,128,0,111319:0:0:0:0:
36,192,111236,128,0,111319:0:0:0:0:
256,192,111319,128,8,111484:0:0:0:0:
109,192,111484,128,0,111648:0:0:0:0:
475,192,111648,128,0,111813:0:0:0:0:
402,192,111648,1,0,0:0:0:0:
36,192,111648,1,0,0:0:0:0:
256,192,111648,1,10,0:0:0:0:
182,192,111813,128,0,111978:0:0:0:0:
329,192,111813,1,0,0:0:0:0:
36,192,111978,1,0,0:0:0:0:
402,192,111978,1,8,0:0:0:0:
256,192,111978,128,0,112143:0:0:0:0:
329,192,112143,128,0,112308:0:0:0:0:
109,192,112143,1,0,0:0:0:0:
36,192,112308,1,0,0:0:0:0:
182,192,112308,1,10,0:0:0:0:
402,192,112308,128,0,112473:0:0:0:0:
475,192,112308,1,0,0:0:0:0:
256,192,112473,128,0,112637:0:0:0:0:
109,192,112473,1,0,0:0:0:0:
475,192,112637,1,0,0:0:0:0:
109,192,112692,1,0,0:0:0:0:
256,192,112747,1,0,0:0:0:0:
475,192,112802,1,0,0:0:0:0:
402,192,112843,1,0,0:0:0:0:
329,192,112885,1,0,0:0:0:0:
182,192,112940,1,0,0:0:0:0:
256,192,112995,1,0,0:0:0:0:
36,192,113077,1,0,0:0:0:0:
475,192,113187,1,0,0:0:0:0:
329,192,113242,1,0,0:0:0:0:
182,192,113297,1,0,0:0:0:0:
402,192,113379,1,0,0:0:0:0:
182,192,113462,1,0,0:0:0:0:
402,192,113544,1,0,0:0:0:0:
182,192,113626,1,0,0:0:0:0:
402,192,113709,1,0,0:0:0:0:
182,192,113791,1,0,0:0:0:0:
402,192,113874,1,0,0:0:0:0:
329,192,114286,1,0,0:0:0:0:
36,192,114286,1,0,0:0:0:0:
256,192,114286,1,12,0:0:0:0:
475,192,114286,1,0,0:0:0:0:
402,192,114286,128,0,114451:0:0:0:0:
182,192,114451,128,0,114615:0:0:0:0:
109,192,114451,1,0,0:0:0:0:
329,192,114615,128,0,114780:0:0:0:0:
36,192,114615,1,0,0:0:0:0:
402,192,114615,1,8,0:0:0:0:
109,192,114780,128,0,114945:0:0:0:0:
182,192,114780,1,0,0:0:0:0:
475,192,114945,128,0,115110:0:0:0:0:
402,192,114945,1,0,0:0:0:0:
36,192,114945,1,0,0:0:0:0:
256,192,114945,1,10,0:0:0:0:
329,192,115110,1,0,0:0:0:0:
182,192,115110,128,0,115275:0:0:0:0:
402,192,115275,128,0,115357:0:0:0:0:
109,192,115275,1,8,0:0:0:0:
329,192,115357,128,0,115440:0:0:0:0:
256,192,115440,128,0,115522:0:0:0:0:
36,192,115440,1,8,0:0:0:0:
182,192,115522,128,0,115604:0:0:0:0:
402,192,115604,128,0,115687:0:0:0:0:
109,192,115604,1,0,0:0:0:0:
36,192,115604,1,8,0:0:0:0:
329,192,115687,128,0,115769:0:0:0:0:
475,192,115769,128,0,115852:0:0:0:0:
256,192,115769,1,8,0:0:0:0:
109,192,115852,128,0,115934:0:0:0:0:
182,192,115934,128,0,116017:0:0:0:0:
329,192,115934,1,8,0:0:0:0:
36,192,116017,128,0,116099:0:0:0:0:
475,192,116099,128,0,116181:0:0:0:0:
182,192,116099,1,8,0:0:0:0:
402,192,116181,128,0,116264:0:0:0:0:
109,192,116181,1,8,0:0:0:0:
329,192,116264,128,0,116346:0:0:0:0:
36,192,116264,1,8,0:0:0:0:
182,192,116346,128,0,116429:0:0:0:0:
475,192,116346,1,8,0:0:0:0:
109,192,116429,128,0,116511:0:0:0:0:
402,192,116429,1,8,0:0:0:0:
36,192,116511,128,0,116593:0:0:0:0:
329,192,116511,1,8,0:0:0:0:
256,192,116593,1,12,0:0:0:0:
475,192,116593,128,0,117088:0:0:0:0:
182,192,116593,128,0,116758:0:0:0:0:
402,192,116593,1,0,0:0:0:0:
329,192,116758,128,0,116923:0:0:0:0:
256,192,116923,128,0,117088:0:0:0:0:
36,192,117088,128,0,117582:0:0:0:0:
182,192,117088,128,0,117253:0:0:0:0:
329,192,117253,128,0,117418:0:0:0:0:
475,192,117418,128,0,117582:0:0:0:0:
256,192,117582,128,0,119231:0:0:0:0:
109,192,117582,128,0,117747:0:0:0:0:
329,192,117747,128,0,117912:0:0:0:0:
402,192,117912,128,0,118077:0:0:0:0:
36,192,118077,128,0,118242:0:0:0:0:
182,192,118242,128,0,118407:0:0:0:0:
402,192,118407,128,0,118571:0:0:0:0:
109,192,118571,128,0,118736:0:0:0:0:
475,192,118736,128,0,118901:0:0:0:0:
329,192,118901,128,0,119066:0:0:0:0:
182,192,119066,128,0,119231:0:0:0:0:
402,192,119231,128,0,119725:0:0:0:0:
36,192,119231,128,0,119396:0:0:0:0:
329,192,119396,128,0,119560:0:0:0:0:
182,192,119560,128,0,119725:0:0:0:0:
109,192,119725,128,0,120220:0:0:0:0:
256,192,119725,128,0,119890:0:0:0:0:
475,192,119890,128,0,120055:0:0:0:0:
256,192,120055,128,0,120220:0:0:0:0:
329,192,120220,128,0,121868:0:0:0:0:
36,192,120220,128,0,120385:0:0:0:0:
182,192,120385,128,0,120550:0:0:0:0:
402,192,120550,128,0,120714:0:0:0:0:
109,192,120714,128,0,120879:0:0:0:0:
475,192,120879,128,0,121044:0:0:0:0:
256,192,121044,128,0,121209:0:0:0:0:
109,192,121209,128,0,121374:0:0:0:0:
182,192,121374,128,0,121539:0:0:0:0:
256,192,121539,128,0,121703:0:0:0:0:
475,192,121703,128,0,121868:0:0:0:0:
36,192,121868,1,0,0:0:0:0:
182,192,121868,1,8,0:0:0:0:
402,192,121868,128,0,122033:0:0:0:0:
109,192,122033,128,0,122198:0:0:0:0:
475,192,122198,1,0,0:0:0:0:
329,192,122198,128,0,122363:0:0:0:0:
182,192,122198,1,8,0:0:0:0:
36,192,122363,128,0,122528:0:0:0:0:
256,192,122528,128,0,122692:0:0:0:0:
402,192,122528,1,0,0:0:0:0:
182,192,122528,1,8,0:0:0:0:
475,192,122692,128,0,122857:0:0:0:0:
36,192,122857,1,0,0:0:0:0:
109,192,122857,128,0,123022:0:0:0:0:
182,192,122857,1,8,0:0:0:0:
329,192,123022,128,0,123187:0:0:0:0:
475,192,123187,1,8,0:0:0:0:
256,192,123187,128,0,123352:0:0:0:0:
36,192,123187,1,0,0:0:0:0:
182,192,123269,1,0,0:0:0:0:
109,192,123352,128,0,123517:0:0:0:0:
402,192,123352,1,8,0:0:0:0:
329,192,123434,1,8,0:0:0:0:
182,192,123517,128,0,123681:0:0:0:0:
256,192,123517,1,8,0:0:0:0:
36,192,123517,1,0,0:0:0:0:
329,192,123599,1,8,0:0:0:0:
475,192,123681,128,0,123846:0:0:0:0:
402,192,123681,1,8,0:0:0:0:
36,192,123764,1,8,0:0:0:0:
256,192,123846,128,0,124011:0:0:0:0:
109,192,123846,1,8,0:0:0:0:
329,192,123846,1,0,0:0:0:0:
182,192,123929,1,8,0:0:0:0:
402,192,124011,128,0,124176:0:0:0:0:
475,192,124011,1,8,0:0:0:0:
109,192,124093,1,8,0:0:0:0:
182,192,124176,128,0,124341:0:0:0:0:
329,192,124176,1,8,0:0:0:0:
36,192,124176,1,0,0:0:0:0:
475,192,124258,1,8,0:0:0:0:
109,192,124341,128,0,124506:0:0:0:0:
402,192,124341,1,8,0:0:0:0:
329,192,124423,1,8,0:0:0:0:
36,192,124506,1,0,0:0:0:0:
256,192,124506,1,8,0:0:0:0:
475,192,124588,1,8,0:0:0:0:
182,192,124588,1,0,0:0:0:0:
109,192,124670,1,0,0:0:0:0:
402,192,124670,1,8,0:0:0:0:
36,192,124753,1,0,0:0:0:0:
329,192,124753,1,8,0:0:0:0:
475,192,124835,1,0,0:0:0:0:
256,192,124835,1,8,0:0:0:0:
182,192,124918,1,8,0:0:0:0:
402,192,124918,1,0,0:0:0:0:
109,192,125000,1,8,0:0:0:0:
329,192,125000,1,0,0:0:0:0:
256,192,125082,1,0,0:0:0:0:
36,192,125082,1,8,0:0:0:0:
329,192,125165,1,8,0:0:0:0:
109,192,125165,1,0,0:0:0:0:
402,192,125247,1,8,0:0:0:0:
182,192,125247,1,0,0:0:0:0:
256,192,125330,1,0,0:0:0:0:
475,192,125330,1,8,0:0:0:0:
329,192,125412,1,8,0:0:0:0:
36,192,125412,1,0,0:0:0:0:
402,192,125495,1,8,0:0:0:0:
109,192,125495,1,0,0:0:0:0:
182,192,125577,1,8,0:0:0:0:
475,192,125577,1,8,0:0:0:0:
256,192,125659,1,8,0:0:0:0:
36,192,125659,1,0,0:0:0:0:
329,192,125742,1,8,0:0:0:0:
109,192,125742,1,0,0:0:0:0:
182,192,125824,1,8,0:0:0:0:
402,192,125824,1,0,0:0:0:0:
256,192,125907,1,8,0:0:0:0:
109,192,125989,1,0,0:0:0:0:
329,192,125989,1,8,0:0:0:0:
329,192,126154,1,8,0:0:0:0:
36,192,126154,1,0,0:0:0:0:
256,192,126236,1,8,0:0:0:0:
182,192,126319,1,8,0:0:0:0:
402,192,126319,1,0,0:0:0:0:
36,192,126484,1,8,0:0:0:0:
475,192,126484,1,0,0:0:0:0:
256,192,126566,1,8,0:0:0:0:
109,192,126648,1,8,0:0:0:0:
402,192,126648,1,0,0:0:0:0:
182,192,126731,1,8,0:0:0:0:
329,192,126731,1,0,0:0:0:0:
256,192,126813,128,0,127143:0:0:0:0:
36,192,127143,1,0,0:0:0:0:
475,192,127143,1,0,0:0:0:0:
109,192,127143,128,0,127308:0:0:0:0:
402,192,127143,1,12,0:0:0:0:
182,192,127143,1,0,0:0:0:0:
329,192,127308,128,0,127473:0:0:0:0:
256,192,127308,1,0,0:0:0:0:
402,192,127473,128,0,127637:0:0:0:0:
182,192,127473,1,10,0:0:0:0:
475,192,127473,1,0,0:0:0:0:
109,192,127473,1,0,0:0:0:0:
36,192,127637,128,0,127967:0:0:0:0:
329,192,127637,1,0,0:0:0:0:
402,192,127802,1,8,0:0:0:0:
109,192,127802,1,0,0:0:0:0:
256,192,127967,128,0,128132:0:0:0:0:
182,192,127967,1,0,0:0:0:0:
109,192,128132,128,0,128297:0:0:0:0:
36,192,128132,1,0,0:0:0:0:
475,192,128132,1,0,0:0:0:0:
329,192,128132,1,10,0:0:0:0:
402,192,128297,128,0,128626:0:0:0:0:
182,192,128297,1,0,0:0:0:0:
256,192,128462,1,8,0:0:0:0:
36,192,128462,1,0,0:0:0:0:
329,192,128626,128,0,128791:0:0:0:0:
109,192,128626,1,0,0:0:0:0:
182,192,128791,128,0,128956:0:0:0:0:
475,192,128791,1,0,0:0:0:0:
402,192,128791,1,10,0:0:0:0:
36,192,128791,1,0,0:0:0:0:
109,192,128956,128,0,129286:0:0:0:0:
329,192,128956,1,0,0:0:0:0:
256,192,129121,1,8,0:0:0:0:
402,192,129121,1,0,0:0:0:0:
475,192,129286,128,0,129451:0:0:0:0:
329,192,129286,1,0,0:0:0:0:
182,192,129451,128,0,129615:0:0:0:0:
36,192,129451,1,0,0:0:0:0:
256,192,129451,1,10,0:0:0:0:
109,192,129451,1,0,0:0:0:0:
402,192,129615,128,0,129780:0:0:0:0:
475,192,129615,1,0,0:0:0:0:
256,192,129780,128,0,130110:0:0:0:0:
109,192,129780,1,0,0:0:0:0:
329,192,129780,1,8,0:0:0:0:
182,192,129945,1,0,0:0:0:0:
475,192,130110,1,0,0:0:0:0:
402,192,130110,1,10,0:0:0:0:
36,192,130110,1,0,0:0:0:0:
109,192,130275,128,0,130357:0:0:0:0:
329,192,130275,1,0,0:0:0:0:
109,192,130440,128,0,130769:0:0:0:0:
182,192,130440,1,8,0:0:0:0:
402,192,130440,1,0,0:0:0:0:
256,192,130604,1,0,0:0:0:0:
329,192,130769,1,10,0:0:0:0:
475,192,130769,1,0,0:0:0:0:
36,192,130769,1,0,0:0:0:0:
182,192,130934,1,0,0:0:0:0:
402,192,131099,1,8,0:0:0:0:
109,192,131099,1,0,0:0:0:0:
256,192,131264,1,0,0:0:0:0:
182,192,131429,1,10,0:0:0:0:
36,192,131429,1,0,0:0:0:0:
475,192,131429,1,0,0:0:0:0:
329,192,131429,128,0,131758:0:0:0:0:
109,192,131593,1,0,0:0:0:0:
182,192,131758,128,0,132006:0:0:0:0:
402,192,131758,1,0,0:0:0:0:
256,192,131758,1,8,0:0:0:0:
36,192,131923,1,0,0:0:0:0:
329,192,132006,1,0,0:0:0:0:
109,192,132088,1,0,0:0:0:0:
402,192,132088,128,0,132418:0:0:0:0:
475,192,132088,1,0,0:0:0:0:
256,192,132088,1,10,0:0:0:0:
182,192,132253,1,8,0:0:0:0:
109,192,132335,1,8,0:0:0:0:
36,192,132418,1,0,0:0:0:0:
256,192,132418,128,0,132582:0:0:0:0:
329,192,132418,1,8,0:0:0:0:
182,192,132582,1,0,0:0:0:0:
256,192,132747,128,0,133077:0:0:0:0:
475,192,132747,1,0,0:0:0:0:
329,192,132747,1,0,0:0:0:0:
109,192,132747,1,10,0:0:0:0:
402,192,132912,1,0,0:0:0:0:
36,192,133077,1,0,0:0:0:0:
182,192,133077,1,8,0:0:0:0:
329,192,133242,128,0,133407:0:0:0:0:
402,192,133242,1,0,0:0:0:0:
109,192,133407,128,0,133571:0:0:0:0:
36,192,133407,1,0,0:0:0:0:
475,192,133407,1,0,0:0:0:0:
182,192,133407,1,10,0:0:0:0:
256,192,133571,128,0,133901:0:0:0:0:
402,192,133571,1,0,0:0:0:0:
329,192,133736,1,8,0:0:0:0:
109,192,133736,1,0,0:0:0:0:
182,192,133901,128,0,134066:0:0:0:0:
475,192,133901,1,0,0:0:0:0:
36,192,134066,1,0,0:0:0:0:
109,192,134066,1,0,0:0:0:0:
402,192,134066,128,0,134231:0:0:0:0:
329,192,134066,1,10,0:0:0:0:
256,192,134231,128,0,134560:0:0:0:0:
182,192,134231,1,0,0:0:0:0:
475,192,134396,1,0,0:0:0:0:
109,192,134396,1,8,0:0:0:0:
402,192,134560,128,0,134725:0:0:0:0:
36,192,134560,1,0,0:0:0:0:
109,192,134725,128,0,134890:0:0:0:0:
256,192,134725,1,0,0:0:0:0:
475,192,134725,1,0,0:0:0:0:
182,192,134725,1,10,0:0:0:0:
329,192,134890,128,0,135055:0:0:0:0:
36,192,134890,1,0,0:0:0:0:
475,192,135055,128,0,135220:0:0:0:0:
182,192,135055,1,8,0:0:0:0:
402,192,135055,1,0,0:0:0:0:
256,192,135220,128,0,135385:0:0:0:0:
109,192,135220,1,0,0:0:0:0:
402,192,135385,128,0,135550:0:0:0:0:
36,192,135385,1,0,0:0:0:0:
329,192,135385,1,10,0:0:0:0:
475,192,135385,1,0,0:0:0:0:
182,192,135550,128,0,135714:0:0:0:0:
256,192,135550,1,0,0:0:0:0:
36,192,135714,128,0,135879:0:0:0:0:
402,192,135714,1,8,0:0:0:0:
475,192,135714,1,0,0:0:0:0:
256,192,135879,128,0,136044:0:0:0:0:
109,192,135879,1,0,0:0:0:0:
402,192,136044,128,0,136209:0:0:0:0:
182,192,136044,1,10,0:0:0:0:
475,192,136044,1,0,0:0:0:0:
36,192,136044,1,0,0:0:0:0:
329,192,136209,128,0,136374:0:0:0:0:
109,192,136209,1,0,0:0:0:0:
182,192,136374,128,0,136539:0:0:0:0:
475,192,136374,1,10,0:0:0:0:
36,192,136374,1,0,0:0:0:0:
256,192,136539,128,0,136703:0:0:0:0:
402,192,136539,1,8,0:0:0:0:
109,192,136539,1,0,0:0:0:0:
329,192,136703,128,0,136868:0:0:0:0:
475,192,136703,1,10,0:0:0:0:
182,192,136703,1,0,0:0:0:0:
36,192,136868,1,0,0:0:0:0:
402,192,136868,128,0,137033:0:0:0:0:
256,192,136868,1,8,0:0:0:0:
109,192,137033,128,0,137198:0:0:0:0:
329,192,137033,1,10,0:0:0:0:
475,192,137033,1,0,0:0:0:0:
182,192,137198,128,0,137363:0:0:0:0:
402,192,137198,1,8,0:0:0:0:
36,192,137198,1,0,0:0:0:0:
256,192,137363,128,0,137528:0:0:0:0:
109,192,137363,1,0,0:0:0:0:
475,192,137363,1,10,0:0:0:0:
329,192,137528,128,0,137692:0:0:0:0:
402,192,137528,1,0,0:0:0:0:
182,192,137528,1,8,0:0:0:0:
109,192,137610,1,8,0:0:0:0:
475,192,137692,1,0,0:0:0:0:
256,192,137692,1,12,0:0:0:0:
36,192,137692,128,0,137857:0:0:0:0:
182,192,137857,128,0,138022:0:0:0:0:
329,192,137857,1,0,0:0:0:0:
475,192,138022,128,0,138187:0:0:0:0:
109,192,138022,1,10,0:0:0:0:
402,192,138022,1,0,0:0:0:0:
36,192,138022,1,0,0:0:0:0:
329,192,138187,128,0,138517:0:0:0:0:
182,192,138187,1,0,0:0:0:0:
36,192,138352,1,0,0:0:0:0:
256,192,138352,1,8,0:0:0:0:
109,192,138517,128,0,138681:0:0:0:0:
475,192,138517,1,0,0:0:0:0:
256,192,138681,128,0,138846:0:0:0:0:
402,192,138681,1,0,0:0:0:0:
36,192,138681,1,0,0:0:0:0:
329,192,138681,1,10,0:0:0:0:
182,192,138846,128,0,139176:0:0:0:0:
109,192,138846,1,0,0:0:0:0:
475,192,139011,1,0,0:0:0:0:
329,192,139011,1,8,0:0:0:0:
402,192,139176,128,0,139341:0:0:0:0:
36,192,139176,1,0,0:0:0:0:
256,192,139341,128,0,139506:0:0:0:0:
182,192,139341,1,10,0:0:0:0:
475,192,139341,1,0,0:0:0:0:
329,192,139341,1,0,0:0:0:0:
109,192,139506,128,0,139835:0:0:0:0:
36,192,139506,1,0,0:0:0:0:
402,192,139670,1,8,0:0:0:0:
182,192,139670,1,0,0:0:0:0:
475,192,139835,1,0,0:0:0:0:
329,192,139835,128,0,140000:0:0:0:0:
402,192,140000,128,0,140165:0:0:0:0:
36,192,140000,1,0,0:0:0:0:
256,192,140000,1,10,0:0:0:0:
182,192,140082,1,2,0:0:0:0:
475,192,140165,128,0,140330:0:0:0:0:
109,192,140165,1,2,0:0:0:0:
329,192,140165,1,0,0:0:0:0:
256,192,140247,1,2,0:0:0:0:
182,192,140330,1,8,0:0:0:0:
36,192,140330,128,0,140659:0:0:0:0:
109,192,140330,1,0,0:0:0:0:
329,192,140495,1,0,0:0:0:0:
109,192,140659,1,0,0:0:0:0:
475,192,140659,1,0,0:0:0:0:
256,192,140659,1,10,0:0:0:0:
402,192,140824,128,0,140907:0:0:0:0:
182,192,140824,1,0,0:0:0:0:
402,192,140989,128,0,141319:0:0:0:0:
36,192,140989,1,0,0:0:0:0:
256,192,140989,1,8,0:0:0:0:
109,192,141154,1,0,0:0:0:0:
182,192,141319,1,10,0:0:0:0:
475,192,141319,1,0,0:0:0:0:
329,192,141319,1,0,0:0:0:0:
402,192,141484,1,0,0:0:0:0:
109,192,141484,1,0,0:0:0:0:
36,192,141648,1,0,0:0:0:0:
256,192,141648,1,8,0:0:0:0:
182,192,141813,1,0,0:0:0:0:
109,192,141978,1,0,0:0:0:0:
402,192,141978,1,0,0:0:0:0:
256,192,141978,1,10,0:0:0:0:
329,192,141978,128,0,142308:0:0:0:0:
36,192,142143,1,0,0:0:0:0:
182,192,142308,128,0,142637:0:0:0:0:
475,192,142308,1,0,0:0:0:0:
402,192,142308,1,8,0:0:0:0:
329,192,142473,1,0,0:0:0:0:
402,192,142555,1,0,0:0:0:0:
36,192,142637,128,0,142967:0:0:0:0:
109,192,142637,1,0,0:0:0:0:
256,192,142637,1,10,0:0:0:0:
475,192,142637,1,0,0:0:0:0:
182,192,142802,1,8,0:0:0:0:
402,192,142885,1,8,0:0:0:0:
329,192,142967,128,0,143132:0:0:0:0:
109,192,142967,1,0,0:0:0:0:
256,192,142967,1,8,0:0:0:0:
475,192,143132,1,0,0:0:0:0:
329,192,143297,128,0,143626:0:0:0:0:
36,192,143297,1,0,0:0:0:0:
182,192,143297,1,10,0:0:0:0:
109,192,143297,1,0,0:0:0:0:
402,192,143462,1,0,0:0:0:0:
109,192,143626,1,0,0:0:0:0:
256,192,143626,1,8,0:0:0:0:
182,192,143791,128,0,143956:0:0:0:0:
402,192,143791,1,0,0:0:0:0:
329,192,143956,128,0,144121:0:0:0:0:
475,192,143956,1,0,0:0:0:0:
36,192,143956,1,0,0:0:0:0:
256,192,143956,1,10,0:0:0:0:
109,192,144121,128,0,144451:0:0:0:0:
182,192,144121,1,0,0:0:0:0:
402,192,144286,1,0,0:0:0:0:
329,192,144286,1,8,0:0:0:0:
182,192,144451,128,0,144615:0:0:0:0:
36,192,144451,1,0,0:0:0:0:
256,192,144615,128,0,144780:0:0:0:0:
402,192,144615,1,10,0:0:0:0:
109,192,144615,1,0,0:0:0:0:
475,192,144615,1,0,0:0:0:0:
329,192,144780,128,0,144945:0:0:0:0:
182,192,144780,1,0,0:0:0:0:
402,192,144945,1,8,0:0:0:0:
36,192,144945,1,0,0:0:0:0:
109,192,145000,1,0,0:0:0:0:
182,192,145055,1,0,0:0:0:0:
256,192,145110,128,0,145275:0:0:0:0:
475,192,145110,1,0,0:0:0:0:
36,192,145275,128,0,145440:0:0:0:0:
402,192,145275,1,0,0:0:0:0:
109,192,145275,1,0,0:0:0:0:
329,192,145275,1,10,0:0:0:0:
182,192,145440,128,0,145604:0:0:0:0:
256,192,145440,1,0,0:0:0:0:
329,192,145604,128,0,145769:0:0:0:0:
475,192,145604,1,0,0:0:0:0:
402,192,145604,1,8,0:0:0:0:
109,192,145769,128,0,145934:0:0:0:0:
182,192,145769,1,10,0:0:0:0:
36,192,145769,1,0,0:0:0:0:
256,192,145934,128,0,146099:0:0:0:0:
402,192,145934,1,0,0:0:0:0:
329,192,145934,1,8,0:0:0:0:
182,192,146099,128,0,146264:0:0:0:0:
36,192,146099,1,0,0:0:0:0:
475,192,146099,1,10,0:0:0:0:
329,192,146264,128,0,146429:0:0:0:0:
109,192,146264,1,0,0:0:0:0:
256,192,146264,1,8,0:0:0:0:
475,192,146429,128,0,146593:0:0:0:0:
182,192,146429,1,10,0:0:0:0:
36,192,146429,1,0,0:0:0:0:
402,192,146593,128,0,146758:0:0:0:0:
256,192,146593,1,8,0:0:0:0:
36,192,146593,1,0,0:0:0:0:
109,192,146758,128,0,146923:0:0:0:0:
329,192,146758,1,10,0:0:0:0:
475,192,146758,1,0,0:0:0:0:
182,192,146923,128,0,147088:0:0:0:0:
402,192,146923,1,8,0:0:0:0:
36,192,146923,1,0,0:0:0:0:
329,192,147006,1,8,0:0:0:0:
256,192,147088,128,0,147253:0:0:0:0:
475,192,147088,1,8,0:0:0:0:
109,192,147088,1,0,0:0:0:0:
402,192,147170,1,8,0:0:0:0:
329,192,147253,128,0,147418:0:0:0:0:
182,192,147253,1,8,0:0:0:0:
109,192,147335,1,8,0:0:0:0:
402,192,147418,128,0,147582:0:0:0:0:
36,192,147418,1,8,0:0:0:0:
182,192,147500,1,8,0:0:0:0:
36,192,147582,128,0,147747:0:0:0:0:
475,192,147582,1,8,0:0:0:0:
256,192,147582,1,0,0:0:0:0:
329,192,147665,1,8,0:0:0:0:
182,192,147747,128,0,147912:0:0:0:0:
109,192,147747,1,0,0:0:0:0:
402,192,147747,1,8,0:0:0:0:
475,192,147830,1,8,0:0:0:0:
329,192,147912,128,0,148077:0:0:0:0:
36,192,147912,1,0,0:0:0:0:
109,192,147912,1,0,0:0:0:0:
256,192,147912,1,12,0:0:0:0:
475,192,148077,128,0,148242:0:0:0:0:
182,192,148077,1,0,0:0:0:0:
109,192,148159,1,0,0:0:0:0:
256,192,148242,128,0,148407:0:0:0:0:
36,192,148242,1,0,0:0:0:0:
329,192,148242,1,4,0:0:0:0:
109,192,148407,1,0,0:0:0:0:
182,192,148571,1,0,0:0:0:0:
329,192,148736,1,0,0:0:0:0:
109,192,148901,1,0,0:0:0:0:
182,192,149066,1,0,0:0:0:0:
402,192,149231,1,0,0:0:0:0:
36,192,149396,1,0,0:0:0:0:
182,192,149560,1,0,0:0:0:0:
329,192,149725,1,0,0:0:0:0:
36,192,149890,1,0,0:0:0:0:
109,192,150055,1,0,0:0:0:0:
256,192,150220,1,0,0:0:0:0:
109,192,150385,1,0,0:0:0:0:
329,192,150550,1,0,0:0:0:0:
402,192,150714,1,0,0:0:0:0:
475,192,150879,1,0,0:0:0:0:
109,192,151044,1,0,0:0:0:0:
256,192,151209,1,0,0:0:0:0:
329,192,151374,1,0,0:0:0:0:
109,192,151539,1,0,0:0:0:0:
182,192,151703,1,0,0:0:0:0:
475,192,151868,1,0,0:0:0:0:
36,192,152033,1,0,0:0:0:0:
182,192,152198,1,0,0:0:0:0:
402,192,152363,1,0,0:0:0:0:
109,192,152528,1,0,0:0:0:0:
475,192,152692,1,0,0:0:0:0:
256,192,152857,1,0,0:0:0:0:
36,192,153022,1,0,0:0:0:0:
36,192,153187,1,0,0:0:0:0:
475,192,153352,1,0,0:0:0:0:
329,192,153517,1,0,0:0:0:0:
36,192,153681,1,0,0:0:0:0:
109,192,153846,1,0,0:0:0:0:
402,192,154011,1,0,0:0:0:0:
109,192,154176,1,0,0:0:0:0:
182,192,154341,1,0,0:0:0:0:
475,192,154506,1,0,0:0:0:0:
182,192,154670,1,0,0:0:0:0:
36,192,154835,1,0,0:0:0:0:
402,192,155000,1,0,0:0:0:0:
182,192,155165,1,0,0:0:0:0:
109,192,155330,1,0,0:0:0:0:
329,192,155495,1,0,0:0:0:0:
36,192,155659,1,0,0:0:0:0:
256,192,155824,1,0,0:0:0:0:
329,192,155989,1,0,0:0:0:0:
402,192,156154,1,0,0:0:0:0:
182,192,156319,1,0,0:0:0:0:
36,192,156484,1,0,0:0:0:0:
329,192,156648,1,0,0:0:0:0:
36,192,156813,1,0,0:0:0:0:
182,192,156978,1,0,0:0:0:0:
475,192,157143,1,0,0:0:0:0:
109,192,157308,1,0,0:0:0:0:
182,192,157473,1,0,0:0:0:0:
402,192,157637,1,0,0:0:0:0:
36,192,157802,1,0,0:0:0:0:
475,192,157967,1,0,0:0:0:0:
109,192,158132,1,0,0:0:0:0:
36,192,158297,1,0,0:0:0:0:
109,192,158462,1,0,0:0:0:0:
475,192,158626,1,0,0:0:0:0:
329,192,158791,1,0,0:0:0:70:light+clap+snare.wav
36,192,158791,1,0,0:0:0:0:
182,192,158956,1,0,0:0:0:0:
109,192,159121,1,0,0:0:0:70:light+clap+snare.wav
475,192,159121,1,0,0:0:0:0:
402,192,159286,1,0,0:0:0:0:
36,192,159451,1,0,0:0:0:30:
329,192,159451,1,0,0:0:0:70:light+clap+snare.wav
182,192,159615,1,0,0:0:0:0:
475,192,159780,1,0,0:0:0:30:
109,192,159780,1,0,0:0:0:70:light+clap+snare.wav
36,192,159945,1,0,0:0:0:0:
182,192,160110,1,0,0:0:0:70:light+clap+snare.wav
329,192,160110,1,0,0:0:0:0:
402,192,160275,1,0,0:0:0:0:
256,192,160440,1,0,0:0:0:70:light+clap+snare.wav
36,192,160440,1,0,0:0:0:0:
109,192,160604,1,0,0:0:0:0:
329,192,160769,1,0,0:0:0:70:light+clap+snare.wav
475,192,160769,1,0,0:0:0:0:
182,192,160934,1,0,0:0:0:0:
36,192,161099,1,0,0:0:0:70:light+clap+snare.wav
329,192,161099,1,0,0:0:0:0:
402,192,161264,1,0,0:0:0:0:
256,192,161429,1,0,0:0:0:70:light+clap+snare.wav
475,192,161429,1,0,0:0:0:0:
36,192,161593,1,0,0:0:0:0:
182,192,161758,1,0,0:0:0:70:light+clap+snare.wav
402,192,161758,1,0,0:0:0:0:
329,192,161923,1,0,0:0:0:0:
36,192,162088,1,0,0:0:0:70:light+clap+snare.wav
256,192,162088,1,0,0:0:0:0:
182,192,162253,1,0,0:0:0:0:
475,192,162418,1,0,0:0:0:70:light+clap+snare.wav
109,192,162418,1,0,0:0:0:0:
36,192,162582,1,0,0:0:0:0:
329,192,162747,1,0,0:0:0:70:light+clap+snare.wav
109,192,162747,1,0,0:0:0:0:
402,192,162912,1,0,0:0:0:0:
182,192,163077,1,0,0:0:0:70:light+clap+snare.wav
36,192,163077,1,0,0:0:0:0:
475,192,163242,1,0,0:0:0:0:
329,192,163407,1,0,0:0:0:70:light+clap+snare.wav
109,192,163407,1,0,0:0:0:0:
182,192,163571,1,0,0:0:0:0:
402,192,163736,1,0,0:0:0:70:light+clap+snare.wav
36,192,163736,1,0,0:0:0:0:
329,192,163901,1,0,0:0:0:0:
256,192,164066,1,0,0:0:0:70:light+clap+snare.wav
475,192,164066,1,0,0:0:0:0:
182,192,164231,1,0,0:0:0:0:
109,192,164396,1,0,0:0:0:70:light+clap+snare.wav
402,192,164396,1,0,0:0:0:0:
36,192,164560,1,0,0:0:0:0:
182,192,164725,1,0,0:0:0:70:light+clap+snare.wav
475,192,164725,1,0,0:0:0:0:
329,192,164890,1,0,0:0:0:0:
36,192,165055,1,0,0:0:0:70:light+clap+snare.wav
256,192,165055,1,0,0:0:0:0:
109,192,165220,1,0,0:0:0:0:
402,192,165385,1,0,0:0:0:70:light+clap+snare.wav
182,192,165385,1,0,0:0:0:0:
36,192,165550,1,0,0:0:0:0:
256,192,165714,1,0,0:0:0:70:light+clap+snare.wav
475,192,165714,1,0,0:0:0:0:
109,192,165879,1,0,0:0:0:0:
402,192,166044,1,0,0:0:0:70:light+clap+snare.wav
182,192,166044,1,0,0:0:0:0:
329,192,166209,1,0,0:0:0:0:
36,192,166374,1,0,0:0:0:70:light+clap+snare.wav
475,192,166374,1,0,0:0:0:0:
182,192,166539,1,0,0:0:0:0:
109,192,166703,1,0,0:0:0:70:light+clap+snare.wav
402,192,166703,1,0,0:0:0:0:
329,192,166868,1,0,0:0:0:0:
256,192,167033,1,0,0:0:0:70:light+clap+snare.wav
36,192,167033,1,0,0:0:0:0:
182,192,167198,1,0,0:0:0:0:
109,192,167363,1,0,0:0:0:70:light+clap+snare.wav
402,192,167363,1,0,0:0:0:0:
182,192,167528,1,0,0:0:0:0:
256,192,167692,1,0,0:0:0:70:light+clap+snare.wav
36,192,167692,1,0,0:0:0:0:
402,192,167857,1,0,0:0:0:0:
475,192,168022,1,0,0:0:0:70:light+clap+snare.wav
109,192,168022,1,0,0:0:0:0:
182,192,168187,1,0,0:0:0:0:
256,192,168352,1,0,0:0:0:70:light+clap+snare.wav
36,192,168352,1,0,0:0:0:0:
329,192,168517,1,0,0:0:0:0:
402,192,168681,1,0,0:0:0:70:light+clap+snare.wav
109,192,168681,1,0,0:0:0:0:
256,192,168846,1,0,0:0:0:0:
402,192,169011,1,0,0:0:0:70:light+clap+snare.wav
36,192,169011,1,0,0:0:0:0:
182,192,169176,1,0,0:0:0:0:
109,192,169341,1,0,0:0:0:0:
475,192,169341,1,0,0:0:0:0:
329,192,169506,1,0,0:0:0:0:
182,192,169670,1,0,0:0:0:0:
402,192,169835,1,0,0:0:0:0:
109,192,170165,1,0,0:0:0:0:
182,192,170330,1,0,0:0:0:0:
256,192,170495,1,0,0:0:0:0:
36,192,170824,1,0,0:0:0:0:
402,192,170989,1,0,0:0:0:0:
182,192,171154,1,0,0:0:0:0:
402,192,171484,1,0,0:0:0:0:
109,192,171648,1,0,0:0:0:0:
402,192,171813,1,0,0:0:0:0:
182,192,171978,1,0,0:0:0:0:
256,192,172473,1,0,0:0:0:0:
256,192,172637,1,0,0:0:0:0:
36,192,173626,1,0,0:0:0:0:
329,192,173956,1,0,0:0:0:0:
475,192,174203,1,0,0:0:0:0:
329,192,174245,1,0,0:0:0:0:
182,192,174286,1,0,0:0:0:0:
36,192,174615,1,0,0:0:0:0:
36,192,174945,1,0,0:0:0:0:
109,192,175440,1,0,0:0:0:0:
402,192,175604,1,0,0:0:0:0:
256,192,175769,1,0,0:0:0:0:
36,192,176099,1,0,0:0:0:0:
109,192,176264,1,0,0:0:0:0:
182,192,176429,1,0,0:0:0:0:
402,192,176758,1,0,0:0:0:0:
109,192,176923,1,0,0:0:0:0:
329,192,177088,1,0,0:0:0:0:
475,192,177253,1,0,0:0:0:0:
256,192,177418,1,0,0:0:0:0:
402,192,177582,1,0,0:0:0:0:
182,192,177747,1,0,0:0:0:0:
36,192,177912,1,0,0:0:0:0:
256,192,178077,1,0,0:0:0:0:
475,192,178242,1,0,0:0:0:0:
329,192,178407,1,0,0:0:0:0:
182,192,178571,1,0,0:0:0:0:
109,192,178736,1,0,0:0:0:0:
329,192,178901,1,0,0:0:0:0:
402,192,179066,1,0,0:0:0:0:
256,192,179231,1,0,0:0:0:0:
36,192,179396,1,0,0:0:0:0:
109,192,179560,1,0,0:0:0:0:
182,192,179725,1,0,0:0:0:0:
256,192,179890,1,0,0:0:0:0:
329,192,180055,1,0,0:0:0:0:
402,192,180220,1,0,0:0:0:0:
182,192,180385,1,0,0:0:0:0:
36,192,180714,1,0,0:0:0:0:
256,192,180879,1,0,0:0:0:0:
402,192,181044,1,0,0:0:0:0:
109,192,181374,1,0,0:0:0:0:
475,192,181539,1,0,0:0:0:0:
329,192,181703,1,0,0:0:0:0:
402,192,182033,1,0,0:0:0:0:
182,192,182198,1,0,0:0:0:0:
475,192,182363,1,0,0:0:0:0:
256,192,182528,1,0,0:0:0:0:
402,192,183022,1,0,0:0:0:0:
402,192,183187,1,0,0:0:0:0:
109,192,184176,1,0,0:0:0:0:
329,192,184506,1,0,0:0:0:0:
329,192,184753,1,0,0:0:0:0:
182,192,184794,1,0,0:0:0:0:
36,192,184835,1,0,0:0:0:0:
182,192,185165,1,0,0:0:0:0:
182,192,185495,1,0,0:0:0:0:
36,192,185989,1,0,0:0:0:0:
182,192,186154,1,0,0:0:0:0:
329,192,186319,1,0,0:0:0:0:
109,192,186648,1,0,0:0:0:0:
256,192,186813,1,0,0:0:0:0:
402,192,186978,1,0,0:0:0:0:
256,192,187143,1,0,0:0:0:0:
475,192,187198,1,0,0:0:0:0:
402,192,187253,1,0,0:0:0:0:
329,192,187308,1,0,0:0:0:0:
182,192,187473,1,0,0:0:0:0:
329,192,187637,1,0,0:0:0:0:
402,192,187802,1,0,0:0:0:0:
256,192,187967,1,0,0:0:0:0:
109,192,188132,1,0,0:0:0:0:
329,192,188297,1,0,0:0:0:0:
36,192,188462,1,0,0:0:0:0:
182,192,188626,1,0,0:0:0:0:
475,192,188791,1,0,0:0:0:0:
329,192,188956,1,0,0:0:0:0:
182,192,189121,1,0,0:0:0:0:
109,192,189286,1,0,0:0:0:0:
182,192,189451,1,0,0:0:0:0:
256,192,189615,1,0,0:0:0:0:
36,192,189780,1,0,0:0:0:0:
109,192,189945,1,0,0:0:0:0:
182,192,190110,1,0,0:0:0:0:
329,192,190275,1,0,0:0:0:0:
182,192,190440,128,0,190769:0:0:0:0:
109,192,190440,128,0,190769:0:0:0:0:
36,192,190440,1,0,0:0:0:0:
475,192,190440,1,8,0:0:0:0:
402,192,190604,1,0,0:0:0:0:
329,192,190687,1,0,0:0:0:0:
256,192,190769,1,10,0:0:0:0:
475,192,190769,1,0,0:0:0:0:
36,192,190769,1,0,0:0:0:0:
402,192,190934,1,0,0:0:0:0:
109,192,190934,128,0,191017:0:0:0:0:
182,192,190934,128,0,191017:0:0:0:0:
329,192,191017,1,0,0:0:0:0:
256,192,191099,1,8,0:0:0:0:
36,192,191099,1,0,0:0:0:0:
402,192,191264,1,0,0:0:0:0:
256,192,191346,1,0,0:0:0:0:
475,192,191429,1,0,0:0:0:0:
36,192,191429,1,0,0:0:0:0:
182,192,191429,1,10,0:0:0:0:
402,192,191593,1,0,0:0:0:0:
329,192,191676,1,0,0:0:0:0:
256,192,191758,1,8,0:0:0:0:
109,192,191758,1,0,0:0:0:0:
182,192,191923,1,0,0:0:0:0:
256,192,192006,1,0,0:0:0:0:
329,192,192088,1,10,0:0:0:0:
36,192,192088,1,0,0:0:0:0:
475,192,192088,1,0,0:0:0:0:
109,192,192253,1,0,0:0:0:0:
182,192,192335,1,0,0:0:0:0:
256,192,192418,1,8,0:0:0:0:
402,192,192418,1,0,0:0:0:0:
475,192,192582,1,0,0:0:0:0:
329,192,192665,1,0,0:0:0:0:
182,192,192747,1,10,0:0:0:0:
36,192,192747,1,0,0:0:0:0:
402,192,192747,1,0,0:0:0:0:
109,192,192912,1,0,0:0:0:0:
182,192,192995,1,0,0:0:0:0:
256,192,193077,1,8,0:0:0:0:
402,192,193077,128,0,193407:0:0:0:0:
475,192,193077,128,0,193407:0:0:0:0:
36,192,193077,1,0,0:0:0:0:
182,192,193242,1,0,0:0:0:0:
109,192,193324,1,0,0:0:0:0:
36,192,193407,1,0,0:0:0:0:
256,192,193407,1,10,0:0:0:0:
329,192,193407,1,0,0:0:0:0:
109,192,193571,1,0,0:0:0:0:
475,192,193571,128,0,193654:0:0:0:0:
402,192,193571,128,0,193654:0:0:0:0:
256,192,193654,1,0,0:0:0:0:
182,192,193736,1,8,0:0:0:0:
36,192,193736,1,0,0:0:0:0:
402,192,193901,1,0,0:0:0:0:
256,192,193984,1,0,0:0:0:0:
329,192,194066,1,10,0:0:0:0:
475,192,194066,1,0,0:0:0:0:
109,192,194066,1,0,0:0:0:0:
256,192,194231,1,0,0:0:0:0:
182,192,194313,1,0,0:0:0:0:
109,192,194396,1,8,0:0:0:0:
402,192,194396,1,0,0:0:0:0:
256,192,194560,1,0,0:0:0:0:
329,192,194643,1,0,0:0:0:0:
402,192,194725,1,0,0:0:0:0:
36,192,194725,1,0,0:0:0:0:
182,192,194725,1,10,0:0:0:0:
329,192,194890,1,0,0:0:0:0:
402,192,194973,1,0,0:0:0:0:
475,192,195055,1,0,0:0:0:0:
109,192,195055,1,8,0:0:0:0:
182,192,195220,128,0,195714:0:0:0:0:
36,192,195220,128,0,195714:0:0:0:0:
402,192,195220,1,0,0:0:0:0:
256,192,195302,1,0,0:0:0:0:
475,192,195385,1,0,0:0:0:0:
402,192,195385,1,0,0:0:0:0:
329,192,195385,1,10,0:0:0:0:
109,192,195550,1,0,0:0:0:0:
256,192,195632,1,0,0:0:0:0:
402,192,195714,128,0,196044:0:0:0:0:
329,192,195714,128,0,196044:0:0:0:0:
475,192,195714,1,0,0:0:0:0:
109,192,195714,1,8,0:0:0:0:
182,192,195879,1,0,0:0:0:0:
109,192,195962,1,0,0:0:0:0:
36,192,196044,1,0,0:0:0:0:
256,192,196044,1,10,0:0:0:0:
475,192,196044,1,0,0:0:0:0:
109,192,196209,1,0,0:0:0:0:
402,192,196209,128,0,196291:0:0:0:0:
329,192,196209,128,0,196291:0:0:0:0:
182,192,196291,1,0,0:0:0:0:
36,192,196374,1,8,0:0:0:0:
475,192,196374,1,0,0:0:0:0:
256,192,196539,1,0,0:0:0:0:
329,192,196621,1,0,0:0:0:0:
402,192,196703,1,0,0:0:0:0:
36,192,196703,1,0,0:0:0:0:
182,192,196703,1,10,0:0:0:0:
329,192,196868,1,0,0:0:0:0:
402,192,196951,1,0,0:0:0:0:
475,192,197033,1,0,0:0:0:0:
109,192,197033,1,8,0:0:0:0:
256,192,197198,1,0,0:0:0:0:
182,192,197280,1,0,0:0:0:0:
36,192,197363,1,0,0:0:0:0:
402,192,197363,1,0,0:0:0:0:
109,192,197363,1,10,0:0:0:0:
475,192,197528,1,0,0:0:0:0:
402,192,197610,1,0,0:0:0:0:
329,192,197692,1,8,0:0:0:0:
36,192,197692,1,0,0:0:0:0:
256,192,197857,1,0,0:0:0:0:
329,192,197940,1,0,0:0:0:0:
402,192,198022,1,0,0:0:0:0:
109,192,198022,1,10,0:0:0:0:
475,192,198022,1,0,0:0:0:0:
329,192,198187,1,0,0:0:0:0:
182,192,198269,1,0,0:0:0:0:
256,192,198352,1,8,0:0:0:0:
475,192,198352,128,0,198681:0:0:0:0:
36,192,198352,128,0,198681:0:0:0:0:
109,192,198352,1,0,0:0:0:0:
329,192,198517,1,0,0:0:0:0:
256,192,198599,1,0,0:0:0:0:
182,192,198681,1,10,0:0:0:0:
402,192,198681,1,0,0:0:0:0:
109,192,198681,1,0,0:0:0:0:
329,192,198846,1,0,0:0:0:0:
36,192,198846,128,0,198929:0:0:0:0:
475,192,198846,128,0,198929:0:0:0:0:
182,192,198929,1,0,0:0:0:0:
109,192,199011,1,8,0:0:0:0:
402,192,199011,1,0,0:0:0:0:
256,192,199176,1,0,0:0:0:0:
329,192,199258,1,0,0:0:0:0:
402,192,199341,1,10,0:0:0:0:
109,192,199341,1,0,0:0:0:0:
36,192,199341,1,0,0:0:0:0:
182,192,199506,1,0,0:0:0:0:
329,192,199588,1,0,0:0:0:0:
109,192,199670,1,8,0:0:0:0:
475,192,199670,1,0,0:0:0:0:
402,192,199835,1,0,0:0:0:0:
182,192,199918,1,0,0:0:0:0:
36,192,200000,1,0,0:0:0:0:
329,192,200000,1,10,0:0:0:0:
475,192,200000,1,0,0:0:0:0:
109,192,200000,128,0,200330:0:0:0:0:
256,192,200000,128,0,200330:0:0:0:0:
402,192,200165,1,0,0:0:0:0:
329,192,200247,1,0,0:0:0:0:
36,192,200330,1,0,0:0:0:0:
475,192,200330,1,8,0:0:0:0:
402,192,200495,128,0,200989:0:0:0:0:
182,192,200495,128,0,200989:0:0:0:0:
109,192,200495,1,0,0:0:0:0:
329,192,200577,1,0,0:0:0:0:
36,192,200659,1,0,0:0:0:0:
256,192,200659,1,10,0:0:0:0:
475,192,200659,1,0,0:0:0:0:
329,192,200824,1,0,0:0:0:0:
109,192,200824,1,0,0:0:0:0:
475,192,200989,1,0,0:0:0:0:
36,192,200989,128,0,201319:0:0:0:0:
256,192,200989,128,0,201319:0:0:0:0:
329,192,200989,1,8,0:0:0:0:
182,192,201071,1,0,0:0:0:0:
402,192,201154,1,0,0:0:0:0:
109,192,201236,1,0,0:0:0:0:
475,192,201319,1,0,0:0:0:0:
182,192,201319,1,0,0:0:0:0:
402,192,201319,1,10,0:0:0:0:
329,192,201484,1,0,0:0:0:0:
256,192,201484,128,0,201566:0:0:0:0:
36,192,201484,128,0,201566:0:0:0:0:
475,192,201566,1,0,0:0:0:0:
109,192,201648,1,8,0:0:0:0:
402,192,201648,1,0,0:0:0:0:
329,192,201813,1,0,0:0:0:0:
182,192,201813,1,0,0:0:0:0:
36,192,201978,1,0,0:0:0:0:
182,192,201978,1,10,0:0:0:0:
402,192,201978,1,0,0:0:0:0:
475,192,202060,1,0,0:0:0:0:
256,192,202143,1,0,0:0:0:0:
109,192,202143,1,0,0:0:0:0:
329,192,202225,1,0,0:0:0:0:
402,192,202308,1,0,0:0:0:0:
182,192,202308,1,8,0:0:0:0:
256,192,202473,1,0,0:0:0:0:
36,192,202473,1,0,0:0:0:0:
182,192,202637,1,0,0:0:0:0:
475,192,202637,1,0,0:0:0:0:
402,192,202637,1,10,0:0:0:0:
109,192,202720,1,0,0:0:0:0:
329,192,202802,1,0,0:0:0:0:
36,192,202802,1,0,0:0:0:0:
256,192,202885,1,0,0:0:0:0:
182,192,202967,1,8,0:0:0:0:
475,192,202967,1,0,0:0:0:0:
329,192,203132,1,0,0:0:0:0:
109,192,203132,1,0,0:0:0:0:
475,192,203297,1,0,0:0:0:0:
256,192,203297,1,10,0:0:0:0:
36,192,203297,1,0,0:0:0:0:
329,192,203379,1,0,0:0:0:0:
109,192,203462,1,0,0:0:0:0:
182,192,203462,1,0,0:0:0:0:
402,192,203544,1,0,0:0:0:0:
182,192,203626,1,8,0:0:0:0:
475,192,203626,128,0,203956:0:0:0:0:
256,192,203626,128,0,203956:0:0:0:0:
329,192,203709,1,0,0:0:0:0:
36,192,203791,1,0,0:0:0:0:
402,192,203791,1,0,0:0:0:0:
182,192,203874,1,0,0:0:0:0:
109,192,203956,1,0,0:0:0:0:
329,192,203956,1,10,0:0:0:0:
36,192,203956,1,0,0:0:0:0:
256,192,204121,128,0,204203:0:0:0:0:
475,192,204121,128,0,204203:0:0:0:0:
182,192,204121,1,0,0:0:0:0:
109,192,204203,1,0,0:0:0:0:
329,192,204286,1,8,0:0:0:0:
36,192,204286,1,0,0:0:0:0:
182,192,204368,1,0,0:0:0:0:
402,192,204451,1,0,0:0:0:0:
475,192,204451,1,0,0:0:0:0:
109,192,204533,1,0,0:0:0:0:
329,192,204615,1,10,0:0:0:0:
182,192,204615,1,0,0:0:0:0:
402,192,204615,1,0,0:0:0:0:
256,192,204780,1,0,0:0:0:0:
36,192,204780,1,0,0:0:0:0:
182,192,204863,1,0,0:0:0:0:
402,192,204945,1,8,0:0:0:0:
109,192,204945,1,0,0:0:0:0:
256,192,205110,1,0,0:0:0:0:
475,192,205110,1,0,0:0:0:0:
329,192,205275,1,10,0:0:0:0:
109,192,205275,1,0,0:0:0:0:
36,192,205275,1,0,0:0:0:0:
402,192,205357,1,0,0:0:0:0:
475,192,205440,1,0,0:0:0:0:
182,192,205440,1,0,0:0:0:0:
256,192,205522,1,0,0:0:0:0:
329,192,205604,1,0,0:0:0:0:
109,192,205604,1,8,0:0:0:0:
36,192,205604,1,0,0:0:0:0:
182,192,205769,1,0,0:0:0:0:
256,192,205769,1,8,0:0:0:0:
475,192,205769,1,0,0:0:0:0:
402,192,205934,1,0,0:0:0:0:
182,192,205934,1,10,0:0:0:0:
109,192,205934,1,0,0:0:0:0:
329,192,206099,1,8,0:0:0:0:
36,192,206099,1,0,0:0:0:0:
182,192,206181,1,0,0:0:0:0:
256,192,206181,1,8,0:0:0:0:
329,192,206264,1,8,0:0:0:0:
475,192,206264,128,0,206593:0:0:0:0:
109,192,206264,128,0,206593:0:0:0:0:
402,192,206264,1,0,0:0:0:0:
256,192,206429,1,0,0:0:0:0:
329,192,206511,1,0,0:0:0:0:
402,192,206593,1,0,0:0:0:0:
182,192,206593,1,10,0:0:0:0:
36,192,206593,1,0,0:0:0:0:
109,192,206758,128,0,206841:0:0:0:0:
475,192,206758,128,0,206841:0:0:0:0:
329,192,206758,1,0,0:0:0:0:
256,192,206841,1,0,0:0:0:0:
36,192,206923,1,0,0:0:0:0:
402,192,206923,1,8,0:0:0:0:
475,192,207088,1,0,0:0:0:0:
109,192,207088,1,0,0:0:0:0:
329,192,207170,1,0,0:0:0:0:
182,192,207253,1,10,0:0:0:0:
402,192,207253,1,0,0:0:0:0:
36,192,207253,1,0,0:0:0:0:
329,192,207418,1,0,0:0:0:0:
109,192,207418,1,0,0:0:0:0:
36,192,207500,1,0,0:0:0:0:
402,192,207582,1,0,0:0:0:0:
256,192,207582,1,8,0:0:0:0:
109,192,207747,1,0,0:0:0:0:
475,192,207747,1,0,0:0:0:0:
329,192,207912,1,0,0:0:0:0:
256,192,207912,1,10,0:0:0:0:
36,192,207912,1,0,0:0:0:0:
182,192,207995,1,0,0:0:0:0:
109,192,208077,1,0,0:0:0:0:
402,192,208077,1,0,0:0:0:0:
329,192,208159,1,0,0:0:0:0:
256,192,208242,1,8,0:0:0:0:
475,192,208242,1,0,0:0:0:0:
182,192,208407,1,0,0:0:0:0:
109,192,208407,1,0,0:0:0:0:
256,192,208489,1,0,0:0:0:0:
475,192,208571,1,0,0:0:0:0:
36,192,208571,1,0,0:0:0:0:
329,192,208571,1,10,0:0:0:0:
402,192,208736,1,0,0:0:0:0:
109,192,208736,1,0,0:0:0:0:
329,192,208819,1,0,0:0:0:0:
475,192,208901,1,8,0:0:0:0:
36,192,208901,128,0,209231:0:0:0:0:
182,192,208901,128,0,209231:0:0:0:0:
402,192,209066,1,0,0:0:0:0:
256,192,209066,1,0,0:0:0:0:
109,192,209231,1,0,0:0:0:0:
329,192,209231,1,10,0:0:0:0:
475,192,209231,1,0,0:0:0:0:
256,192,209313,1,0,0:0:0:0:
182,192,209396,128,0,209478:0:0:0:0:
36,192,209396,128,0,209478:0:0:0:0:
402,192,209396,1,0,0:0:0:0:
329,192,209478,1,0,0:0:0:0:
256,192,209560,1,8,0:0:0:0:
109,192,209560,1,0,0:0:0:0:
475,192,209725,1,0,0:0:0:0:
182,192,209725,1,0,0:0:0:0:
329,192,209808,1,0,0:0:0:0:
36,192,209890,1,0,0:0:0:0:
402,192,209890,1,0,0:0:0:0:
109,192,209890,1,10,0:0:0:0:
182,192,209973,1,0,0:0:0:0:
256,192,210055,1,0,0:0:0:0:
329,192,210137,1,0,0:0:0:0:
402,192,210220,1,8,0:0:0:0:
475,192,210220,1,0,0:0:0:0:
109,192,210220,1,0,0:0:0:0:
329,192,210385,1,0,0:0:0:0:
36,192,210385,1,0,0:0:0:0:
256,192,210467,1,0,0:0:0:0:
182,192,210550,1,10,0:0:0:0:
402,192,210550,1,0,0:0:0:0:
475,192,210550,1,0,0:0:0:0:
182,192,210714,1,0,0:0:0:0:
256,192,210714,1,0,0:0:0:0:
402,192,210714,1,8,0:0:0:0:
109,192,210797,1,0,0:0:0:0:
36,192,210797,1,0,0:0:0:0:
329,192,210797,1,8,0:0:0:0:
182,192,210962,1,8,0:0:0:0:
475,192,210962,1,0,0:0:0:0:
109,192,210962,1,0,0:0:0:0:
256,192,211044,1,8,0:0:0:0:
329,192,211044,1,0,0:0:0:0:
402,192,211044,1,0,0:0:0:0:
475,192,211209,1,0,0:0:0:0:
36,192,211209,1,0,0:0:0:0:
182,192,211209,1,10,0:0:0:0:
402,192,211291,1,0,0:0:0:0:
256,192,211291,1,8,0:0:0:0:
109,192,211374,1,8,0:0:0:0:
329,192,211374,1,0,0:0:0:0:
182,192,211456,1,8,0:0:0:0:
402,192,211456,1,0,0:0:0:0:
475,192,211539,1,0,0:0:0:0:
256,192,211539,1,8,0:0:0:0:
36,192,211539,128,0,211703:0:0:0:0:
329,192,211703,128,0,211868:0:0:0:0:
109,192,211703,1,0,0:0:0:0:
182,192,211868,128,0,212033:0:0:0:0:
475,192,211868,1,0,0:0:0:0:
402,192,211868,1,10,0:0:0:0:
36,192,211868,1,0,0:0:0:0:
256,192,212033,128,0,212198:0:0:0:0:
109,192,212033,1,0,0:0:0:0:
109,192,212198,128,0,212363:0:0:0:0:
402,192,212198,1,8,0:0:0:0:
36,192,212198,1,0,0:0:0:0:
329,192,212363,128,0,212528:0:0:0:0:
182,192,212363,1,0,0:0:0:0:
475,192,212528,128,0,212692:0:0:0:0:
402,192,212528,1,0,0:0:0:0:
256,192,212528,1,10,0:0:0:0:
109,192,212528,1,0,0:0:0:0:
182,192,212692,128,0,212857:0:0:0:0:
36,192,212692,1,0,0:0:0:0:
109,192,212857,1,0,0:0:0:0:
329,192,212857,1,8,0:0:0:0:
256,192,213022,128,0,213187:0:0:0:0:
402,192,213022,1,0,0:0:0:0:
329,192,213187,128,0,213352:0:0:0:0:
475,192,213187,1,0,0:0:0:0:
36,192,213187,1,0,0:0:0:0:
182,192,213187,1,10,0:0:0:0:
402,192,213352,128,0,213517:0:0:0:0:
109,192,213352,1,0,0:0:0:0:
182,192,213517,128,0,213681:0:0:0:0:
256,192,213517,1,8,0:0:0:0:
475,192,213517,1,0,0:0:0:0:
36,192,213681,128,0,213846:0:0:0:0:
402,192,213681,1,0,0:0:0:0:
109,192,213846,128,0,214011:0:0:0:40:
329,192,213846,1,10,0:0:0:0:
475,192,213846,1,0,0:0:0:0:
256,192,213846,1,0,0:0:0:0:
402,192,213929,1,2,0:0:0:40:
182,192,214011,128,0,214176:0:0:0:40:
329,192,214011,1,2,0:0:0:0:
256,192,214093,1,2,0:0:0:40:
329,192,214176,128,0,214341:0:0:0:0:
36,192,214176,1,0,0:0:0:0:
475,192,214176,1,8,0:0:0:0:
109,192,214341,128,0,214506:0:0:0:0:
402,192,214341,1,0,0:0:0:0:
256,192,214506,128,0,214670:0:0:0:0:
182,192,214506,1,0,0:0:0:0:
329,192,214506,1,10,0:0:0:0:
475,192,214506,1,0,0:0:0:0:
36,192,214670,128,0,214835:0:0:0:0:
109,192,214670,1,0,0:0:0:0:
329,192,214835,128,0,215000:0:0:0:0:
402,192,214835,1,8,0:0:0:0:
256,192,214835,1,0,0:0:0:0:
182,192,215000,128,0,215165:0:0:0:0:
109,192,215000,1,0,0:0:0:0:
256,192,215165,128,0,215330:0:0:0:0:
475,192,215165,1,0,0:0:0:0:
36,192,215165,1,0,0:0:0:0:
402,192,215165,1,10,0:0:0:0:
329,192,215330,128,0,215495:0:0:0:0:
182,192,215330,1,0,0:0:0:0:
36,192,215495,1,0,0:0:0:0:
402,192,215495,1,8,0:0:0:0:
109,192,215659,1,0,0:0:0:0:
329,192,215659,1,0,0:0:0:0:
256,192,215742,1,0,0:0:0:0:
475,192,215824,1,0,0:0:0:0:
182,192,215824,1,10,0:0:0:0:
402,192,215824,1,0,0:0:0:0:
109,192,215824,1,0,0:0:0:0:
329,192,215907,1,0,0:0:0:0:
402,192,215989,1,0,0:0:0:0:
36,192,215989,1,0,0:0:0:0:
256,192,216071,1,0,0:0:0:0:
36,192,216154,1,0,0:0:0:0:
329,192,216154,1,0,0:0:0:0:
182,192,216154,1,8,0:0:0:0:
402,192,216236,1,0,0:0:0:0:
182,192,216319,128,0,216484:0:0:0:0:
475,192,216319,128,0,216813:0:0:0:0:
329,192,216319,1,0,0:0:0:0:
329,192,216484,128,0,216648:0:0:0:0:
402,192,216484,1,0,0:0:0:0:
109,192,216484,1,0,0:0:0:0:
256,192,216484,1,10,0:0:0:0:
182,192,216648,1,0,0:0:0:0:
36,192,216648,1,8,0:0:0:0:
109,192,216731,1,8,0:0:0:0:
256,192,216731,1,0,0:0:0:0:
182,192,216813,1,0,0:0:0:0:
36,192,216813,1,8,0:0:0:0:
329,192,216813,128,0,216978:0:0:0:0:
402,192,216978,128,0,217143:0:0:0:0:
109,192,216978,1,0,0:0:0:0:
475,192,217143,128,0,217308:0:0:0:0:
182,192,217143,1,0,0:0:0:0:
256,192,217143,1,10,0:0:0:0:
109,192,217143,1,0,0:0:0:0:
36,192,217308,128,0,217473:0:0:0:0:
329,192,217308,1,0,0:0:0:0:
256,192,217473,128,0,217637:0:0:0:0:
402,192,217473,1,8,0:0:0:0:
109,192,217473,1,0,0:0:0:0:
182,192,217637,128,0,217802:0:0:0:0:
329,192,217637,1,0,0:0:0:0:
402,192,217802,128,0,217967:0:0:0:0:
256,192,217802,1,10,0:0:0:0:
36,192,217802,1,0,0:0:0:0:
475,192,217802,1,0,0:0:0:0:
329,192,217967,128,0,218132:0:0:0:0:
109,192,217967,1,0,0:0:0:0:
475,192,218132,128,0,218214:0:0:0:0:
109,192,218297,128,0,218379:0:0:0:0:
329,192,218462,128,0,218544:0:0:0:0:
182,192,218626,128,0,218709:0:0:0:0:
36,192,218791,128,0,218874:0:0:0:0:
256,192,218956,128,0,219039:0:0:0:0:
475,192,219121,128,0,219203:0:0:0:0:
109,192,219286,128,0,219368:0:0:0:0:
36,192,219451,1,0,0:0:0:0:
256,192,219451,128,0,219615:0:0:0:0:
402,192,219451,1,8,0:0:0:0:
329,192,219615,128,0,219780:0:0:0:0:
109,192,219615,1,0,0:0:0:0:
402,192,219780,128,0,219945:0:0:0:0:
182,192,219780,1,10,0:0:0:0:
475,192,219780,1,0,0:0:0:0:
36,192,219780,1,0,0:0:0:0:
109,192,219945,128,0,220110:0:0:0:0:
329,192,219945,1,0,0:0:0:0:
256,192,220110,128,0,220275:0:0:0:0:
402,192,220110,1,8,0:0:0:0:
36,192,220110,1,0,0:0:0:0:
329,192,220275,128,0,220440:0:0:0:0:
109,192,220275,1,0,0:0:0:0:
182,192,220440,128,0,220604:0:0:0:0:
475,192,220440,1,0,0:0:0:0:
36,192,220440,1,0,0:0:0:0:
256,192,220440,1,10,0:0:0:0:
402,192,220604,128,0,220769:0:0:0:0:
329,192,220604,1,0,0:0:0:0:
109,192,220769,1,0,0:0:0:0:
36,192,220769,1,0,0:0:0:0:
475,192,220769,1,0,0:0:0:0:
256,192,220769,1,10,0:0:0:0:
182,192,220934,1,8,0:0:0:0:
402,192,220934,1,0,0:0:0:0:
256,192,221099,1,10,0:0:0:0:
329,192,221099,1,0,0:0:0:0:
109,192,221099,1,0,0:0:0:0:
475,192,221099,1,0,0:0:0:0:
36,192,221264,1,0,0:0:0:0:
402,192,221264,1,8,0:0:0:0:
109,192,221429,1,0,0:0:0:0:
475,192,221429,1,0,0:0:0:0:
329,192,221429,1,10,0:0:0:0:
182,192,221511,1,8,0:0:0:0:
402,192,221511,1,0,0:0:0:0:
256,192,221593,1,8,0:0:0:0:
36,192,221593,1,0,0:0:0:0:
329,192,221676,1,8,0:0:0:0:
109,192,221676,1,0,0:0:0:0:
402,192,221758,1,0,0:0:0:0:
475,192,221758,1,0,0:0:0:0:
182,192,221758,1,8,0:0:0:0:
36,192,221841,1,0,0:0:0:0:
256,192,221841,1,8,0:0:0:0:
329,192,221923,1,8,0:0:0:0:
109,192,221923,1,0,0:0:0:0:
402,192,222006,1,0,0:0:0:0:
182,192,222006,1,8,0:0:0:0:
36,192,222088,1,0,0:0:0:0:
109,192,222088,1,10,0:0:0:0:
329,192,222088,1,0,0:0:0:0:
475,192,222088,1,0,0:0:0:0:
256,192,222170,1,0,0:0:0:0:
402,192,222253,1,0,0:0:0:0:
109,192,222253,1,0,0:0:0:0:
182,192,222335,1,0,0:0:0:0:
329,192,222418,1,0,0:0:0:0:
36,192,222418,1,0,0:0:0:0:
475,192,222418,1,0,0:0:0:0:
256,192,222418,1,10,0:0:0:0:
402,192,222582,1,0,0:0:0:0:
109,192,222582,1,0,0:0:0:0:
256,192,222665,1,0,0:0:0:0:
182,192,222747,1,8,0:0:0:0:
475,192,222747,1,0,0:0:0:0:
329,192,222747,1,0,0:0:0:0:
329,192,222912,1,0,0:0:0:0:
109,192,222912,1,0,0:0:0:0:
36,192,223077,1,0,0:0:0:0:
182,192,223077,1,10,0:0:0:0:
402,192,223077,1,0,0:0:0:0:
475,192,223077,1,0,0:0:0:0:
256,192,223159,1,0,0:0:0:0:
329,192,223242,1,0,0:0:0:0:
109,192,223324,1,0,0:0:0:0:
475,192,223407,1,0,0:0:0:0:
182,192,223407,1,8,0:0:0:0:
402,192,223407,1,0,0:0:0:0:
36,192,223489,1,0,0:0:0:0:
329,192,223571,1,0,0:0:0:0:
109,192,223571,1,0,0:0:0:0:
182,192,223654,1,0,0:0:0:0:
256,192,223736,1,10,0:0:0:0:
36,192,223736,1,0,0:0:0:0:
475,192,223736,1,0,0:0:0:0:
109,192,223736,1,0,0:0:0:0:
402,192,223819,1,0,0:0:0:0:
329,192,223901,1,0,0:0:0:0:
36,192,223901,1,0,0:0:0:0:
256,192,223984,1,0,0:0:0:0:
182,192,224066,1,8,0:0:0:0:
402,192,224066,1,0,0:0:0:0:
475,192,224066,1,0,0:0:0:0:
329,192,224148,1,0,0:0:0:0:
256,192,224231,1,0,0:0:0:0:
36,192,224231,1,0,0:0:0:0:
182,192,224313,1,0,0:0:0:0:
109,192,224396,1,0,0:0:0:0:
475,192,224396,1,0,0:0:0:0:
329,192,224396,1,10,0:0:0:0:
402,192,224478,1,0,0:0:0:0:
182,192,224478,1,2,0:0:0:0:
256,192,224560,1,2,0:0:0:0:
36,192,224560,1,0,0:0:0:0:
329,192,224643,1,2,0:0:0:0:
109,192,224643,1,0,0:0:0:0:
182,192,224725,1,0,0:0:0:0:
256,192,224725,1,0,0:0:0:0:
402,192,224725,1,8,0:0:0:0:
36,192,224808,1,0,0:0:0:0:
182,192,224890,1,0,0:0:0:0:
329,192,224890,1,0,0:0:0:0:
256,192,225055,1,10,0:0:0:0:
109,192,225055,1,0,0:0:0:0:
475,192,225055,1,0,0:0:0:0:
36,192,225055,1,0,0:0:0:0:
329,192,225137,1,0,0:0:0:0:
475,192,225220,1,0,0:0:0:0:
182,192,225220,1,0,0:0:0:0:
402,192,225302,1,0,0:0:0:0:
329,192,225385,1,8,0:0:0:0:
109,192,225385,1,0,0:0:0:0:
36,192,225385,1,0,0:0:0:0:
256,192,225467,1,0,0:0:0:0:
182,192,225550,1,0,0:0:0:0:
402,192,225550,1,0,0:0:0:0:
109,192,225632,1,0,0:0:0:0:
36,192,225714,1,0,0:0:0:0:
329,192,225714,1,10,0:0:0:0:
475,192,225714,1,0,0:0:0:0:
182,192,225714,1,0,0:0:0:0:
256,192,225797,1,0,0:0:0:0:
402,192,225879,1,0,0:0:0:0:
109,192,225879,1,0,0:0:0:0:
329,192,225962,1,0,0:0:0:0:
256,192,226044,1,8,0:0:0:0:
36,192,226044,1,0,0:0:0:0:
402,192,226044,1,0,0:0:0:0:
109,192,226126,1,0,0:0:0:0:
182,192,226209,1,0,0:0:0:0:
475,192,226209,1,0,0:0:0:0:
256,192,226291,1,0,0:0:0:0:
329,192,226374,1,10,0:0:0:0:
109,192,226374,1,0,0:0:0:0:
402,192,226374,1,0,0:0:0:0:
36,192,226374,1,0,0:0:0:0:
182,192,226456,1,0,0:0:0:0:
256,192,226539,1,0,0:0:0:0:
36,192,226539,1,0,0:0:0:0:
329,192,226621,1,0,0:0:0:0:
402,192,226703,1,0,0:0:0:0:
182,192,226703,1,8,0:0:0:0:
109,192,226703,1,0,0:0:0:0:
36,192,226786,1,0,0:0:0:0:
256,192,226868,1,0,0:0:0:0:
475,192,226868,1,0,0:0:0:0:
109,192,226951,1,0,0:0:0:0:
329,192,227033,1,10,0:0:0:0:
402,192,227033,1,0,0:0:0:0:
182,192,227033,1,0,0:0:0:0:
256,192,227115,1,0,0:0:0:0:
182,192,227198,1,0,0:0:0:0:
329,192,227198,1,8,0:0:0:0:
402,192,227198,1,0,0:0:0:0:
36,192,227280,1,0,0:0:0:0:
475,192,227280,1,8,0:0:0:0:
329,192,227363,1,8,0:0:0:0:
109,192,227363,1,0,0:0:0:0:
182,192,227363,1,0,0:0:0:0:
402,192,227445,1,0,0:0:0:0:
256,192,227528,1,0,0:0:0:0:
109,192,227528,1,0,0:0:0:0:
329,192,227610,1,0,0:0:0:0:
402,192,227692,1,0,0:0:0:0:
182,192,227692,1,10,0:0:0:0:
36,192,227692,1,0,0:0:0:0:
475,192,227692,1,0,0:0:0:0:
109,192,227857,1,0,0:0:0:0:
475,192,227857,1,0,0:0:0:0:
329,192,227940,1,0,0:0:0:0:
109,192,228022,1,0,0:0:0:0:
402,192,228022,1,8,0:0:0:0:
36,192,228022,1,0,0:0:0:0:
182,192,228187,1,0,0:0:0:0:
329,192,228187,1,0,0:0:0:0:
36,192,228352,1,0,0:0:0:0:
402,192,228352,1,10,0:0:0:0:
109,192,228352,1,0,0:0:0:0:
475,192,228352,1,0,0:0:0:0:
256,192,228434,1,0,0:0:0:0:
329,192,228517,1,0,0:0:0:0:
182,192,228599,1,0,0:0:0:0:
109,192,228681,1,0,0:0:0:0:
402,192,228681,1,8,0:0:0:0:
475,192,228681,1,0,0:0:0:0:
329,192,228764,1,0,0:0:0:0:
256,192,228846,1,0,0:0:0:0:
36,192,228846,1,0,0:0:0:0:
109,192,228929,1,0,0:0:0:0:
182,192,229011,1,0,0:0:0:0:
475,192,229011,1,0,0:0:0:0:
402,192,229011,1,0,0:0:0:0:
329,192,229011,1,10,0:0:0:0:
256,192,229093,1,0,0:0:0:0:
109,192,229176,1,0,0:0:0:0:
36,192,229176,1,0,0:0:0:0:
182,192,229258,1,0,0:0:0:0:
402,192,229341,1,8,0:0:0:0:
475,192,229341,1,0,0:0:0:0:
256,192,229341,1,0,0:0:0:0:
109,192,229506,1,0,0:0:0:0:
329,192,229506,1,0,0:0:0:0:
256,192,229588,1,0,0:0:0:0:
182,192,229670,1,0,0:0:0:0:
475,192,229670,1,0,0:0:0:0:
402,192,229670,1,10,0:0:0:0:
329,192,229753,1,2,0:0:0:30:
109,192,229753,1,0,0:0:0:0:
256,192,229835,1,2,0:0:0:30:
36,192,229835,1,0,0:0:0:0:
475,192,229918,1,0,0:0:0:30:
182,192,229918,1,2,0:0:0:0:
402,192,230000,1,0,0:0:0:0:
109,192,230000,1,8,0:0:0:0:
36,192,230000,1,0,0:0:0:0:
402,192,230165,1,0,0:0:0:0:
475,192,230165,1,0,0:0:0:0:
109,192,230165,1,8,0:0:0:0:
329,192,230330,1,0,0:0:0:0:
182,192,230330,1,10,0:0:0:0:
36,192,230330,1,0,0:0:0:0:
475,192,230330,1,0,0:0:0:0:
109,192,230495,1,0,0:0:0:0:
256,192,230495,1,0,0:0:0:0:
329,192,230577,1,0,0:0:0:0:
402,192,230659,1,8,0:0:0:0:
182,192,230659,1,0,0:0:0:0:
36,192,230824,1,0,0:0:0:0:
329,192,230824,1,0,0:0:0:0:
475,192,230989,1,0,0:0:0:0:
256,192,230989,1,10,0:0:0:0:
109,192,230989,1,0,0:0:0:0:
36,192,230989,1,0,0:0:0:0:
329,192,231071,1,0,0:0:0:0:
182,192,231154,1,0,0:0:0:0:
256,192,231236,1,0,0:0:0:0:
402,192,231319,1,0,0:0:0:0:
36,192,231319,1,0,0:0:0:0:
329,192,231319,1,8,0:0:0:0:
109,192,231401,1,0,0:0:0:0:
182,192,231484,1,0,0:0:0:0:
475,192,231484,1,0,0:0:0:0:
402,192,231566,1,0,0:0:0:0:
329,192,231648,1,0,0:0:0:0:
109,192,231648,1,0,0:0:0:0:
36,192,231648,1,0,0:0:0:0:
256,192,231648,1,10,0:0:0:0:
475,192,231731,1,0,0:0:0:0:
182,192,231813,1,0,0:0:0:0:
256,192,231896,1,0,0:0:0:0:
402,192,231978,1,0,0:0:0:0:
109,192,231978,1,8,0:0:0:0:
36,192,231978,1,0,0:0:0:0:
475,192,231978,1,0,0:0:0:0:
329,192,232060,1,0,0:0:0:0:
256,192,232143,1,8,0:0:0:0:
402,192,232143,1,0,0:0:0:0:
109,192,232225,1,0,0:0:0:0:
182,192,232225,1,8,0:0:0:0:
36,192,232308,1,0,0:0:0:0:
402,192,232308,1,0,0:0:0:0:
475,192,232308,1,0,0:0:0:0:
329,192,232308,1,10,0:0:0:0:
256,192,232390,1,0,0:0:0:0:
36,192,232473,1,0,0:0:0:0:
109,192,232473,1,0,0:0:0:0:
182,192,232473,1,8,0:0:0:0:
475,192,232555,1,0,0:0:0:0:
256,192,232637,1,8,0:0:0:0:
402,192,232637,1,0,0:0:0:0:
109,192,232637,128,0,232967:0:0:0:0:
329,192,232802,128,0,233132:0:0:0:0:
182,192,232802,1,0,0:0:0:0:
182,192,232967,1,0,0:0:0:0:
402,192,232967,1,10,0:0:0:0:
36,192,232967,128,0,233297:0:0:0:0:
475,192,232967,1,0,0:0:0:0:
475,192,233132,128,0,233462:0:0:0:0:
256,192,233132,1,0,0:0:0:0:
182,192,233297,128,0,233626:0:0:0:0:
109,192,233297,1,0,0:0:0:0:
329,192,233297,1,8,0:0:0:0:
402,192,233462,128,0,233791:0:0:0:0:
36,192,233462,1,0,0:0:0:0:
256,192,233626,128,0,233956:0:0:0:0:
109,192,233626,1,0,0:0:0:0:
329,192,233626,1,10,0:0:0:0:
475,192,233626,1,0,0:0:0:0:
36,192,233791,128,0,233956:0:0:0:0:
182,192,233791,1,0,0:0:0:0:
475,192,233956,1,8,0:0:0:0:
109,192,233956,1,0,0:0:0:0:
402,192,234039,1,8,0:0:0:0:
182,192,234039,1,0,0:0:0:0:
36,192,234203,1,0,0:0:0:0:
256,192,234203,1,8,0:0:0:0:
109,192,234286,1,0,0:0:0:0:
329,192,234286,1,8,0:0:0:0:
475,192,234451,1,8,0:0:0:0:
182,192,234451,1,0,0:0:0:0:
329,192,234533,1,8,0:0:0:0:
36,192,234533,1,0,0:0:0:0:
402,192,234615,1,8,0:0:0:0:
109,192,234615,1,0,0:0:0:0:
475,192,234698,1,8,0:0:0:0:
256,192,234698,1,0,0:0:0:0:
329,192,234780,1,8,0:0:0:0:
109,192,234780,1,0,0:0:0:0:
182,192,234863,1,0,0:0:0:0:
402,192,234863,1,8,0:0:0:0:
36,192,234945,1,0,0:0:0:0:
256,192,234945,1,8,0:0:0:0:
329,192,235028,1,8,0:0:0:0:
109,192,235028,1,0,0:0:0:0:
182,192,235110,1,0,0:0:0:0:
402,192,235110,1,8,0:0:0:0:
256,192,235192,1,8,0:0:0:0:
475,192,235192,1,0,0:0:0:0:
36,192,235275,1,0,0:0:0:0:
329,192,235275,1,8,0:0:0:0:
182,192,235275,128,0,235604:0:0:0:0:
402,192,235440,128,0,235769:0:0:0:0:
256,192,235440,1,0,0:0:0:0:
36,192,235604,128,0,235934:0:0:0:0:
109,192,235604,1,0,0:0:0:0:
475,192,235604,1,0,0:0:0:0:
329,192,235604,1,10,0:0:0:0:
329,192,235769,128,0,236099:0:0:0:0:
182,192,235769,1,0,0:0:0:0:
109,192,235934,128,0,236264:0:0:0:0:
402,192,235934,1,8,0:0:0:0:
475,192,235934,1,0,0:0:0:0:
256,192,236099,128,0,236429:0:0:0:0:
182,192,236099,1,0,0:0:0:0:
402,192,236264,128,0,236593:0:0:0:0:
36,192,236264,1,0,0:0:0:0:
329,192,236264,1,10,0:0:0:0:
475,192,236264,1,0,0:0:0:0:
36,192,236429,128,0,236593:0:0:0:0:
109,192,236429,1,0,0:0:0:0:
182,192,236593,1,8,0:0:0:0:
329,192,236593,1,0,0:0:0:0:
475,192,236676,1,0,0:0:0:0:
402,192,236676,1,0,0:0:0:0:
182,192,236758,1,8,0:0:0:0:
109,192,236758,1,0,0:0:0:0:
329,192,236841,1,0,0:0:0:0:
402,192,236841,1,0,0:0:0:0:
36,192,236923,1,0,0:0:0:0:
109,192,236923,1,8,0:0:0:0:
475,192,236978,1,0,0:0:0:0:
402,192,236978,1,8,0:0:0:0:
329,192,237033,1,8,0:0:0:0:
256,192,237033,1,0,0:0:0:0:
182,192,237088,1,8,0:0:0:0:
109,192,237088,1,0,0:0:0:0:
329,192,237129,1,0,0:0:0:0:
402,192,237129,1,8,0:0:0:0:
256,192,237170,1,0,0:0:0:0:
182,192,237170,1,8,0:0:0:0:
109,192,237253,1,0,0:0:0:0:
36,192,237253,1,0,0:0:0:0:
475,192,237253,1,0,0:0:0:0:
402,192,237253,1,2,0:0:0:0:
329,192,237335,1,0,0:0:0:0:
256,192,237335,1,2,0:0:0:0:
182,192,237335,1,0,0:0:0:0:
402,192,237500,128,0,237912:0:0:0:0:
36,192,237500,1,0,0:0:0:0:
109,192,237500,1,8,0:0:0:0:
109,192,237747,1,0,0:0:0:0:
182,192,237747,1,8,0:0:0:0:
256,192,237912,1,8,0:0:0:0:
475,192,237912,1,0,0:0:0:0:
36,192,237912,128,0,238242:0:0:0:0:
329,192,238077,128,0,238242:0:0:0:0:
182,192,238077,1,0,0:0:0:0:
475,192,238242,128,0,238571:0:0:0:0:
109,192,238242,1,0,0:0:0:0:
402,192,238242,1,0,0:0:0:0:
256,192,238242,1,10,0:0:0:0:
182,192,238407,128,0,238571:0:0:0:0:
329,192,238407,1,0,0:0:0:0:
109,192,238571,128,0,238901:0:0:0:0:
36,192,238571,1,8,0:0:0:0:
402,192,238736,128,0,238901:0:0:0:0:
182,192,238736,1,0,0:0:0:0:
256,192,238901,128,0,239231:0:0:0:0:
329,192,238901,1,10,0:0:0:0:
475,192,238901,1,0,0:0:0:0:
36,192,239066,128,0,239231:0:0:0:0:
402,192,239066,1,0,0:0:0:0:
475,192,239231,1,8,0:0:0:0:
182,192,239313,1,0,0:0:0:0:
402,192,239396,1,0,0:0:0:0:
36,192,239396,128,0,239560:0:0:0:0:
256,192,239478,1,0,0:0:0:0:
109,192,239560,1,10,0:0:0:0:
329,192,239560,128,0,239725:0:0:0:0:
475,192,239643,1,0,0:0:0:0:
182,192,239725,1,0,0:0:0:0:
256,192,239725,128,0,239890:0:0:0:0:
36,192,239808,1,0,0:0:0:0:
109,192,239890,1,0,0:0:0:0:
329,192,239890,1,0,0:0:0:0:
402,192,239890,1,8,0:0:0:0:
475,192,239890,1,0,0:0:0:0:
109,192,240220,1,0,0:0:0:0:
329,192,240220,1,0,0:0:0:0:
402,192,240220,1,8,0:0:0:0:
475,192,240220,1,0,0:0:0:0:
36,192,240550,1,0,0:0:0:0:
329,192,240550,1,8,0:0:0:0:
182,192,240550,128,0,240879:0:0:0:0:
402,192,240632,1,8,0:0:0:0:
475,192,240714,128,0,240879:0:0:0:0:
256,192,240714,1,8,0:0:0:0:
109,192,240797,1,0,0:0:0:0:
329,192,240879,128,0,241209:0:0:0:0:
402,192,240879,1,8,0:0:0:0:
256,192,240962,1,8,0:0:0:0:
36,192,241044,128,0,241209:0:0:0:0:
182,192,241044,1,8,0:0:0:0:
402,192,241126,1,8,0:0:0:0:
109,192,241209,128,0,241539:0:0:0:0:
256,192,241209,1,8,0:0:0:0:
182,192,241291,1,8,0:0:0:0:
402,192,241374,128,0,241539:0:0:0:0:
475,192,241374,1,8,0:0:0:0:
329,192,241456,1,8,0:0:0:0:
256,192,241539,128,0,241868:0:0:0:0:
36,192,241539,1,8,0:0:0:0:
109,192,241621,1,8,0:0:0:0:
475,192,241703,128,0,241868:0:0:0:0:
182,192,241703,1,8,0:0:0:0:
402,192,241786,1,8,0:0:0:0:
329,192,241868,1,8,0:0:0:0:
36,192,241868,1,0,0:0:0:0:
109,192,241868,1,0,0:0:0:0:
256,192,241951,1,8,0:0:0:0:
182,192,242033,1,8,0:0:0:0:
475,192,242033,1,0,0:0:0:0:
402,192,242033,1,0,0:0:0:0:
329,192,242115,1,8,0:0:0:0:
109,192,242198,1,0,0:0:0:0:
256,192,242198,1,8,0:0:0:0:
36,192,242198,1,0,0:0:0:0:
402,192,242280,1,8,0:0:0:0:
329,192,242363,1,8,0:0:0:0:
182,192,242363,1,0,0:0:0:0:
109,192,242363,1,0,0:0:0:0:
475,192,242445,1,8,0:0:0:0:
402,192,242528,1,8,0:0:0:0:
182,192,242528,1,0,0:0:0:0:
256,192,242528,1,0,0:0:0:0:
475,192,242610,1,8,0:0:0:0:
109,192,242692,1,8,0:0:0:0:
329,192,242692,1,0,0:0:0:0:
256,192,242692,1,0,0:0:0:0:
36,192,242775,1,8,0:0:0:0:
329,192,242857,1,0,0:0:0:0:
402,192,242857,1,0,0:0:0:0:
182,192,242857,1,8,0:0:0:0:
109,192,242940,1,8,0:0:0:0:
402,192,243022,1,0,0:0:0:0:
475,192,243022,1,0,0:0:0:0:
256,192,243022,1,8,0:0:0:0:
182,192,243104,1,8,0:0:0:0:
36,192,243187,1,0,0:0:0:0:
329,192,243187,1,12,0:0:0:0:
109,192,243187,128,0,243352:0:0:0:0:
475,192,243187,1,0,0:0:0:0:
256,192,243352,128,0,243517:0:0:0:0:
402,192,243517,128,0,243681:0:0:0:0:
182,192,243681,128,0,244011:0:0:0:0:
36,192,244011,128,0,244176:0:0:0:0:
329,192,244176,128,0,244341:0:0:0:0:
182,192,244341,128,0,244670:0:0:0:0:
402,192,244670,128,0,244835:0:0:0:0:
109,192,244835,128,0,245000:0:0:0:0:
256,192,245000,128,0,245330:0:0:0:0:
36,192,245330,128,0,245495:0:0:0:0:
329,192,245330,1,0,0:0:0:0:
402,192,245495,128,0,245659:0:0:0:0:
109,192,245495,1,0,0:0:0:0:
182,192,245659,128,0,245824:0:0:0:0:
329,192,245659,1,0,0:0:0:0:
475,192,245824,128,0,246154:0:0:0:0:
256,192,245824,1,0,0:0:0:0:
329,192,245934,1,0,0:0:0:0:
109,192,246044,1,0,0:0:0:0:
256,192,246154,1,0,0:0:0:0:
182,192,246264,1,0,0:0:0:0:
329,192,246319,128,0,246401:0:0:0:0:
36,192,246374,1,0,0:0:0:0:
329,192,246484,128,0,246813:0:0:0:0:
475,192,246484,1,0,0:0:0:0:
182,192,246593,1,0,0:0:0:0:
402,192,246703,1,0,0:0:0:0:
109,192,246813,1,0,0:0:0:0:
329,192,246923,1,0,0:0:0:0:
256,192,247033,1,0,0:0:0:0:
182,192,247143,1,0,0:0:0:0:
36,192,247253,1,0,0:0:0:0:
109,192,247363,1,0,0:0:0:0:
329,192,247473,128,0,247802:0:0:0:0:
182,192,247473,1,0,0:0:0:0:
402,192,247582,1,0,0:0:0:0:
109,192,247692,1,0,0:0:0:0:
182,192,247802,128,0,248022:0:0:0:0:
256,192,247802,1,0,0:0:0:0:
36,192,247912,1,0,0:0:0:0:
109,192,248022,1,0,0:0:0:0:
329,192,248077,1,0,0:0:0:0:
475,192,248132,128,0,248462:0:0:0:0:
182,192,248132,1,0,0:0:0:0:
402,192,248242,1,0,0:0:0:0:
329,192,248352,1,0,0:0:0:0:
109,192,248462,128,0,248709:0:0:0:0:
256,192,248462,1,8,0:0:0:0:
402,192,248544,1,0,0:0:0:0:
329,192,248626,1,0,0:0:0:0:
475,192,248709,1,0,0:0:0:0:
109,192,248791,128,0,249286:0:0:0:0:
256,192,248791,1,8,0:0:0:0:
402,192,248874,1,0,0:0:0:0:
182,192,248956,1,0,0:0:0:0:
329,192,249039,1,0,0:0:0:0:
475,192,249121,1,8,0:0:0:0:
36,192,249203,1,0,0:0:0:0:
182,192,249286,128,0,249451:0:0:0:0:
402,192,249286,1,0,0:0:0:0:
329,192,249368,1,0,0:0:0:0:
402,192,249451,128,0,249615:0:0:0:0:
256,192,249451,1,8,0:0:0:0:
182,192,249533,1,0,0:0:0:0:
109,192,249615,128,0,249945:0:0:0:0:
329,192,249615,1,0,0:0:0:0:
475,192,249698,1,0,0:0:0:0:
402,192,249780,1,8,0:0:0:0:
329,192,249863,1,0,0:0:0:0:
256,192,249945,128,0,250110:0:0:0:15:
475,192,249945,1,0,0:0:0:0:
402,192,250028,1,0,0:0:0:0:
36,192,250110,128,0,250275:0:0:0:25:
182,192,250110,1,8,0:0:0:0:
475,192,250192,1,0,0:0:0:0:
329,192,250275,128,0,250604:0:0:0:35:
109,192,250275,1,0,0:0:0:0:
182,192,250357,1,0,0:0:0:0:
256,192,250440,1,8,0:0:0:0:
36,192,250522,1,0,0:0:0:0:
475,192,250604,128,0,250769:0:0:0:55:
109,192,250604,1,0,0:0:0:0:
329,192,250687,1,0,0:0:0:0:
402,192,250769,1,8,0:0:0:0:
182,192,250769,128,0,250934:0:0:0:65:
256,192,250852,1,8,0:0:0:0:
36,192,250934,128,0,251099:0:0:0:0:
329,192,250934,1,8,0:0:0:0:
402,192,251017,1,8,0:0:0:0:
256,192,251099,128,0,251264:0:0:0:0:
109,192,251099,1,8,0:0:0:0:
475,192,251099,1,8,0:0:0:0:
182,192,251181,1,8,0:0:0:0:
402,192,251264,128,0,251429:0:0:0:0:
36,192,251264,1,8,0:0:0:0:
109,192,251346,1,8,0:0:0:0:
182,192,251429,128,0,251593:0:0:0:0:
475,192,251429,1,8,0:0:0:0:
256,192,251429,1,0,0:0:0:0:
402,192,251511,1,8,0:0:0:0:
329,192,251593,128,0,251758:0:0:0:0:
36,192,251593,1,8,0:0:0:0:
475,192,251676,1,8,0:0:0:0:
109,192,251758,128,0,251923:0:0:0:0:
182,192,251758,1,8,0:0:0:0:
36,192,251758,1,0,0:0:0:0:
402,192,251841,1,8,0:0:0:0:
256,192,251923,128,0,252088:0:0:0:0:
329,192,251923,1,8,0:0:0:0:
36,192,252006,1,8,0:0:0:0:
475,192,252088,128,0,252253:0:0:0:0:
182,192,252088,1,8,0:0:0:0:
402,192,252088,1,0,0:0:0:0:
109,192,252170,1,8,0:0:0:0:
182,192,252253,128,0,252418:0:0:0:0:
329,192,252253,1,8,0:0:0:0:
36,192,252335,1,8,0:0:0:0:
475,192,252418,1,8,0:0:0:0:
256,192,252418,1,0,0:0:0:0:
402,192,252500,1,8,0:0:0:0:
182,192,252582,1,0,0:0:0:0:
329,192,252582,1,8,0:0:0:0:
36,192,252582,128,0,252747:0:0:0:0:
256,192,252665,1,8,0:0:0:0:
329,192,252747,128,0,252912:0:0:0:0:
475,192,252747,1,0,0:0:0:0:
182,192,252747,1,12,0:0:0:0:
109,192,252747,1,0,0:0:0:0:
402,192,252912,128,0,253077:0:0:0:0:
256,192,252912,1,0,0:0:0:0:
182,192,252967,1,0,0:0:0:0:
109,192,253022,1,0,0:0:0:0:
256,192,253077,128,0,253242:0:0:0:0:
475,192,253077,1,0,0:0:0:0:
329,192,253077,1,0,0:0:0:0:
36,192,253077,1,10,0:0:0:0:
329,192,253242,128,0,253407:0:0:0:0:
182,192,253324,1,0,0:0:0:0:
36,192,253324,1,10,0:0:0:0:
109,192,253324,1,0,0:0:0:0:
402,192,253407,128,0,253571:0:0:0:0:
475,192,253571,128,0,253736:0:0:0:0:
182,192,253571,1,0,0:0:0:0:
256,192,253571,1,0,0:0:0:0:
36,192,253571,1,10,0:0:0:0:
329,192,253901,1,0,0:0:0:0:
182,192,253984,1,0,0:0:0:0:
402,192,254066,128,0,254231:0:0:0:0:
256,192,254066,1,0,0:0:0:0:
475,192,254066,1,0,0:0:0:0:
109,192,254066,1,12,0:0:0:0:
36,192,254066,1,0,0:0:0:0:
329,192,254231,128,0,254396:0:0:0:0:
182,192,254231,1,0,0:0:0:0:
109,192,254396,128,0,254560:0:0:0:0:
475,192,254396,1,8,0:0:0:0:
36,192,254396,1,0,0:0:0:0:
402,192,254560,1,0,0:0:0:0:
256,192,254560,128,0,254725:0:0:0:0:
475,192,254725,1,0,0:0:0:0:
329,192,254725,1,10,0:0:0:0:
36,192,254725,128,0,254890:0:0:0:0:
109,192,254890,128,0,255220:0:0:0:0:
256,192,254890,1,0,0:0:0:0:
329,192,255055,1,8,0:0:0:0:
182,192,255055,1,0,0:0:0:0:
256,192,255220,128,0,255385:0:0:0:0:
475,192,255220,1,0,0:0:0:0:
402,192,255385,128,0,255550:0:0:0:0:
329,192,255385,1,10,0:0:0:0:
36,192,255385,1,0,0:0:0:0:
109,192,255385,1,0,0:0:0:0:
182,192,255550,128,0,255879:0:0:0:0:
475,192,255550,1,0,0:0:0:0:
36,192,255714,1,0,0:0:0:0:
329,192,255714,1,8,0:0:0:0:
402,192,255879,128,0,256044:0:0:0:0:
109,192,255879,1,0,0:0:0:0:
256,192,256044,128,0,256209:0:0:0:0:
329,192,256044,1,0,0:0:0:0:
475,192,256044,1,0,0:0:0:0:
36,192,256044,1,10,0:0:0:0:
109,192,256126,1,2,0:0:0:0:
475,192,256209,128,0,256374:0:0:0:0:
402,192,256209,1,0,0:0:0:0:
182,192,256209,1,2,0:0:0:0:
36,192,256291,1,2,0:0:0:0:
329,192,256374,128,0,256703:0:0:0:0:
182,192,256374,1,8,0:0:0:0:
109,192,256374,1,0,0:0:0:0:
402,192,256539,1,0,0:0:0:0:
109,192,256703,1,0,0:0:0:0:
36,192,256703,1,0,0:0:0:0:
256,192,256703,1,10,0:0:0:0:
182,192,256868,128,0,256951:0:0:0:0:
475,192,256868,1,0,0:0:0:0:
182,192,257033,128,0,257363:0:0:0:0:
402,192,257033,1,8,0:0:0:0:
36,192,257033,1,0,0:0:0:0:
329,192,257198,1,0,0:0:0:0:
109,192,257363,1,0,0:0:0:0:
475,192,257363,1,0,0:0:0:0:
256,192,257363,1,10,0:0:0:0:
402,192,257528,1,0,0:0:0:0:
36,192,257692,1,0,0:0:0:0:
329,192,257692,1,8,0:0:0:0:
109,192,257692,1,0,0:0:0:0:
256,192,257857,1,0,0:0:0:0:
182,192,258022,128,0,258352:0:0:0:0:
475,192,258022,1,0,0:0:0:0:
329,192,258022,1,10,0:0:0:0:
109,192,258022,1,0,0:0:0:0:
256,192,258187,1,0,0:0:0:0:
402,192,258352,128,0,258599:0:0:0:0:
475,192,258352,1,8,0:0:0:0:
36,192,258352,1,0,0:0:0:0:
329,192,258517,1,0,0:0:0:0:
256,192,258599,1,0,0:0:0:0:
182,192,258640,1,0,0:0:0:0:
109,192,258681,1,0,0:0:0:0:
36,192,258681,128,0,259011:0:0:0:0:
329,192,258681,1,10,0:0:0:0:
402,192,258681,1,0,0:0:0:0:
402,192,258846,1,8,0:0:0:0:
475,192,258846,1,0,0:0:0:0:
109,192,258929,1,0,0:0:0:0:
182,192,258929,1,8,0:0:0:0:
256,192,259011,1,8,0:0:0:0:
329,192,259011,1,0,0:0:0:0:
475,192,259011,128,0,259176:0:0:0:0:
182,192,259176,1,0,0:0:0:0:
475,192,259341,128,0,259670:0:0:0:0:
109,192,259341,1,0,0:0:0:0:
36,192,259341,1,0,0:0:0:0:
329,192,259341,1,10,0:0:0:0:
256,192,259506,1,0,0:0:0:0:
182,192,259670,1,8,0:0:0:0:
402,192,259670,1,0,0:0:0:0:
36,192,259835,128,0,260000:0:0:0:0:
329,192,259835,1,0,0:0:0:0:
182,192,260000,128,0,260165:0:0:0:0:
256,192,260000,1,0,0:0:0:0:
475,192,260000,1,0,0:0:0:0:
402,192,260000,1,10,0:0:0:0:
329,192,260165,128,0,260495:0:0:0:0:
109,192,260165,1,0,0:0:0:0:
402,192,260330,1,0,0:0:0:0:
182,192,260330,1,8,0:0:0:0:
109,192,260495,128,0,260659:0:0:0:0:
256,192,260495,1,0,0:0:0:0:
475,192,260659,128,0,260824:0:0:0:0:
182,192,260659,1,10,0:0:0:0:
36,192,260659,1,0,0:0:0:0:
402,192,260659,1,0,0:0:0:0:
329,192,260824,128,0,260989:0:0:0:0:
256,192,260824,1,0,0:0:0:0:
36,192,260989,1,0,0:0:0:0:
402,192,260989,1,8,0:0:0:0:
475,192,260989,1,0,0:0:0:0:
182,192,261044,1,0,0:0:0:0:
329,192,261099,1,0,0:0:0:0:
475,192,261154,128,0,261319:0:0:0:0:
109,192,261154,1,0,0:0:0:0:
36,192,261319,1,0,0:0:0:0:
256,192,261319,1,10,0:0:0:0:
329,192,261319,1,0,0:0:0:0:
182,192,261319,128,0,261484:0:0:0:0:
402,192,261484,128,0,261648:0:0:0:0:
329,192,261484,1,0,0:0:0:0:
256,192,261648,128,0,261813:0:0:0:0:
36,192,261648,1,0,0:0:0:0:
182,192,261648,1,8,0:0:0:0:
475,192,261813,128,0,261978:0:0:0:0:
109,192,261813,1,0,0:0:0:0:
329,192,261978,128,0,262143:0:0:0:0:
36,192,261978,1,0,0:0:0:0:
402,192,261978,1,0,0:0:0:0:
256,192,261978,1,10,0:0:0:0:
182,192,262143,128,0,262308:0:0:0:0:
109,192,262143,1,0,0:0:0:0:
36,192,262308,128,0,262473:0:0:0:0:
402,192,262308,1,8,0:0:0:0:
475,192,262308,1,0,0:0:0:0:
256,192,262473,128,0,262637:0:0:0:0:
329,192,262473,1,0,0:0:0:0:
402,192,262637,128,0,262802:0:0:0:0:
109,192,262637,1,10,0:0:0:0:
36,192,262637,1,0,0:0:0:0:
475,192,262637,1,0,0:0:0:0:
182,192,262802,128,0,262967:0:0:0:0:
256,192,262802,1,0,0:0:0:0:
109,192,262967,128,0,263132:0:0:0:0:
475,192,262967,1,0,0:0:0:0:
36,192,262967,1,0,0:0:0:0:
402,192,262967,1,10,0:0:0:0:
256,192,263132,128,0,263297:0:0:0:0:
182,192,263132,1,0,0:0:0:0:
329,192,263132,1,8,0:0:0:0:
475,192,263132,1,0,0:0:0:0:
402,192,263297,128,0,263462:0:0:0:0:
36,192,263297,1,0,0:0:0:0:
109,192,263297,1,0,0:0:0:0:
329,192,263297,1,10,0:0:0:0:
182,192,263462,128,0,263626:0:0:0:0:
109,192,263462,1,0,0:0:0:0:
475,192,263462,1,0,0:0:0:0:
256,192,263462,1,8,0:0:0:0:
36,192,263626,128,0,263791:0:0:0:0:
329,192,263626,1,10,0:0:0:0:
402,192,263626,1,0,0:0:0:0:
329,192,263791,128,0,263956:0:0:0:0:
182,192,263791,1,8,0:0:0:0:
475,192,263791,1,0,0:0:0:0:
109,192,263956,128,0,264121:0:0:0:0:
402,192,263956,1,0,0:0:0:0:
182,192,263956,1,14,0:0:0:0:
36,192,263956,1,0,0:0:0:0:
475,192,263956,1,0,0:0:0:0:
256,192,264121,128,0,264286:0:0:0:0:
475,192,264286,128,0,266593:0:0:0:0:
36,192,264286,1,0,0:0:0:0:
329,192,264286,1,8,0:0:0:0:
182,192,264451,1,0,0:0:0:0:
256,192,264533,1,0,0:0:0:0:
329,192,264615,1,10,0:0:0:0:
109,192,264615,1,0,0:0:0:0:
402,192,264615,1,0,0:0:0:0:
36,192,264615,1,0,0:0:0:0:
182,192,264698,1,0,0:0:0:0:
256,192,264780,1,0,0:0:0:0:
36,192,264780,1,0,0:0:0:0:
329,192,264863,1,0,0:0:0:0:
402,192,264945,1,0,0:0:0:0:
182,192,264945,1,8,0:0:0:0:
329,192,265028,1,0,0:0:0:0:
256,192,265110,1,0,0:0:0:0:
36,192,265110,1,0,0:0:0:0:
182,192,265192,1,0,0:0:0:0:
109,192,265275,1,10,0:0:0:0:
402,192,265275,1,0,0:0:0:0:
36,192,265275,1,0,0:0:0:0:
329,192,265357,1,0,0:0:0:0:
256,192,265440,1,0,0:0:0:0:
109,192,265440,1,0,0:0:0:0:
182,192,265522,128,0,265769:0:0:0:0:
402,192,265604,1,8,0:0:0:0:
36,192,265604,1,0,0:0:0:0:
109,192,265769,1,0,0:0:0:0:
329,192,265769,128,0,265934:0:0:0:0:
402,192,265934,1,0,0:0:0:0:
36,192,265934,1,10,0:0:0:0:
256,192,265934,128,0,266099:0:0:0:0:
182,192,266099,128,0,266264:0:0:0:0:
329,192,266099,1,0,0:0:0:0:
36,192,266264,1,0,0:0:0:0:
256,192,266264,1,8,0:0:0:0:
109,192,266346,1,0,0:0:0:0:
182,192,266429,1,0,0:0:0:0:
402,192,266429,1,0,0:0:0:0:
329,192,266511,1,0,0:0:0:0:
182,192,266593,1,10,0:0:0:0:
36,192,266593,1,0,0:0:0:0:
109,192,266593,1,0,0:0:0:0:
256,192,266676,1,0,0:0:0:0:
402,192,266676,1,2,0:0:0:0:
475,192,266676,1,0,0:0:0:0:
36,192,266758,1,0,0:0:0:0:
329,192,266758,1,2,0:0:0:0:
182,192,266758,1,0,0:0:0:0:
256,192,266841,1,0,0:0:0:0:
402,192,266841,1,2,0:0:0:0:
109,192,266841,1,0,0:0:0:0:
475,192,266923,1,0,0:0:0:0:
182,192,266923,128,0,267088:0:0:0:0:
329,192,266923,1,8,0:0:0:0:
256,192,267088,1,0,0:0:0:0:
109,192,267088,1,0,0:0:0:0:
402,192,267170,1,0,0:0:0:0:
329,192,267253,1,10,0:0:0:0:
36,192,267253,1,0,0:0:0:0:
109,192,267253,1,0,0:0:0:0:
475,192,267253,1,0,0:0:0:0:
182,192,267335,1,0,0:0:0:0:
256,192,267418,1,0,0:0:0:0:
402,192,267418,1,0,0:0:0:0:
109,192,267500,128,0,267747:0:0:0:0:
475,192,267582,1,0,0:0:0:0:
329,192,267582,1,8,0:0:0:0:
36,192,267747,1,0,0:0:0:0:
402,192,267747,1,0,0:0:0:0:
182,192,267789,1,0,0:0:0:0:
256,192,267830,1,0,0:0:0:0:
329,192,267871,1,0,0:0:0:0:
475,192,267912,1,0,0:0:0:0:
109,192,267912,1,10,0:0:0:0:
36,192,267912,1,0,0:0:0:0:
402,192,267912,1,0,0:0:0:0:
182,192,268077,128,0,268407:0:0:0:0:
329,192,268077,1,0,0:0:0:0:
36,192,268242,1,0,0:0:0:0:
402,192,268242,1,8,0:0:0:0:
475,192,268407,128,0,268571:0:0:0:0:
109,192,268407,1,0,0:0:0:0:
329,192,268571,128,0,268654:0:0:0:0:
256,192,268571,1,10,0:0:0:0:
402,192,268571,1,0,0:0:0:0:
36,192,268571,1,0,0:0:0:0:
109,192,268654,128,0,268736:0:0:0:0:
182,192,268736,128,0,268819:0:0:0:0:
475,192,268736,1,0,0:0:0:0:
402,192,268819,128,0,268901:0:0:0:0:
256,192,268901,128,0,268984:0:0:0:0:
36,192,268901,1,0,0:0:0:0:
329,192,268901,1,8,0:0:0:0:
109,192,268984,128,0,269066:0:0:0:0:
329,192,269066,128,0,269148:0:0:0:0:
475,192,269066,1,0,0:0:0:0:
36,192,269148,128,0,269231:0:0:0:0:
182,192,269231,128,0,269313:0:0:0:0:
402,192,269231,1,0,0:0:0:0:
109,192,269231,1,0,0:0:0:0:
256,192,269231,1,10,0:0:0:0:
329,192,269313,128,0,269396:0:0:0:0:
475,192,269396,128,0,269478:0:0:0:0:
36,192,269396,1,0,0:0:0:0:
402,192,269396,1,8,0:0:0:0:
256,192,269478,128,0,269560:0:0:0:25:
182,192,269478,1,8,0:0:0:0:
109,192,269560,128,0,269725:0:0:0:0:
36,192,269560,1,0,0:0:0:0:
402,192,269560,1,8,0:0:0:0:
475,192,269560,1,0,0:0:0:0:
329,192,269643,1,0,0:0:0:0:
256,192,269725,1,0,0:0:0:0:
475,192,269725,1,0,0:0:0:0:
182,192,269808,1,0,0:0:0:0:
109,192,269890,128,0,270220:0:0:0:0:
402,192,269890,1,0,0:0:0:0:
36,192,269890,1,0,0:0:0:0:
329,192,269890,1,10,0:0:0:0:
256,192,269973,1,0,0:0:0:0:
475,192,270055,1,0,0:0:0:0:
182,192,270055,1,0,0:0:0:0:
329,192,270137,1,0,0:0:0:0:
402,192,270220,1,8,0:0:0:0:
182,192,270220,1,0,0:0:0:0:
36,192,270385,128,0,270550:0:0:0:0:
329,192,270385,1,0,0:0:0:0:
256,192,270385,1,0,0:0:0:0:
182,192,270550,128,0,270714:0:0:0:0:
109,192,270550,1,0,0:0:0:0:
475,192,270550,1,0,0:0:0:0:
329,192,270550,1,10,0:0:0:0:
402,192,270714,128,0,271044:0:0:0:0:
256,192,270714,128,0,270879:0:0:0:0:
36,192,270714,1,0,0:0:0:0:
182,192,270879,1,8,0:0:0:0:
475,192,270879,1,0,0:0:0:0:
256,192,270962,1,0,0:0:0:0:
109,192,271044,128,0,271209:0:0:0:0:
329,192,271044,1,0,0:0:0:0:
36,192,271044,1,0,0:0:0:0:
402,192,271126,1,0,0:0:0:0:
256,192,271209,128,0,271374:0:0:0:0:
475,192,271209,1,0,0:0:0:0:
182,192,271209,1,10,0:0:0:0:
329,192,271209,1,0,0:0:0:0:
329,192,271374,128,0,271703:0:0:0:0:
36,192,271374,1,0,0:0:0:0:
402,192,271374,1,0,0:0:0:0:
109,192,271456,1,0,0:0:0:0:
182,192,271539,1,8,0:0:0:0:
475,192,271539,1,0,0:0:0:0:
402,192,271703,128,0,271868:0:0:0:0:
109,192,271703,1,0,0:0:0:0:
475,192,271868,1,0,0:0:0:0:
256,192,271868,128,0,272033:0:0:0:0:
36,192,271868,1,0,0:0:0:0:
329,192,271868,1,10,0:0:0:0:
109,192,272033,128,0,272198:0:0:0:0:
182,192,272033,1,0,0:0:0:0:
402,192,272033,1,0,0:0:0:0:
329,192,272115,1,0,0:0:0:0:
402,192,272198,128,0,272363:0:0:0:0:
256,192,272198,1,8,0:0:0:0:
36,192,272280,1,0,0:0:0:0:
182,192,272363,128,0,272528:0:0:0:0:
475,192,272363,1,0,0:0:0:0:
109,192,272363,1,0,0:0:0:0:
402,192,272445,1,0,0:0:0:0:
329,192,272528,128,0,272692:0:0:0:0:
36,192,272528,1,0,0:0:0:0:
256,192,272528,1,10,0:0:0:0:
475,192,272528,1,0,0:0:0:0:
182,192,272610,1,0,0:0:0:0:
109,192,272692,128,0,272857:0:0:0:0:
402,192,272692,1,0,0:0:0:0:
36,192,272692,1,0,0:0:0:0:
329,192,272775,1,0,0:0:0:0:
256,192,272857,128,0,273022:0:0:0:0:
475,192,272857,1,0,0:0:0:0:
182,192,272857,1,8,0:0:0:0:
402,192,272940,1,0,0:0:0:0:
329,192,273022,128,0,273187:0:0:0:0:
36,192,273022,1,0,0:0:0:0:
109,192,273104,1,0,0:0:0:0:
475,192,273187,128,0,273352:0:0:0:0:
256,192,273187,1,10,0:0:0:0:
402,192,273187,1,0,0:0:0:0:
182,192,273187,1,0,0:0:0:0:
329,192,273269,1,0,0:0:0:0:
109,192,273352,128,0,273517:0:0:0:0:
36,192,273352,1,0,0:0:0:0:
256,192,273434,1,0,0:0:0:0:
329,192,273475,1,0,0:0:0:0:
402,192,273517,1,0,0:0:0:0:
182,192,273517,1,10,0:0:0:0:
475,192,273517,1,0,0:0:0:0:
256,192,273599,1,0,0:0:0:0:
329,192,273681,1,8,0:0:0:0:
36,192,273681,1,0,0:0:0:0:
402,192,273681,1,0,0:0:0:0:
182,192,273764,1,0,0:0:0:0:
475,192,273846,1,0,0:0:0:0:
329,192,273846,1,0,0:0:0:0:
109,192,273846,1,10,0:0:0:0:
402,192,273929,1,0,0:0:0:0:
329,192,274011,1,0,0:0:0:0:
182,192,274011,1,8,0:0:0:0:
36,192,274011,1,0,0:0:0:0:
256,192,274093,1,0,0:0:0:0:
36,192,274176,1,0,0:0:0:0:
475,192,274176,1,0,0:0:0:0:
402,192,274176,1,10,0:0:0:0:
109,192,274258,1,0,0:0:0:0:
182,192,274341,1,8,0:0:0:0:
402,192,274341,1,0,0:0:0:0:
36,192,274341,1,0,0:0:0:0:
256,192,274423,1,0,0:0:0:0:
109,192,274506,1,0,0:0:0:0:
329,192,274506,1,10,0:0:0:0:
475,192,274506,1,0,0:0:0:0:
182,192,274588,1,0,0:0:0:0:
256,192,274670,1,0,0:0:0:0:
36,192,274670,1,0,0:0:0:0:
402,192,274670,1,8,0:0:0:0:
329,192,274753,1,8,0:0:0:0:
109,192,274753,1,0,0:0:0:0:
182,192,274835,128,0,275000:0:0:0:0:
402,192,274835,1,12,0:0:0:0:
36,192,274835,1,0,0:0:0:0:
475,192,274835,1,0,0:0:0:0:
329,192,275000,128,0,275165:0:0:0:0:
109,192,275000,128,0,275165:0:0:0:0:
475,192,275165,128,0,275330:0:0:0:0:
256,192,275165,1,10,0:0:0:0:
402,192,275165,1,0,0:0:0:0:
36,192,275165,1,0,0:0:0:0:
109,192,275330,128,0,275659:0:0:0:0:
329,192,275330,128,0,275495:0:0:0:0:
36,192,275495,1,0,0:0:0:0:
402,192,275495,1,8,0:0:0:0:
256,192,275659,128,0,275824:0:0:0:0:
475,192,275659,128,0,275824:0:0:0:0:
329,192,275824,128,0,275989:0:0:0:0:
36,192,275824,1,0,0:0:0:0:
109,192,275824,1,10,0:0:0:0:
402,192,275824,1,0,0:0:0:0:
475,192,275989,128,0,276319:0:0:0:0:
182,192,275989,128,0,276154:0:0:0:0:
36,192,276154,1,0,0:0:0:0:
329,192,276154,1,8,0:0:0:0:
109,192,276319,128,0,276484:0:0:0:0:
256,192,276319,128,0,276484:0:0:0:0:
329,192,276484,128,0,276648:0:0:0:0:
36,192,276484,1,0,0:0:0:0:
475,192,276484,1,0,0:0:0:0:
182,192,276484,1,10,0:0:0:0:
182,192,276648,128,0,276978:0:0:0:0:
402,192,276648,128,0,276813:0:0:0:0:
109,192,276813,1,8,0:0:0:0:
475,192,276813,1,0,0:0:0:0:
329,192,276978,128,0,277143:0:0:0:0:
36,192,276978,128,0,277143:0:0:0:0:
475,192,277143,128,0,277308:0:0:0:0:
109,192,277143,1,10,0:0:0:0:
402,192,277143,1,0,0:0:0:0:
182,192,277225,1,2,0:0:0:0:
329,192,277225,1,0,0:0:0:0:
256,192,277308,128,0,277473:0:0:0:0:
36,192,277308,1,0,0:0:0:0:
109,192,277308,1,2,0:0:0:0:
402,192,277390,1,2,0:0:0:0:
475,192,277390,1,0,0:0:0:0:
109,192,277473,128,0,277802:0:0:0:0:
182,192,277473,1,0,0:0:0:0:
329,192,277473,1,8,0:0:0:0:
475,192,277637,128,0,277802:0:0:0:0:
36,192,277802,1,0,0:0:0:0:
329,192,277802,1,10,0:0:0:0:
256,192,277802,1,0,0:0:0:0:
402,192,277967,128,0,278050:0:0:0:0:
182,192,277967,128,0,278132:0:0:0:0:
402,192,278132,128,0,278462:0:0:0:0:
36,192,278132,1,0,0:0:0:0:
329,192,278132,1,8,0:0:0:0:
109,192,278297,128,0,278462:0:0:0:0:
256,192,278462,1,10,0:0:0:0:
475,192,278462,1,0,0:0:0:0:
182,192,278462,1,0,0:0:0:0:
329,192,278626,128,0,278791:0:0:0:0:
36,192,278791,1,8,0:0:0:0:
475,192,278791,1,0,0:0:0:0:
182,192,278956,128,0,279121:0:0:0:0:
256,192,279121,128,0,279451:0:0:0:0:
109,192,279121,1,0,0:0:0:0:
402,192,279121,1,10,0:0:0:0:
329,192,279121,1,0,0:0:0:0:
36,192,279286,128,0,279451:0:0:0:0:
402,192,279451,128,0,279698:0:0:0:0:
182,192,279451,1,8,0:0:0:0:
475,192,279451,1,0,0:0:0:0:
109,192,279615,128,0,279780:0:0:0:0:
329,192,279739,1,0,0:0:0:0:
182,192,279780,128,0,280110:0:0:0:0:
256,192,279780,1,10,0:0:0:0:
36,192,279780,1,0,0:0:0:0:
475,192,279780,1,0,0:0:0:0:
329,192,279945,128,0,280110:0:0:0:0:
475,192,279945,1,0,0:0:0:0:
402,192,279945,1,8,0:0:0:0:
256,192,280028,1,8,0:0:0:0:
36,192,280110,128,0,280275:0:0:0:0:
109,192,280110,1,0,0:0:0:0:
402,192,280110,1,8,0:0:0:0:
256,192,280275,128,0,280440:0:0:0:0:
36,192,280440,128,0,280769:0:0:0:0:
182,192,280440,1,0,0:0:0:0:
475,192,280440,1,0,0:0:0:0:
329,192,280440,1,10,0:0:0:0:
402,192,280604,128,0,280769:0:0:0:0:
109,192,280769,1,0,0:0:0:0:
256,192,280769,1,8,0:0:0:0:
182,192,280934,128,0,281099:0:0:0:0:
475,192,280934,128,0,281099:0:0:0:0:
329,192,281099,128,0,281264:0:0:0:0:
36,192,281099,1,0,0:0:0:0:
109,192,281099,1,0,0:0:0:0:
256,192,281099,1,10,0:0:0:0:
402,192,281264,128,0,281593:0:0:0:0:
182,192,281264,128,0,281429:0:0:0:0:
36,192,281429,1,8,0:0:0:0:
475,192,281429,1,0,0:0:0:0:
109,192,281593,128,0,281758:0:0:0:0:
329,192,281593,128,0,281758:0:0:0:0:
256,192,281758,128,0,281923:0:0:0:0:
36,192,281758,1,0,0:0:0:0:
475,192,281758,1,0,0:0:0:0:
402,192,281758,1,10,0:0:0:0:
182,192,281923,128,0,282088:0:0:0:0:
109,192,281923,128,0,282088:0:0:0:0:
475,192,282088,1,0,0:0:0:0:
36,192,282088,1,0,0:0:0:0:
256,192,282088,1,8,0:0:0:0:
402,192,282143,1,0,0:0:0:0:
329,192,282198,1,0,0:0:0:0:
256,192,282253,128,0,282418:0:0:0:0:
36,192,282253,128,0,282418:0:0:0:0:
109,192,282418,128,0,282582:0:0:0:0:
182,192,282418,1,0,0:0:0:0:
475,192,282418,1,0,0:0:0:0:
402,192,282418,1,10,0:0:0:0:
329,192,282582,128,0,282747:0:0:0:0:
256,192,282582,128,0,282747:0:0:0:0:
182,192,282747,128,0,282912:0:0:0:0:
36,192,282747,1,8,0:0:0:0:
475,192,282747,1,0,0:0:0:0:
402,192,282912,128,0,283077:0:0:0:0:
109,192,282912,1,8,0:0:0:0:
329,192,282912,1,0,0:0:0:0:
256,192,283077,128,0,283242:0:0:0:0:
182,192,283077,1,10,0:0:0:0:
475,192,283077,1,0,0:0:0:0:
36,192,283077,1,0,0:0:0:0:
109,192,283242,128,0,283407:0:0:0:0:
402,192,283242,1,0,0:0:0:0:
329,192,283242,1,8,0:0:0:0:
182,192,283407,128,0,283571:0:0:0:0:
256,192,283407,1,8,0:0:0:0:
475,192,283407,1,0,0:0:0:0:
329,192,283571,128,0,283736:0:0:0:0:
36,192,283571,1,8,0:0:0:0:
402,192,283571,1,0,0:0:0:0:
475,192,283736,128,0,283901:0:0:0:0:
109,192,283736,1,0,0:0:0:0:
182,192,283736,1,10,0:0:0:0:
36,192,283736,1,0,0:0:0:0:
256,192,283901,128,0,284066:0:0:0:0:
329,192,283901,1,0,0:0:0:0:
109,192,284066,128,0,284231:0:0:0:0:
36,192,284066,1,0,0:0:0:0:
182,192,284066,1,10,0:0:0:0:
475,192,284066,1,0,0:0:0:0:
402,192,284231,128,0,284396:0:0:0:0:
256,192,284231,1,0,0:0:0:0:
329,192,284231,1,8,0:0:0:0:
36,192,284231,1,0,0:0:0:0:
182,192,284396,128,0,284560:0:0:0:0:
109,192,284396,1,0,0:0:0:0:
329,192,284396,1,10,0:0:0:0:
475,192,284396,1,0,0:0:0:0:
475,192,284560,128,0,284725:0:0:0:0:
36,192,284560,1,0,0:0:0:0:
256,192,284725,128,0,284890:0:0:0:0:
182,192,284725,1,0,0:0:0:0:
329,192,284725,1,8,0:0:0:0:
402,192,284725,1,0,0:0:0:0:
36,192,284890,128,0,285055:0:0:0:0:
109,192,284890,1,8,0:0:0:0:
475,192,284890,1,0,0:0:0:0:
402,192,284973,1,0,0:0:0:0:
182,192,284973,1,8,0:0:0:0:
256,192,285055,128,0,285220:0:0:0:0:
329,192,285055,1,8,0:0:0:0:
475,192,285055,1,0,0:0:0:0:
182,192,285137,1,8,0:0:0:0:
402,192,285137,1,0,0:0:0:0:
329,192,285220,128,0,285385:0:0:0:0:
109,192,285220,1,8,0:0:0:0:
36,192,285220,1,0,0:0:0:0:
182,192,285302,1,8,0:0:0:0:
475,192,285302,1,0,0:0:0:0:
182,192,285714,128,2,286209:0:0:0:40:
329,192,285714,128,0,286209:0:0:0:20:
475,192,285714,128,0,286044:0:0:0:20:
36,192,285714,128,0,286044:0:0:0:20:
109,192,285714,128,0,286126:0:0:0:20:
402,192,285714,128,0,286126:0:0:0:20:
256,192,286374,1,8,0:0:0:0:
475,192,286374,1,0,0:0:0:0:
402,192,286456,1,0,0:0:0:0:
182,192,286456,1,8,0:0:0:0:
109,192,286539,1,8,0:0:0:0:
329,192,286539,1,0,0:0:0:0:
36,192,286621,1,0,0:0:0:0:
256,192,286621,1,8,0:0:0:0:
475,192,286703,128,0,286786:0:0:0:0:
402,192,286703,1,0,0:0:0:0:
182,192,286703,1,8,0:0:0:0:
182,192,286868,128,0,286951:0:0:0:0:
329,192,286868,1,0,0:0:0:0:
329,192,287033,128,0,287115:0:0:0:0:
36,192,287033,1,0,0:0:0:0:
109,192,287033,1,10,0:0:0:0:
475,192,287033,1,0,0:0:0:0:
109,192,287198,128,0,287280:0:0:0:0:
256,192,287198,1,0,0:0:0:0:
36,192,287363,128,0,287445:0:0:0:0:
475,192,287363,1,0,0:0:0:0:
329,192,287363,1,8,0:0:0:0:
182,192,287528,128,0,287610:0:0:0:0:
402,192,287528,1,0,0:0:0:0:
475,192,287692,128,0,287775:0:0:0:0:
36,192,287692,1,0,0:0:0:0:
329,192,287692,1,10,0:0:0:0:
256,192,287692,1,0,0:0:0:0:
109,192,287857,128,0,287940:0:0:0:0:
329,192,287857,1,0,0:0:0:0:
402,192,288022,128,0,288104:0:0:0:0:
182,192,288022,1,8,0:0:0:0:
36,192,288022,1,0,0:0:0:0:
256,192,288187,128,0,288269:0:0:0:0:
402,192,288187,1,0,0:0:0:0:
329,192,288352,1,10,0:0:0:0:
109,192,288352,128,0,288434:0:0:0:0:
475,192,288352,1,0,0:0:0:0:
36,192,288352,1,0,0:0:0:0:
256,192,288517,128,0,288599:0:0:0:0:
402,192,288517,1,0,0:0:0:0:
475,192,288681,128,0,288764:0:0:0:0:
182,192,288681,1,8,0:0:0:0:
329,192,288681,1,0,0:0:0:0:
329,192,288846,128,0,288929:0:0:0:0:
109,192,288846,1,0,0:0:0:0:
36,192,289011,128,0,289093:0:0:0:0:
109,192,289011,1,0,0:0:0:0:
256,192,289011,1,10,0:0:0:0:
329,192,289011,1,0,0:0:0:0:
182,192,289176,128,0,289258:0:0:0:0:
402,192,289176,1,0,0:0:0:0:
475,192,289341,128,0,289423:0:0:0:0:
36,192,289341,1,0,0:0:0:0:
256,192,289341,1,8,0:0:0:0:
182,192,289506,128,0,289588:0:0:0:0:
402,192,289506,1,0,0:0:0:0:
329,192,289670,128,0,289753:0:0:0:0:
109,192,289670,1,0,0:0:0:0:
36,192,289670,1,0,0:0:0:0:
256,192,289670,1,10,0:0:0:0:
109,192,289835,128,0,289918:0:0:0:0:
402,192,289835,1,0,0:0:0:0:
36,192,290000,128,0,290082:0:0:0:0:
256,192,290000,1,8,0:0:0:0:
329,192,290000,1,0,0:0:0:0:
182,192,290165,128,0,290247:0:0:0:0:
329,192,290165,1,0,0:0:0:0:
475,192,290330,128,0,290412:0:0:0:0:
402,192,290330,1,10,0:0:0:0:
182,192,290330,1,0,0:0:0:0:
36,192,290330,1,0,0:0:0:0:
109,192,290495,128,0,290577:0:0:0:0:
256,192,290495,1,0,0:0:0:0:
402,192,290659,128,0,290742:0:0:0:0:
475,192,290659,1,8,0:0:0:0:
109,192,290659,1,0,0:0:0:0:
256,192,290824,128,0,290907:0:0:0:0:
36,192,290824,1,0,0:0:0:0:
109,192,290989,128,0,291071:0:0:0:0:
402,192,290989,1,10,0:0:0:0:
182,192,290989,1,0,0:0:0:0:
475,192,290989,1,0,0:0:0:0:
256,192,291154,128,0,291236:0:0:0:0:
36,192,291154,1,0,0:0:0:0:
475,192,291319,128,0,291401:0:0:0:0:
182,192,291319,1,8,0:0:0:0:
329,192,291319,1,0,0:0:0:0:
329,192,291484,128,0,291566:0:0:0:0:
109,192,291484,1,0,0:0:0:0:
36,192,291648,128,0,291731:0:0:0:0:
182,192,291648,1,0,0:0:0:0:
402,192,291648,1,10,0:0:0:0:
256,192,291648,1,0,0:0:0:0:
182,192,291813,128,0,291896:0:0:0:0:
329,192,291813,1,0,0:0:0:0:
475,192,291978,128,0,292060:0:0:0:0:
329,192,291978,1,8,0:0:0:0:
256,192,291978,1,0,0:0:0:0:
182,192,292143,128,0,292225:0:0:0:0:
36,192,292143,1,0,0:0:0:0:
109,192,292308,1,0,0:0:0:0:
402,192,292308,128,0,292390:0:0:0:0:
256,192,292308,1,10,0:0:0:0:
475,192,292308,1,0,0:0:0:0:
109,192,292473,128,0,292555:0:0:0:0:
329,192,292473,1,0,0:0:0:0:
36,192,292637,128,0,292720:0:0:0:0:
329,192,292637,1,8,0:0:0:0:
475,192,292637,1,0,0:0:0:0:
182,192,292802,128,0,292885:0:0:0:0:
256,192,292802,1,0,0:0:0:0:
475,192,292967,128,0,293050:0:0:0:0:
182,192,292967,1,0,0:0:0:0:
329,192,292967,1,10,0:0:0:0:
36,192,292967,1,0,0:0:0:0:
109,192,293132,128,0,293214:0:0:0:0:
256,192,293132,1,0,0:0:0:0:
402,192,293297,128,0,293379:0:0:0:0:
109,192,293297,1,0,0:0:0:0:
329,192,293297,1,8,0:0:0:0:
256,192,293462,128,0,293544:0:0:0:0:
36,192,293462,1,0,0:0:0:0:
109,192,293626,128,0,293709:0:0:0:0:
475,192,293626,1,0,0:0:0:0:
182,192,293626,1,0,0:0:0:0:
329,192,293626,1,10,0:0:0:0:
256,192,293791,128,0,293874:0:0:0:0:
402,192,293791,1,0,0:0:0:0:
475,192,293956,128,0,294039:0:0:0:0:
182,192,293956,1,8,0:0:0:0:
36,192,293956,1,0,0:0:0:0:
329,192,294121,128,0,294203:0:0:0:0:
109,192,294121,1,0,0:0:0:0:
36,192,294286,128,0,294368:0:0:0:0:
402,192,294286,1,10,0:0:0:0:
475,192,294286,1,0,0:0:0:0:
256,192,294286,1,0,0:0:0:0:
182,192,294451,128,0,294533:0:0:0:0:
329,192,294451,1,0,0:0:0:0:
475,192,294615,128,0,294698:0:0:0:0:
329,192,294615,1,8,0:0:0:0:
109,192,294615,1,0,0:0:0:0:
182,192,294780,128,0,294863:0:0:0:0:
256,192,294780,1,0,0:0:0:0:
329,192,294945,128,0,295028:0:0:0:0:
36,192,294945,1,0,0:0:0:0:
475,192,294945,1,10,0:0:0:0:
182,192,294945,1,0,0:0:0:0:
109,192,295110,128,0,295192:0:0:0:0:
402,192,295110,1,0,0:0:0:0:
36,192,295275,128,0,295357:0:0:0:0:
256,192,295275,1,0,0:0:0:0:
475,192,295275,1,8,0:0:0:0:
182,192,295440,128,0,295522:0:0:0:0:
329,192,295440,1,0,0:0:0:0:
475,192,295604,128,0,295687:0:0:0:0:
402,192,295604,1,10,0:0:0:0:
256,192,295604,1,0,0:0:0:0:
36,192,295604,1,0,0:0:0:0:
109,192,295769,128,0,295852:0:0:0:0:
329,192,295769,1,0,0:0:0:0:
402,192,295934,128,0,296017:0:0:0:0:
36,192,295934,1,0,0:0:0:0:
182,192,295934,1,8,0:0:0:0:
256,192,296099,128,0,296181:0:0:0:0:
329,192,296099,1,0,0:0:0:0:
109,192,296264,128,0,296346:0:0:0:0:
36,192,296264,1,0,0:0:0:0:
475,192,296264,1,0,0:0:0:0:
402,192,296264,1,10,0:0:0:0:
256,192,296429,128,0,296511:0:0:0:0:
182,192,296429,1,0,0:0:0:0:
475,192,296593,128,0,296676:0:0:0:0:
36,192,296593,1,0,0:0:0:0:
329,192,296593,1,8,0:0:0:0:
329,192,296758,128,0,296841:0:0:0:0:
182,192,296758,1,0,0:0:0:0:
36,192,296923,128,0,297006:0:0:0:0:
109,192,296923,1,0,0:0:0:0:
256,192,296923,1,10,0:0:0:0:
475,192,296923,1,0,0:0:0:0:
182,192,297088,128,0,297170:0:0:0:0:
402,192,297088,1,0,0:0:0:0:
475,192,297253,128,0,297335:0:0:0:0:
36,192,297253,1,0,0:0:0:0:
329,192,297253,1,8,0:0:0:0:
182,192,297418,128,0,297500:0:0:0:0:
109,192,297418,1,0,0:0:0:0:
329,192,297582,128,0,297665:0:0:0:0:
36,192,297582,1,0,0:0:0:0:
402,192,297582,1,10,0:0:0:0:
475,192,297582,1,0,0:0:0:0:
109,192,297747,128,0,297830:0:0:0:0:
256,192,297747,1,0,0:0:0:0:
36,192,297912,128,0,297995:0:0:0:0:
402,192,297912,1,8,0:0:0:0:
329,192,297912,1,0,0:0:0:0:
182,192,298077,128,0,298159:0:0:0:0:
256,192,298077,1,0,0:0:0:0:
475,192,298242,128,0,298324:0:0:0:0:
109,192,298242,1,0,0:0:0:0:
402,192,298242,1,10,0:0:0:0:
36,192,298242,1,0,0:0:0:0:
109,192,298407,128,0,298489:0:0:0:0:
329,192,298407,1,0,0:0:0:0:
402,192,298571,128,0,298654:0:0:0:0:
182,192,298571,1,8,0:0:0:0:
36,192,298571,1,0,0:0:0:0:
256,192,298736,128,0,298819:0:0:0:0:
329,192,298736,1,0,0:0:0:0:
109,192,298901,128,0,298984:0:0:0:0:
182,192,298901,1,0,0:0:0:0:
475,192,298901,1,0,0:0:0:0:
329,192,298901,1,10,0:0:0:0:
256,192,299066,128,0,299148:0:0:0:0:
402,192,299066,1,0,0:0:0:0:
475,192,299231,128,0,299313:0:0:0:0:
182,192,299231,1,8,0:0:0:0:
36,192,299231,1,0,0:0:0:0:
329,192,299396,128,0,299478:0:0:0:0:
182,192,299396,1,0,0:0:0:0:
36,192,299560,128,0,299643:0:0:0:0:
109,192,299560,1,0,0:0:0:0:
329,192,299560,1,0,0:0:0:0:
475,192,299560,1,10,0:0:0:0:
182,192,299725,128,0,299808:0:0:0:0:
256,192,299725,1,0,0:0:0:0:
475,192,299890,128,0,299973:0:0:0:0:
329,192,299890,1,8,0:0:0:0:
36,192,299890,1,0,0:0:0:0:
182,192,300055,128,0,300137:0:0:0:0:
109,192,300055,1,0,0:0:0:0:
329,192,300220,128,0,300302:0:0:0:0:
36,192,300220,1,0,0:0:0:0:
182,192,300220,1,0,0:0:0:0:
475,192,300220,1,10,0:0:0:0:
109,192,300385,128,0,300467:0:0:0:0:
402,192,300385,1,0,0:0:0:0:
36,192,300550,128,0,300632:0:0:0:0:
329,192,300550,1,8,0:0:0:0:
475,192,300550,1,0,0:0:0:0:
182,192,300714,128,0,300797:0:0:0:0:
109,192,300714,1,0,0:0:0:0:
475,192,300879,128,0,300962:0:0:0:0:
256,192,300879,1,0,0:0:0:0:
36,192,300879,1,0,0:0:0:0:
329,192,300879,1,10,0:0:0:0:
109,192,301044,128,0,301126:0:0:0:0:
182,192,301044,1,0,0:0:0:0:
402,192,301209,128,0,301291:0:0:0:0:
475,192,301209,1,8,0:0:0:0:
109,192,301209,1,0,0:0:0:0:
256,192,301374,128,0,301456:0:0:0:0:
402,192,301374,1,0,0:0:0:0:
109,192,301539,128,0,301621:0:0:0:0:
36,192,301539,1,0,0:0:0:0:
329,192,301539,1,10,0:0:0:0:
475,192,301539,1,0,0:0:0:0:
256,192,301703,128,0,301786:0:0:0:0:
182,192,301703,1,0,0:0:0:0:
475,192,301868,128,0,301951:0:0:0:0:
402,192,301868,1,0,0:0:0:0:
109,192,301868,1,8,0:0:0:0:
329,192,302033,128,0,302115:0:0:0:0:
182,192,302033,1,0,0:0:0:0:
36,192,302198,128,0,302280:0:0:0:0:
329,192,302198,1,0,0:0:0:0:
109,192,302198,1,0,0:0:0:0:
475,192,302198,1,10,0:0:0:0:
182,192,302363,128,0,302445:0:0:0:0:
256,192,302363,1,0,0:0:0:0:
475,192,302528,128,0,302610:0:0:0:0:
36,192,302528,1,0,0:0:0:0:
329,192,302528,1,8,0:0:0:0:
182,192,302692,128,0,302775:0:0:0:0:
109,192,302692,1,0,0:0:0:0:
329,192,302857,128,0,302940:0:0:0:0:
475,192,302857,1,0,0:0:0:0:
402,192,302857,1,10,0:0:0:0:
36,192,302857,1,0,0:0:0:0:
109,192,303022,128,0,303104:0:0:0:0:
182,192,303022,1,0,0:0:0:0:
36,192,303187,128,0,303269:0:0:0:0:
475,192,303187,1,0,0:0:0:0:
329,192,303187,1,8,0:0:0:0:
182,192,303352,128,0,303434:0:0:0:0:
402,192,303352,1,0,0:0:0:0:
475,192,303517,128,0,303599:0:0:0:0:
109,192,303517,1,0,0:0:0:0:
256,192,303517,1,10,0:0:0:0:
36,192,303517,1,0,0:0:0:0:
109,192,303681,128,0,303764:0:0:0:0:
402,192,303681,1,0,0:0:0:0:
402,192,303846,128,0,303929:0:0:0:0:
182,192,303846,1,0,0:0:0:0:
256,192,303846,1,8,0:0:0:0:
256,192,304011,128,0,304093:0:0:0:0:
36,192,304011,1,0,0:0:0:0:
109,192,304176,128,0,304258:0:0:0:0:
329,192,304176,1,10,0:0:0:0:
182,192,304176,1,0,0:0:0:0:
402,192,304176,1,0,0:0:0:0:
256,192,304341,128,0,304423:0:0:0:0:
475,192,304341,1,0,0:0:0:0:
475,192,304506,128,0,304588:0:0:0:0:
182,192,304506,1,8,0:0:0:0:
36,192,304506,1,0,0:0:0:0:
182,192,304670,128,0,304753:0:0:0:0:
402,192,304670,1,0,0:0:0:0:
329,192,304835,128,0,304918:0:0:0:0:
36,192,304835,1,0,0:0:0:0:
256,192,304835,1,0,0:0:0:0:
475,192,304835,1,10,0:0:0:0:
109,192,305000,128,0,305082:0:0:0:0:
182,192,305000,1,0,0:0:0:0:
36,192,305165,1,0,0:0:0:0:
475,192,305165,128,0,305247:0:0:0:0:
329,192,305165,1,8,0:0:0:0:
182,192,305330,128,0,305412:0:0:0:0:
256,192,305330,1,0,0:0:0:0:
329,192,305495,128,0,305577:0:0:0:0:
182,192,305495,1,0,0:0:0:0:
36,192,305495,1,0,0:0:0:0:
402,192,305495,1,10,0:0:0:0:
109,192,305659,128,0,305742:0:0:0:0:
256,192,305659,1,0,0:0:0:0:
36,192,305824,128,0,305907:0:0:0:0:
475,192,305824,1,8,0:0:0:0:
182,192,305824,1,0,0:0:0:0:
182,192,305989,128,0,306071:0:0:0:0:
329,192,305989,1,0,0:0:0:0:
475,192,306154,128,0,306236:0:0:0:0:
402,192,306154,1,0,0:0:0:0:
36,192,306154,1,0,0:0:0:0:
256,192,306154,1,10,0:0:0:0:
109,192,306319,128,0,306401:0:0:0:0:
329,192,306319,1,0,0:0:0:0:
402,192,306484,128,0,306566:0:0:0:0:
182,192,306484,1,0,0:0:0:0:
475,192,306484,1,12,0:0:0:0:
36,192,306484,1,0,0:0:0:0:
256,192,306648,128,0,306731:0:0:0:0:
182,192,306648,1,0,0:0:0:0:
109,192,306813,128,0,306896:0:0:0:0:
475,192,306813,1,8,0:0:0:0:
329,192,306813,1,0,0:0:0:0:
256,192,306978,128,0,307060:0:0:0:0:
36,192,306978,1,0,0:0:0:0:
475,192,307143,128,0,307225:0:0:0:0:
402,192,307143,1,8,0:0:0:0:
182,192,307143,1,0,0:0:0:0:
329,192,307308,128,0,307390:0:0:0:0:
182,192,307308,1,0,0:0:0:0:
36,192,307473,128,0,307555:0:0:0:0:
109,192,307473,1,0,0:0:0:0:
402,192,307473,1,8,0:0:0:0:
182,192,307637,128,0,307720:0:0:0:0:
256,192,307637,1,0,0:0:0:0:
475,192,307802,128,0,307885:0:0:0:0:
36,192,307802,1,0,0:0:0:0:
329,192,307802,1,8,0:0:0:0:
182,192,307967,128,0,308050:0:0:0:0:
109,192,307967,1,0,0:0:0:0:
402,192,308132,128,0,308214:0:0:0:0:
475,192,308132,1,8,0:0:0:0:
256,192,308132,1,0,0:0:0:0:
109,192,308297,128,0,308379:0:0:0:0:
329,192,308297,1,0,0:0:0:0:
36,192,308462,128,0,308544:0:0:0:0:
329,192,308462,1,8,0:0:0:0:
256,192,308462,1,0,0:0:0:0:
182,192,308626,128,0,308709:0:0:0:0:
402,192,308626,1,0,0:0:0:0:
475,192,308791,128,0,308874:0:0:0:0:
182,192,308791,1,0,0:0:0:0:
256,192,308791,1,8,0:0:0:0:
109,192,308956,128,0,309039:0:0:0:0:
329,192,308956,1,0,0:0:0:0:
402,192,309121,128,0,309203:0:0:0:0:
36,192,309121,1,8,0:0:0:0:
475,192,309121,1,0,0:0:0:0:
256,192,309286,128,0,309368:0:0:0:0:
182,192,309286,1,0,0:0:0:0:
109,192,309451,128,0,309533:0:0:0:0:
36,192,309451,1,8,0:0:0:0:
475,192,309451,1,0,0:0:0:0:
256,192,309615,128,0,309698:0:0:0:0:
402,192,309615,1,0,0:0:0:0:
475,192,309780,128,0,309863:0:0:0:0:
182,192,309780,1,0,0:0:0:0:
36,192,309780,1,8,0:0:0:0:
329,192,309945,128,0,310028:0:0:0:0:
109,192,309945,1,0,0:0:0:0:
475,192,310110,1,0,0:0:0:0:
36,192,310110,128,0,310192:0:0:0:0:
256,192,310110,1,8,0:0:0:0:
182,192,310275,128,0,310357:0:0:0:0:
329,192,310275,1,0,0:0:0:0:
475,192,310440,128,0,310522:0:0:0:0:
36,192,310440,1,8,0:0:0:0:
329,192,310440,1,0,0:0:0:0:
182,192,310604,128,0,310687:0:0:0:0:
256,192,310604,1,0,0:0:0:0:
402,192,310769,128,0,310852:0:0:0:0:
36,192,310769,1,8,0:0:0:0:
475,192,310769,1,0,0:0:0:0:
109,192,310934,128,0,311017:0:0:0:0:
329,192,310934,1,0,0:0:0:0:
36,192,311099,128,0,311181:0:0:0:0:
182,192,311099,1,8,0:0:0:0:
402,192,311099,1,0,0:0:0:0:
182,192,311264,128,0,311346:0:0:0:0:
475,192,311264,1,0,0:0:0:0:
475,192,311429,128,0,311511:0:0:0:0:
36,192,311429,1,8,0:0:0:0:
329,192,311429,1,0,0:0:0:0:
109,192,311593,128,0,311676:0:0:0:0:
256,192,311593,1,0,0:0:0:0:
402,192,311758,128,0,311841:0:0:0:0:
475,192,311758,1,8,0:0:0:0:
109,192,311758,1,0,0:0:0:0:
256,192,311923,128,0,312006:0:0:0:0:
329,192,311923,1,0,0:0:0:0:
109,192,312088,128,0,312170:0:0:0:0:
36,192,312088,1,8,0:0:0:0:
402,192,312088,1,0,0:0:0:0:
256,192,312253,128,0,312335:0:0:0:0:
475,192,312253,1,0,0:0:0:0:
475,192,312418,128,0,312500:0:0:0:0:
182,192,312418,1,0,0:0:0:0:
36,192,312418,1,8,0:0:0:0:
329,192,312582,128,0,312665:0:0:0:0:
109,192,312582,1,0,0:0:0:0:
36,192,312747,128,0,312830:0:0:0:0:
402,192,312747,1,8,0:0:0:0:
329,192,312747,1,0,0:0:0:0:
182,192,312912,128,0,312995:0:0:0:0:
256,192,312912,1,0,0:0:0:0:
475,192,313077,128,0,313159:0:0:0:0:
402,192,313077,1,8,0:0:0:0:
109,192,313077,1,0,0:0:0:0:
182,192,313242,128,0,313324:0:0:0:0:
475,192,313242,1,0,0:0:0:0:
329,192,313407,128,0,313489:0:0:0:0:
256,192,313407,1,8,0:0:0:0:
36,192,313407,1,0,0:0:0:0:
109,192,313571,128,0,313654:0:0:0:0:
402,192,313571,1,0,0:0:0:0:
36,192,313736,128,0,313819:0:0:0:0:
256,192,313736,1,8,0:0:0:0:
475,192,313736,1,0,0:0:0:0:
182,192,313901,128,0,313984:0:0:0:0:
329,192,313901,1,0,0:0:0:0:
475,192,314066,128,0,314148:0:0:0:0:
109,192,314066,1,0,0:0:0:0:
402,192,314066,1,8,0:0:0:0:
109,192,314231,128,0,314313:0:0:0:0:
256,192,314231,1,0,0:0:0:0:
402,192,314396,128,0,314478:0:0:0:0:
36,192,314396,1,0,0:0:0:0:
329,192,314396,1,8,0:0:0:0:
256,192,314560,128,0,314643:0:0:0:0:
182,192,314560,1,0,0:0:0:0:
109,192,314725,128,0,314808:0:0:0:0:
36,192,314725,1,0,0:0:0:0:
329,192,314725,1,8,0:0:0:0:
256,192,314890,128,0,314973:0:0:0:0:
475,192,314890,1,0,0:0:0:0:
475,192,315055,128,0,315137:0:0:0:0:
182,192,315055,1,8,0:0:0:0:
402,192,315055,1,0,0:0:0:0:
329,192,315220,128,0,315302:0:0:0:0:
36,192,315220,1,0,0:0:0:0:
36,192,315385,128,0,315467:0:0:0:0:
109,192,315385,1,0,0:0:0:0:
256,192,315385,1,8,0:0:0:0:
182,192,315550,128,0,315632:0:0:0:0:
402,192,315550,1,0,0:0:0:0:
475,192,315714,128,0,315797:0:0:0:0:
329,192,315714,1,8,0:0:0:0:
36,192,315714,1,0,0:0:0:0:
182,192,315879,128,0,315962:0:0:0:0:
109,192,315879,1,0,0:0:0:0:
329,192,316044,128,0,316126:0:0:0:0:
475,192,316044,1,0,0:0:0:0:
256,192,316044,1,8,0:0:0:0:
109,192,316209,128,0,316291:0:0:0:0:
402,192,316209,1,0,0:0:0:0:
36,192,316374,128,0,316456:0:0:0:0:
182,192,316374,1,0,0:0:0:0:
329,192,316374,1,8,0:0:0:0:
182,192,316539,128,0,316621:0:0:0:0:
402,192,316539,1,0,0:0:0:0:
475,192,316703,128,0,316786:0:0:0:0:
36,192,316703,1,0,0:0:0:0:
256,192,316703,1,8,0:0:0:0:
109,192,316868,128,0,316951:0:0:0:0:
329,192,316868,1,0,0:0:0:0:
402,192,317033,128,0,317115:0:0:0:0:
182,192,317033,1,8,0:0:0:0:
36,192,317033,1,0,0:0:0:0:
256,192,317198,128,0,317280:0:0:0:0:
475,192,317198,1,0,0:0:0:0:
109,192,317363,128,0,317445:0:0:0:0:
182,192,317363,1,8,0:0:0:0:
402,192,317363,1,0,0:0:0:0:
256,192,317528,128,0,317610:0:0:0:0:
36,192,317528,1,0,0:0:0:0:
475,192,317692,128,0,317775:0:0:0:0:
402,192,317692,1,0,0:0:0:0:
182,192,317692,1,8,0:0:0:0:
329,192,317857,128,0,317940:0:0:0:0:
109,192,317857,1,0,0:0:0:0:
36,192,318022,128,0,318104:0:0:0:0:
182,192,318022,1,8,0:0:0:0:
402,192,318022,1,0,0:0:0:0:
182,192,318187,128,0,318269:0:0:0:0:
256,192,318187,1,0,0:0:0:0:
475,192,318352,128,0,318434:0:0:0:0:
36,192,318352,1,0,0:0:0:0:
329,192,318352,1,8,0:0:0:0:
182,192,318517,128,0,318599:0:0:0:0:
109,192,318517,1,0,0:0:0:0:
329,192,318681,128,0,318764:0:0:0:0:
475,192,318681,1,0,0:0:0:0:
402,192,318681,1,8,0:0:0:0:
109,192,318846,128,0,318929:0:0:0:0:
256,192,318846,1,0,0:0:0:0:
36,192,319011,128,0,319093:0:0:0:0:
182,192,319011,1,0,0:0:0:0:
402,192,319011,1,8,0:0:0:0:
182,192,319176,128,0,319258:0:0:0:0:
329,192,319176,1,0,0:0:0:0:
475,192,319341,128,0,319423:0:0:0:0:
402,192,319341,1,8,0:0:0:0:
36,192,319341,1,0,0:0:0:0:
109,192,319506,128,0,319588:0:0:0:0:
182,192,319506,1,0,0:0:0:0:
402,192,319670,128,0,319753:0:0:0:0:
329,192,319670,1,8,0:0:0:0:
475,192,319670,1,0,0:0:0:0:
256,192,319835,128,0,319918:0:0:0:0:
109,192,319835,1,0,0:0:0:0:
109,192,320000,128,0,320082:0:0:0:0:
329,192,320000,1,8,0:0:0:0:
36,192,320000,1,0,0:0:0:0:
256,192,320165,128,0,320247:0:0:0:0:
402,192,320165,1,0,0:0:0:0:
475,192,320165,1,0,0:0:0:0:
475,192,320330,128,0,320412:0:0:0:0:
182,192,320330,1,8,0:0:0:0:
109,192,320330,1,0,0:0:0:0:
329,192,320495,128,0,320577:0:0:0:0:
36,192,320495,1,0,0:0:0:0:
36,192,320659,128,0,320742:0:0:0:0:
109,192,320659,1,0,0:0:0:0:
256,192,320659,1,8,0:0:0:0:
182,192,320824,128,0,320907:0:0:0:0:
402,192,320824,1,0,0:0:0:0:
475,192,320989,128,0,321071:0:0:0:0:
109,192,320989,1,0,0:0:0:0:
329,192,320989,1,8,0:0:0:0:
182,192,321154,128,0,321236:0:0:0:0:
256,192,321154,1,0,0:0:0:0:
329,192,321319,128,0,321401:0:0:0:0:
36,192,321319,1,0,0:0:0:0:
475,192,321319,1,8,0:0:0:0:
256,192,321484,1,0,0:0:0:0:
109,192,321484,128,0,321566:0:0:0:0:
36,192,321648,128,0,321731:0:0:0:0:
329,192,321648,1,8,0:0:0:0:
182,192,321648,1,0,0:0:0:0:
182,192,321813,128,0,321896:0:0:0:0:
402,192,321813,1,0,0:0:0:0:
475,192,321978,128,0,322060:0:0:0:0:
256,192,321978,1,0,0:0:0:0:
329,192,321978,1,8,0:0:0:0:
109,192,322143,128,0,322225:0:0:0:0:
36,192,322143,1,0,0:0:0:0:
402,192,322308,128,0,322390:0:0:0:0:
182,192,322308,1,8,0:0:0:0:
475,192,322308,1,0,0:0:0:0:
256,192,322473,128,0,322555:0:0:0:0:
329,192,322473,1,0,0:0:0:0:
109,192,322637,128,0,322720:0:0:0:0:
36,192,322637,1,0,0:0:0:0:
402,192,322637,1,8,0:0:0:0:
256,192,322802,128,0,322885:0:0:0:0:
329,192,322802,1,0,0:0:0:0:
475,192,322967,128,0,323050:0:0:0:0:
182,192,322967,1,8,0:0:0:0:
36,192,322967,1,0,0:0:0:0:
329,192,323132,128,0,323214:0:0:0:0:
109,192,323132,1,0,0:0:0:0:
36,192,323297,128,0,323379:0:0:0:0:
329,192,323297,1,0,0:0:0:0:
256,192,323297,1,8,0:0:0:0:
182,192,323462,128,0,323544:0:0:0:0:
402,192,323462,1,0,0:0:0:0:
475,192,323626,128,0,323709:0:0:0:0:
109,192,323626,1,8,0:0:0:0:
36,192,323626,1,0,0:0:0:0:
182,192,323791,128,0,323874:0:0:0:0:
402,192,323791,1,0,0:0:0:0:
329,192,323956,128,0,324039:0:0:0:0:
36,192,323956,1,8,0:0:0:0:
475,192,323956,1,0,0:0:0:0:
256,192,324121,1,0,0:0:0:0:
109,192,324121,128,0,324203:0:0:0:0:
36,192,324286,128,0,324368:0:0:0:0:
109,192,324286,1,0,0:0:0:0:
402,192,324286,1,8,0:0:0:0:
182,192,324451,128,0,324533:0:0:0:0:
329,192,324451,1,0,0:0:0:0:
475,192,324615,128,0,324698:0:0:0:0:
109,192,324615,1,0,0:0:0:0:
256,192,324615,1,8,0:0:0:0:
109,192,324780,128,0,324863:0:0:0:0:
182,192,324780,1,0,0:0:0:0:
402,192,324945,128,0,325028:0:0:0:0:
329,192,324945,1,8,0:0:0:0:
36,192,324945,1,0,0:0:0:0:
256,192,325110,128,0,325192:0:0:0:0:
182,192,325110,1,0,0:0:0:0:
109,192,325275,128,0,325357:0:0:0:0:
475,192,325275,1,8,0:0:0:0:
36,192,325275,1,0,0:0:0:0:
256,192,325440,128,0,325522:0:0:0:0:
402,192,325440,1,0,0:0:0:0:
475,192,325604,128,0,325687:0:0:0:0:
36,192,325604,1,8,0:0:0:0:
329,192,325769,128,0,325852:0:0:0:0:
182,192,325769,1,0,0:0:0:0:
36,192,325934,128,0,326017:0:0:0:0:
329,192,325934,1,0,0:0:0:0:
475,192,325934,1,8,0:0:0:0:
182,192,326099,128,0,326181:0:0:0:0:
256,192,326099,1,0,0:0:0:0:
475,192,326264,128,0,326346:0:0:0:0:
402,192,326264,1,8,0:0:0:0:
109,192,326264,1,0,0:0:0:0:
182,192,326429,128,0,326511:0:0:0:0:
256,192,326429,1,0,0:0:0:0:
329,192,326593,128,0,326676:0:0:0:0:
402,192,326593,1,8,0:0:0:0:
36,192,326593,1,0,0:0:0:0:
109,192,326758,128,0,326841:0:0:0:0:
329,192,326758,1,0,0:0:0:0:
36,192,326923,128,0,327006:0:0:0:0:
475,192,326923,1,0,0:0:0:0:
256,192,326923,1,8,0:0:0:0:
182,192,327088,128,0,327170:0:0:0:0:
402,192,327088,1,0,0:0:0:0:
329,192,327253,1,8,0:0:0:0:
475,192,327253,128,0,327335:0:0:0:0:
36,192,327253,1,0,0:0:0:0:
109,192,327418,128,0,327500:0:0:0:0:
402,192,327418,1,0,0:0:0:0:
256,192,327582,128,8,331539:0:0:0:0:
182,192,327582,1,0,0:0:0:0:
36,192,327582,1,0,0:0:0:0:
