osu file format v14

[General]
AudioFilename: audio.mp3
AudioLeadIn: 0
PreviewTime: 46921
Countdown: 0
SampleSet: Soft
StackLeniency: 0.7
Mode: 3
LetterboxInBreaks: 0
SpecialStyle: 0
WidescreenStoryboard: 0

[Editor]
DistanceSpacing: 1.1
BeatDivisor: 2
GridSize: 4
TimelineZoom: 1

[Metadata]
Title:crepe suzette
TitleUnicode:crêpe suzette
Artist:kamome sano
ArtistUnicode:kamome sano
Creator:Ortlinde
Version:NOVICE Lv.7
Source:SOUND VOLTEX III GRAVITY WARS
Tags:The 4th KACオリジナル楽曲コンテスト Original Song Contest Momo KONAMI BEMANI sdvx 3 French dessert leoudel 沙野カモメ
BeatmapID:1074672
BeatmapSetID:505141

[Difficulty]
HPDrainRate:7
CircleSize:4
OverallDifficulty:7
ApproachRate:5
SliderMultiplier:1.4
SliderTickRate:1

[Events]
//Background and Video events
0,0,"BGnov.jpg",0,0
//Break Periods
//Storyboard Layer 0 (Background)
//Storyboard Layer 1 (Fail)
//Storyboard Layer 2 (Pass)
//Storyboard Layer 3 (Foreground)
//Storyboard Sound Samples

[TimingPoints]
608,296.882731321128,4,2,1,40,1,0
27921,-100,4,2,1,40,0,1
46921,-100,4,2,1,40,0,0
89672,296.882731321128,3,2,1,40,1,0
93234,296.882731321128,4,2,1,40,1,0
97984,-100,4,2,1,40,0,1
105999,-100,4,2,1,40,0,0
106296,-100,4,2,1,40,0,1
116836,-100,4,2,1,40,0,0

[HitObjects]
64,192,608,5,0,0:0:0:0:
320,192,756,1,0,0:0:0:0:
192,192,904,1,0,0:0:0:0:
448,192,1053,128,0,1350:0:0:0:0:
64,192,1350,1,0,0:0:0:0:
192,192,1498,1,0,0:0:0:0:
320,192,1647,128,0,1943:0:0:0:0:
64,192,1943,1,0,0:0:0:0:
448,192,2092,1,0,0:0:0:0:
192,192,2240,128,0,2537:0:0:0:0:
320,192,2537,1,0,0:0:0:0:
448,192,2686,1,0,0:0:0:0:
64,192,2834,128,0,3131:0:0:0:0:
320,192,3131,1,0,0:0:0:0:
192,192,3279,1,0,0:0:0:0:
448,192,3428,128,0,3725:0:0:0:0:
320,192,3725,1,0,0:0:0:0:
192,192,3873,1,0,0:0:0:0:
64,192,4022,128,0,4319:0:0:0:0:
448,192,4319,1,0,0:0:0:0:
192,192,4467,1,0,0:0:0:0:
320,192,4615,128,0,5061:0:0:0:0:
448,192,5061,128,0,5358:0:0:0:0:
192,192,5358,1,0,0:0:0:0:
320,192,5506,1,0,0:0:0:0:
64,192,5655,1,0,0:0:0:0:
192,192,5803,128,0,6100:0:0:0:0:
448,192,6100,1,0,0:0:0:0:
320,192,6248,1,0,0:0:0:0:
64,192,6397,128,0,6694:0:0:0:0:
448,192,6694,1,0,0:0:0:0:
320,192,6842,1,0,0:0:0:0:
192,192,6990,128,0,7287:0:0:0:0:
448,192,7287,1,0,0:0:0:0:
64,192,7436,1,0,0:0:0:0:
320,192,7584,128,0,7881:0:0:0:0:
192,192,7881,1,0,0:0:0:0:
448,192,8030,1,0,0:0:0:0:
64,192,8178,128,0,8475:0:0:0:0:
320,192,8475,1,0,0:0:0:0:
192,192,8623,1,0,0:0:0:0:
448,192,8772,128,0,9514:0:0:0:0:
320,192,9514,128,0,9811:0:0:0:0:
64,192,9811,128,0,10108:0:0:0:0:
448,192,10108,1,0,0:0:0:0:
192,192,10256,1,0,0:0:0:0:
320,192,10405,1,0,0:0:0:0:
64,192,10553,1,0,0:0:0:0:
192,192,10702,1,0,0:0:0:0:
320,192,10850,1,0,0:0:0:0:
448,192,10998,1,0,0:0:0:0:
64,192,11147,1,0,0:0:0:0:
320,192,11295,1,0,0:0:0:0:
192,192,11444,1,0,0:0:0:0:
448,192,11592,1,0,0:0:0:0:
192,192,11741,1,0,0:0:0:0:
320,192,11889,1,0,0:0:0:0:
64,192,12037,1,0,0:0:0:0:
448,192,12186,1,0,0:0:0:0:
320,192,12334,1,0,0:0:0:0:
64,192,12483,1,0,0:0:0:0:
192,192,12631,1,0,0:0:0:0:
448,192,12780,1,0,0:0:0:0:
320,192,12928,1,0,0:0:0:0:
64,192,13077,1,0,0:0:0:0:
448,192,13225,1,0,0:0:0:0:
192,192,13373,1,0,0:0:0:0:
320,192,13522,1,0,0:0:0:0:
64,192,13670,1,0,0:0:0:0:
192,192,13819,1,0,0:0:0:0:
448,192,13967,1,0,0:0:0:0:
320,192,14116,1,0,0:0:0:0:
192,192,14264,1,0,0:0:0:0:
64,192,14413,1,0,0:0:0:0:
320,192,14561,1,0,0:0:0:0:
448,192,14709,1,0,0:0:0:0:
192,192,14858,1,0,0:0:0:0:
320,192,15006,1,0,0:0:0:0:
64,192,15155,1,0,0:0:0:0:
448,192,15303,1,0,0:0:0:0:
320,192,15452,1,0,0:0:0:0:
192,192,15600,1,0,0:0:0:0:
448,192,15749,1,0,0:0:0:0:
64,192,15897,1,0,0:0:0:0:
192,192,16045,1,0,0:0:0:0:
320,192,16194,1,0,0:0:0:0:
448,192,16342,1,0,0:0:0:0:
64,192,16491,1,0,0:0:0:0:
320,192,16639,1,0,0:0:0:0:
192,192,16788,1,0,0:0:0:0:
448,192,16936,1,0,0:0:0:0:
320,192,17084,1,0,0:0:0:0:
64,192,17233,1,0,0:0:0:0:
448,192,17381,1,0,0:0:0:0:
192,192,17530,1,0,0:0:0:0:
320,192,17678,1,0,0:0:0:0:
64,192,17827,1,0,0:0:0:0:
192,192,17975,1,0,0:0:0:0:
320,192,18124,1,0,0:0:0:0:
448,192,18272,1,0,0:0:0:0:
64,192,18420,1,8,0:0:0:0:
64,192,18717,1,8,0:0:0:0:
192,192,19014,1,8,0:0:0:0:
192,192,19311,1,8,0:0:0:0:
448,192,19608,1,8,0:0:0:0:
448,192,19905,1,8,0:0:0:0:
320,192,20202,1,8,0:0:0:0:
320,192,20499,1,8,0:0:0:0:
192,192,20796,1,8,0:0:0:0:
192,192,21092,1,8,0:0:0:0:
448,192,21389,1,8,0:0:0:0:
448,192,21686,1,8,0:0:0:0:
64,192,21983,1,8,0:0:0:0:
64,192,22280,1,8,0:0:0:0:
320,192,22577,1,8,0:0:0:0:
320,192,22874,1,8,0:0:0:0:
192,192,23171,1,2,0:0:0:0:
448,192,23171,1,0,0:0:0:0:
320,192,23467,1,2,0:0:0:0:
64,192,23467,1,0,0:0:0:0:
64,192,23764,1,2,0:0:0:0:
448,192,23764,1,0,0:0:0:0:
192,192,24061,1,2,0:0:0:0:
320,192,24061,1,0,0:0:0:0:
448,192,24358,1,0,0:0:0:0:
192,192,24358,1,2,0:0:0:0:
64,192,24655,1,0,0:0:0:0:
448,192,24655,1,2,0:0:0:0:
320,192,24952,1,2,0:0:0:0:
64,192,24952,1,0,0:0:0:0:
192,192,25249,1,2,0:0:0:0:
320,192,25249,1,0,0:0:0:0:
192,192,25546,1,2,0:0:0:0:
448,192,25546,1,0,0:0:0:0:
448,192,25843,1,2,0:0:0:0:
64,192,25843,1,0,0:0:0:0:
320,192,26139,1,2,0:0:0:0:
64,192,26139,1,0,0:0:0:0:
192,192,26436,1,2,0:0:0:0:
320,192,26436,1,0,0:0:0:0:
448,192,26733,128,0,27327:0:0:0:0:
64,192,27327,128,2,27624:0:0:0:0:
320,192,27624,128,0,27921:0:0:0:0:
64,192,27921,1,2,0:0:0:0:
448,192,27921,1,4,0:0:0:0:
192,192,28218,1,8,0:0:0:0:
320,192,28218,1,0,0:0:0:0:
448,192,28514,1,2,0:0:0:0:
320,192,28811,1,8,0:0:0:0:
64,192,28811,1,0,0:0:0:0:
192,192,29108,1,2,0:0:0:0:
64,192,29405,1,8,0:0:0:0:
448,192,29405,1,0,0:0:0:0:
320,192,29702,1,2,0:0:0:0:
192,192,29999,1,8,0:0:0:0:
448,192,29999,1,0,0:0:0:0:
64,192,30296,1,2,0:0:0:0:
320,192,30593,1,8,0:0:0:0:
192,192,30593,1,0,0:0:0:0:
448,192,30890,1,2,0:0:0:0:
320,192,31186,1,8,0:0:0:0:
64,192,31186,1,0,0:0:0:0:
192,192,31483,1,2,0:0:0:0:
64,192,31780,1,0,0:0:0:0:
448,192,31780,1,8,0:0:0:0:
320,192,32077,1,2,0:0:0:0:
192,192,32374,1,8,0:0:0:0:
448,192,32374,1,0,0:0:0:0:
320,192,32671,1,2,0:0:0:0:
192,192,32968,1,8,0:0:0:0:
64,192,32968,1,0,0:0:0:0:
448,192,33265,1,2,0:0:0:0:
320,192,33561,1,0,0:0:0:0:
192,192,33561,1,8,0:0:0:0:
64,192,33858,1,2,0:0:0:0:
320,192,34155,1,8,0:0:0:0:
448,192,34155,1,0,0:0:0:0:
192,192,34452,1,2,0:0:0:0:
64,192,34749,1,0,0:0:0:0:
448,192,34749,1,8,0:0:0:0:
320,192,35046,1,2,0:0:0:0:
64,192,35343,1,0,0:0:0:0:
192,192,35343,1,8,0:0:0:0:
448,192,35640,1,2,0:0:0:0:
320,192,35937,1,0,0:0:0:0:
64,192,35937,1,8,0:0:0:0:
192,192,36233,1,2,0:0:0:0:
448,192,36382,1,2,0:0:0:0:
64,192,36530,1,2,0:0:0:0:
320,192,36679,1,2,0:0:0:0:
448,192,36976,1,2,0:0:0:0:
320,192,37124,1,2,0:0:0:0:
192,192,37273,1,2,0:0:0:0:
64,192,37421,1,2,0:0:0:0:
448,192,37421,1,4,0:0:0:0:
192,192,37718,1,8,0:0:0:0:
448,192,37718,1,0,0:0:0:0:
320,192,38015,1,2,0:0:0:0:
192,192,38312,1,8,0:0:0:0:
64,192,38312,1,0,0:0:0:0:
448,192,38608,1,2,0:0:0:0:
320,192,38905,1,8,0:0:0:0:
64,192,38905,1,0,0:0:0:0:
448,192,39202,1,2,0:0:0:0:
320,192,39499,1,0,0:0:0:0:
192,192,39499,1,8,0:0:0:0:
64,192,39796,1,2,0:0:0:0:
192,192,40093,1,8,0:0:0:0:
448,192,40093,1,0,0:0:0:0:
320,192,40390,1,2,0:0:0:0:
448,192,40687,1,0,0:0:0:0:
64,192,40687,1,8,0:0:0:0:
192,192,40984,1,2,0:0:0:0:
320,192,41280,1,8,0:0:0:0:
64,192,41280,1,0,0:0:0:0:
448,192,41577,1,2,0:0:0:0:
320,192,41874,1,0,0:0:0:0:
192,192,41874,1,8,0:0:0:0:
64,192,42171,1,2,0:0:0:0:
192,192,42320,1,2,0:0:0:0:
320,192,42468,1,8,0:0:0:0:
448,192,42468,1,0,0:0:0:0:
64,192,42765,1,2,0:0:0:0:
192,192,43062,1,8,0:0:0:0:
320,192,43062,1,0,0:0:0:0:
448,192,43359,1,2,0:0:0:0:
320,192,43655,1,8,0:0:0:0:
64,192,43655,1,0,0:0:0:0:
192,192,43952,1,2,0:0:0:0:
64,192,44249,1,8,0:0:0:0:
448,192,44249,1,0,0:0:0:0:
320,192,44546,1,2,0:0:0:0:
64,192,44695,1,8,0:0:0:0:
448,192,44843,1,2,0:0:0:0:
192,192,44991,1,8,0:0:0:0:
320,192,45140,1,2,0:0:0:0:
64,192,45288,1,8,0:0:0:0:
448,192,45437,1,2,0:0:0:0:
320,192,45585,1,2,0:0:0:0:
64,192,45882,1,2,0:0:0:0:
192,192,46031,1,2,0:0:0:0:
448,192,46179,1,2,0:0:0:0:
320,192,46327,1,2,0:0:0:0:
192,192,46476,1,2,0:0:0:0:
64,192,46624,128,0,46921:0:0:0:0:
192,192,46921,1,4,0:0:0:0:
448,192,46921,1,2,0:0:0:0:
320,192,47070,1,0,0:0:0:0:
64,192,47218,1,2,0:0:0:0:
448,192,47367,1,0,0:0:0:0:
192,192,47515,1,2,0:0:0:0:
320,192,47663,1,0,0:0:0:0:
64,192,47812,1,2,0:0:0:0:
448,192,47960,1,0,0:0:0:0:
320,192,48109,1,2,0:0:0:0:
192,192,48257,1,0,0:0:0:0:
448,192,48406,1,2,0:0:0:0:
64,192,48554,1,0,0:0:0:0:
320,192,48703,1,2,0:0:0:0:
192,192,48851,1,0,0:0:0:0:
448,192,48999,128,2,49296:0:0:0:0:
64,192,49148,1,0,0:0:0:0:
192,192,49296,128,2,49593:0:0:0:0:
320,192,49593,1,2,0:0:0:0:
320,192,49890,1,2,0:0:0:0:
192,192,49890,1,0,0:0:0:0:
448,192,50187,1,2,0:0:0:0:
320,192,50484,1,2,0:0:0:0:
64,192,50484,1,0,0:0:0:0:
192,192,50781,1,2,0:0:0:0:
64,192,51078,1,2,0:0:0:0:
448,192,51078,128,0,51374:0:0:0:0:
320,192,51374,128,2,51671:0:0:0:0:
192,192,51671,1,2,0:0:0:0:
448,192,51671,1,0,0:0:0:0:
64,192,51820,1,0,0:0:0:0:
320,192,51968,1,2,0:0:0:0:
192,192,52117,1,0,0:0:0:0:
448,192,52265,1,2,0:0:0:0:
64,192,52414,1,0,0:0:0:0:
192,192,52562,1,2,0:0:0:0:
320,192,52710,1,0,0:0:0:0:
448,192,52859,1,2,0:0:0:0:
320,192,53007,1,0,0:0:0:0:
192,192,53156,1,2,0:0:0:0:
64,192,53304,1,0,0:0:0:0:
448,192,53453,1,2,0:0:0:0:
192,192,53601,1,0,0:0:0:0:
320,192,53750,1,2,0:0:0:0:
64,192,53898,1,0,0:0:0:0:
448,192,54046,128,2,54343:0:0:0:0:
320,192,54343,128,2,54640:0:0:0:0:
192,192,54640,128,2,54937:0:0:0:0:
64,192,54937,128,0,55234:0:0:0:0:
448,192,55234,1,4,0:0:0:0:
320,192,55234,1,2,0:0:0:0:
64,192,55679,1,2,0:0:0:0:
192,192,55828,1,8,0:0:0:0:
448,192,55828,1,0,0:0:0:0:
320,192,55976,128,6,56273:0:0:0:0:
64,192,56273,128,0,56718:0:0:0:0:
192,192,56718,1,2,0:0:0:0:
448,192,56718,1,4,0:0:0:0:
320,192,56867,1,0,0:0:0:0:
64,192,57015,1,2,0:0:0:0:
448,192,57164,1,0,0:0:0:0:
192,192,57312,1,2,0:0:0:0:
320,192,57461,1,0,0:0:0:0:
64,192,57609,1,2,0:0:0:0:
448,192,57757,1,0,0:0:0:0:
320,192,57906,1,2,0:0:0:0:
192,192,58054,1,0,0:0:0:0:
448,192,58203,1,2,0:0:0:0:
64,192,58351,1,0,0:0:0:0:
320,192,58500,128,2,58797:0:0:0:0:
192,192,58648,1,0,0:0:0:0:
448,192,58797,128,2,59093:0:0:0:0:
64,192,59093,128,2,59390:0:0:0:0:
448,192,59390,1,2,0:0:0:0:
64,192,59687,1,0,0:0:0:0:
320,192,59687,1,2,0:0:0:0:
192,192,59984,1,2,0:0:0:0:
64,192,60281,1,0,0:0:0:0:
448,192,60281,1,2,0:0:0:0:
320,192,60578,128,2,60875:0:0:0:0:
192,192,60875,1,2,0:0:0:0:
448,192,60875,128,0,61172:0:0:0:0:
64,192,61172,1,2,0:0:0:0:
192,192,61320,1,2,0:0:0:0:
448,192,61468,1,0,0:0:0:0:
320,192,61468,1,2,0:0:0:0:
64,192,61617,1,0,0:0:0:0:
448,192,61765,1,2,0:0:0:0:
192,192,61914,1,0,0:0:0:0:
320,192,62062,1,2,0:0:0:0:
64,192,62211,1,0,0:0:0:0:
192,192,62359,1,2,0:0:0:0:
320,192,62508,1,0,0:0:0:0:
448,192,62656,1,2,0:0:0:0:
64,192,62804,1,0,0:0:0:0:
320,192,62953,1,2,0:0:0:0:
192,192,63101,1,0,0:0:0:0:
448,192,63250,1,0,0:0:0:0:
320,192,63398,1,0,0:0:0:0:
192,192,63547,1,2,0:0:0:0:
64,192,63547,128,4,64140:0:0:0:0:
192,192,64140,1,0,0:0:0:0:
448,192,64140,1,8,0:0:0:0:
64,192,64586,1,2,0:0:0:0:
448,192,64586,128,4,65328:0:0:0:0:
192,192,65328,128,0,65476:0:0:0:0:
320,192,65476,128,0,65625:0:0:0:0:
64,192,65625,128,0,65773:0:0:0:0:
448,192,65773,128,0,65922:0:0:0:0:
192,192,65922,1,2,0:0:0:0:
320,192,65922,128,4,66219:0:0:0:0:
64,192,66219,1,0,0:0:0:0:
320,192,66515,1,0,0:0:0:0:
192,192,66515,1,8,0:0:0:0:
64,192,66812,1,0,0:0:0:0:
192,192,67109,1,0,0:0:0:0:
448,192,67109,1,2,0:0:0:0:
320,192,67406,1,0,0:0:0:0:
448,192,67703,1,8,0:0:0:0:
64,192,67703,1,0,0:0:0:0:
192,192,68000,1,0,0:0:0:0:
64,192,68297,1,0,0:0:0:0:
448,192,68297,1,2,0:0:0:0:
320,192,68594,1,0,0:0:0:0:
192,192,68742,1,2,0:0:0:0:
448,192,68891,1,8,0:0:0:0:
64,192,68891,1,0,0:0:0:0:
320,192,69187,1,0,0:0:0:0:
448,192,69484,1,0,0:0:0:0:
192,192,69484,1,2,0:0:0:0:
64,192,69781,1,0,0:0:0:0:
320,192,70078,1,8,0:0:0:0:
192,192,70078,1,0,0:0:0:0:
448,192,70276,1,0,0:0:0:0:
448,192,70474,1,0,0:0:0:0:
64,192,70672,1,0,0:0:0:0:
192,192,70672,1,2,0:0:0:0:
320,192,70969,1,0,0:0:0:0:
192,192,71266,1,8,0:0:0:0:
448,192,71266,1,0,0:0:0:0:
64,192,71562,1,0,0:0:0:0:
320,192,71859,1,2,0:0:0:0:
448,192,71859,1,0,0:0:0:0:
192,192,72156,1,0,0:0:0:0:
320,192,72305,1,2,0:0:0:0:
448,192,72453,1,8,0:0:0:0:
64,192,72453,1,0,0:0:0:0:
192,192,72602,1,2,0:0:0:0:
320,192,72750,1,0,0:0:0:0:
192,192,72898,1,0,0:0:0:0:
448,192,73047,1,8,0:0:0:0:
64,192,73047,1,0,0:0:0:0:
320,192,73195,1,2,0:0:0:0:
64,192,73344,1,2,0:0:0:0:
448,192,73492,1,8,0:0:0:0:
192,192,73641,1,2,0:0:0:0:
320,192,73789,1,2,0:0:0:0:
64,192,73938,1,8,0:0:0:0:
448,192,74086,1,8,0:0:0:0:
320,192,74383,1,2,0:0:0:0:
64,192,74531,1,8,0:0:0:0:
192,192,74680,1,2,0:0:0:0:
448,192,74828,128,0,75422:0:0:0:0:
320,192,75422,1,2,0:0:0:0:
64,192,75422,128,4,76164:0:0:0:0:
448,192,76164,1,0,0:0:0:0:
320,192,76313,1,0,0:0:0:0:
192,192,76461,128,0,77203:0:0:0:0:
448,192,77203,128,0,77500:0:0:0:0:
64,192,77500,128,0,77797:0:0:0:0:
320,192,78094,128,0,78539:0:0:0:0:
192,192,78539,1,0,0:0:0:0:
448,192,78688,1,0,0:0:0:0:
64,192,78836,128,0,79578:0:0:0:0:
448,192,79578,128,0,79875:0:0:0:0:
320,192,79875,128,0,80172:0:0:0:0:
192,192,80172,128,0,80914:0:0:0:0:
448,192,80914,1,0,0:0:0:0:
320,192,81063,1,0,0:0:0:0:
64,192,81211,128,0,81953:0:0:0:0:
448,192,81953,128,0,82250:0:0:0:0:
192,192,82250,128,0,82547:0:0:0:0:
320,192,82547,128,0,83289:0:0:0:0:
64,192,83289,1,0,0:0:0:0:
448,192,83438,1,0,0:0:0:0:
192,192,83586,128,0,84328:0:0:0:0:
448,192,84328,128,0,84625:0:0:0:0:
64,192,84625,128,0,84922:0:0:0:0:
320,192,84922,128,0,85664:0:0:0:0:
64,192,85664,1,0,0:0:0:0:
192,192,85813,1,0,0:0:0:0:
448,192,85961,128,0,86703:0:0:0:0:
320,192,86703,128,0,87297:0:0:0:0:
64,192,87297,1,0,0:0:0:0:
448,192,87446,1,0,0:0:0:0:
192,192,87594,1,0,0:0:0:0:
320,192,87743,1,0,0:0:0:0:
64,192,87891,1,0,0:0:0:0:
192,192,88039,1,0,0:0:0:0:
448,192,88188,1,0,0:0:0:0:
320,192,88336,128,0,89079:0:0:0:0:
192,192,89079,1,8,0:0:0:0:
64,192,89079,1,0,0:0:0:0:
320,192,89375,1,0,0:0:0:0:
64,192,89672,1,2,0:0:0:0:
448,192,89672,128,4,90117:0:0:0:0:
320,192,90117,128,0,90265:0:0:0:0:
192,192,90414,128,0,90562:0:0:0:0:
448,192,90562,1,2,0:0:0:0:
64,192,90562,128,4,91007:0:0:0:0:
320,192,91007,128,0,91453:0:0:0:0:
192,192,91453,1,2,0:0:0:0:
448,192,91453,128,4,91898:0:0:0:0:
64,192,91898,128,0,92047:0:0:0:0:
192,192,92195,128,0,92343:0:0:0:0:
448,192,92343,1,2,0:0:0:0:
320,192,92343,128,4,92789:0:0:0:0:
64,192,92789,128,0,93234:0:0:0:0:
192,192,93234,1,2,0:0:0:0:
448,192,93234,1,0,0:0:0:0:
448,192,93530,1,2,0:0:0:0:
64,192,93530,1,0,0:0:0:0:
320,192,93827,1,2,0:0:0:0:
64,192,93827,1,0,0:0:0:0:
192,192,94124,1,2,0:0:0:0:
320,192,94124,1,0,0:0:0:0:
64,192,94421,1,2,0:0:0:0:
448,192,94421,1,0,0:0:0:0:
192,192,94718,1,2,0:0:0:0:
448,192,94718,1,0,0:0:0:0:
320,192,95015,1,2,0:0:0:0:
192,192,95015,1,0,0:0:0:0:
320,192,95312,1,2,0:0:0:0:
64,192,95312,1,0,0:0:0:0:
64,192,95609,1,0,0:0:0:0:
448,192,95609,1,2,0:0:0:0:
192,192,95905,1,2,0:0:0:0:
448,192,95905,1,0,0:0:0:0:
320,192,96202,1,2,0:0:0:0:
192,192,96202,1,0,0:0:0:0:
64,192,96499,1,2,0:0:0:0:
448,192,96499,1,0,0:0:0:0:
192,192,96796,1,2,0:0:0:0:
448,192,96945,1,0,0:0:0:0:
320,192,97093,1,0,0:0:0:0:
192,192,97241,1,0,0:0:0:0:
64,192,97390,1,0,0:0:0:0:
192,192,97538,1,0,0:0:0:0:
320,192,97687,1,0,0:0:0:0:
448,192,97835,1,0,0:0:0:0:
192,192,97984,1,2,0:0:0:0:
64,192,97984,128,4,98577:0:0:0:0:
320,192,98577,1,0,0:0:0:0:
448,192,98577,1,8,0:0:0:0:
64,192,98874,1,2,0:0:0:0:
448,192,98874,128,4,99765:0:0:0:0:
320,192,99765,1,8,0:0:0:0:
64,192,99765,1,0,0:0:0:0:
192,192,99913,1,0,0:0:0:0:
448,192,100062,1,0,0:0:0:0:
64,192,100210,128,0,100507:0:0:0:0:
192,192,100507,1,0,0:0:0:0:
320,192,100656,1,2,0:0:0:0:
448,192,100656,128,4,100952:0:0:0:0:
64,192,100804,1,0,0:0:0:0:
192,192,101101,1,0,0:0:0:0:
448,192,101249,1,2,0:0:0:0:
64,192,101249,128,4,102140:0:0:0:0:
192,192,102140,128,8,102437:0:0:0:0:
320,192,102437,128,8,102734:0:0:0:0:
64,192,102734,1,2,0:0:0:0:
448,192,102734,128,4,103328:0:0:0:0:
320,192,103328,1,8,0:0:0:0:
64,192,103328,1,0,0:0:0:0:
448,192,103624,1,2,0:0:0:0:
64,192,103624,128,4,104367:0:0:0:0:
192,192,104367,1,2,0:0:0:0:
320,192,104367,128,4,105109:0:0:0:0:
64,192,104663,1,8,0:0:0:0:
64,192,105109,1,2,0:0:0:0:
448,192,105109,1,0,0:0:0:0:
192,192,105257,1,0,0:0:0:0:
320,192,105406,1,0,0:0:0:0:
64,192,105554,1,0,0:0:0:0:
448,192,105703,1,0,0:0:0:0:
320,192,105851,1,0,0:0:0:0:
192,192,105999,128,0,106296:0:0:0:0:
64,192,106296,1,4,0:0:0:0:
448,192,106296,1,2,0:0:0:0:
192,192,106593,1,8,0:0:0:0:
320,192,106593,1,0,0:0:0:0:
64,192,106890,1,2,0:0:0:0:
192,192,107187,1,8,0:0:0:0:
448,192,107187,1,0,0:0:0:0:
320,192,107484,1,2,0:0:0:0:
448,192,107781,1,8,0:0:0:0:
64,192,107781,1,0,0:0:0:0:
192,192,108078,1,2,0:0:0:0:
320,192,108375,1,8,0:0:0:0:
448,192,108375,1,0,0:0:0:0:
64,192,108671,1,2,0:0:0:0:
192,192,108968,1,8,0:0:0:0:
320,192,108968,1,0,0:0:0:0:
448,192,109265,1,2,0:0:0:0:
320,192,109562,1,8,0:0:0:0:
64,192,109562,1,0,0:0:0:0:
192,192,109859,1,2,0:0:0:0:
64,192,110156,1,0,0:0:0:0:
448,192,110156,1,8,0:0:0:0:
320,192,110453,1,2,0:0:0:0:
192,192,110750,1,8,0:0:0:0:
448,192,110750,1,0,0:0:0:0:
64,192,111046,1,2,0:0:0:0:
320,192,111195,1,2,0:0:0:0:
192,192,111343,1,8,0:0:0:0:
448,192,111343,1,0,0:0:0:0:
320,192,111640,1,2,0:0:0:0:
64,192,111937,1,8,0:0:0:0:
448,192,111937,1,0,0:0:0:0:
192,192,112234,1,2,0:0:0:0:
320,192,112531,1,8,0:0:0:0:
64,192,112531,1,0,0:0:0:0:
448,192,112828,1,2,0:0:0:0:
320,192,113125,1,0,0:0:0:0:
192,192,113125,1,8,0:0:0:0:
64,192,113422,1,2,0:0:0:0:
192,192,113718,1,8,0:0:0:0:
448,192,113718,1,0,0:0:0:0:
320,192,114015,1,2,0:0:0:0:
448,192,114312,1,8,0:0:0:0:
64,192,114312,1,0,0:0:0:0:
192,192,114609,1,2,0:0:0:0:
320,192,114906,1,8,0:0:0:0:
448,192,114906,1,0,0:0:0:0:
64,192,115203,1,2,0:0:0:0:
192,192,115500,1,8,0:0:0:0:
320,192,115500,1,0,0:0:0:0:
448,192,115797,1,2,0:0:0:0:
192,192,115945,1,2,0:0:0:0:
320,192,116093,1,2,0:0:0:0:
64,192,116242,1,2,0:0:0:0:
448,192,116390,1,2,0:0:0:0:
320,192,116539,1,2,0:0:0:0:
192,192,116687,1,2,0:0:0:0:
64,192,116836,128,2,118172:0:0:0:0:
448,192,116836,128,4,119062:0:0:0:0:
