osu file format v14

[General]
AudioFilename: audio.mp3
AudioLeadIn: 0
PreviewTime: 84338
Countdown: 0
SampleSet: None
StackLeniency: 0.7
Mode: 3
LetterboxInBreaks: 0
SpecialStyle: 0
WidescreenStoryboard: 1

[Editor]
DistanceSpacing: 1.1
BeatDivisor: 4
GridSize: 4
TimelineZoom: 2

[Metadata]
Title:crepe suzette
TitleUnicode:crêpe suzette
Artist:kamome sano
ArtistUnicode:kamome sano
Creator:DustMoon
Version:EXHAUST
Source:SOUND VOLTEX III GRAVITY WARS
Tags:
BeatmapID:1615617
BeatmapSetID:768215

[Difficulty]
HPDrainRate:9
CircleSize:4
OverallDifficulty:8
ApproachRate:5
SliderMultiplier:1.4
SliderTickRate:1

[Events]
//Background and Video events
0,0,"BG.jpg",0,0
//Break Periods
//Storyboard Layer 0 (Background)
//Storyboard Layer 1 (Fail)
//Storyboard Layer 2 (Pass)
//Storyboard Layer 3 (Foreground)
//Storyboard Sound Samples

[TimingPoints]
26,296.882731321128,4,1,0,40,1,0

[HitObjects]
64,192,619,5,0,0:0:0:0:
320,192,768,1,0,0:0:0:0:
192,192,916,1,0,0:0:0:0:
320,192,1065,128,0,1361:0:0:0:0:
448,192,1361,1,0,0:0:0:0:
320,192,1510,1,0,0:0:0:0:
192,192,1658,128,0,1955:0:0:0:0:
64,192,1955,1,0,0:0:0:0:
320,192,2104,1,0,0:0:0:0:
448,192,2252,128,0,2549:0:0:0:0:
192,192,2549,1,0,0:0:0:0:
320,192,2697,1,0,0:0:0:0:
64,192,2846,128,0,3143:0:0:0:0:
192,192,3143,1,0,0:0:0:0:
448,192,3291,1,0,0:0:0:0:
320,192,3440,128,0,3737:0:0:0:0:
192,192,3737,1,0,0:0:0:0:
64,192,3885,1,0,0:0:0:0:
192,192,4033,1,0,0:0:0:0:
448,192,4108,128,0,4330:0:0:0:0:
320,192,4330,1,0,0:0:0:0:
192,192,4479,1,0,0:0:0:0:
448,192,4627,1,0,0:0:0:0:
64,192,4701,128,0,5073:0:0:0:0:
192,192,5073,128,0,5369:0:0:0:0:
320,192,5369,1,0,0:0:0:0:
448,192,5518,1,0,0:0:0:0:
64,192,5666,1,0,0:0:0:0:
320,192,5815,128,0,6112:0:0:0:0:
192,192,6112,1,0,0:0:0:0:
64,192,6260,1,0,0:0:0:0:
192,192,6408,128,0,6705:0:0:0:0:
448,192,6705,1,0,0:0:0:0:
320,192,6780,1,0,0:0:0:0:
192,192,6854,1,0,0:0:0:0:
448,192,7002,128,0,7299:0:0:0:0:
64,192,7299,1,0,0:0:0:0:
192,192,7448,1,0,0:0:0:0:
320,192,7596,128,0,7893:0:0:0:0:
448,192,7893,1,0,0:0:0:0:
192,192,8041,1,0,0:0:0:0:
64,192,8190,128,0,8487:0:0:0:0:
320,192,8487,1,0,0:0:0:0:
192,192,8635,1,0,0:0:0:0:
320,192,8784,128,0,9526:0:0:0:0:
448,192,9526,128,0,10045:0:0:0:0:
192,192,9526,1,0,0:0:0:0:
64,192,9526,128,0,9823:0:0:0:0:
192,192,9823,128,0,10120:0:0:0:0:
320,192,9823,1,0,0:0:0:0:
448,192,10120,1,0,0:0:0:0:
320,192,10120,1,0,0:0:0:0:
64,192,10120,128,0,10268:0:0:0:0:
320,192,10268,128,0,10416:0:0:0:0:
448,192,10268,1,0,0:0:0:0:
192,192,10416,128,0,10565:0:0:0:0:
64,192,10416,1,0,0:0:0:0:
448,192,10565,128,0,10713:0:0:0:0:
320,192,10565,1,0,0:0:0:0:
192,192,10713,1,0,0:0:0:0:
64,192,10862,128,0,11010:0:0:0:0:
320,192,10862,1,0,0:0:0:0:
192,192,11010,128,0,11159:0:0:0:0:
448,192,11010,1,0,0:0:0:0:
320,192,11159,128,0,11307:0:0:0:0:
64,192,11159,1,0,0:0:0:0:
192,192,11307,1,0,0:0:0:0:
448,192,11455,128,0,11604:0:0:0:0:
320,192,11455,1,0,0:0:0:0:
320,192,11604,128,0,11752:0:0:0:0:
192,192,11604,1,0,0:0:0:0:
192,192,11752,128,0,11901:0:0:0:0:
64,192,11752,1,0,0:0:0:0:
320,192,11901,1,0,0:0:0:0:
64,192,12049,128,0,12198:0:0:0:0:
448,192,12049,1,0,0:0:0:0:
320,192,12198,128,0,12346:0:0:0:0:
192,192,12198,1,0,0:0:0:0:
192,192,12346,128,0,12495:0:0:0:0:
64,192,12346,1,0,0:0:0:0:
448,192,12495,1,0,0:0:0:0:
320,192,12643,128,0,12791:0:0:0:0:
64,192,12643,1,0,0:0:0:0:
192,192,12791,128,0,12940:0:0:0:0:
448,192,12791,1,0,0:0:0:0:
64,192,12940,128,0,13088:0:0:0:0:
320,192,12940,1,0,0:0:0:0:
192,192,13088,1,0,0:0:0:0:
448,192,13237,128,0,13385:0:0:0:0:
320,192,13237,1,0,0:0:0:0:
64,192,13385,128,0,13534:0:0:0:0:
320,192,13385,1,0,0:0:0:0:
192,192,13534,1,0,0:0:0:0:
320,192,13608,128,0,13831:0:0:0:0:
448,192,13682,1,0,0:0:0:0:
64,192,13831,128,0,13979:0:0:0:0:
192,192,13831,1,0,0:0:0:0:
448,192,13979,128,0,14127:0:0:0:0:
192,192,13979,1,0,0:0:0:0:
320,192,14127,1,0,0:0:0:0:
192,192,14202,128,0,14424:0:0:0:0:
64,192,14276,1,0,0:0:0:0:
320,192,14424,1,0,0:0:0:0:
448,192,14573,128,0,14870:0:0:0:0:
192,192,14573,1,0,0:0:0:0:
64,192,14721,1,0,0:0:0:0:
320,192,14870,128,0,15018:0:0:0:0:
192,192,14870,1,0,0:0:0:0:
64,192,15018,128,0,15167:0:0:0:0:
448,192,15018,1,0,0:0:0:0:
192,192,15167,128,0,15315:0:0:0:0:
320,192,15167,1,0,0:0:0:0:
448,192,15315,128,0,15463:0:0:0:0:
64,192,15315,1,0,0:0:0:0:
320,192,15463,1,0,0:0:0:0:
320,192,15612,128,0,15760:0:0:0:0:
192,192,15612,1,0,0:0:0:0:
192,192,15760,128,0,15909:0:0:0:0:
64,192,15760,1,0,0:0:0:0:
64,192,15909,128,0,16057:0:0:0:0:
448,192,15909,1,0,0:0:0:0:
320,192,16057,1,0,0:0:0:0:
448,192,16206,128,0,16354:0:0:0:0:
192,192,16206,1,0,0:0:0:0:
320,192,16280,1,0,0:0:0:0:
192,192,16354,128,0,16502:0:0:0:0:
64,192,16354,1,0,0:0:0:0:
320,192,16502,128,0,16651:0:0:0:0:
448,192,16502,1,0,0:0:0:0:
64,192,16651,1,0,0:0:0:0:
192,192,16799,128,0,16948:0:0:0:0:
448,192,16799,1,0,0:0:0:0:
320,192,16948,128,0,17096:0:0:0:0:
64,192,16948,1,0,0:0:0:0:
448,192,17096,128,0,17245:0:0:0:0:
192,192,17096,1,0,0:0:0:0:
320,192,17245,1,0,0:0:0:0:
64,192,17393,128,0,17542:0:0:0:0:
448,192,17393,1,0,0:0:0:0:
320,192,17542,128,0,17690:0:0:0:0:
192,192,17542,1,0,0:0:0:0:
448,192,17690,128,0,17838:0:0:0:0:
64,192,17690,1,0,0:0:0:0:
192,192,17838,1,0,0:0:0:0:
320,192,17987,128,0,18135:0:0:0:0:
448,192,17987,1,0,0:0:0:0:
192,192,18135,128,0,18284:0:0:0:0:
64,192,18135,1,0,0:0:0:0:
64,192,18284,128,0,18432:0:0:0:0:
320,192,18284,1,0,0:0:0:0:
448,192,18432,1,0,0:0:0:0:
320,192,18432,1,0,0:0:0:0:
192,192,18581,1,0,0:0:0:0:
320,192,18729,1,0,0:0:0:0:
448,192,18729,1,0,0:0:0:0:
64,192,18878,1,0,0:0:0:0:
320,192,19026,1,0,0:0:0:0:
448,192,19026,1,0,0:0:0:0:
192,192,19174,1,0,0:0:0:0:
320,192,19323,1,0,0:0:0:0:
448,192,19323,1,0,0:0:0:0:
192,192,19397,1,0,0:0:0:0:
64,192,19471,1,0,0:0:0:0:
448,192,19546,1,0,0:0:0:0:
192,192,19620,1,0,0:0:0:0:
320,192,19620,1,0,0:0:0:0:
64,192,19768,1,0,0:0:0:0:
320,192,19917,1,0,0:0:0:0:
192,192,19917,1,0,0:0:0:0:
448,192,20065,1,0,0:0:0:0:
320,192,20214,1,0,0:0:0:0:
192,192,20214,1,0,0:0:0:0:
64,192,20362,1,0,0:0:0:0:
320,192,20510,1,0,0:0:0:0:
192,192,20510,1,0,0:0:0:0:
448,192,20585,1,0,0:0:0:0:
320,192,20659,1,0,0:0:0:0:
448,192,20733,1,0,0:0:0:0:
192,192,20807,1,0,0:0:0:0:
64,192,20807,1,0,0:0:0:0:
320,192,20956,1,0,0:0:0:0:
192,192,21104,1,0,0:0:0:0:
64,192,21104,1,0,0:0:0:0:
448,192,21253,1,0,0:0:0:0:
192,192,21401,1,0,0:0:0:0:
64,192,21401,1,0,0:0:0:0:
320,192,21549,1,0,0:0:0:0:
192,192,21698,1,0,0:0:0:0:
64,192,21698,1,0,0:0:0:0:
320,192,21772,1,0,0:0:0:0:
448,192,21846,1,0,0:0:0:0:
192,192,21921,1,0,0:0:0:0:
320,192,21995,1,0,0:0:0:0:
448,192,21995,1,0,0:0:0:0:
64,192,22143,1,0,0:0:0:0:
320,192,22292,1,0,0:0:0:0:
448,192,22292,1,0,0:0:0:0:
192,192,22440,1,0,0:0:0:0:
320,192,22589,1,0,0:0:0:0:
448,192,22589,1,0,0:0:0:0:
64,192,22737,1,0,0:0:0:0:
320,192,22885,1,0,0:0:0:0:
448,192,22885,1,0,0:0:0:0:
192,192,22960,1,0,0:0:0:0:
64,192,23034,1,0,0:0:0:0:
192,192,23108,1,0,0:0:0:0:
320,192,23182,1,0,0:0:0:0:
448,192,23182,1,0,0:0:0:0:
64,192,23182,1,0,0:0:0:0:
192,192,23331,1,0,0:0:0:0:
320,192,23479,1,0,0:0:0:0:
64,192,23479,1,0,0:0:0:0:
320,192,23628,1,0,0:0:0:0:
64,192,23776,1,0,0:0:0:0:
448,192,23776,1,0,0:0:0:0:
192,192,23925,1,0,0:0:0:0:
320,192,23925,1,0,0:0:0:0:
192,192,24073,1,0,0:0:0:0:
320,192,24147,1,0,0:0:0:0:
448,192,24221,1,0,0:0:0:0:
320,192,24296,1,0,0:0:0:0:
192,192,24370,1,0,0:0:0:0:
64,192,24370,1,0,0:0:0:0:
448,192,24370,1,0,0:0:0:0:
320,192,24518,1,0,0:0:0:0:
192,192,24667,1,0,0:0:0:0:
448,192,24667,1,0,0:0:0:0:
192,192,24815,1,0,0:0:0:0:
448,192,24964,1,0,0:0:0:0:
64,192,24964,1,0,0:0:0:0:
192,192,25112,1,0,0:0:0:0:
320,192,25112,1,0,0:0:0:0:
320,192,25261,1,0,0:0:0:0:
448,192,25261,1,0,0:0:0:0:
192,192,25335,1,0,0:0:0:0:
320,192,25409,1,0,0:0:0:0:
192,192,25483,1,0,0:0:0:0:
64,192,25557,1,0,0:0:0:0:
320,192,25557,1,0,0:0:0:0:
448,192,25557,1,0,0:0:0:0:
192,192,25706,1,0,0:0:0:0:
320,192,25854,1,0,0:0:0:0:
448,192,25854,1,0,0:0:0:0:
320,192,26003,1,0,0:0:0:0:
192,192,26151,1,0,0:0:0:0:
64,192,26151,1,0,0:0:0:0:
320,192,26300,1,0,0:0:0:0:
448,192,26300,1,0,0:0:0:0:
448,192,26448,1,0,0:0:0:0:
64,192,26448,1,0,0:0:0:0:
192,192,26522,1,0,0:0:0:0:
320,192,26597,1,0,0:0:0:0:
448,192,26671,1,0,0:0:0:0:
64,192,26745,128,0,27339:0:0:0:0:
192,192,26745,128,0,27339:0:0:0:0:
448,192,27339,128,0,27636:0:0:0:0:
320,192,27487,128,0,27636:0:0:0:0:
192,192,27636,1,0,0:0:0:0:
64,192,27710,1,0,0:0:0:0:
192,192,27784,1,0,0:0:0:0:
64,192,27858,1,0,0:0:0:0:
320,192,27932,1,0,0:0:0:0:
448,192,27932,128,0,28081:0:0:0:0:
320,192,28081,128,0,28229:0:0:0:0:
192,192,28081,1,0,0:0:0:0:
64,192,28229,128,0,28378:0:0:0:0:
448,192,28229,1,0,0:0:0:0:
192,192,28378,128,0,28675:0:0:0:0:
320,192,28378,1,0,0:0:0:0:
64,192,28526,1,0,0:0:0:0:
448,192,28526,1,0,0:0:0:0:
320,192,28675,128,0,28823:0:0:0:0:
64,192,28675,1,0,0:0:0:0:
448,192,28823,128,0,28972:0:0:0:0:
192,192,28823,1,0,0:0:0:0:
64,192,28972,128,0,29268:0:0:0:0:
320,192,28972,1,0,0:0:0:0:
448,192,29120,1,0,0:0:0:0:
192,192,29120,1,0,0:0:0:0:
192,192,29268,128,0,29417:0:0:0:0:
448,192,29268,1,0,0:0:0:0:
320,192,29417,128,0,29565:0:0:0:0:
64,192,29417,1,0,0:0:0:0:
448,192,29565,128,0,29862:0:0:0:0:
192,192,29565,1,0,0:0:0:0:
320,192,29714,1,0,0:0:0:0:
64,192,29714,1,0,0:0:0:0:
192,192,29862,128,0,30011:0:0:0:0:
320,192,29862,1,0,0:0:0:0:
64,192,30011,128,0,30159:0:0:0:0:
448,192,30011,1,0,0:0:0:0:
320,192,30159,128,0,30456:0:0:0:0:
448,192,30159,1,0,0:0:0:0:
192,192,30308,1,0,0:0:0:0:
64,192,30308,1,0,0:0:0:0:
448,192,30456,128,0,30604:0:0:0:0:
64,192,30456,1,0,0:0:0:0:
192,192,30604,128,0,30753:0:0:0:0:
320,192,30604,1,0,0:0:0:0:
64,192,30753,128,0,31050:0:0:0:0:
448,192,30753,1,0,0:0:0:0:
192,192,30901,1,0,0:0:0:0:
320,192,30901,1,0,0:0:0:0:
448,192,31050,128,0,31198:0:0:0:0:
320,192,31050,1,0,0:0:0:0:
320,192,31198,128,0,31347:0:0:0:0:
192,192,31198,1,0,0:0:0:0:
192,192,31347,128,0,31644:0:0:0:0:
64,192,31347,1,0,0:0:0:0:
64,192,31495,1,0,0:0:0:0:
448,192,31495,1,0,0:0:0:0:
448,192,31644,1,0,0:0:0:0:
320,192,31644,128,0,31792:0:0:0:0:
64,192,31792,128,0,31940:0:0:0:0:
192,192,31792,1,0,0:0:0:0:
448,192,31940,128,0,32386:0:0:0:0:
320,192,31940,1,0,0:0:0:0:
192,192,32089,1,0,0:0:0:0:
64,192,32089,1,0,0:0:0:0:
192,192,32237,1,0,0:0:0:0:
64,192,32386,128,0,32683:0:0:0:0:
320,192,32386,1,0,0:0:0:0:
448,192,32534,1,0,0:0:0:0:
192,192,32683,128,0,32831:0:0:0:0:
320,192,32683,1,0,0:0:0:0:
320,192,32831,128,0,32979:0:0:0:0:
448,192,32831,1,0,0:0:0:0:
448,192,32979,128,0,33128:0:0:0:0:
64,192,32979,1,0,0:0:0:0:
192,192,33128,128,0,33425:0:0:0:0:
320,192,33128,1,0,0:0:0:0:
448,192,33276,1,0,0:0:0:0:
64,192,33276,1,0,0:0:0:0:
64,192,33425,128,0,33573:0:0:0:0:
448,192,33425,1,0,0:0:0:0:
320,192,33573,128,0,33722:0:0:0:0:
192,192,33573,1,0,0:0:0:0:
448,192,33722,128,0,34019:0:0:0:0:
64,192,33722,1,0,0:0:0:0:
320,192,33870,1,0,0:0:0:0:
192,192,33870,1,0,0:0:0:0:
192,192,34019,128,0,34167:0:0:0:0:
320,192,34019,1,0,0:0:0:0:
64,192,34167,128,0,34315:0:0:0:0:
448,192,34167,1,0,0:0:0:0:
320,192,34315,128,0,34612:0:0:0:0:
192,192,34315,1,0,0:0:0:0:
448,192,34464,1,0,0:0:0:0:
64,192,34464,1,0,0:0:0:0:
64,192,34612,1,0,0:0:0:0:
192,192,34612,128,0,34761:0:0:0:0:
448,192,34761,128,0,34909:0:0:0:0:
320,192,34761,1,0,0:0:0:0:
64,192,34909,128,0,35206:0:0:0:0:
192,192,34909,1,0,0:0:0:0:
192,192,35058,5,0,0:0:0:0:
448,192,35058,1,0,0:0:0:0:
320,192,35206,1,0,0:0:0:0:
448,192,35206,128,0,35355:0:0:0:0:
192,192,35355,128,0,35503:0:0:0:0:
64,192,35355,1,0,0:0:0:0:
320,192,35503,128,0,35651:0:0:0:0:
448,192,35503,1,0,0:0:0:0:
64,192,35651,128,0,35800:0:0:0:0:
192,192,35651,1,0,0:0:0:0:
448,192,35800,128,0,35948:0:0:0:0:
320,192,35800,1,0,0:0:0:0:
192,192,35948,128,0,36097:0:0:0:0:
64,192,35948,1,0,0:0:0:0:
64,192,36097,128,0,36245:0:0:0:0:
320,192,36097,1,0,0:0:0:0:
448,192,36245,128,0,36394:0:0:0:0:
320,192,36245,1,0,0:0:0:0:
192,192,36245,1,0,0:0:0:0:
192,192,36394,128,0,36542:0:0:0:0:
64,192,36394,1,0,0:0:0:0:
320,192,36394,1,0,0:0:0:0:
320,192,36542,128,0,36691:0:0:0:0:
448,192,36542,1,0,0:0:0:0:
64,192,36542,1,0,0:0:0:0:
64,192,36691,128,0,36839:0:0:0:0:
192,192,36691,1,0,0:0:0:0:
448,192,36691,1,0,0:0:0:0:
320,192,36987,1,0,0:0:0:0:
448,192,36987,1,0,0:0:0:0:
64,192,37062,1,0,0:0:0:0:
192,192,37062,1,0,0:0:0:0:
448,192,37136,1,0,0:0:0:0:
320,192,37136,1,0,0:0:0:0:
64,192,37210,1,0,0:0:0:0:
192,192,37210,1,0,0:0:0:0:
320,192,37284,1,0,0:0:0:0:
448,192,37284,1,0,0:0:0:0:
192,192,37359,1,0,0:0:0:0:
64,192,37359,1,0,0:0:0:0:
320,192,37433,1,0,0:0:0:0:
448,192,37433,128,0,37581:0:0:0:0:
320,192,37581,128,0,37730:0:0:0:0:
192,192,37581,1,0,0:0:0:0:
448,192,37730,128,0,37878:0:0:0:0:
64,192,37730,1,0,0:0:0:0:
320,192,37878,128,0,38175:0:0:0:0:
192,192,37878,1,0,0:0:0:0:
448,192,38026,1,0,0:0:0:0:
64,192,38026,1,0,0:0:0:0:
192,192,38175,128,0,38323:0:0:0:0:
448,192,38175,1,0,0:0:0:0:
64,192,38323,128,0,38472:0:0:0:0:
320,192,38323,1,0,0:0:0:0:
448,192,38472,128,0,38769:0:0:0:0:
192,192,38472,1,0,0:0:0:0:
64,192,38620,1,0,0:0:0:0:
320,192,38620,1,0,0:0:0:0:
320,192,38769,128,0,38917:0:0:0:0:
64,192,38769,1,0,0:0:0:0:
192,192,38917,128,0,39066:0:0:0:0:
448,192,38917,1,0,0:0:0:0:
64,192,39066,128,0,39362:0:0:0:0:
320,192,39066,1,0,0:0:0:0:
192,192,39214,1,0,0:0:0:0:
448,192,39214,1,0,0:0:0:0:
320,192,39362,128,0,39511:0:0:0:0:
192,192,39362,1,0,0:0:0:0:
448,192,39511,128,0,39659:0:0:0:0:
64,192,39511,1,0,0:0:0:0:
192,192,39659,128,0,39956:0:0:0:0:
64,192,39659,1,0,0:0:0:0:
320,192,39808,1,0,0:0:0:0:
448,192,39808,1,0,0:0:0:0:
64,192,39956,128,0,40105:0:0:0:0:
448,192,39956,1,0,0:0:0:0:
320,192,40105,128,0,40253:0:0:0:0:
192,192,40105,1,0,0:0:0:0:
448,192,40253,128,0,40550:0:0:0:0:
64,192,40253,1,0,0:0:0:0:
320,192,40402,1,0,0:0:0:0:
192,192,40402,1,0,0:0:0:0:
64,192,40550,128,0,40698:0:0:0:0:
192,192,40550,1,0,0:0:0:0:
192,192,40698,128,0,40847:0:0:0:0:
320,192,40698,1,0,0:0:0:0:
320,192,40847,128,0,41144:0:0:0:0:
448,192,40847,1,0,0:0:0:0:
448,192,40995,1,0,0:0:0:0:
64,192,40995,1,0,0:0:0:0:
64,192,41144,1,0,0:0:0:0:
192,192,41144,128,0,41292:0:0:0:0:
448,192,41292,128,0,41441:0:0:0:0:
320,192,41292,1,0,0:0:0:0:
64,192,41441,128,0,41886:0:0:0:0:
192,192,41441,1,0,0:0:0:0:
320,192,41589,1,0,0:0:0:0:
448,192,41589,1,0,0:0:0:0:
320,192,41738,1,0,0:0:0:0:
448,192,41886,128,0,42183:0:0:0:0:
192,192,41886,1,0,0:0:0:0:
64,192,42034,1,0,0:0:0:0:
320,192,42183,128,0,42331:0:0:0:0:
192,192,42183,1,0,0:0:0:0:
64,192,42183,1,0,0:0:0:0:
192,192,42331,128,0,42480:0:0:0:0:
64,192,42331,1,0,0:0:0:0:
448,192,42331,1,0,0:0:0:0:
64,192,42480,128,0,42628:0:0:0:0:
448,192,42480,1,0,0:0:0:0:
320,192,42628,128,0,42925:0:0:0:0:
192,192,42628,1,0,0:0:0:0:
64,192,42777,1,0,0:0:0:0:
448,192,42777,1,0,0:0:0:0:
448,192,42925,128,0,43073:0:0:0:0:
64,192,42925,1,0,0:0:0:0:
192,192,43073,128,0,43222:0:0:0:0:
320,192,43073,1,0,0:0:0:0:
64,192,43222,128,0,43519:0:0:0:0:
448,192,43222,1,0,0:0:0:0:
192,192,43370,1,0,0:0:0:0:
320,192,43370,1,0,0:0:0:0:
320,192,43519,128,0,43667:0:0:0:0:
192,192,43519,1,0,0:0:0:0:
448,192,43667,128,0,43816:0:0:0:0:
64,192,43667,1,0,0:0:0:0:
192,192,43816,128,0,44113:0:0:0:0:
320,192,43816,1,0,0:0:0:0:
64,192,43964,1,0,0:0:0:0:
448,192,43964,1,0,0:0:0:0:
448,192,44113,1,0,0:0:0:0:
320,192,44113,128,0,44261:0:0:0:0:
64,192,44261,128,0,44409:0:0:0:0:
192,192,44261,1,0,0:0:0:0:
448,192,44409,128,0,44706:0:0:0:0:
192,192,44409,1,0,0:0:0:0:
320,192,44558,5,0,0:0:0:0:
64,192,44558,1,0,0:0:0:0:
192,192,44706,1,0,0:0:0:0:
64,192,44706,128,0,44855:0:0:0:0:
320,192,44855,128,0,45003:0:0:0:0:
448,192,44855,1,0,0:0:0:0:
192,192,45003,128,0,45152:0:0:0:0:
64,192,45003,1,0,0:0:0:0:
320,192,45152,1,0,0:0:0:0:
448,192,45152,1,0,0:0:0:0:
192,192,45226,1,0,0:0:0:0:
64,192,45226,1,0,0:0:0:0:
320,192,45300,1,0,0:0:0:0:
448,192,45300,1,0,0:0:0:0:
192,192,45374,1,0,0:0:0:0:
64,192,45374,1,0,0:0:0:0:
320,192,45449,1,0,0:0:0:0:
448,192,45449,1,0,0:0:0:0:
192,192,45523,1,0,0:0:0:0:
64,192,45523,1,0,0:0:0:0:
320,192,45597,1,0,0:0:0:0:
448,192,45597,1,0,0:0:0:0:
192,192,45894,1,0,0:0:0:0:
64,192,45894,1,0,0:0:0:0:
320,192,46042,1,0,0:0:0:0:
192,192,46042,1,0,0:0:0:0:
320,192,46191,1,0,0:0:0:0:
448,192,46191,1,0,0:0:0:0:
192,192,46339,1,0,0:0:0:0:
64,192,46339,1,0,0:0:0:0:
320,192,46488,1,0,0:0:0:0:
192,192,46488,1,0,0:0:0:0:
448,192,46636,128,0,46933:0:0:0:0:
320,192,46636,1,0,0:0:0:0:
64,192,46933,1,0,0:0:0:0:
192,192,46933,128,0,47007:0:0:0:0:
320,192,47081,128,0,47156:0:0:0:0:
448,192,47081,1,0,0:0:0:0:
320,192,47230,128,0,47304:0:0:0:0:
64,192,47230,1,0,0:0:0:0:
192,192,47230,1,0,0:0:0:0:
320,192,47378,128,0,47453:0:0:0:0:
448,192,47378,1,0,0:0:0:0:
320,192,47527,128,0,47601:0:0:0:0:
192,192,47527,1,0,0:0:0:0:
64,192,47527,1,0,0:0:0:0:
320,192,47675,128,0,47749:0:0:0:0:
448,192,47675,1,0,0:0:0:0:
320,192,47824,128,0,47898:0:0:0:0:
192,192,47824,1,0,0:0:0:0:
64,192,47824,1,0,0:0:0:0:
320,192,47972,128,0,48046:0:0:0:0:
448,192,47972,1,0,0:0:0:0:
320,192,48121,128,0,48195:0:0:0:0:
192,192,48121,1,0,0:0:0:0:
64,192,48121,1,0,0:0:0:0:
320,192,48269,128,0,48343:0:0:0:0:
448,192,48269,1,0,0:0:0:0:
320,192,48417,128,0,48492:0:0:0:0:
192,192,48417,1,0,0:0:0:0:
64,192,48417,1,0,0:0:0:0:
320,192,48566,128,0,48640:0:0:0:0:
448,192,48566,1,0,0:0:0:0:
320,192,48714,128,0,48788:0:0:0:0:
192,192,48714,1,0,0:0:0:0:
64,192,48714,1,0,0:0:0:0:
320,192,48863,128,0,48937:0:0:0:0:
448,192,48863,1,0,0:0:0:0:
320,192,49011,128,0,49085:0:0:0:0:
64,192,49011,1,0,0:0:0:0:
192,192,49085,128,0,49160:0:0:0:0:
448,192,49085,1,0,0:0:0:0:
320,192,49160,128,0,49234:0:0:0:0:
64,192,49160,1,0,0:0:0:0:
192,192,49234,128,0,49308:0:0:0:0:
448,192,49234,1,0,0:0:0:0:
448,192,49308,128,0,49456:0:0:0:0:
64,192,49308,128,0,49456:0:0:0:0:
192,192,49456,128,0,49531:0:0:0:0:
320,192,49456,128,0,49531:0:0:0:0:
64,192,49605,1,0,0:0:0:0:
448,192,49605,128,0,49753:0:0:0:0:
320,192,49679,128,0,49753:0:0:0:0:
192,192,49753,128,0,49902:0:0:0:0:
64,192,49753,128,0,49902:0:0:0:0:
448,192,49902,128,0,49976:0:0:0:0:
320,192,49902,128,0,49976:0:0:0:0:
448,192,50050,128,0,50199:0:0:0:0:
320,192,50050,128,0,50199:0:0:0:0:
192,192,50199,128,0,50273:0:0:0:0:
64,192,50199,128,0,50273:0:0:0:0:
320,192,50273,128,0,50347:0:0:0:0:
448,192,50273,128,0,50347:0:0:0:0:
192,192,50347,128,0,50421:0:0:0:0:
64,192,50347,128,0,50421:0:0:0:0:
320,192,50421,128,0,50496:0:0:0:0:
448,192,50421,128,0,50496:0:0:0:0:
64,192,50496,128,0,50718:0:0:0:0:
192,192,50496,128,0,50718:0:0:0:0:
320,192,50644,128,0,50792:0:0:0:0:
448,192,50644,128,0,50792:0:0:0:0:
64,192,50792,128,0,51015:0:0:0:0:
192,192,50792,128,0,51015:0:0:0:0:
320,192,50941,128,0,51089:0:0:0:0:
448,192,50941,128,0,51089:0:0:0:0:
64,192,51089,128,0,51287:0:0:0:0:
192,192,51188,128,0,51386:0:0:0:0:
320,192,51287,128,0,51386:0:0:0:0:
448,192,51386,128,0,51584:0:0:0:0:
320,192,51485,128,0,51683:0:0:0:0:
192,192,51584,128,0,51683:0:0:0:0:
64,192,51683,1,0,0:0:0:0:
448,192,51683,128,0,51757:0:0:0:0:
192,192,51832,128,0,51906:0:0:0:0:
64,192,51832,1,0,0:0:0:0:
192,192,51980,128,0,52054:0:0:0:0:
448,192,51980,1,0,0:0:0:0:
320,192,51980,1,0,0:0:0:0:
192,192,52128,128,0,52203:0:0:0:0:
64,192,52128,1,0,0:0:0:0:
192,192,52277,128,0,52351:0:0:0:0:
320,192,52277,1,0,0:0:0:0:
448,192,52277,1,0,0:0:0:0:
192,192,52425,128,0,52500:0:0:0:0:
64,192,52425,1,0,0:0:0:0:
192,192,52574,128,0,52648:0:0:0:0:
320,192,52574,1,0,0:0:0:0:
448,192,52574,1,0,0:0:0:0:
192,192,52722,128,0,52796:0:0:0:0:
64,192,52722,1,0,0:0:0:0:
192,192,52871,128,0,52945:0:0:0:0:
320,192,52871,1,0,0:0:0:0:
448,192,52871,1,0,0:0:0:0:
192,192,53019,128,0,53093:0:0:0:0:
64,192,53019,1,0,0:0:0:0:
192,192,53168,128,0,53242:0:0:0:0:
448,192,53168,1,0,0:0:0:0:
320,192,53242,128,0,53316:0:0:0:0:
64,192,53242,1,0,0:0:0:0:
192,192,53316,128,0,53390:0:0:0:0:
448,192,53316,1,0,0:0:0:0:
320,192,53390,128,0,53464:0:0:0:0:
64,192,53390,1,0,0:0:0:0:
448,192,53464,1,0,0:0:0:0:
64,192,53464,1,0,0:0:0:0:
192,192,53613,1,0,0:0:0:0:
448,192,53613,1,0,0:0:0:0:
192,192,53761,1,0,0:0:0:0:
320,192,53761,1,0,0:0:0:0:
320,192,53910,1,0,0:0:0:0:
64,192,53910,1,0,0:0:0:0:
448,192,54057,128,0,54279:0:0:0:0:
320,192,54057,128,0,54279:0:0:0:0:
192,192,54205,128,0,54353:0:0:0:0:
64,192,54205,128,0,54353:0:0:0:0:
320,192,54353,128,0,54576:0:0:0:0:
448,192,54353,128,0,54576:0:0:0:0:
192,192,54502,128,0,54650:0:0:0:0:
64,192,54502,128,0,54650:0:0:0:0:
448,192,54650,128,0,54873:0:0:0:0:
320,192,54650,128,0,54873:0:0:0:0:
320,192,54947,1,0,0:0:0:0:
192,192,54947,128,0,55096:0:0:0:0:
448,192,55096,1,0,0:0:0:0:
320,192,55170,1,0,0:0:0:0:
448,192,55244,128,0,55615:0:0:0:0:
64,192,55244,128,0,55615:0:0:0:0:
192,192,55244,128,0,55615:0:0:0:0:
320,192,55689,1,0,0:0:0:0:
448,192,55689,1,0,0:0:0:0:
192,192,55764,1,0,0:0:0:0:
64,192,55764,1,0,0:0:0:0:
320,192,55838,1,0,0:0:0:0:
448,192,55838,1,0,0:0:0:0:
64,192,55986,128,0,56432:0:0:0:0:
192,192,56135,128,0,56580:0:0:0:0:
320,192,56283,128,0,56580:0:0:0:0:
448,192,56432,128,0,56728:0:0:0:0:
64,192,56580,1,0,0:0:0:0:
64,192,56728,1,0,0:0:0:0:
192,192,56728,128,0,56803:0:0:0:0:
320,192,56877,128,0,56951:0:0:0:0:
448,192,56877,1,0,0:0:0:0:
320,192,57025,128,0,57099:0:0:0:0:
64,192,57025,1,0,0:0:0:0:
192,192,57025,1,0,0:0:0:0:
320,192,57174,128,0,57248:0:0:0:0:
448,192,57174,1,0,0:0:0:0:
320,192,57322,128,0,57396:0:0:0:0:
192,192,57322,1,0,0:0:0:0:
64,192,57322,1,0,0:0:0:0:
320,192,57471,128,0,57545:0:0:0:0:
448,192,57471,1,0,0:0:0:0:
320,192,57619,128,0,57693:0:0:0:0:
192,192,57619,1,0,0:0:0:0:
64,192,57619,1,0,0:0:0:0:
320,192,57767,128,0,57842:0:0:0:0:
448,192,57767,1,0,0:0:0:0:
320,192,57916,128,0,57990:0:0:0:0:
192,192,57916,1,0,0:0:0:0:
64,192,57916,1,0,0:0:0:0:
320,192,58064,128,0,58139:0:0:0:0:
448,192,58064,1,0,0:0:0:0:
320,192,58213,128,0,58287:0:0:0:0:
192,192,58213,1,0,0:0:0:0:
64,192,58213,1,0,0:0:0:0:
320,192,58361,128,0,58435:0:0:0:0:
448,192,58361,1,0,0:0:0:0:
320,192,58510,128,0,58584:0:0:0:0:
64,192,58510,1,0,0:0:0:0:
192,192,58584,128,0,58658:0:0:0:0:
448,192,58584,1,0,0:0:0:0:
320,192,58658,128,0,58732:0:0:0:0:
64,192,58658,1,0,0:0:0:0:
192,192,58732,128,0,58807:0:0:0:0:
448,192,58732,1,0,0:0:0:0:
448,192,58807,128,0,59029:0:0:0:0:
320,192,58807,128,0,59029:0:0:0:0:
192,192,58955,128,0,59103:0:0:0:0:
64,192,58955,128,0,59103:0:0:0:0:
320,192,59103,128,0,59326:0:0:0:0:
448,192,59103,128,0,59326:0:0:0:0:
192,192,59252,128,0,59326:0:0:0:0:
64,192,59252,128,0,59326:0:0:0:0:
448,192,59400,128,0,59697:0:0:0:0:
64,192,59400,128,0,59549:0:0:0:0:
192,192,59549,128,0,59697:0:0:0:0:
64,192,59697,128,0,59994:0:0:0:0:
320,192,59697,128,0,59846:0:0:0:0:
448,192,59846,128,0,59994:0:0:0:0:
192,192,59994,128,0,60143:0:0:0:0:
320,192,59994,128,0,60291:0:0:0:0:
448,192,60143,128,0,60291:0:0:0:0:
192,192,60291,128,0,60588:0:0:0:0:
64,192,60291,128,0,60439:0:0:0:0:
320,192,60439,128,0,60588:0:0:0:0:
448,192,60588,128,0,60811:0:0:0:0:
320,192,60687,128,0,60885:0:0:0:0:
192,192,60786,128,0,60885:0:0:0:0:
64,192,60885,128,0,61107:0:0:0:0:
192,192,60984,128,0,61182:0:0:0:0:
320,192,61083,128,0,61182:0:0:0:0:
64,192,61182,1,0,0:0:0:0:
448,192,61182,128,0,61256:0:0:0:0:
192,192,61330,128,0,61404:0:0:0:0:
64,192,61330,1,0,0:0:0:0:
320,192,61330,1,0,0:0:0:0:
192,192,61479,128,0,61553:0:0:0:0:
448,192,61479,1,0,0:0:0:0:
320,192,61479,1,0,0:0:0:0:
192,192,61627,128,0,61701:0:0:0:0:
64,192,61627,1,0,0:0:0:0:
192,192,61775,128,0,61850:0:0:0:0:
320,192,61775,1,0,0:0:0:0:
448,192,61775,1,0,0:0:0:0:
192,192,61924,128,0,61998:0:0:0:0:
64,192,61924,1,0,0:0:0:0:
192,192,62072,128,0,62146:0:0:0:0:
320,192,62072,1,0,0:0:0:0:
448,192,62072,1,0,0:0:0:0:
192,192,62221,128,0,62295:0:0:0:0:
64,192,62221,1,0,0:0:0:0:
192,192,62369,128,0,62443:0:0:0:0:
320,192,62369,1,0,0:0:0:0:
448,192,62369,1,0,0:0:0:0:
192,192,62518,128,0,62592:0:0:0:0:
64,192,62518,1,0,0:0:0:0:
192,192,62666,128,0,62740:0:0:0:0:
448,192,62666,1,0,0:0:0:0:
320,192,62740,128,0,62814:0:0:0:0:
64,192,62740,1,0,0:0:0:0:
192,192,62814,128,0,62889:0:0:0:0:
448,192,62814,1,0,0:0:0:0:
320,192,62889,128,0,62963:0:0:0:0:
64,192,62889,1,0,0:0:0:0:
64,192,62963,1,0,0:0:0:0:
448,192,62963,1,0,0:0:0:0:
192,192,63111,1,0,0:0:0:0:
448,192,63111,1,0,0:0:0:0:
192,192,63260,1,0,0:0:0:0:
320,192,63260,1,0,0:0:0:0:
320,192,63408,1,0,0:0:0:0:
64,192,63408,1,0,0:0:0:0:
192,192,63557,1,0,0:0:0:0:
64,192,63557,128,0,64002:0:0:0:0:
448,192,63705,128,0,64002:0:0:0:0:
320,192,63854,128,0,64002:0:0:0:0:
192,192,64002,128,0,64150:0:0:0:0:
320,192,64150,1,0,0:0:0:0:
448,192,64150,1,0,0:0:0:0:
64,192,64150,1,0,0:0:0:0:
448,192,64299,128,0,64522:0:0:0:0:
320,192,64447,128,0,64596:0:0:0:0:
192,192,64596,1,0,0:0:0:0:
448,192,64596,1,0,0:0:0:0:
64,192,64596,128,0,64893:0:0:0:0:
192,192,64893,128,0,65041:0:0:0:0:
320,192,65041,1,0,0:0:0:0:
448,192,65115,1,0,0:0:0:0:
64,192,65190,1,0,0:0:0:0:
192,192,65264,1,0,0:0:0:0:
448,192,65338,128,0,65635:0:0:0:0:
320,192,65338,1,0,0:0:0:0:
320,192,65486,128,0,65635:0:0:0:0:
192,192,65635,1,0,0:0:0:0:
64,192,65635,128,0,65932:0:0:0:0:
192,192,65783,128,0,65932:0:0:0:0:
448,192,65932,5,0,0:0:0:0:
320,192,65932,1,0,0:0:0:0:
192,192,66080,1,0,0:0:0:0:
320,192,66229,1,0,0:0:0:0:
192,192,66377,1,0,0:0:0:0:
320,192,66526,1,0,0:0:0:0:
64,192,66526,1,0,0:0:0:0:
448,192,66526,128,0,66822:0:0:0:0:
320,192,66674,128,0,66971:0:0:0:0:
192,192,66674,1,0,0:0:0:0:
192,192,66822,128,0,66971:0:0:0:0:
64,192,66822,128,0,66971:0:0:0:0:
448,192,66971,1,0,0:0:0:0:
192,192,67119,1,0,0:0:0:0:
64,192,67119,128,0,67416:0:0:0:0:
192,192,67268,128,0,67565:0:0:0:0:
320,192,67268,1,0,0:0:0:0:
320,192,67416,128,0,67565:0:0:0:0:
448,192,67416,128,0,67565:0:0:0:0:
64,192,67565,1,0,0:0:0:0:
320,192,67713,1,0,0:0:0:0:
448,192,67713,128,0,67936:0:0:0:0:
64,192,67861,128,0,68010:0:0:0:0:
192,192,67861,128,0,68010:0:0:0:0:
320,192,68010,128,0,68084:0:0:0:0:
448,192,68010,128,0,68084:0:0:0:0:
320,192,68158,128,0,68233:0:0:0:0:
448,192,68158,128,0,68233:0:0:0:0:
192,192,68307,1,0,0:0:0:0:
64,192,68307,1,0,0:0:0:0:
320,192,68455,1,0,0:0:0:0:
448,192,68455,1,0,0:0:0:0:
192,192,68604,128,0,68752:0:0:0:0:
64,192,68604,128,0,68752:0:0:0:0:
320,192,68752,1,0,0:0:0:0:
448,192,68752,1,0,0:0:0:0:
192,192,68901,1,0,0:0:0:0:
64,192,68901,1,0,0:0:0:0:
448,192,68901,1,0,0:0:0:0:
320,192,69049,128,0,69123:0:0:0:0:
448,192,69049,128,0,69123:0:0:0:0:
192,192,69197,128,0,69272:0:0:0:0:
64,192,69197,128,0,69272:0:0:0:0:
320,192,69346,128,0,69420:0:0:0:0:
448,192,69346,128,0,69420:0:0:0:0:
64,192,69494,1,0,0:0:0:0:
448,192,69494,1,0,0:0:0:0:
192,192,69494,1,0,0:0:0:0:
192,192,69643,128,0,69717:0:0:0:0:
64,192,69643,128,0,69717:0:0:0:0:
320,192,69791,128,0,69865:0:0:0:0:
448,192,69791,128,0,69865:0:0:0:0:
192,192,69940,128,0,70014:0:0:0:0:
64,192,69940,128,0,70014:0:0:0:0:
64,192,70088,1,0,0:0:0:0:
320,192,70088,1,0,0:0:0:0:
448,192,70088,1,0,0:0:0:0:
192,192,70237,1,0,0:0:0:0:
448,192,70286,128,0,70434:0:0:0:0:
320,192,70286,128,0,70434:0:0:0:0:
192,192,70484,128,0,70632:0:0:0:0:
64,192,70484,128,0,70632:0:0:0:0:
64,192,70682,1,0,0:0:0:0:
320,192,70682,128,0,70979:0:0:0:0:
448,192,70682,128,0,70979:0:0:0:0:
192,192,70830,1,0,0:0:0:0:
192,192,70979,1,0,0:0:0:0:
192,192,71127,1,0,0:0:0:0:
320,192,71127,1,0,0:0:0:0:
64,192,71276,1,0,0:0:0:0:
320,192,71276,1,0,0:0:0:0:
448,192,71276,1,0,0:0:0:0:
64,192,71424,128,0,71498:0:0:0:0:
192,192,71424,128,0,71498:0:0:0:0:
448,192,71573,128,0,71647:0:0:0:0:
320,192,71573,128,0,71647:0:0:0:0:
192,192,71721,128,0,71795:0:0:0:0:
64,192,71721,128,0,71795:0:0:0:0:
448,192,71869,128,0,72166:0:0:0:0:
320,192,71869,1,0,0:0:0:0:
192,192,72018,1,0,0:0:0:0:
320,192,72018,128,0,72166:0:0:0:0:
192,192,72166,128,0,72241:0:0:0:0:
64,192,72166,128,0,72241:0:0:0:0:
192,192,72315,128,0,72389:0:0:0:0:
64,192,72315,128,0,72389:0:0:0:0:
64,192,72463,1,0,0:0:0:0:
320,192,72463,1,0,0:0:0:0:
448,192,72463,1,0,0:0:0:0:
192,192,72612,1,0,0:0:0:0:
320,192,72612,1,0,0:0:0:0:
64,192,72760,128,0,72834:0:0:0:0:
448,192,72760,128,0,72834:0:0:0:0:
192,192,72760,1,0,0:0:0:0:
64,192,72908,128,0,72983:0:0:0:0:
448,192,72908,128,0,72983:0:0:0:0:
320,192,72908,1,0,0:0:0:0:
448,192,73057,1,0,0:0:0:0:
192,192,73057,1,0,0:0:0:0:
64,192,73057,1,0,0:0:0:0:
320,192,73205,128,0,73280:0:0:0:0:
192,192,73205,1,0,0:0:0:0:
320,192,73354,128,0,73428:0:0:0:0:
64,192,73354,1,0,0:0:0:0:
448,192,73502,1,0,0:0:0:0:
320,192,73502,1,0,0:0:0:0:
64,192,73502,1,0,0:0:0:0:
448,192,73651,1,0,0:0:0:0:
192,192,73651,128,0,73725:0:0:0:0:
192,192,73799,128,0,73873:0:0:0:0:
320,192,73799,1,0,0:0:0:0:
320,192,73948,1,0,0:0:0:0:
448,192,73948,1,0,0:0:0:0:
64,192,73948,1,0,0:0:0:0:
64,192,74096,1,0,0:0:0:0:
448,192,74096,1,0,0:0:0:0:
320,192,74096,1,0,0:0:0:0:
320,192,74393,128,0,74541:0:0:0:0:
448,192,74393,128,0,74541:0:0:0:0:
192,192,74541,1,0,0:0:0:0:
64,192,74541,1,0,0:0:0:0:
320,192,74690,1,0,0:0:0:0:
320,192,74838,1,0,0:0:0:0:
64,192,74838,128,0,75432:0:0:0:0:
320,192,74987,1,0,0:0:0:0:
320,192,75135,1,0,0:0:0:0:
320,192,75284,1,0,0:0:0:0:
320,192,75432,1,0,0:0:0:0:
448,192,75432,128,0,76174:0:0:0:0:
192,192,76174,128,0,76323:0:0:0:0:
64,192,76174,1,0,0:0:0:0:
320,192,76323,128,0,76471:0:0:0:0:
448,192,76323,1,0,0:0:0:0:
64,192,76471,128,0,77213:0:0:0:0:
192,192,76471,1,0,0:0:0:0:
320,192,77213,128,0,77807:0:0:0:0:
448,192,77213,1,0,0:0:0:0:
192,192,78104,128,0,78549:0:0:0:0:
448,192,78104,1,0,0:0:0:0:
320,192,78549,128,0,78698:0:0:0:0:
64,192,78549,1,0,0:0:0:0:
448,192,78698,128,0,78846:0:0:0:0:
192,192,78698,1,0,0:0:0:0:
64,192,78846,128,0,79588:0:0:0:0:
320,192,78846,1,0,0:0:0:0:
320,192,79588,128,0,80182:0:0:0:0:
448,192,79588,1,0,0:0:0:0:
448,192,80182,128,0,80924:0:0:0:0:
192,192,80182,1,0,0:0:0:0:
64,192,80924,128,0,81073:0:0:0:0:
192,192,80924,1,0,0:0:0:0:
192,192,81073,128,0,81221:0:0:0:0:
320,192,81073,1,0,0:0:0:0:
320,192,81221,128,0,81963:0:0:0:0:
448,192,81221,1,0,0:0:0:0:
64,192,81963,128,0,82557:0:0:0:0:
192,192,81963,1,0,0:0:0:0:
448,192,82557,128,0,83299:0:0:0:0:
320,192,82557,1,0,0:0:0:0:
192,192,83299,128,0,83448:0:0:0:0:
320,192,83299,1,0,0:0:0:0:
64,192,83448,128,0,83596:0:0:0:0:
448,192,83448,1,0,0:0:0:0:
320,192,83596,128,0,84338:0:0:0:0:
192,192,83596,1,0,0:0:0:0:
64,192,84338,128,0,84635:0:0:0:0:
448,192,84338,1,0,0:0:0:0:
192,192,84635,128,0,84932:0:0:0:0:
320,192,84635,1,0,0:0:0:0:
448,192,84932,128,0,85674:0:0:0:0:
320,192,84932,1,0,0:0:0:0:
64,192,85081,1,0,0:0:0:0:
192,192,85229,1,0,0:0:0:0:
320,192,85378,1,0,0:0:0:0:
64,192,85526,1,0,0:0:0:0:
320,192,85674,128,0,85823:0:0:0:0:
192,192,85674,1,0,0:0:0:0:
192,192,85823,128,0,85971:0:0:0:0:
448,192,85823,1,0,0:0:0:0:
64,192,85971,128,0,86714:0:0:0:0:
320,192,85971,1,0,0:0:0:0:
192,192,86120,1,0,0:0:0:0:
448,192,86268,1,0,0:0:0:0:
192,192,86417,1,0,0:0:0:0:
320,192,86565,1,0,0:0:0:0:
320,192,86714,128,0,87307:0:0:0:0:
448,192,86714,1,0,0:0:0:0:
192,192,86862,1,0,0:0:0:0:
64,192,87010,1,0,0:0:0:0:
448,192,87159,1,0,0:0:0:0:
192,192,87307,128,0,87456:0:0:0:0:
64,192,87307,1,0,0:0:0:0:
448,192,87456,128,0,87604:0:0:0:0:
320,192,87456,1,0,0:0:0:0:
64,192,87604,128,0,87753:0:0:0:0:
192,192,87604,1,0,0:0:0:0:
320,192,87753,128,0,87901:0:0:0:0:
448,192,87753,1,0,0:0:0:0:
192,192,87901,128,0,88050:0:0:0:0:
64,192,87901,1,0,0:0:0:0:
448,192,88050,128,0,88198:0:0:0:0:
320,192,88050,1,0,0:0:0:0:
320,192,88198,128,0,88346:0:0:0:0:
64,192,88198,1,0,0:0:0:0:
64,192,88346,128,0,89014:0:0:0:0:
192,192,88346,1,0,0:0:0:0:
448,192,88495,1,0,0:0:0:0:
320,192,88643,1,0,0:0:0:0:
192,192,88792,1,0,0:0:0:0:
320,192,88940,1,0,0:0:0:0:
192,192,89089,1,0,0:0:0:0:
64,192,89089,1,0,0:0:0:0:
448,192,89089,128,0,89385:0:0:0:0:
320,192,89385,128,0,89682:0:0:0:0:
192,192,89682,1,0,0:0:0:0:
64,192,89682,1,0,0:0:0:0:
448,192,89682,128,0,90127:0:0:0:0:
64,192,89830,1,0,0:0:0:0:
64,192,89978,1,0,0:0:0:0:
64,192,90127,1,0,0:0:0:0:
320,192,90127,128,0,90275:0:0:0:0:
64,192,90275,1,0,0:0:0:0:
64,192,90424,1,0,0:0:0:0:
192,192,90424,128,0,90572:0:0:0:0:
320,192,90572,128,0,91017:0:0:0:0:
64,192,90572,1,0,0:0:0:0:
448,192,90572,1,0,0:0:0:0:
64,192,90721,1,0,0:0:0:0:
192,192,90795,1,0,0:0:0:0:
64,192,90869,1,0,0:0:0:0:
64,192,91017,1,0,0:0:0:0:
192,192,91017,128,0,91463:0:0:0:0:
64,192,91166,1,0,0:0:0:0:
64,192,91314,1,0,0:0:0:0:
64,192,91463,128,0,91908:0:0:0:0:
448,192,91463,1,0,0:0:0:0:
320,192,91463,1,0,0:0:0:0:
448,192,91611,1,0,0:0:0:0:
448,192,91760,1,0,0:0:0:0:
192,192,91908,128,0,92057:0:0:0:0:
448,192,91908,1,0,0:0:0:0:
448,192,92057,1,0,0:0:0:0:
320,192,92205,128,0,92353:0:0:0:0:
448,192,92205,1,0,0:0:0:0:
64,192,92353,1,0,0:0:0:0:
448,192,92353,1,0,0:0:0:0:
192,192,92353,128,0,92799:0:0:0:0:
448,192,92502,1,0,0:0:0:0:
320,192,92576,1,0,0:0:0:0:
448,192,92650,1,0,0:0:0:0:
448,192,92799,1,0,0:0:0:0:
64,192,92799,128,0,93244:0:0:0:0:
448,192,92947,1,0,0:0:0:0:
192,192,93021,1,0,0:0:0:0:
448,192,93096,1,0,0:0:0:0:
192,192,93170,1,0,0:0:0:0:
448,192,93244,5,0,0:0:0:0:
320,192,93244,1,0,0:0:0:0:
192,192,93392,1,0,0:0:0:0:
320,192,93540,1,0,0:0:0:0:
448,192,93540,1,0,0:0:0:0:
64,192,93689,1,0,0:0:0:0:
320,192,93837,1,0,0:0:0:0:
448,192,93837,1,0,0:0:0:0:
192,192,93986,1,0,0:0:0:0:
320,192,94134,1,0,0:0:0:0:
448,192,94134,1,0,0:0:0:0:
192,192,94208,1,0,0:0:0:0:
64,192,94283,1,0,0:0:0:0:
448,192,94357,1,0,0:0:0:0:
192,192,94431,1,0,0:0:0:0:
320,192,94431,1,0,0:0:0:0:
64,192,94579,1,0,0:0:0:0:
320,192,94728,1,0,0:0:0:0:
192,192,94728,1,0,0:0:0:0:
448,192,94876,1,0,0:0:0:0:
320,192,95025,1,0,0:0:0:0:
192,192,95025,1,0,0:0:0:0:
64,192,95173,1,0,0:0:0:0:
320,192,95322,1,0,0:0:0:0:
192,192,95322,1,0,0:0:0:0:
448,192,95396,1,0,0:0:0:0:
320,192,95470,1,0,0:0:0:0:
448,192,95544,1,0,0:0:0:0:
192,192,95619,1,0,0:0:0:0:
64,192,95619,1,0,0:0:0:0:
320,192,95767,1,0,0:0:0:0:
192,192,95915,1,0,0:0:0:0:
64,192,95915,1,0,0:0:0:0:
448,192,96064,1,0,0:0:0:0:
192,192,96212,1,0,0:0:0:0:
64,192,96212,1,0,0:0:0:0:
320,192,96361,1,0,0:0:0:0:
192,192,96509,1,0,0:0:0:0:
64,192,96509,1,0,0:0:0:0:
320,192,96583,1,0,0:0:0:0:
448,192,96658,1,0,0:0:0:0:
192,192,96732,1,0,0:0:0:0:
320,192,96806,1,0,0:0:0:0:
448,192,96806,1,0,0:0:0:0:
64,192,96955,128,0,97029:0:0:0:0:
192,192,96955,128,0,97029:0:0:0:0:
192,192,97103,128,0,97177:0:0:0:0:
320,192,97103,128,0,97177:0:0:0:0:
320,192,97251,128,0,97326:0:0:0:0:
448,192,97251,128,0,97326:0:0:0:0:
64,192,97400,128,0,97474:0:0:0:0:
448,192,97400,128,0,97474:0:0:0:0:
64,192,97548,128,0,97623:0:0:0:0:
320,192,97548,128,0,97623:0:0:0:0:
192,192,97697,128,0,97771:0:0:0:0:
320,192,97697,128,0,97771:0:0:0:0:
192,192,97845,128,0,97919:0:0:0:0:
448,192,97845,128,0,97919:0:0:0:0:
448,192,97994,1,0,0:0:0:0:
64,192,97994,128,0,98513:0:0:0:0:
320,192,97994,128,0,98142:0:0:0:0:
192,192,98142,128,0,98290:0:0:0:0:
448,192,98290,128,0,98439:0:0:0:0:
320,192,98439,128,0,98587:0:0:0:0:
64,192,98587,1,0,0:0:0:0:
192,192,98587,1,0,0:0:0:0:
320,192,98736,128,0,98884:0:0:0:0:
448,192,98884,128,0,99329:0:0:0:0:
64,192,98884,1,0,0:0:0:0:
192,192,98884,128,0,99033:0:0:0:0:
320,192,99033,128,0,99329:0:0:0:0:
64,192,99329,128,0,99478:0:0:0:0:
192,192,99478,128,0,99626:0:0:0:0:
320,192,99626,128,0,99775:0:0:0:0:
448,192,99775,1,0,0:0:0:0:
64,192,99775,1,0,0:0:0:0:
192,192,99923,128,0,100072:0:0:0:0:
320,192,100072,128,0,100220:0:0:0:0:
448,192,100220,128,0,100517:0:0:0:0:
320,192,100517,128,0,100665:0:0:0:0:
192,192,100665,1,0,0:0:0:0:
64,192,100665,1,0,0:0:0:0:
448,192,100665,128,0,101111:0:0:0:0:
64,192,100814,128,0,101111:0:0:0:0:
192,192,101111,128,0,101259:0:0:0:0:
320,192,101259,1,0,0:0:0:0:
64,192,101259,128,0,101705:0:0:0:0:
448,192,101259,1,0,0:0:0:0:
448,192,101408,128,0,101705:0:0:0:0:
320,192,101705,128,0,101853:0:0:0:0:
192,192,101853,128,0,102001:0:0:0:0:
64,192,102001,128,0,102150:0:0:0:0:
320,192,102150,1,0,0:0:0:0:
448,192,102150,1,0,0:0:0:0:
192,192,102249,1,0,0:0:0:0:
320,192,102249,1,0,0:0:0:0:
192,192,102348,1,0,0:0:0:0:
64,192,102348,1,0,0:0:0:0:
448,192,102447,1,0,0:0:0:0:
320,192,102447,1,0,0:0:0:0:
320,192,102546,1,0,0:0:0:0:
192,192,102546,1,0,0:0:0:0:
192,192,102645,1,0,0:0:0:0:
64,192,102645,1,0,0:0:0:0:
448,192,102744,128,0,103337:0:0:0:0:
320,192,102744,128,0,102892:0:0:0:0:
64,192,102892,128,0,103041:0:0:0:0:
192,192,103041,128,0,103189:0:0:0:0:
320,192,103189,128,0,103337:0:0:0:0:
64,192,103337,1,0,0:0:0:0:
192,192,103337,1,0,0:0:0:0:
320,192,103486,128,0,103634:0:0:0:0:
448,192,103634,128,0,104080:0:0:0:0:
192,192,103634,1,0,0:0:0:0:
64,192,103783,128,0,104080:0:0:0:0:
192,192,104080,128,0,104228:0:0:0:0:
64,192,104228,128,0,104673:0:0:0:0:
448,192,104376,128,0,104673:0:0:0:0:
320,192,104376,1,0,0:0:0:0:
192,192,104673,128,0,104822:0:0:0:0:
320,192,104822,128,0,104970:0:0:0:0:
448,192,104970,128,0,105119:0:0:0:0:
192,192,105119,5,0,0:0:0:0:
64,192,105119,1,0,0:0:0:0:
320,192,105193,1,0,0:0:0:0:
192,192,105230,1,0,0:0:0:0:
64,192,105267,1,0,0:0:0:0:
448,192,105267,1,0,0:0:0:0:
320,192,105341,1,0,0:0:0:0:
192,192,105415,1,0,0:0:0:0:
64,192,105415,1,0,0:0:0:0:
448,192,105490,1,0,0:0:0:0:
320,192,105564,1,0,0:0:0:0:
64,192,105564,1,0,0:0:0:0:
192,192,105638,1,0,0:0:0:0:
320,192,105712,1,0,0:0:0:0:
448,192,105712,1,0,0:0:0:0:
64,192,105786,1,0,0:0:0:0:
192,192,105861,1,0,0:0:0:0:
448,192,105861,1,0,0:0:0:0:
320,192,105935,1,0,0:0:0:0:
64,192,106009,128,0,106306:0:0:0:0:
192,192,106009,1,0,0:0:0:0:
320,192,106306,5,0,0:0:0:0:
448,192,106306,128,0,106454:0:0:0:0:
320,192,106454,128,0,106603:0:0:0:0:
192,192,106454,1,0,0:0:0:0:
64,192,106603,128,0,106751:0:0:0:0:
448,192,106603,1,0,0:0:0:0:
192,192,106751,128,0,107048:0:0:0:0:
320,192,106751,1,0,0:0:0:0:
64,192,106900,1,0,0:0:0:0:
448,192,106900,1,0,0:0:0:0:
320,192,107048,128,0,107197:0:0:0:0:
64,192,107048,1,0,0:0:0:0:
448,192,107197,128,0,107345:0:0:0:0:
192,192,107197,1,0,0:0:0:0:
64,192,107345,128,0,107642:0:0:0:0:
320,192,107345,1,0,0:0:0:0:
448,192,107494,1,0,0:0:0:0:
192,192,107494,1,0,0:0:0:0:
192,192,107642,128,0,107790:0:0:0:0:
448,192,107642,1,0,0:0:0:0:
320,192,107790,128,0,107939:0:0:0:0:
64,192,107790,1,0,0:0:0:0:
448,192,107939,128,0,108236:0:0:0:0:
192,192,107939,1,0,0:0:0:0:
320,192,108087,1,0,0:0:0:0:
64,192,108087,1,0,0:0:0:0:
192,192,108236,128,0,108384:0:0:0:0:
320,192,108236,1,0,0:0:0:0:
64,192,108384,128,0,108533:0:0:0:0:
448,192,108384,1,0,0:0:0:0:
320,192,108533,128,0,108830:0:0:0:0:
448,192,108533,1,0,0:0:0:0:
192,192,108681,1,0,0:0:0:0:
64,192,108681,1,0,0:0:0:0:
448,192,108830,128,0,108978:0:0:0:0:
64,192,108830,1,0,0:0:0:0:
192,192,108978,128,0,109126:0:0:0:0:
320,192,108978,1,0,0:0:0:0:
64,192,109126,128,0,109423:0:0:0:0:
448,192,109126,1,0,0:0:0:0:
192,192,109275,1,0,0:0:0:0:
320,192,109275,1,0,0:0:0:0:
448,192,109423,128,0,109572:0:0:0:0:
320,192,109423,1,0,0:0:0:0:
320,192,109572,128,0,109720:0:0:0:0:
192,192,109572,1,0,0:0:0:0:
192,192,109720,128,0,110017:0:0:0:0:
64,192,109720,1,0,0:0:0:0:
64,192,109869,1,0,0:0:0:0:
448,192,109869,1,0,0:0:0:0:
448,192,110017,1,0,0:0:0:0:
320,192,110017,128,0,110166:0:0:0:0:
64,192,110166,128,0,110314:0:0:0:0:
192,192,110166,1,0,0:0:0:0:
448,192,110314,128,0,110759:0:0:0:0:
320,192,110314,1,0,0:0:0:0:
192,192,110462,1,0,0:0:0:0:
64,192,110462,1,0,0:0:0:0:
192,192,110611,1,0,0:0:0:0:
64,192,110759,128,0,111056:0:0:0:0:
320,192,110759,1,0,0:0:0:0:
448,192,110908,1,0,0:0:0:0:
192,192,111056,128,0,111205:0:0:0:0:
320,192,111056,1,0,0:0:0:0:
320,192,111205,128,0,111353:0:0:0:0:
448,192,111205,1,0,0:0:0:0:
448,192,111353,128,0,111501:0:0:0:0:
64,192,111353,1,0,0:0:0:0:
192,192,111501,128,0,111798:0:0:0:0:
320,192,111501,1,0,0:0:0:0:
448,192,111650,1,0,0:0:0:0:
64,192,111650,1,0,0:0:0:0:
64,192,111798,128,0,111947:0:0:0:0:
448,192,111798,1,0,0:0:0:0:
320,192,111947,128,0,112095:0:0:0:0:
192,192,111947,1,0,0:0:0:0:
448,192,112095,128,0,112392:0:0:0:0:
64,192,112095,1,0,0:0:0:0:
320,192,112244,1,0,0:0:0:0:
192,192,112244,1,0,0:0:0:0:
192,192,112392,128,0,112541:0:0:0:0:
320,192,112392,1,0,0:0:0:0:
64,192,112541,128,0,112689:0:0:0:0:
448,192,112541,1,0,0:0:0:0:
320,192,112689,128,0,112986:0:0:0:0:
192,192,112689,1,0,0:0:0:0:
448,192,112837,1,0,0:0:0:0:
64,192,112837,1,0,0:0:0:0:
64,192,112986,1,0,0:0:0:0:
192,192,112986,128,0,113134:0:0:0:0:
448,192,113134,128,0,113283:0:0:0:0:
320,192,113134,1,0,0:0:0:0:
64,192,113283,128,0,113580:0:0:0:0:
192,192,113283,1,0,0:0:0:0:
192,192,113431,5,0,0:0:0:0:
448,192,113431,1,0,0:0:0:0:
320,192,113580,1,0,0:0:0:0:
448,192,113580,128,0,113728:0:0:0:0:
192,192,113728,128,0,113877:0:0:0:0:
64,192,113728,1,0,0:0:0:0:
320,192,113877,128,0,114025:0:0:0:0:
448,192,113877,1,0,0:0:0:0:
192,192,114025,1,0,0:0:0:0:
64,192,114025,1,0,0:0:0:0:
448,192,114173,128,0,114322:0:0:0:0:
320,192,114173,1,0,0:0:0:0:
192,192,114322,1,0,0:0:0:0:
64,192,114322,1,0,0:0:0:0:
320,192,114322,128,0,114470:0:0:0:0:
64,192,114470,128,0,114619:0:0:0:0:
448,192,114470,1,0,0:0:0:0:
192,192,114619,5,0,0:0:0:0:
320,192,114619,1,0,0:0:0:0:
448,192,114767,128,0,114916:0:0:0:0:
64,192,114767,1,0,0:0:0:0:
64,192,114916,128,0,115064:0:0:0:0:
192,192,114916,1,0,0:0:0:0:
192,192,115064,128,0,115213:0:0:0:0:
320,192,115064,1,0,0:0:0:0:
448,192,115213,1,0,0:0:0:0:
64,192,115213,1,0,0:0:0:0:
192,192,115361,128,0,115509:0:0:0:0:
448,192,115361,1,0,0:0:0:0:
320,192,115509,128,0,115658:0:0:0:0:
64,192,115509,1,0,0:0:0:0:
448,192,115658,128,0,115806:0:0:0:0:
192,192,115658,1,0,0:0:0:0:
192,192,115806,5,0,0:0:0:0:
64,192,115806,1,0,0:0:0:0:
320,192,115880,1,0,0:0:0:0:
448,192,115880,1,0,0:0:0:0:
192,192,115955,1,0,0:0:0:0:
64,192,115955,1,0,0:0:0:0:
320,192,116029,1,0,0:0:0:0:
448,192,116029,1,0,0:0:0:0:
192,192,116103,1,0,0:0:0:0:
64,192,116103,1,0,0:0:0:0:
320,192,116177,1,0,0:0:0:0:
448,192,116177,1,0,0:0:0:0:
64,192,116252,1,0,0:0:0:0:
192,192,116252,1,0,0:0:0:0:
320,192,116326,1,0,0:0:0:0:
448,192,116326,1,0,0:0:0:0:
64,192,116400,1,0,0:0:0:0:
192,192,116400,1,0,0:0:0:0:
448,192,116474,1,0,0:0:0:0:
320,192,116474,1,0,0:0:0:0:
192,192,116548,1,0,0:0:0:0:
64,192,116548,1,0,0:0:0:0:
448,192,116623,1,0,0:0:0:0:
320,192,116623,1,0,0:0:0:0:
192,192,116697,1,0,0:0:0:0:
64,192,116697,1,0,0:0:0:0:
320,192,116771,1,0,0:0:0:0:
448,192,116771,1,0,0:0:0:0:
192,192,116845,128,0,118181:0:0:0:0:
64,192,116845,128,0,118181:0:0:0:0:
448,192,116845,1,0,0:0:0:0:
