osu file format v14

[General]
AudioFilename: audio.mp3
AudioLeadIn: 0
PreviewTime: 61087
Countdown: 0
SampleSet: Soft
StackLeniency: 0.7
Mode: 3
LetterboxInBreaks: 0
SpecialStyle: 0
WidescreenStoryboard: 1

[Editor]
DistanceSpacing: 0.8
BeatDivisor: 4
GridSize: 4
TimelineZoom: 1.9

[Metadata]
Title:citrus
TitleUnicode:citrus
Artist:kamome sano
ArtistUnicode:kamome sano
Creator:sherrysina
Version:6K Advanced
Source:jubeat prop
Tags:jubeat plus jubeat series SDVX 3 BEMANI SUMMER DIARY 2015
BeatmapID:922966
BeatmapSetID:427537

[Difficulty]
HPDrainRate:7.5
CircleSize:6
OverallDifficulty:7.5
ApproachRate:5
SliderMultiplier:1.4
SliderTickRate:1

[Events]
//Background and Video events
0,0,"55609067_p0.jpg",0,0
//Break Periods
//Storyboard Layer 0 (Background)
//Storyboard Layer 1 (Fail)
//Storyboard Layer 2 (Pass)
//Storyboard Layer 3 (Foreground)
//Storyboard Sound Samples

[TimingPoints]
1295,344.827586206897,4,2,1,30,1,0
61992,-100,4,2,1,30,0,1
72940,-100,4,2,1,30,0,0
73027,-100,4,2,1,30,0,1
81303,-100,4,2,1,30,0,0
92682,-100,4,2,1,30,0,1
103371,-100,4,2,1,30,0,0

[HitObjects]
469,192,1295,5,0,0:0:0:40:crash.wav
42,192,1295,1,0,0:0:0:0:
213,192,1467,1,0,0:0:0:0:
298,192,1639,1,0,0:0:0:0:
384,192,1812,1,0,0:0:0:0:
42,192,1984,1,0,0:0:0:40:LR_Snare Clap Low.wav
128,192,2157,1,0,0:0:0:0:
213,192,2329,1,0,0:0:0:0:
469,192,2501,1,0,0:0:0:0:
384,192,2846,1,0,0:0:0:0:
298,192,3019,1,0,0:0:0:0:
213,192,3191,1,0,0:0:0:0:
128,192,3363,1,0,0:0:0:40:LR_Snare Clap Low.wav
469,192,3536,1,0,0:0:0:0:
298,192,3708,1,0,0:0:0:0:
42,192,3881,1,0,0:0:0:0:
384,192,4053,1,0,0:0:0:0:
128,192,4226,1,0,0:0:0:0:
213,192,4398,1,0,0:0:0:0:
298,192,4570,128,0,5088:0:0:0:0:
42,192,4915,1,0,0:0:0:0:
213,192,5088,1,0,0:0:0:0:
469,192,5260,128,0,5777:0:0:0:0:
128,192,5605,1,0,0:0:0:0:
384,192,5777,1,0,0:0:0:0:
213,192,5950,1,0,0:0:0:0:
42,192,6122,1,0,0:0:0:40:LR_Snare Clap Low.wav
298,192,6295,128,0,6812:0:0:0:0:
213,192,6812,1,0,0:0:0:0:
128,192,6812,1,0,0:0:0:0:
469,192,6984,1,0,0:0:0:0:
42,192,7157,1,0,0:0:0:0:
384,192,7329,1,0,0:0:0:0:
128,192,7674,1,0,0:0:0:0:
213,192,7846,1,0,0:0:0:0:
298,192,8019,1,0,0:0:0:0:
469,192,8363,1,0,0:0:0:0:
384,192,8536,1,0,0:0:0:0:
128,192,8708,1,0,0:0:0:0:
298,192,9053,1,0,0:0:0:0:
213,192,9226,1,0,0:0:0:0:
42,192,9398,1,0,0:0:0:0:
298,192,9570,1,0,0:0:0:0:
213,192,9743,1,0,0:0:0:0:
128,192,9915,1,0,0:0:0:0:
42,192,10088,1,0,0:0:0:0:
469,192,10432,1,0,0:0:0:0:
298,192,10605,1,0,0:0:0:0:
128,192,10777,1,0,0:0:0:0:
384,192,10950,1,0,0:0:0:0:
384,192,11122,1,0,0:0:0:0:
384,192,11295,1,0,0:0:0:0:
384,192,11467,1,0,0:0:0:0:
213,192,11639,1,0,0:0:0:0:
298,192,11726,1,0,0:0:0:0:
42,192,11898,1,0,0:0:0:0:
128,192,11984,1,0,0:0:0:0:
213,192,12070,1,0,0:0:0:0:
298,192,12157,1,0,0:0:0:0:
384,192,12243,1,0,0:0:0:0:
42,192,12329,128,0,13363:0:0:0:0:
469,192,12329,1,0,0:0:0:0:
384,192,13363,1,0,0:0:0:0:
298,192,13450,1,0,0:0:0:0:
213,192,13536,1,0,0:0:0:0:
128,192,13622,1,0,0:0:0:0:
298,192,13708,1,0,0:0:0:0:
469,192,13708,1,0,0:0:0:0:
213,192,14226,1,0,0:0:0:0:
298,192,14226,1,0,0:0:0:0:
42,192,14743,128,0,15777:0:0:0:0:
128,192,14743,1,0,0:0:0:0:
469,192,15777,1,0,0:0:0:0:
384,192,15863,1,0,0:0:0:0:
298,192,15950,1,0,0:0:0:0:
213,192,16036,1,0,0:0:0:0:
128,192,16122,1,0,0:0:0:0:
469,192,16237,1,0,0:0:0:0:
42,192,16352,1,0,0:0:0:0:
298,192,16467,1,0,0:0:0:0:
213,192,16467,1,0,0:0:0:0:
469,192,16984,1,0,0:0:0:0:
42,192,16984,1,0,0:0:0:0:
213,192,17501,1,0,0:0:0:0:
298,192,17501,128,0,18708:0:0:0:0:
42,192,18708,1,0,0:0:0:0:
128,192,18795,1,0,0:0:0:0:
213,192,18881,1,0,0:0:0:0:
298,192,18967,1,0,0:0:0:0:
384,192,19053,1,0,0:0:0:0:
469,192,19139,1,0,0:0:0:0:
42,192,19226,1,0,0:0:0:0:
128,192,19226,1,0,0:0:0:0:
298,192,19743,1,0,0:0:0:0:
213,192,19743,1,0,0:0:0:0:
469,192,20260,128,0,21467:0:0:0:0:
384,192,20260,1,0,0:0:0:0:
42,192,21467,1,0,0:0:0:0:
128,192,21553,1,0,0:0:0:0:
213,192,21639,1,0,0:0:0:0:
384,192,21812,1,0,0:0:0:0:
298,192,21984,1,0,0:0:0:0:
469,192,21984,1,0,0:0:0:0:
128,192,22329,1,0,0:0:0:0:
298,192,22501,1,0,0:0:0:0:
42,192,22846,1,0,0:0:0:0:
213,192,23019,1,0,0:0:0:0:
384,192,23191,1,0,0:0:0:0:
42,192,23363,128,0,24053:0:0:0:0:
469,192,23363,1,0,0:0:0:0:
128,192,24053,1,8,0:0:0:0:
469,192,24226,1,0,0:0:0:0:
384,192,24312,1,0,0:0:0:0:
298,192,24398,1,0,0:0:0:0:
213,192,24484,1,0,0:0:0:0:
128,192,24570,1,0,0:0:0:0:
42,192,24657,1,0,0:0:0:0:
469,192,24743,1,0,0:0:0:0:
384,192,24743,1,0,0:0:0:0:
213,192,25260,1,0,0:0:0:0:
298,192,25260,1,2,0:0:0:0:
128,192,25432,1,8,0:0:0:0:
42,192,25777,128,2,26639:0:0:0:0:
469,192,25777,1,0,0:0:0:0:
128,192,26639,1,2,0:0:0:0:
213,192,26726,1,2,0:0:0:0:
469,192,26812,1,0,0:0:0:0:
384,192,26898,1,0,0:0:0:0:
298,192,26984,1,0,0:0:0:0:
213,192,27070,1,0,0:0:0:0:
128,192,27157,1,0,0:0:0:0:
42,192,27243,1,0,0:0:0:0:
469,192,27329,1,0,0:0:0:0:
384,192,27415,1,0,0:0:0:0:
128,192,27501,1,0,0:0:0:0:
298,192,27501,1,0,0:0:0:0:
128,192,28019,1,0,0:0:0:0:
42,192,28019,1,2,0:0:0:0:
298,192,28191,1,8,0:0:0:0:
384,192,28536,1,0,0:0:0:0:
213,192,28536,1,0,0:0:0:0:
128,192,28881,1,0,0:0:0:0:
298,192,28881,1,0,0:0:0:0:
213,192,29398,1,0,0:0:0:0:
42,192,29398,1,0,0:0:0:0:
384,192,29915,1,0,0:0:0:0:
298,192,29915,1,0,0:0:0:0:
42,192,30432,1,0,0:0:0:0:
469,192,30432,128,0,31295:0:0:0:0:
384,192,30777,1,0,0:0:0:0:
298,192,30863,1,0,0:0:0:0:
213,192,30950,1,0,0:0:0:0:
128,192,31036,1,0,0:0:0:0:
42,192,31122,1,2,0:0:0:0:
128,192,31208,1,0,0:0:0:0:
213,192,31295,1,8,0:0:0:0:
384,192,31639,1,0,0:0:0:40:crash.wav
298,192,31639,1,2,0:0:0:0:
128,192,31812,1,0,0:0:0:0:
213,192,31984,1,8,0:0:0:0:
213,192,32157,1,0,0:0:0:0:
213,192,32329,1,0,0:0:0:0:
469,192,32501,1,0,0:0:0:0:
42,192,32501,1,2,0:0:0:0:
298,192,32674,1,8,0:0:0:0:
213,192,32846,1,0,0:0:0:0:
42,192,33019,1,0,0:0:0:0:
128,192,33019,1,2,0:0:0:0:
469,192,33363,1,8,0:0:0:0:
384,192,33881,1,2,0:0:0:0:
213,192,34053,1,8,0:0:0:0:
42,192,34226,1,0,0:0:0:0:
469,192,34398,1,0,0:0:0:0:
384,192,34398,1,2,0:0:0:0:
128,192,34570,1,0,0:0:0:0:
298,192,34743,1,8,0:0:0:0:
298,192,34915,1,0,0:0:0:0:
298,192,35088,1,0,0:0:0:0:
128,192,35260,1,2,0:0:0:0:
42,192,35260,1,0,0:0:0:0:
469,192,35432,1,8,0:0:0:0:
298,192,35605,1,0,0:0:0:0:
213,192,35777,1,2,0:0:0:0:
128,192,35777,1,0,0:0:0:0:
384,192,35950,1,0,0:0:0:0:
298,192,36122,1,8,0:0:0:0:
213,192,36295,1,0,0:0:0:0:
128,192,36467,1,0,0:0:0:0:
469,192,36639,1,0,0:0:0:0:
384,192,36639,1,2,0:0:0:0:
42,192,36812,1,0,0:0:0:0:
213,192,36984,1,0,0:0:0:0:
384,192,37157,1,0,0:0:0:0:
298,192,37157,1,2,0:0:0:0:
128,192,37501,1,8,0:0:0:0:
213,192,37674,1,0,0:0:0:0:
384,192,38019,1,2,0:0:0:0:
469,192,38019,1,0,0:0:0:0:
42,192,38191,1,8,0:0:0:0:
298,192,38536,1,0,0:0:0:0:
213,192,38536,1,2,0:0:0:0:
384,192,38881,1,8,0:0:0:0:
128,192,39053,1,0,0:0:0:0:
469,192,39398,1,2,0:0:0:0:
384,192,39398,1,0,0:0:0:0:
213,192,39570,1,8,0:0:0:0:
298,192,39743,1,0,0:0:0:0:
128,192,39915,1,2,0:0:0:0:
42,192,39915,1,0,0:0:0:0:
213,192,40260,1,8,0:0:0:0:
469,192,40432,1,0,0:0:0:0:
213,192,40432,1,2,0:0:0:0:
298,192,40777,1,8,0:0:0:0:
42,192,40950,1,0,0:0:0:0:
469,192,41295,1,0,0:0:0:0:
384,192,41295,1,2,0:0:0:0:
298,192,41639,1,8,0:0:0:0:
128,192,41812,1,2,0:0:0:0:
298,192,41812,1,0,0:0:0:0:
469,192,42157,1,8,0:0:0:0:
384,192,42243,1,0,0:0:0:0:
298,192,42329,1,2,0:0:0:0:
213,192,42415,1,8,0:0:0:0:
128,192,42501,1,2,0:0:0:0:
42,192,42588,1,0,0:0:0:0:
469,192,42674,1,0,0:0:0:40:crash.wav
384,192,42674,1,2,0:0:0:0:
213,192,42846,1,0,0:0:0:0:
298,192,43019,1,2,0:0:0:0:
298,192,43191,1,0,0:0:0:0:
298,192,43363,1,0,0:0:0:0:
128,192,43536,1,2,0:0:0:0:
42,192,43536,1,0,0:0:0:0:
469,192,43708,1,8,0:0:0:0:
384,192,43881,1,0,0:0:0:0:
213,192,44053,1,0,0:0:0:0:
298,192,44053,1,2,0:0:0:0:
42,192,44226,1,0,0:0:0:0:
128,192,44312,1,0,0:0:0:0:
213,192,44398,1,8,0:0:0:0:
298,192,44484,1,0,0:0:0:0:
384,192,44570,1,0,0:0:0:0:
469,192,44657,1,0,0:0:0:0:
384,192,44743,1,0,0:0:0:0:
298,192,44829,1,0,0:0:0:0:
213,192,44915,1,2,0:0:0:0:
128,192,45001,1,0,0:0:0:0:
42,192,45088,1,8,0:0:0:0:
128,192,45174,1,0,0:0:0:0:
213,192,45260,1,0,0:0:0:0:
298,192,45346,1,0,0:0:0:0:
469,192,45432,1,0,0:0:0:0:
384,192,45432,1,2,0:0:0:0:
42,192,45605,1,0,0:0:0:0:
213,192,45777,1,8,0:0:0:0:
213,192,45950,1,0,0:0:0:0:
213,192,46122,1,0,0:0:0:0:
469,192,46295,1,0,0:0:0:0:
384,192,46295,1,2,0:0:0:0:
42,192,46467,1,8,0:0:0:0:
298,192,46639,1,0,0:0:0:0:
213,192,46639,1,0,0:0:0:0:
469,192,46984,1,2,0:0:0:0:
384,192,47070,1,0,0:0:0:0:
298,192,47157,1,8,0:0:0:0:
213,192,47243,1,0,0:0:0:0:
128,192,47329,1,2,0:0:0:0:
42,192,47415,1,0,0:0:0:0:
128,192,47501,1,2,0:0:0:0:
213,192,47588,1,0,0:0:0:0:
298,192,47674,1,8,0:0:0:0:
469,192,47846,1,2,0:0:0:0:
384,192,48019,1,0,0:0:0:0:
42,192,48191,1,0,0:0:0:0:
298,192,48191,1,2,0:0:0:0:
128,192,48536,1,8,0:0:0:0:
469,192,48708,1,0,0:0:0:0:
298,192,49053,1,0,0:0:0:0:
384,192,49053,1,2,0:0:0:0:
42,192,49226,1,8,0:0:0:0:
213,192,49398,1,0,0:0:0:0:
469,192,49570,1,2,0:0:0:0:
213,192,49570,1,0,0:0:0:0:
42,192,49743,1,0,0:0:0:0:
384,192,49915,1,2,0:0:0:0:
298,192,49915,1,0,0:0:0:0:
128,192,50088,1,0,0:0:0:0:
213,192,50088,1,2,0:0:0:0:
384,192,50432,1,0,0:0:0:0:
469,192,50432,1,2,0:0:0:0:
42,192,50605,1,0,0:0:0:0:
128,192,50605,1,2,0:0:0:0:
469,192,50777,128,0,52846:0:0:0:0:
384,192,50777,1,0,0:0:0:0:
128,192,50950,1,0,0:0:0:40:crash.wav
42,192,50950,1,0,0:0:0:0:
42,192,52846,1,0,0:0:0:0:
298,192,53019,128,0,53191:0:0:0:0:
213,192,53191,128,0,53363:0:0:0:0:
384,192,53363,128,0,53536:0:0:0:0:
42,192,53536,128,0,54743:0:0:0:0:
213,192,54743,128,0,54915:0:0:0:0:
384,192,54915,128,0,55605:0:0:0:0:
128,192,55605,1,2,0:0:0:0:
213,192,55691,1,2,0:0:0:0:
298,192,55777,1,8,0:0:0:0:
42,192,55950,1,0,0:0:0:0:
213,192,56122,1,0,0:0:0:0:
384,192,56295,1,0,0:0:0:0:
42,192,56467,1,0,0:0:0:0:
128,192,56467,1,2,0:0:0:0:
469,192,56812,1,0,0:0:0:0:
298,192,56984,1,8,0:0:0:0:
384,192,57329,1,0,0:0:0:0:
42,192,57501,1,0,0:0:0:0:
213,192,57501,1,2,0:0:0:0:
469,192,58363,1,0,0:0:0:0:
384,192,58363,1,2,0:0:0:0:
42,192,58450,1,0,0:0:0:0:
128,192,58450,1,2,0:0:0:0:
469,192,58536,1,0,0:0:0:0:
384,192,58622,1,0,0:0:0:0:
298,192,58708,1,0,0:0:0:0:
213,192,58795,1,0,0:0:0:0:
128,192,58881,1,0,0:0:0:0:
42,192,58967,1,0,0:0:0:0:
128,192,59053,1,0,0:0:0:0:
213,192,59139,1,0,0:0:0:0:
469,192,59226,1,0,0:0:0:0:
298,192,59226,1,2,0:0:0:0:
213,192,59570,1,0,0:0:0:0:
384,192,59743,1,8,0:0:0:0:
128,192,60088,1,0,0:0:0:0:
469,192,60260,1,2,0:0:0:0:
298,192,60260,1,0,0:0:0:0:
298,192,60777,1,2,0:0:0:0:
213,192,60777,1,0,0:0:0:0:
298,192,60950,1,0,0:0:0:0:
213,192,60950,1,2,0:0:0:0:
42,192,61122,1,0,0:0:0:0:
469,192,61295,1,0,0:0:0:0:
128,192,61467,1,0,0:0:0:0:
469,192,61639,1,0,0:0:0:40:LR_Snare Clap Low.wav
213,192,61639,1,0,0:0:0:40:LR_Snare Clap Low.wav
298,192,61812,1,0,0:0:0:0:
213,192,61984,1,0,0:0:0:0:
42,192,61984,1,0,0:0:0:40:crash.wav
128,192,61984,1,0,0:0:0:40:crash.wav
384,192,62329,1,8,0:0:0:0:
128,192,62501,1,0,0:0:0:0:
213,192,62674,1,0,0:0:0:0:
469,192,62846,1,0,0:0:0:0:
298,192,62846,1,2,0:0:0:0:
42,192,63019,1,8,0:0:0:0:
384,192,63191,1,0,0:0:0:0:
213,192,63363,1,2,0:0:0:0:
128,192,63363,1,0,0:0:0:0:
469,192,63708,1,8,0:0:0:0:
213,192,63881,1,0,0:0:0:0:
298,192,64053,1,0,0:0:0:0:
42,192,64226,1,0,0:0:0:0:
128,192,64226,1,2,0:0:0:0:
384,192,64398,1,8,0:0:0:0:
213,192,64570,1,0,0:0:0:0:
42,192,64743,1,0,0:0:0:0:
298,192,64743,1,2,0:0:0:0:
469,192,64915,1,0,0:0:0:0:
298,192,65088,1,8,0:0:0:0:
128,192,65260,1,0,0:0:0:0:
469,192,65605,1,0,0:0:0:0:
42,192,65605,1,2,0:0:0:0:
213,192,65777,1,8,0:0:0:0:
298,192,65950,1,0,0:0:0:0:
469,192,66122,1,0,0:0:0:0:
384,192,66122,1,2,0:0:0:0:
42,192,66295,1,0,0:0:0:0:
128,192,66381,1,0,0:0:0:0:
213,192,66467,1,8,0:0:0:0:
298,192,66553,1,0,0:0:0:0:
384,192,66639,1,2,0:0:0:0:
469,192,66726,1,0,0:0:0:0:
384,192,66812,1,0,0:0:0:0:
298,192,66898,1,0,0:0:0:0:
213,192,66984,1,8,0:0:0:0:
128,192,67070,1,0,0:0:0:0:
42,192,67157,1,2,0:0:0:0:
128,192,67243,1,8,0:0:0:0:
213,192,67329,1,2,0:0:0:0:
298,192,67415,1,0,0:0:0:0:
469,192,67501,1,0,0:0:0:0:
384,192,67501,1,2,0:0:0:0:
42,192,67674,1,0,0:0:0:0:
213,192,67846,1,8,0:0:0:0:
384,192,68019,1,0,0:0:0:0:
213,192,68363,1,2,0:0:0:0:
42,192,68363,1,0,0:0:0:0:
469,192,68536,1,0,0:0:0:0:
384,192,68708,1,0,0:0:0:0:
128,192,68881,1,0,0:0:0:0:
213,192,68881,1,2,0:0:0:0:
469,192,69053,1,0,0:0:0:0:
213,192,69226,1,8,0:0:0:0:
42,192,69398,1,0,0:0:0:0:
469,192,69743,1,0,0:0:0:0:
384,192,69743,1,2,0:0:0:0:
128,192,69915,1,8,0:0:0:0:
213,192,70088,1,0,0:0:0:0:
298,192,70260,1,2,0:0:0:0:
384,192,70260,1,0,0:0:0:0:
42,192,70432,1,0,0:0:0:0:
469,192,70605,1,8,0:0:0:0:
128,192,70777,1,0,0:0:0:0:
213,192,70777,1,2,0:0:0:0:
469,192,71122,1,8,0:0:0:0:
384,192,71295,1,0,0:0:0:0:
42,192,71467,1,2,0:0:0:0:
213,192,71467,1,0,0:0:0:0:
469,192,71812,1,0,0:0:0:0:
298,192,71812,1,2,0:0:0:0:
128,192,71984,1,8,0:0:0:0:
469,192,72157,1,0,0:0:0:0:
384,192,72157,1,2,0:0:0:0:
42,192,72329,1,2,0:0:0:0:
213,192,72501,1,8,0:0:0:0:
469,192,72674,1,0,0:0:0:40:LR_Snare Clap Low.wav
298,192,72674,1,2,0:0:0:0:
128,192,72846,1,2,0:0:0:0:
469,192,73019,1,0,0:0:0:40:crash.wav
384,192,73019,1,0,0:0:0:0:
42,192,73019,1,0,0:0:0:40:crash.wav
213,192,73363,1,8,0:0:0:0:
469,192,73536,1,0,0:0:0:0:
298,192,73708,1,0,0:0:0:0:
128,192,73881,1,2,0:0:0:0:
42,192,73881,1,0,0:0:0:0:
384,192,74053,1,8,0:0:0:0:
213,192,74226,1,0,0:0:0:0:
469,192,74398,1,0,0:0:0:0:
128,192,74398,1,2,0:0:0:0:
298,192,74743,1,8,0:0:0:0:
42,192,74915,1,0,0:0:0:0:
469,192,75088,1,0,0:0:0:0:
298,192,75260,1,0,0:0:0:0:
128,192,75260,1,2,0:0:0:0:
384,192,75432,1,8,0:0:0:0:
213,192,75605,1,0,0:0:0:0:
469,192,75777,1,0,0:0:0:0:
42,192,75777,1,2,0:0:0:0:
384,192,75950,1,0,0:0:0:0:
298,192,76122,1,8,0:0:0:0:
42,192,76295,1,0,0:0:0:0:
213,192,76295,1,2,0:0:0:0:
128,192,76639,1,8,0:0:0:0:
469,192,76984,1,0,0:0:0:40:crash.wav
384,192,76984,1,0,0:0:0:40:crash.wav
42,192,77329,1,2,0:0:0:0:
128,192,77415,1,0,0:0:0:0:
213,192,77501,1,0,0:0:0:0:
298,192,77588,1,8,0:0:0:0:
384,192,77674,1,2,0:0:0:0:
469,192,77760,1,0,0:0:0:0:
384,192,77846,1,0,0:0:0:0:
298,192,77932,1,0,0:0:0:0:
213,192,78019,1,0,0:0:0:0:
128,192,78105,1,8,0:0:0:0:
42,192,78191,1,2,0:0:0:0:
128,192,78277,1,8,0:0:0:0:
213,192,78363,1,2,0:0:0:0:
298,192,78450,1,2,0:0:0:0:
384,192,78536,1,8,0:0:0:0:
128,192,78708,1,2,0:0:0:0:
42,192,78708,1,0,0:0:0:0:
469,192,78881,1,0,0:0:0:0:
384,192,78881,1,2,0:0:0:0:
213,192,79053,1,8,0:0:0:0:
384,192,79226,1,0,0:0:0:0:
298,192,79226,1,2,0:0:0:0:
128,192,79312,1,8,0:0:0:0:
469,192,79398,1,0,0:0:0:0:
298,192,79398,1,2,0:0:0:0:
42,192,79570,1,8,0:0:0:0:
298,192,79743,1,2,0:0:0:0:
384,192,79743,1,0,0:0:0:0:
384,192,80088,1,0,0:0:0:0:
42,192,80088,1,2,0:0:0:0:
42,192,80260,1,0,0:0:0:0:
384,192,80260,1,2,0:0:0:0:
213,192,80432,1,0,0:0:0:0:
298,192,80605,1,0,0:0:0:0:
469,192,80777,1,0,0:0:0:0:
213,192,80950,1,0,0:0:0:40:LR_Snare Clap Low.wav
128,192,80950,1,0,0:0:0:40:LR_Snare Clap Low.wav
384,192,81122,1,0,0:0:0:0:
42,192,81295,1,0,0:0:0:0:
469,192,81812,1,0,0:0:0:0:
298,192,81984,1,0,0:0:0:0:
128,192,82157,1,0,0:0:0:0:
384,192,82329,1,0,0:0:0:0:
42,192,82501,1,0,0:0:0:0:
128,192,83191,1,0,0:0:0:0:
469,192,83363,1,0,0:0:0:0:
298,192,83536,1,0,0:0:0:0:
213,192,83708,1,0,0:0:0:0:
42,192,83881,1,0,0:0:0:0:
384,192,84053,1,0,0:0:0:0:
128,192,84226,1,0,0:0:0:0:
213,192,84398,1,0,0:0:0:0:
298,192,84570,128,0,85088:0:0:0:0:
42,192,85088,1,0,0:0:0:0:
469,192,85260,1,0,0:0:0:0:
128,192,85432,1,0,0:0:0:0:
384,192,85605,1,0,0:0:0:0:
298,192,85777,1,0,0:0:0:0:
128,192,85950,1,0,0:0:0:0:
213,192,86122,1,0,0:0:0:0:
298,192,86295,1,0,0:0:0:0:
469,192,86467,128,0,86812:0:0:0:0:
128,192,86927,1,0,0:0:0:0:
384,192,87157,1,0,0:0:0:0:
42,192,87386,1,0,0:0:0:0:
469,192,87616,1,0,0:0:0:0:
42,192,87731,1,0,0:0:0:0:
128,192,87846,1,0,0:0:0:0:
213,192,87961,1,0,0:0:0:0:
298,192,88076,1,0,0:0:0:0:
384,192,88191,1,0,0:0:0:0:
469,192,88306,1,0,0:0:0:0:
384,192,88421,1,0,0:0:0:0:
298,192,88536,1,0,0:0:0:0:
213,192,88651,1,0,0:0:0:0:
128,192,88766,1,0,0:0:0:0:
42,192,88881,1,0,0:0:0:0:
128,192,88996,1,0,0:0:0:0:
213,192,89111,1,0,0:0:0:0:
298,192,89226,1,0,0:0:0:0:
384,192,89340,1,0,0:0:0:0:
469,192,89455,1,0,0:0:0:0:
42,192,89570,1,0,0:0:0:0:
213,192,89570,1,0,0:0:0:0:
298,192,90088,1,0,0:0:0:0:
128,192,90260,1,0,0:0:0:0:
469,192,90260,1,0,0:0:0:0:
42,192,90490,1,0,0:0:0:0:
384,192,90490,1,0,0:0:0:0:
298,192,90720,1,0,0:0:0:0:
213,192,90720,1,0,0:0:0:0:
469,192,91467,1,0,0:0:0:0:
298,192,91639,1,0,0:0:0:0:
128,192,91812,1,0,0:0:0:0:
384,192,91984,1,0,0:0:0:0:
42,192,92157,128,0,92674:0:0:0:0:
384,192,92674,1,0,0:0:0:40:LR_Snare Clap Low.wav
469,192,92674,1,0,0:0:0:40:LR_Snare Clap Low.wav
298,192,92674,1,0,0:0:0:0:
128,192,92846,1,0,0:0:0:0:
213,192,93019,1,0,0:0:0:0:
469,192,93191,1,0,0:0:0:0:
384,192,93191,1,2,0:0:0:0:
42,192,93363,1,8,0:0:0:0:
213,192,93536,1,0,0:0:0:0:
128,192,93708,1,2,0:0:0:0:
298,192,93708,1,0,0:0:0:0:
469,192,94053,1,8,0:0:0:0:
42,192,94226,1,0,0:0:0:0:
384,192,94398,1,0,0:0:0:0:
213,192,94570,1,2,0:0:0:0:
128,192,94570,1,0,0:0:0:0:
384,192,94743,1,8,0:0:0:0:
213,192,94915,1,0,0:0:0:0:
469,192,95088,1,2,0:0:0:0:
42,192,95088,1,0,0:0:0:0:
298,192,95260,1,0,0:0:0:0:
213,192,95432,1,8,0:0:0:0:
384,192,95605,1,0,0:0:0:0:
128,192,95605,1,2,0:0:0:0:
298,192,95950,1,8,0:0:0:0:
42,192,96295,1,0,0:0:0:0:
128,192,96295,1,0,0:0:0:40:crash.wav
469,192,96639,1,2,0:0:0:0:
384,192,96726,1,0,0:0:0:0:
298,192,96812,1,8,0:0:0:0:
213,192,96898,1,0,0:0:0:0:
128,192,96984,1,2,0:0:0:0:
42,192,97070,1,0,0:0:0:0:
128,192,97157,1,2,0:0:0:0:
213,192,97243,1,0,0:0:0:0:
298,192,97329,1,8,0:0:0:0:
384,192,97415,1,0,0:0:0:0:
469,192,97501,1,2,0:0:0:0:
384,192,97588,1,8,0:0:0:0:
298,192,97674,1,2,0:0:0:0:
213,192,97760,1,0,0:0:0:0:
42,192,97846,1,2,0:0:0:0:
128,192,97846,1,0,0:0:0:40:crash.wav
469,192,98019,1,0,0:0:0:0:
213,192,98191,1,8,0:0:0:0:
384,192,98363,1,0,0:0:0:0:
128,192,98708,1,2,0:0:0:0:
42,192,98708,1,0,0:0:0:0:
298,192,98881,1,8,0:0:0:0:
128,192,99053,1,0,0:0:0:0:
469,192,99226,1,0,0:0:0:0:
384,192,99226,1,2,0:0:0:0:
42,192,99398,1,0,0:0:0:0:
298,192,99570,1,8,0:0:0:0:
213,192,99743,1,0,0:0:0:0:
469,192,100088,1,0,0:0:0:0:
128,192,100088,1,2,0:0:0:0:
298,192,100260,1,8,0:0:0:0:
213,192,100432,1,0,0:0:0:0:
42,192,100605,1,8,0:0:0:0:
469,192,100777,1,0,0:0:0:0:
384,192,100777,1,2,0:0:0:0:
469,192,100950,1,2,0:0:0:0:
384,192,100950,1,0,0:0:0:0:
213,192,101122,1,8,0:0:0:0:
128,192,101295,1,2,0:0:0:0:
42,192,101295,1,0,0:0:0:0:
469,192,101381,1,8,0:0:0:0:
298,192,101467,1,2,0:0:0:0:
213,192,101467,1,0,0:0:0:0:
384,192,101639,1,8,0:0:0:0:
213,192,101812,1,0,0:0:0:0:
42,192,101812,1,2,0:0:0:0:
384,192,102157,1,0,0:0:0:0:
298,192,102157,1,2,0:0:0:0:
384,192,102329,1,2,0:0:0:0:
298,192,102329,1,0,0:0:0:0:
469,192,103019,1,0,0:0:0:0:
298,192,103363,1,2,0:0:0:0:
42,192,103363,1,0,0:0:0:40:crash.wav
213,192,103708,1,8,0:0:0:0:
384,192,104226,1,2,0:0:0:0:
469,192,104226,1,0,0:0:0:0:
42,192,104398,1,8,0:0:0:0:
298,192,104743,1,0,0:0:0:0:
213,192,104743,1,2,0:0:0:0:
469,192,105088,1,8,0:0:0:0:
384,192,105605,1,2,0:0:0:0:
42,192,105605,1,0,0:0:0:0:
213,192,105777,1,8,0:0:0:0:
298,192,106122,1,2,0:0:0:0:
128,192,106122,1,0,0:0:0:0:
469,192,106467,1,8,0:0:0:0:
128,192,106984,1,2,0:0:0:0:
42,192,106984,1,0,0:0:0:0:
298,192,107157,1,8,0:0:0:0:
469,192,107501,1,0,0:0:0:0:
213,192,107501,1,2,0:0:0:0:
298,192,107846,1,8,0:0:0:0:
128,192,108019,1,2,0:0:0:0:
42,192,108019,1,0,0:0:0:0:
384,192,108363,1,8,0:0:0:0:
213,192,108536,1,2,0:0:0:0:
469,192,108536,1,0,0:0:0:0:
42,192,108622,1,8,0:0:0:0:
298,192,108708,1,2,0:0:0:0:
384,192,108708,1,0,0:0:0:0:
128,192,108795,1,0,0:0:0:0:
213,192,108881,1,0,0:0:0:40:crash.wav
42,192,108881,1,0,0:0:0:0:
469,192,108967,1,0,0:0:0:0:
384,192,109053,1,0,0:0:0:0:
298,192,109139,1,0,0:0:0:0:
213,192,109226,1,8,0:0:0:0:
128,192,109312,1,0,0:0:0:0:
42,192,109398,1,0,0:0:0:0:
128,192,109484,1,0,0:0:0:0:
213,192,109570,1,2,0:0:0:0:
298,192,109657,1,0,0:0:0:0:
384,192,109743,1,0,0:0:0:0:
469,192,109829,1,0,0:0:0:0:
384,192,109915,1,8,0:0:0:0:
298,192,110001,1,0,0:0:0:0:
213,192,110088,1,0,0:0:0:0:
128,192,110174,1,0,0:0:0:0:
42,192,110260,1,2,0:0:0:0:
469,192,110346,1,0,0:0:0:0:
384,192,110432,1,0,0:0:0:0:
298,192,110519,1,0,0:0:0:0:
213,192,110605,1,8,0:0:0:0:
128,192,110691,1,0,0:0:0:0:
42,192,110777,1,0,0:0:0:0:
128,192,110863,1,0,0:0:0:0:
213,192,110950,1,2,0:0:0:0:
298,192,111036,1,0,0:0:0:0:
384,192,111122,1,0,0:0:0:0:
469,192,111208,1,0,0:0:0:0:
384,192,111295,1,10,0:0:0:0:
298,192,111381,1,0,0:0:0:0:
213,192,111467,1,2,0:0:0:0:
128,192,111553,1,2,0:0:0:0:
42,192,111639,1,8,0:0:0:0:
469,192,111726,1,0,0:0:0:0:
384,192,111812,1,2,0:0:0:0:
298,192,111898,1,8,0:0:0:0:
213,192,111984,1,2,0:0:0:0:
128,192,112070,1,0,0:0:0:0:
42,192,112157,1,8,0:0:0:0:
469,192,112243,1,0,0:0:0:0:
384,192,112329,1,2,0:0:0:0:
298,192,112415,1,8,0:0:0:0:
213,192,112501,1,2,0:0:0:0:
128,192,112588,1,0,0:0:0:0:
42,192,112674,1,8,0:0:0:0:
469,192,112760,1,0,0:0:0:0:
384,192,112846,1,2,0:0:0:0:
298,192,112932,1,8,0:0:0:0:
213,192,113019,1,2,0:0:0:0:
128,192,113105,1,0,0:0:0:0:
42,192,113191,1,8,0:0:0:0:
469,192,113277,1,0,0:0:0:0:
384,192,113363,1,2,0:0:0:0:
298,192,113450,1,8,0:0:0:0:
213,192,113536,1,2,0:0:0:0:
128,192,113622,1,0,0:0:0:0:
42,192,113708,1,8,0:0:0:0:
128,192,113795,1,8,0:0:0:0:
213,192,113881,1,2,0:0:0:0:
298,192,113967,1,8,0:0:0:0:
384,192,114053,1,2,0:0:0:0:
42,192,114226,128,0,118191:0:0:0:40:crash.wav
469,192,114226,128,0,118191:0:0:0:40:crash.wav
