osu file format v14

[General]
AudioFilename: audio.mp3
AudioLeadIn: 0
PreviewTime: 61087
Countdown: 0
SampleSet: Soft
StackLeniency: 0.7
Mode: 3
LetterboxInBreaks: 0
SpecialStyle: 0
WidescreenStoryboard: 0

[Editor]
DistanceSpacing: 0.8
BeatDivisor: 4
GridSize: 4
TimelineZoom: 1.7

[Metadata]
Title:citrus
TitleUnicode:citrus
Artist:kamome sano
ArtistUnicode:kamome sano
Creator:sherrysina
Version:4K Basic
Source:jubeat prop
Tags:jubeat plus jubeat series SDVX 3 BEMANI SUMMER DIARY 2015
BeatmapID:922964
BeatmapSetID:427537

[Difficulty]
HPDrainRate:7
CircleSize:4
OverallDifficulty:7
ApproachRate:5
SliderMultiplier:1.4
SliderTickRate:1

[Events]
//Background and Video events
0,0,"55609067_p0.jpg",0,0
//Break Periods
//Storyboard Layer 0 (Background)
//Storyboard Layer 1 (Fail)
//Storyboard Layer 2 (Pass)
//Storyboard Layer 3 (Foreground)
//Storyboard Sound Samples

[TimingPoints]
1295,344.827586206897,4,2,1,30,1,0
61984,-100,4,2,1,30,0,1
72932,-100,4,2,1,30,0,0
73019,-100,4,2,1,30,0,1
81295,-100,4,2,1,30,0,0
92674,-100,4,2,1,30,0,1
103363,-100,4,2,1,30,0,0

[HitObjects]
448,192,1295,5,0,0:0:0:40:crash.wav
320,192,1295,1,0,0:0:0:0:
64,192,1467,1,0,0:0:0:0:
192,192,1639,1,0,0:0:0:0:
320,192,1812,1,0,0:0:0:0:
448,192,2157,1,0,0:0:0:0:
320,192,2329,1,0,0:0:0:0:
192,192,2501,1,0,0:0:0:0:
64,192,2846,1,0,0:0:0:0:
320,192,3019,1,0,0:0:0:0:
448,192,3191,1,0,0:0:0:0:
192,192,3536,1,0,0:0:0:0:
320,192,3708,1,0,0:0:0:0:
64,192,3881,1,0,0:0:0:0:
448,192,4053,1,0,0:0:0:0:
320,192,4226,1,0,0:0:0:0:
192,192,4398,1,0,0:0:0:0:
64,192,4570,1,0,0:0:0:0:
320,192,4915,1,0,0:0:0:0:
192,192,5088,1,0,0:0:0:0:
64,192,5260,1,0,0:0:0:0:
192,192,5605,1,0,0:0:0:0:
320,192,5777,1,0,0:0:0:0:
448,192,5950,1,0,0:0:0:0:
64,192,6122,1,0,0:0:0:40:LR_Snare Clap Low.wav
192,192,6295,128,0,6812:0:0:0:0:
64,192,6812,1,0,0:0:0:0:
448,192,6812,1,0,0:0:0:0:
320,192,6984,1,0,0:0:0:0:
192,192,7157,1,0,0:0:0:0:
64,192,7329,1,0,0:0:0:0:
192,192,7674,1,0,0:0:0:0:
320,192,7846,1,0,0:0:0:0:
448,192,8019,1,0,0:0:0:0:
64,192,8363,1,0,0:0:0:0:
320,192,8536,1,0,0:0:0:0:
448,192,8708,1,0,0:0:0:0:
192,192,9053,1,0,0:0:0:0:
448,192,9226,1,0,0:0:0:0:
64,192,9398,1,0,0:0:0:0:
320,192,9570,1,0,0:0:0:0:
192,192,9743,1,0,0:0:0:0:
448,192,9915,1,0,0:0:0:0:
64,192,10088,1,0,0:0:0:0:
192,192,10432,1,0,0:0:0:0:
320,192,10605,1,0,0:0:0:0:
448,192,10777,1,0,0:0:0:0:
64,192,10950,1,0,0:0:0:0:
192,192,11122,1,0,0:0:0:0:
448,192,11295,1,0,0:0:0:0:
320,192,11467,1,0,0:0:0:0:
64,192,11639,1,0,0:0:0:0:
448,192,11726,1,0,0:0:0:0:
192,192,11898,1,0,0:0:0:0:
320,192,11984,128,0,12329:0:0:0:0:
192,192,12329,1,0,0:0:0:0:
64,192,12329,1,0,0:0:0:0:
64,192,13363,1,0,0:0:0:0:
192,192,13536,1,0,0:0:0:0:
448,192,13708,1,0,0:0:0:0:
320,192,13708,1,0,0:0:0:0:
64,192,14226,1,0,0:0:0:0:
192,192,14226,1,0,0:0:0:0:
448,192,14743,1,0,0:0:0:0:
320,192,14743,1,0,0:0:0:0:
320,192,16467,1,0,0:0:0:0:
64,192,16467,1,0,0:0:0:0:
448,192,16984,1,0,0:0:0:0:
192,192,16984,1,0,0:0:0:0:
64,192,17501,1,0,0:0:0:0:
320,192,17501,1,0,0:0:0:0:
448,192,18708,1,0,0:0:0:0:
192,192,18881,1,0,0:0:0:0:
64,192,19053,1,0,0:0:0:0:
448,192,19226,1,0,0:0:0:0:
320,192,19226,1,0,0:0:0:0:
64,192,19743,1,0,0:0:0:0:
192,192,19743,1,0,0:0:0:0:
448,192,20260,1,0,0:0:0:0:
320,192,20260,1,0,0:0:0:0:
448,192,21467,1,0,0:0:0:0:
320,192,21639,1,0,0:0:0:0:
192,192,21812,1,0,0:0:0:0:
448,192,21984,1,0,0:0:0:0:
64,192,21984,1,0,0:0:0:0:
320,192,22329,1,0,0:0:0:0:
192,192,22501,1,0,0:0:0:0:
448,192,22846,1,0,0:0:0:0:
320,192,23019,1,0,0:0:0:0:
64,192,23191,1,0,0:0:0:0:
448,192,23363,1,0,0:0:0:0:
192,192,23363,1,0,0:0:0:0:
64,192,24226,1,0,0:0:0:0:
448,192,24398,1,0,0:0:0:0:
192,192,24570,1,0,0:0:0:0:
64,192,24743,1,0,0:0:0:0:
320,192,24743,1,0,0:0:0:0:
448,192,25260,1,2,0:0:0:0:
192,192,25260,1,0,0:0:0:0:
320,192,25777,1,2,0:0:0:0:
64,192,25777,1,0,0:0:0:0:
448,192,27501,1,0,0:0:0:0:
320,192,27501,1,0,0:0:0:0:
64,192,28019,1,0,0:0:0:0:
192,192,28019,1,2,0:0:0:0:
448,192,28536,1,0,0:0:0:0:
320,192,28536,1,0,0:0:0:0:
448,192,28881,1,0,0:0:0:0:
192,192,28881,1,0,0:0:0:0:
64,192,29398,1,0,0:0:0:0:
320,192,29398,1,0,0:0:0:0:
320,192,29915,1,0,0:0:0:0:
192,192,29915,1,0,0:0:0:0:
320,192,30432,1,0,0:0:0:0:
448,192,30432,1,0,0:0:0:0:
192,192,31639,1,2,0:0:0:0:
64,192,31639,1,0,0:0:0:40:crash.wav
448,192,31812,1,0,0:0:0:0:
320,192,31984,1,8,0:0:0:0:
320,192,32157,1,0,0:0:0:0:
320,192,32329,1,0,0:0:0:0:
64,192,32501,1,2,0:0:0:0:
448,192,32674,1,8,0:0:0:0:
192,192,32846,1,0,0:0:0:0:
64,192,33881,1,2,0:0:0:0:
320,192,34053,1,8,0:0:0:0:
448,192,34226,1,0,0:0:0:0:
192,192,34570,1,0,0:0:0:0:
448,192,34743,1,8,0:0:0:0:
448,192,34915,1,0,0:0:0:0:
448,192,35088,1,0,0:0:0:0:
64,192,35260,1,2,0:0:0:0:
192,192,35432,1,8,0:0:0:0:
320,192,35605,1,0,0:0:0:0:
448,192,35950,1,0,0:0:0:0:
192,192,36122,1,8,0:0:0:0:
320,192,36295,1,0,0:0:0:0:
64,192,36467,1,0,0:0:0:0:
192,192,36639,1,2,0:0:0:0:
448,192,36812,1,8,0:0:0:0:
320,192,36984,1,0,0:0:0:0:
192,192,37157,1,2,0:0:0:0:
64,192,37501,1,8,0:0:0:0:
448,192,37674,1,0,0:0:0:0:
320,192,38536,1,2,0:0:0:0:
192,192,38881,1,8,0:0:0:0:
448,192,39053,1,0,0:0:0:0:
64,192,39743,1,0,0:0:0:0:
320,192,39915,1,2,0:0:0:0:
448,192,40260,1,8,0:0:0:0:
448,192,40432,1,2,0:0:0:0:
64,192,40950,1,0,0:0:0:0:
320,192,41295,1,2,0:0:0:0:
448,192,41639,1,8,0:0:0:0:
448,192,41812,1,2,0:0:0:0:
64,192,42157,1,8,0:0:0:0:
320,192,42329,1,2,0:0:0:0:
192,192,42501,1,2,0:0:0:0:
64,192,42674,1,0,0:0:0:40:crash.wav
448,192,42674,1,2,0:0:0:0:
320,192,42846,1,0,0:0:0:0:
192,192,43019,1,8,0:0:0:0:
192,192,43191,1,0,0:0:0:0:
192,192,43363,1,0,0:0:0:0:
448,192,43536,1,2,0:0:0:0:
64,192,43708,1,8,0:0:0:0:
320,192,43881,1,2,0:0:0:0:
192,192,44226,1,0,0:0:0:0:
448,192,44398,1,8,0:0:0:0:
320,192,44570,1,0,0:0:0:0:
64,192,44743,1,0,0:0:0:0:
448,192,44915,1,2,0:0:0:0:
192,192,45088,1,8,0:0:0:0:
448,192,45260,1,0,0:0:0:0:
320,192,45432,1,2,0:0:0:0:
192,192,45605,1,0,0:0:0:0:
64,192,45777,1,8,0:0:0:0:
64,192,45950,1,0,0:0:0:0:
64,192,46122,1,0,0:0:0:0:
320,192,46295,1,2,0:0:0:0:
64,192,46467,1,8,0:0:0:0:
192,192,46639,1,0,0:0:0:0:
448,192,46984,1,2,0:0:0:0:
64,192,47157,1,8,0:0:0:0:
448,192,47329,1,2,0:0:0:0:
64,192,47501,1,2,0:0:0:0:
192,192,47674,1,8,0:0:0:0:
320,192,47846,1,2,0:0:0:0:
448,192,48019,1,0,0:0:0:0:
64,192,48191,1,2,0:0:0:0:
320,192,48536,1,8,0:0:0:0:
192,192,48708,1,0,0:0:0:0:
448,192,49398,1,0,0:0:0:0:
448,192,49570,1,2,0:0:0:0:
64,192,49743,1,0,0:0:0:0:
192,192,49915,1,2,0:0:0:0:
320,192,50088,1,2,0:0:0:0:
448,192,50432,1,2,0:0:0:0:
64,192,50605,1,0,0:0:0:0:
320,192,50777,1,0,0:0:0:0:
64,192,50950,1,0,0:0:0:40:crash.wav
192,192,50950,1,0,0:0:0:0:
448,192,51122,1,0,0:0:0:0:
320,192,51295,1,0,0:0:0:0:
192,192,51467,1,0,0:0:0:0:
64,192,51639,1,0,0:0:0:0:
192,192,51812,1,0,0:0:0:0:
320,192,51984,1,0,0:0:0:0:
64,192,52157,1,0,0:0:0:0:
192,192,52329,1,0,0:0:0:0:
448,192,52501,1,0,0:0:0:0:
320,192,52674,1,0,0:0:0:0:
192,192,52846,1,0,0:0:0:0:
64,192,53019,1,0,0:0:0:0:
192,192,53191,1,0,0:0:0:0:
448,192,53363,1,0,0:0:0:0:
320,192,53536,1,0,0:0:0:0:
64,192,53881,1,0,0:0:0:0:
192,192,54053,1,0,0:0:0:0:
320,192,54226,1,0,0:0:0:0:
448,192,54398,1,0,0:0:0:0:
320,192,54570,1,0,0:0:0:0:
192,192,54743,1,0,0:0:0:0:
448,192,54915,1,0,0:0:0:0:
320,192,55088,1,0,0:0:0:0:
64,192,55260,1,0,0:0:0:0:
192,192,55432,1,0,0:0:0:0:
448,192,55605,1,2,0:0:0:0:
64,192,55777,1,8,0:0:0:0:
320,192,55950,1,0,0:0:0:0:
192,192,56122,1,0,0:0:0:0:
448,192,56295,1,0,0:0:0:0:
192,192,56467,1,2,0:0:0:0:
64,192,56467,1,0,0:0:0:0:
320,192,56812,1,0,0:0:0:0:
192,192,56984,1,8,0:0:0:0:
448,192,57329,1,0,0:0:0:0:
64,192,57501,1,2,0:0:0:0:
448,192,58881,1,0,0:0:0:0:
320,192,59053,1,0,0:0:0:0:
64,192,59226,1,0,0:0:0:0:
192,192,59226,1,2,0:0:0:0:
448,192,59570,1,0,0:0:0:0:
192,192,59743,1,8,0:0:0:0:
448,192,60088,1,0,0:0:0:0:
64,192,60260,1,2,0:0:0:0:
192,192,61122,1,0,0:0:0:0:
320,192,61295,1,0,0:0:0:0:
448,192,61467,1,0,0:0:0:0:
192,192,61639,1,0,0:0:0:40:LR_Snare Clap Low.wav
64,192,61639,1,0,0:0:0:0:
320,192,61984,1,0,0:0:0:0:
448,192,61984,1,0,0:0:0:40:crash.wav
192,192,62501,1,0,0:0:0:0:
320,192,62674,1,0,0:0:0:0:
448,192,62846,1,2,0:0:0:0:
64,192,63019,1,8,0:0:0:0:
320,192,63191,1,0,0:0:0:0:
448,192,63881,1,0,0:0:0:0:
64,192,64053,1,0,0:0:0:0:
192,192,64226,1,2,0:0:0:0:
320,192,64398,1,8,0:0:0:0:
448,192,64570,1,0,0:0:0:0:
320,192,64915,1,0,0:0:0:0:
192,192,65088,1,8,0:0:0:0:
64,192,65260,1,0,0:0:0:0:
448,192,65605,1,2,0:0:0:0:
192,192,65777,1,8,0:0:0:0:
320,192,65950,1,0,0:0:0:0:
64,192,66295,1,0,0:0:0:0:
448,192,66467,1,8,0:0:0:0:
192,192,66639,1,2,0:0:0:0:
320,192,66812,1,0,0:0:0:0:
64,192,66984,1,8,0:0:0:0:
448,192,67157,1,2,0:0:0:0:
192,192,67329,1,0,0:0:0:0:
320,192,67501,1,2,0:0:0:0:
64,192,67674,1,0,0:0:0:0:
192,192,67846,1,8,0:0:0:0:
448,192,68019,1,0,0:0:0:0:
320,192,68363,1,2,0:0:0:0:
192,192,68536,1,8,0:0:0:0:
64,192,68708,1,0,0:0:0:0:
448,192,69053,1,0,0:0:0:0:
320,192,69226,1,8,0:0:0:0:
192,192,69398,1,0,0:0:0:0:
448,192,69743,1,2,0:0:0:0:
64,192,69915,1,8,0:0:0:0:
192,192,70088,1,0,0:0:0:0:
448,192,70260,1,2,0:0:0:0:
320,192,70432,1,0,0:0:0:0:
192,192,70605,1,8,0:0:0:0:
64,192,70777,1,2,0:0:0:0:
192,192,71122,1,8,0:0:0:0:
320,192,71295,1,0,0:0:0:0:
448,192,71467,1,2,0:0:0:0:
64,192,72157,1,2,0:0:0:0:
192,192,72329,1,0,0:0:0:0:
320,192,72501,1,8,0:0:0:0:
64,192,72674,1,0,0:0:0:40:LR_Snare Clap Low.wav
448,192,72674,1,0,0:0:0:40:LR_Snare Clap Low.wav
192,192,72846,1,2,0:0:0:0:
448,192,73019,1,0,0:0:0:0:
320,192,73019,1,0,0:0:0:40:crash.wav
64,192,73536,1,0,0:0:0:0:
192,192,73708,1,0,0:0:0:0:
448,192,73881,1,2,0:0:0:0:
64,192,74053,1,8,0:0:0:0:
320,192,74226,1,0,0:0:0:0:
448,192,74915,1,0,0:0:0:0:
64,192,75088,1,0,0:0:0:0:
448,192,75260,1,2,0:0:0:0:
64,192,75432,1,8,0:0:0:0:
320,192,75605,1,0,0:0:0:0:
64,192,75950,1,0,0:0:0:0:
320,192,76122,1,8,0:0:0:0:
448,192,76295,1,2,0:0:0:0:
192,192,76639,1,8,0:0:0:0:
448,192,76984,1,0,0:0:0:40:crash.wav
320,192,76984,1,0,0:0:0:40:crash.wav
64,192,77329,1,2,0:0:0:0:
320,192,77501,1,8,0:0:0:0:
192,192,77674,1,2,0:0:0:0:
448,192,77846,1,0,0:0:0:0:
64,192,78019,1,0,0:0:0:0:
192,192,78191,1,2,0:0:0:0:
320,192,78363,1,0,0:0:0:0:
448,192,78536,1,8,0:0:0:0:
192,192,78708,1,2,0:0:0:0:
320,192,78881,1,2,0:0:0:0:
64,192,79053,1,0,0:0:0:0:
192,192,79398,1,2,0:0:0:0:
320,192,79570,1,8,0:0:0:0:
448,192,79743,1,2,0:0:0:0:
192,192,80088,1,2,0:0:0:0:
192,192,80260,1,2,0:0:0:0:
448,192,80432,1,0,0:0:0:0:
320,192,80605,1,0,0:0:0:0:
64,192,80777,1,0,0:0:0:0:
448,192,80950,1,0,0:0:0:40:LR_Snare Clap Low.wav
320,192,80950,1,0,0:0:0:40:LR_Snare Clap Low.wav
192,192,81122,1,0,0:0:0:0:
448,192,81295,1,0,0:0:0:0:
448,192,81812,1,0,0:0:0:0:
320,192,81984,1,0,0:0:0:0:
192,192,82157,1,0,0:0:0:0:
320,192,82329,1,0,0:0:0:0:
64,192,82501,1,0,0:0:0:0:
448,192,83191,1,0,0:0:0:0:
64,192,83363,1,0,0:0:0:0:
320,192,83536,1,0,0:0:0:0:
192,192,83708,1,0,0:0:0:0:
64,192,83881,1,0,0:0:0:0:
448,192,84053,1,0,0:0:0:0:
192,192,84226,1,0,0:0:0:0:
320,192,84398,1,0,0:0:0:0:
64,192,84570,1,0,0:0:0:0:
192,192,85088,1,0,0:0:0:0:
320,192,85260,1,0,0:0:0:0:
448,192,85432,1,0,0:0:0:0:
64,192,85605,1,0,0:0:0:0:
192,192,85777,1,0,0:0:0:0:
448,192,85950,1,0,0:0:0:0:
320,192,86122,1,0,0:0:0:0:
64,192,86295,1,0,0:0:0:0:
192,192,86467,1,0,0:0:0:0:
448,192,86927,1,0,0:0:0:0:
192,192,87157,1,0,0:0:0:0:
320,192,87386,1,0,0:0:0:0:
64,192,87616,128,0,89570:0:0:0:0:
448,192,89570,1,0,0:0:0:0:
192,192,90088,1,0,0:0:0:0:
64,192,90260,1,0,0:0:0:0:
448,192,90260,1,0,0:0:0:0:
64,192,90490,1,0,0:0:0:0:
320,192,90490,1,0,0:0:0:0:
448,192,90720,1,0,0:0:0:0:
192,192,90720,1,0,0:0:0:0:
64,192,91467,1,0,0:0:0:0:
192,192,91639,1,0,0:0:0:0:
320,192,91812,1,0,0:0:0:0:
64,192,91984,1,0,0:0:0:0:
448,192,92157,1,0,0:0:0:0:
64,192,92674,1,0,0:0:0:40:LR_Snare Clap Low.wav
192,192,92674,1,0,0:0:0:40:LR_Snare Clap Low.wav
448,192,92846,1,0,0:0:0:0:
320,192,93019,1,0,0:0:0:0:
192,192,93191,1,2,0:0:0:0:
320,192,93363,1,8,0:0:0:0:
64,192,93536,1,0,0:0:0:0:
192,192,94226,1,0,0:0:0:0:
448,192,94398,1,0,0:0:0:0:
64,192,94570,1,2,0:0:0:0:
448,192,94743,1,8,0:0:0:0:
192,192,94915,1,0,0:0:0:0:
320,192,95260,1,0,0:0:0:0:
64,192,95432,1,8,0:0:0:0:
192,192,95605,1,2,0:0:0:0:
448,192,95950,1,8,0:0:0:0:
192,192,96295,1,0,0:0:0:0:
64,192,96295,1,0,0:0:0:40:crash.wav
448,192,96639,1,2,0:0:0:0:
64,192,96812,1,8,0:0:0:0:
448,192,96984,1,2,0:0:0:0:
192,192,97157,1,2,0:0:0:0:
448,192,97329,1,8,0:0:0:0:
320,192,97501,1,2,0:0:0:0:
64,192,97674,1,2,0:0:0:0:
192,192,97846,1,2,0:0:0:0:
448,192,97846,1,0,0:0:0:40:crash.wav
320,192,98019,1,0,0:0:0:0:
64,192,98191,1,8,0:0:0:0:
448,192,98363,1,0,0:0:0:0:
192,192,98708,1,2,0:0:0:0:
448,192,98881,1,8,0:0:0:0:
64,192,99053,1,0,0:0:0:0:
448,192,99226,1,2,0:0:0:0:
192,192,99398,1,0,0:0:0:0:
320,192,99570,1,8,0:0:0:0:
64,192,99743,1,0,0:0:0:0:
448,192,100088,1,2,0:0:0:0:
192,192,100260,1,8,0:0:0:0:
320,192,100432,1,0,0:0:0:0:
64,192,100605,1,8,0:0:0:0:
448,192,100777,1,2,0:0:0:0:
192,192,100950,1,2,0:0:0:0:
320,192,101122,1,8,0:0:0:0:
64,192,101467,1,2,0:0:0:0:
192,192,101639,1,8,0:0:0:0:
320,192,101812,1,2,0:0:0:0:
448,192,102157,1,2,0:0:0:0:
448,192,102329,1,2,0:0:0:0:
64,192,103019,1,0,0:0:0:0:
448,192,103363,128,2,104570:0:0:0:0:
320,192,103363,1,0,0:0:0:40:crash.wav
192,192,104570,128,0,106122:0:0:0:0:
64,192,106122,128,0,107329:0:0:0:0:
320,192,107329,128,0,108363:0:0:0:0:
192,192,108363,128,0,108881:0:0:0:0:
64,192,108881,1,0,0:0:0:0:
448,192,108881,1,0,0:0:0:40:crash.wav
320,192,109053,1,0,0:0:0:0:
192,192,109226,1,8,0:0:0:0:
448,192,109398,1,0,0:0:0:0:
320,192,109570,1,2,0:0:0:0:
64,192,109743,1,0,0:0:0:0:
448,192,109915,1,8,0:0:0:0:
192,192,110088,1,0,0:0:0:0:
320,192,110260,1,2,0:0:0:0:
64,192,110432,1,0,0:0:0:0:
192,192,110605,1,8,0:0:0:0:
448,192,110777,1,0,0:0:0:0:
320,192,110950,1,2,0:0:0:0:
192,192,111122,1,0,0:0:0:0:
64,192,111295,1,10,0:0:0:0:
320,192,111467,1,2,0:0:0:0:
192,192,111639,1,8,0:0:0:0:
448,192,111812,1,2,0:0:0:0:
320,192,111984,1,2,0:0:0:0:
64,192,112157,1,8,0:0:0:0:
192,192,112329,1,2,0:0:0:0:
320,192,112501,1,2,0:0:0:0:
448,192,112674,1,8,0:0:0:0:
192,192,112846,1,2,0:0:0:0:
320,192,113019,1,2,0:0:0:0:
64,192,113191,1,8,0:0:0:0:
448,192,113363,1,2,0:0:0:0:
64,192,113536,1,2,0:0:0:0:
192,192,113708,1,8,0:0:0:0:
320,192,113881,1,2,0:0:0:0:
448,192,114053,1,2,0:0:0:0:
192,192,114226,128,0,118191:0:0:0:40:crash.wav
64,192,114226,128,0,118191:0:0:0:40:crash.wav
