osu file format v14

[General]
AudioFilename: audio.mp3
AudioLeadIn: 0
PreviewTime: 61377
Countdown: 0
SampleSet: Soft
StackLeniency: 0.7
Mode: 3
LetterboxInBreaks: 0
SpecialStyle: 0
WidescreenStoryboard: 1

[Editor]
Bookmarks: 12584,23618,31894,51205,62239,73274,81550,92584,103618
DistanceSpacing: 1
BeatDivisor: 12
GridSize: 32
TimelineZoom: 1

[Metadata]
Title:citrus
TitleUnicode:citrus
Artist:kamome sano
ArtistUnicode:kamome sano
Creator:K a b i -
Version:_VK's Advanced
Source:jubeat prop
Tags:bemani summer diary 2015 original soundtrack sound voltex iii gravity wars sdvx 3 keppsado _viank_ unpredictable kabi
BeatmapID:1786691
BeatmapSetID:854717

[Difficulty]
HPDrainRate:7
CircleSize:4
OverallDifficulty:7
ApproachRate:5
SliderMultiplier:1.4
SliderTickRate:1

[Events]
//Background and Video events
0,0,"BG (2).jpg",0,0
//Break Periods
//Storyboard Layer 0 (Background)
//Storyboard Layer 1 (Fail)
//Storyboard Layer 2 (Pass)
//Storyboard Layer 3 (Foreground)
//Storyboard Sound Samples

[TimingPoints]
1550,344.827586206897,4,2,1,31,1,0
12584,-100,4,2,1,70,0,0
62239,-100,4,2,1,70,0,1
71722,-100,4,2,1,70,0,0
73274,-100,4,2,1,70,0,1
81550,-100,4,2,1,31,0,0
92929,-100,4,2,1,70,0,1
103618,-100,4,2,1,70,0,0

[HitObjects]
320,192,1550,5,0,0:0:0:60:cymbal.wav
64,192,1550,1,0,0:0:0:0:
192,192,1894,1,0,0:0:0:0:
448,192,2067,1,0,0:0:0:0:
64,192,2412,1,0,0:0:0:0:
320,192,2584,1,0,0:0:0:0:
192,192,2756,1,0,0:0:0:0:
448,192,3101,1,0,0:0:0:0:
320,192,3274,1,0,0:0:0:0:
192,192,3446,1,0,0:0:0:0:
320,192,3791,1,0,0:0:0:0:
192,192,3963,1,0,0:0:0:0:
64,192,4136,1,0,0:0:0:0:
448,192,4308,1,0,0:0:0:0:
320,192,4308,1,0,0:0:0:0:
192,192,4653,1,0,0:0:0:0:
64,192,4825,1,0,0:0:0:0:
320,192,5170,1,0,0:0:0:0:
192,192,5343,1,0,0:0:0:0:
448,192,5515,1,0,0:0:0:0:
192,192,5860,1,0,0:0:0:0:
320,192,6032,1,0,0:0:0:0:
64,192,6205,1,0,0:0:0:0:
448,192,6550,128,0,7067:0:0:0:0:
320,192,7067,1,0,0:0:0:0:
64,192,7067,1,0,0:0:0:0:
192,192,7239,1,0,0:0:0:0:
320,192,7412,1,0,0:0:0:0:
448,192,7412,1,0,0:0:0:0:
192,192,7584,1,0,0:0:0:0:
448,192,7756,1,0,0:0:0:0:
320,192,7929,1,0,0:0:0:0:
64,192,8101,1,0,0:0:0:0:
192,192,8101,1,0,0:0:0:0:
448,192,8274,1,0,0:0:0:0:
192,192,8446,1,0,0:0:0:0:
320,192,8618,1,0,0:0:0:0:
448,192,8791,1,0,0:0:0:0:
64,192,8791,1,0,0:0:0:0:
192,192,8963,1,0,0:0:0:0:
448,192,9136,1,0,0:0:0:0:
320,192,9308,1,0,0:0:0:0:
192,192,9481,1,0,0:0:0:0:
64,192,9481,1,0,0:0:0:0:
320,192,9653,1,0,0:0:0:0:
448,192,9825,1,0,0:0:0:0:
64,192,9825,1,0,0:0:0:0:
192,192,9998,1,0,0:0:0:0:
448,192,10170,1,0,0:0:0:0:
320,192,10170,1,0,0:0:0:0:
64,192,10343,1,0,0:0:0:0:
192,192,10515,1,0,0:0:0:0:
448,192,10687,1,0,0:0:0:0:
320,192,10860,1,0,0:0:0:0:
64,192,10860,1,0,0:0:0:0:
192,192,11032,1,0,0:0:0:0:
448,192,11205,1,0,0:0:0:0:
320,192,11205,1,0,0:0:0:0:
448,192,11377,1,0,0:0:0:0:
192,192,11550,1,0,0:0:0:0:
64,192,11550,1,0,0:0:0:0:
64,192,11722,1,0,0:0:0:0:
448,192,11894,128,0,12067:0:0:0:0:
192,192,12067,128,0,12239:0:0:0:0:
64,192,12239,128,0,12584:0:0:0:0:
448,192,12584,128,0,13618:0:0:0:60:cymbal.wav
320,192,12584,1,0,0:0:0:70:kick.wav
64,192,13618,128,0,13963:0:0:0:0:
320,192,13963,128,0,14308:0:0:0:60:cymbal.wav
448,192,13963,1,0,0:0:0:70:kick.wav
192,192,14481,128,0,14825:0:0:0:60:cymbal.wav
64,192,14481,1,0,0:0:0:70:kick.wav
448,192,14998,1,0,0:0:0:60:cymbal.wav
320,192,14998,128,0,16032:0:0:0:70:kick.wav
64,192,16032,128,0,16205:0:0:0:0:
448,192,16205,128,0,16377:0:0:0:0:
320,192,16377,128,0,16722:0:0:0:0:
192,192,16722,1,0,0:0:0:60:cymbal.wav
64,192,16722,128,0,17067:0:0:0:70:kick.wav
320,192,17239,1,0,0:0:0:60:cymbal.wav
192,192,17239,128,0,17584:0:0:0:70:kick.wav
320,192,17756,1,0,0:0:0:60:cymbal.wav
448,192,17756,128,0,18791:0:0:0:70:kick.wav
192,192,18963,128,0,19136:0:0:0:0:
64,192,19136,128,0,19481:0:0:0:0:
448,192,19481,128,0,19825:0:0:0:70:cymbal.wav
320,192,19481,1,0,0:0:0:70:kick.wav
64,192,19998,1,0,0:0:0:60:cymbal.wav
320,192,19998,128,0,20343:0:0:0:70:kick.wav
64,192,20515,1,0,0:0:0:60:cymbal.wav
192,192,20515,128,0,21550:0:0:0:70:kick.wav
448,192,21722,1,0,0:0:0:70:tom01.wav
320,192,21808,1,0,0:0:0:70:tom01.wav
192,192,21894,1,0,0:0:0:70:tom02.wav
64,192,22067,1,0,0:0:0:70:tom03.wav
320,192,22239,1,0,0:0:0:60:cymbal.wav
448,192,22239,128,0,22584:0:0:0:70:kick.wav
64,192,22584,128,0,22756:0:0:0:0:
320,192,22756,128,0,23101:0:0:0:70:kick.wav
192,192,22756,1,0,0:0:0:0:
64,192,23101,128,0,23274:0:0:0:0:
192,192,23274,128,0,23446:0:0:0:0:
320,192,23446,128,0,23618:0:0:0:0:
64,192,23618,1,0,0:0:0:60:cymbal.wav
448,192,23618,128,0,24308:0:0:0:70:kick.wav
64,192,24308,1,0,0:0:0:100:snare.wav
320,192,24308,1,0,0:0:0:0:
192,192,24481,128,0,24653:0:0:0:0:
448,192,24653,128,0,24825:0:0:0:0:
192,192,24825,128,0,24998:0:0:0:0:
448,192,24998,1,0,0:0:0:60:cymbal.wav
64,192,24998,128,0,25343:0:0:0:70:kick.wav
448,192,25515,128,0,26032:0:0:0:60:cymbal.wav
320,192,25515,1,0,0:0:0:70:kick.wav
192,192,25687,1,0,0:0:0:100:snare.wav
64,192,25687,1,0,0:0:0:0:
192,192,26032,128,0,26894:0:0:0:70:kick.wav
64,192,26032,1,0,0:0:0:60:cymbal.wav
320,192,26894,128,0,27067:0:0:0:70:kick.wav
64,192,27067,128,0,27239:0:0:0:0:
192,192,27239,128,0,27412:0:0:0:0:
448,192,27412,128,0,27584:0:0:0:0:
64,192,27584,128,0,27756:0:0:0:0:
192,192,27756,1,0,0:0:0:60:cymbal.wav
320,192,27756,128,0,28101:0:0:0:70:kick.wav
64,192,28274,1,0,0:0:0:60:cymbal.wav
448,192,28274,128,0,28618:0:0:0:70:kick.wav
192,192,28446,1,0,0:0:0:100:snare.wav
320,192,28446,1,0,0:0:0:0:
64,192,28791,1,0,0:0:0:60:cymbal.wav
192,192,28791,128,0,29136:0:0:0:70:kick.wav
320,192,29136,1,0,0:0:0:40:kick.wav
448,192,29136,128,0,29653:0:0:0:0:
192,192,29653,1,0,0:0:0:50:kick.wav
64,192,29653,128,0,30170:0:0:0:0:
320,192,30170,1,0,0:0:0:60:kick.wav
192,192,30170,128,0,30687:0:0:0:0:
448,192,30687,1,0,0:0:0:70:kick.wav
320,192,30687,128,0,31377:0:0:0:0:
64,192,31377,1,0,0:0:0:70:kick.wav
192,192,31550,1,0,0:0:0:100:snare.wav
448,192,31550,1,0,0:0:0:0:
64,192,31894,1,0,0:0:0:60:cymbal.wav
320,192,31894,1,0,0:0:0:70:kick.wav
192,192,32067,1,0,0:0:0:0:
448,192,32239,1,0,0:0:0:100:snare.wav
320,192,32239,1,0,0:0:0:0:
64,192,32412,1,0,0:0:0:0:
192,192,32584,1,0,0:0:0:0:
320,192,32756,1,0,0:0:0:70:kick.wav
192,192,32929,1,0,0:0:0:100:snare.wav
448,192,32929,1,0,0:0:0:0:
64,192,33101,128,0,33274:0:0:0:0:
320,192,33274,128,0,33791:0:0:0:70:kick.wav
64,192,33618,1,0,0:0:0:100:snare.wav
192,192,33618,1,0,0:0:0:0:
448,192,33791,128,0,34136:0:0:0:0:
64,192,34136,128,0,34308:0:0:0:70:kick.wav
320,192,34308,128,0,34481:0:0:0:100:snare.wav
192,192,34308,1,0,0:0:0:0:
448,192,34481,128,0,34653:0:0:0:0:
64,192,34653,1,0,0:0:0:70:kick.wav
192,192,34825,1,0,0:0:0:0:
320,192,34998,1,0,0:0:0:100:snare.wav
448,192,34998,1,0,0:0:0:0:
64,192,35170,1,0,0:0:0:0:
448,192,35343,1,0,0:0:0:0:
320,192,35515,1,0,0:0:0:70:kick.wav
192,192,35687,1,0,0:0:0:100:snare.wav
64,192,35687,1,0,0:0:0:0:
448,192,35860,128,0,36205:0:0:0:0:
192,192,36032,1,0,0:0:0:70:kick.wav
64,192,36205,128,0,36377:0:0:0:0:
320,192,36377,128,0,36550:0:0:0:100:snare.wav
448,192,36377,1,0,0:0:0:0:
192,192,36550,128,0,36722:0:0:0:0:
448,192,36722,128,0,36894:0:0:0:0:
64,192,36894,128,0,37067:0:0:0:70:kick.wav
192,192,37067,128,0,37239:0:0:0:100:snare.wav
320,192,37067,1,0,0:0:0:0:
448,192,37239,128,0,37412:0:0:0:0:
64,192,37412,1,0,0:0:0:70:kick.wav
192,192,37756,1,0,0:0:0:100:snare.wav
320,192,37756,1,0,0:0:0:0:
448,192,37929,128,0,38446:0:0:0:0:
192,192,38274,1,0,0:0:0:70:kick.wav
64,192,38446,128,0,38791:0:0:0:100:snare.wav
320,192,38446,1,0,0:0:0:0:
448,192,38791,1,0,0:0:0:70:kick.wav
192,192,39136,1,0,0:0:0:100:snare.wav
64,192,39136,1,0,0:0:0:0:
448,192,39308,128,0,39653:0:0:0:0:
320,192,39653,1,0,0:0:0:70:kick.wav
192,192,39825,1,0,0:0:0:100:snare.wav
64,192,39825,1,0,0:0:0:0:
320,192,39998,128,0,40170:0:0:0:0:
64,192,40170,128,0,40515:0:0:0:70:kick.wav
192,192,40515,1,0,0:0:0:100:snare.wav
320,192,40515,1,0,0:0:0:0:
448,192,40687,128,0,41032:0:0:0:70:kick.wav
320,192,41032,1,0,0:0:0:100:snare.wav
192,192,41032,1,0,0:0:0:0:
64,192,41205,128,0,41550:0:0:0:0:
448,192,41550,1,0,0:0:0:70:kick.wav
320,192,41722,1,0,0:0:0:0:
192,192,41894,1,0,0:0:0:100:snare.wav
64,192,41894,1,0,0:0:0:0:
448,192,42067,128,0,42412:0:0:0:70:kick.wav
320,192,42412,1,0,0:0:0:100:snare.wav
192,192,42412,1,0,0:0:0:0:
64,192,42584,1,0,0:0:0:70:kick.wav
320,192,42670,1,0,0:0:0:100:snare.wav
192,192,42756,1,0,0:0:0:70:kick.wav
64,192,42929,1,0,0:0:0:60:cymbal.wav
448,192,42929,1,0,0:0:0:70:kick.wav
192,192,43101,1,0,0:0:0:0:
320,192,43274,1,0,0:0:0:100:snare.wav
448,192,43274,1,0,0:0:0:0:
64,192,43446,1,0,0:0:0:0:
192,192,43618,1,0,0:0:0:0:
320,192,43791,1,0,0:0:0:70:kick.wav
448,192,43963,1,0,0:0:0:100:snare.wav
64,192,43963,1,0,0:0:0:0:
320,192,44136,128,0,44481:0:0:0:0:
192,192,44308,1,0,0:0:0:70:kick.wav
64,192,44481,128,0,44653:0:0:0:0:
192,192,44653,128,0,44825:0:0:0:100:snare.wav
448,192,44653,1,0,0:0:0:0:
320,192,44825,128,0,44998:0:0:0:0:
448,192,44998,128,0,45170:0:0:0:0:
192,192,45170,128,0,45343:0:0:0:70:kick.wav
320,192,45343,128,0,45515:0:0:0:100:snare.wav
64,192,45343,1,0,0:0:0:0:
448,192,45515,128,0,45687:0:0:0:0:
64,192,45687,1,0,0:0:0:70:kick.wav
320,192,45860,1,0,0:0:0:0:
192,192,46032,1,0,0:0:0:100:snare.wav
448,192,46032,1,0,0:0:0:0:
64,192,46205,1,0,0:0:0:0:
320,192,46377,1,0,0:0:0:0:
192,192,46550,1,0,0:0:0:70:kick.wav
448,192,46722,1,0,0:0:0:100:snare.wav
64,192,46722,1,0,0:0:0:0:
320,192,46894,128,0,47067:0:0:0:70:kick.wav
192,192,47067,128,0,47239:0:0:0:0:
64,192,47239,128,0,47412:0:0:0:70:kick.wav
448,192,47412,128,0,47584:0:0:0:100:snare.wav
192,192,47412,1,0,0:0:0:0:
320,192,47584,1,0,0:0:0:70:kick.wav
320,192,47756,1,0,0:0:0:70:kick.wav
64,192,47929,1,0,0:0:0:100:snare.wav
192,192,47929,1,0,0:0:0:0:
448,192,48101,1,0,0:0:0:70:kick.wav
64,192,48187,1,0,0:0:0:100:snare.wav
192,192,48274,1,0,0:0:0:70:kick.wav
320,192,48360,1,0,0:0:0:0:
448,192,48446,128,0,48791:0:0:0:70:kick.wav
320,192,48791,1,0,0:0:0:100:snare.wav
192,192,48791,1,0,0:0:0:0:
64,192,48963,128,0,49308:0:0:0:0:
320,192,49308,1,0,0:0:0:70:kick.wav
192,192,49481,1,0,0:0:0:100:snare.wav
448,192,49481,1,0,0:0:0:0:
64,192,49653,1,0,0:0:0:0:
64,192,49825,1,0,0:0:0:70:kick.wav
192,192,49998,1,0,0:0:0:0:
320,192,50084,1,0,0:0:0:100:snare.wav
448,192,50084,1,0,0:0:0:0:
64,192,50170,1,0,0:0:0:70:kick.wav
448,192,50343,1,0,0:0:0:70:kick.wav
64,192,50601,1,0,0:0:0:100:snare.wav
192,192,50601,1,0,0:0:0:0:
448,192,50687,1,0,0:0:0:70:kick.wav
320,192,50860,1,0,0:0:0:70:kick.wav
192,192,50946,1,0,0:0:0:70:snare.wav
64,192,50946,1,0,0:0:0:0:
448,192,51032,128,0,53101:0:0:0:70:kick.wav
320,192,51205,1,0,0:0:0:60:cymbal.wav
192,192,51205,1,0,0:0:0:70:kick.wav
192,192,53101,128,0,53274:0:0:0:0:
320,192,53274,128,0,53446:0:0:0:0:
448,192,53446,128,0,53618:0:0:0:0:
64,192,53618,128,0,53791:0:0:0:0:
192,192,53791,128,0,54998:0:0:0:0:
448,192,53963,1,0,0:0:0:0:
320,192,54998,128,0,55170:0:0:0:0:
448,192,55170,1,0,0:0:0:0:
64,192,55170,128,0,55860:0:0:0:0:
192,192,55860,1,0,0:0:0:70:kick.wav
320,192,55946,1,0,0:0:0:70:kick.wav
448,192,56032,128,0,56205:0:0:0:100:snare.wav
320,192,56205,128,0,56377:0:0:0:70:tom01.wav
192,192,56377,128,0,56550:0:0:0:70:tom02.wav
64,192,56550,128,0,56722:0:0:0:70:tom03.wav
320,192,56722,1,0,0:0:0:70:kick.wav
448,192,56722,128,0,57067:0:0:0:0:
192,192,57067,128,0,57239:0:0:0:0:
320,192,57239,1,0,0:0:0:100:snare.wav
64,192,57239,1,0,0:0:0:0:
448,192,57584,1,0,0:0:0:0:
64,192,57756,128,0,58618:0:0:0:70:kick.wav
320,192,57756,1,0,0:0:0:0:
192,192,58618,1,0,0:0:0:70:kick.wav
320,192,58705,1,0,0:0:0:70:kick.wav
448,192,58791,128,0,59136:0:0:0:0:
64,192,59136,128,0,59308:0:0:0:0:
192,192,59308,128,0,59481:0:0:0:0:
448,192,59481,1,0,0:0:0:70:kick.wav
320,192,59481,128,0,59825:0:0:0:0:
192,192,59825,128,0,59998:0:0:0:0:
64,192,59998,1,0,0:0:0:100:snare.wav
448,192,59998,1,0,0:0:0:0:
192,192,60343,1,0,0:0:0:0:
320,192,60515,1,0,0:0:0:70:kick.wav
448,192,60515,128,0,61205:0:0:0:0:
64,192,61032,1,0,0:0:0:70:kick.wav
320,192,61205,1,0,0:0:0:70:kick.wav
192,192,61377,128,0,61550:0:0:0:0:
64,192,61550,128,0,61722:0:0:0:0:
320,192,61722,128,0,61894:0:0:0:0:
192,192,61894,128,0,62067:0:0:0:60:snare_wave.wav
448,192,61894,1,0,0:0:0:0:
64,192,62067,128,0,62756:0:0:0:0:
320,192,62239,1,0,0:0:0:60:cymbal.wav
448,192,62239,1,0,0:0:0:70:kick.wav
320,192,62584,1,0,0:0:0:70:snare.wav
192,192,62584,1,0,0:0:0:0:
448,192,62756,1,0,0:0:0:0:
192,192,62929,1,0,0:0:0:0:
320,192,63101,1,0,0:0:0:70:kick.wav
64,192,63274,1,0,0:0:0:100:snare.wav
448,192,63274,1,0,0:0:0:0:
192,192,63446,128,0,64136:0:0:0:0:
320,192,63618,1,0,0:0:0:70:kick.wav
448,192,63963,1,0,0:0:0:0:
320,192,63963,1,0,0:0:0:100:snare.wav
64,192,64136,1,0,0:0:0:0:
448,192,64308,1,0,0:0:0:0:
320,192,64481,1,0,0:0:0:70:kick.wav
192,192,64653,1,0,0:0:0:100:snare.wav
64,192,64653,1,0,0:0:0:0:
448,192,64825,128,0,65170:0:0:0:0:
320,192,64998,1,0,0:0:0:70:kick.wav
192,192,65170,1,0,0:0:0:0:
448,192,65343,1,0,0:0:0:100:snare.wav
64,192,65343,1,0,0:0:0:0:
320,192,65515,128,0,65860:0:0:0:0:
448,192,65860,1,0,0:0:0:70:kick.wav
64,192,66032,1,0,0:0:0:100:snare.wav
192,192,66032,1,0,0:0:0:0:
448,192,66205,128,0,66550:0:0:0:0:
320,192,66377,1,0,0:0:0:70:kick.wav
64,192,66550,128,0,66722:0:0:0:0:
192,192,66722,128,0,66894:0:0:0:100:snare.wav
320,192,66722,1,0,0:0:0:0:
448,192,66894,128,0,67067:0:0:0:70:kick.wav
64,192,67067,128,0,67239:0:0:0:0:
448,192,67239,1,0,0:0:0:100:snare.wav
320,192,67239,128,0,67412:0:0:0:0:
64,192,67412,1,0,0:0:0:70:kick.wav
192,192,67498,1,0,0:0:0:100:snare.wav
320,192,67584,1,0,0:0:0:70:kick.wav
448,192,67756,1,0,0:0:0:70:kick.wav
64,192,67929,128,0,68101:0:0:0:0:
192,192,68101,128,0,68274:0:0:0:100:snare.wav
448,192,68101,1,0,0:0:0:0:
320,192,68274,128,0,68618:0:0:0:0:
192,192,68618,1,0,0:0:0:70:kick.wav
64,192,68791,1,0,0:0:0:100:snare.wav
448,192,68791,1,0,0:0:0:0:
320,192,68963,1,0,0:0:0:0:
192,192,69136,1,0,0:0:0:70:kick.wav
448,192,69308,128,0,69481:0:0:0:0:
192,192,69481,128,0,69653:0:0:0:100:snare.wav
64,192,69481,1,0,0:0:0:0:
320,192,69653,128,0,69998:0:0:0:0:
192,192,69998,1,0,0:0:0:70:kick.wav
448,192,70170,1,0,0:0:0:100:snare.wav
64,192,70170,1,0,0:0:0:0:
320,192,70343,1,0,0:0:0:0:
64,192,70515,1,0,0:0:0:70:kick.wav
448,192,70687,1,0,0:0:0:0:
192,192,70860,1,0,0:0:0:100:snare.wav
64,192,70860,1,0,0:0:0:0:
320,192,71032,128,0,71377:0:0:0:70:kick.wav
192,192,71377,128,0,71550:0:0:0:100:snare.wav
64,192,71377,1,0,0:0:0:0:
448,192,71550,128,0,71722:0:0:0:0:
320,192,71722,1,0,0:0:0:70:kick.wav
64,192,71894,1,0,0:0:0:0:
192,192,72067,1,0,0:0:0:70:kick.wav
448,192,72239,1,0,0:0:0:100:snare.wav
320,192,72239,1,0,0:0:0:0:
192,192,72412,1,0,0:0:0:70:kick.wav
192,192,72584,1,0,0:0:0:70:kick.wav
320,192,72756,1,0,0:0:0:100:snare.wav
448,192,72756,1,0,0:0:0:0:
192,192,72929,1,0,0:0:0:60:snare_wave.wav
64,192,72929,1,0,0:0:0:0:
320,192,73101,128,0,73618:0:0:0:70:kick.wav
448,192,73274,1,0,0:0:0:60:cymbal.wav
64,192,73274,1,0,0:0:0:70:kick.wav
192,192,73618,1,0,0:0:0:100:snare.wav
64,192,73618,1,0,0:0:0:0:
448,192,73791,128,0,73963:0:0:0:0:
320,192,73963,128,0,74136:0:0:0:0:
64,192,74136,128,0,74308:0:0:0:70:kick.wav
192,192,74308,128,0,74481:0:0:0:100:snare.wav
448,192,74308,1,0,0:0:0:0:
320,192,74481,128,0,75170:0:0:0:0:
64,192,74653,1,0,0:0:0:70:kick.wav
192,192,74998,1,0,0:0:0:100:snare.wav
64,192,74998,1,0,0:0:0:0:
448,192,75170,128,0,75343:0:0:0:0:
64,192,75343,128,0,75515:0:0:0:0:
192,192,75515,128,0,75687:0:0:0:70:kick.wav
448,192,75687,128,0,75860:0:0:0:100:snare.wav
320,192,75687,1,0,0:0:0:0:
64,192,75860,128,0,76205:0:0:0:0:
192,192,76032,1,0,0:0:0:70:kick.wav
448,192,76205,128,0,76377:0:0:0:0:
320,192,76377,128,0,76550:0:0:0:100:snare.wav
192,192,76377,1,0,0:0:0:0:
64,192,76550,1,0,0:0:0:70:kick.wav
192,192,76894,1,0,0:0:0:100:snare.wav
320,192,76894,1,0,0:0:0:0:
320,192,77239,1,0,0:0:0:60:cymbal.wav
448,192,77239,128,0,77584:0:0:0:70:kick.wav
64,192,77584,1,0,0:0:0:70:kick.wav
320,192,77756,1,0,0:0:0:70:snare.wav
192,192,77756,1,0,0:0:0:0:
448,192,77929,1,0,0:0:0:70:kick.wav
192,192,78015,1,0,0:0:0:0:
448,192,78101,1,0,0:0:0:70:kick.wav
320,192,78187,1,0,0:0:0:0:
64,192,78274,1,0,0:0:0:100:snare.wav
192,192,78274,1,0,0:0:0:0:
320,192,78446,1,0,0:0:0:70:kick.wav
64,192,78532,1,0,0:0:0:70:snare.wav
320,192,78618,1,0,0:0:0:70:kick.wav
192,192,78791,1,0,0:0:0:100:snare.wav
448,192,78791,1,0,0:0:0:0:
64,192,78963,1,0,0:0:0:70:kick.wav
320,192,79136,1,0,0:0:0:70:kick.wav
64,192,79308,1,0,0:0:0:100:snare.wav
448,192,79308,1,0,0:0:0:0:
320,192,79481,1,0,0:0:0:70:kick.wav
192,192,79567,1,0,0:0:0:70:snare.wav
320,192,79653,1,0,0:0:0:70:kick.wav
448,192,79825,1,0,0:0:0:100:snare.wav
64,192,79825,1,0,0:0:0:0:
192,192,79998,1,0,0:0:0:70:kick.wav
320,192,80343,1,0,0:0:0:70:kick.wav
320,192,80515,1,0,0:0:0:70:kick.wav
64,192,80716,1,0,0:0:0:0:
192,192,80889,1,0,0:0:0:0:
320,192,81061,1,0,0:0:0:0:
64,192,81205,1,0,0:0:0:60:snare_wave.wav
448,192,81205,1,0,0:0:0:0:
192,192,81406,128,0,82095:0:0:0:0:
320,192,81550,1,0,0:0:0:0:
448,192,82095,1,0,0:0:0:0:
320,192,82268,1,0,0:0:0:0:
64,192,82440,1,0,0:0:0:0:
192,192,82613,1,0,0:0:0:0:
320,192,82785,128,0,83475:0:0:0:0:
64,192,83475,1,0,0:0:0:0:
448,192,83647,1,0,0:0:0:0:
192,192,83820,1,0,0:0:0:0:
320,192,83992,1,0,0:0:0:0:
448,192,84164,128,0,84509:0:0:0:0:
64,192,84308,1,0,0:0:0:0:
320,192,84509,1,0,0:0:0:0:
192,192,84682,1,0,0:0:0:0:
320,192,84854,128,0,85371:0:0:0:0:
192,192,85371,1,0,0:0:0:0:
64,192,85544,128,0,86377:0:0:0:0:
448,192,85687,1,0,0:0:0:0:
192,192,85860,1,0,0:0:0:0:
448,192,86032,1,0,0:0:0:0:
320,192,86205,1,0,0:0:0:0:
192,192,86377,1,0,0:0:0:0:
320,192,86550,1,0,0:0:0:0:
448,192,86722,1,0,0:0:0:0:
64,192,87067,1,0,0:0:0:0:
192,192,87067,1,0,0:0:0:0:
448,192,87182,1,0,0:0:0:0:
320,192,87412,1,0,0:0:0:0:
64,192,87641,1,0,0:0:0:0:
192,192,87871,1,0,0:0:0:0:
448,192,87986,1,0,0:0:0:0:
320,192,88101,1,0,0:0:0:0:
64,192,88216,1,0,0:0:0:0:
192,192,88331,1,0,0:0:0:0:
448,192,88446,128,0,88791:0:0:0:0:
320,192,88791,128,0,89136:0:0:0:0:
64,192,89136,128,0,89481:0:0:0:0:
192,192,89481,128,0,89825:0:0:0:0:
320,192,89825,1,0,0:0:0:0:
448,192,89825,1,0,0:0:0:0:
64,192,90343,1,0,0:0:0:0:
448,192,90515,1,0,0:0:0:0:
192,192,90515,1,0,0:0:0:0:
448,192,90745,1,0,0:0:0:0:
192,192,90745,1,0,0:0:0:0:
320,192,90975,128,0,91722:0:0:0:0:
64,192,90975,1,0,0:0:0:0:
64,192,91722,128,0,91894:0:0:0:0:
192,192,91894,128,0,92067:0:0:0:0:
320,192,92067,128,0,92239:0:0:0:0:
448,192,92239,128,0,92412:0:0:0:0:
64,192,92412,128,0,92929:0:0:0:0:
448,192,92929,1,0,0:0:0:60:snare_wave.wav
320,192,92929,1,0,0:0:0:60:cymbal.wav
192,192,93101,1,0,0:0:0:0:
448,192,93274,1,0,0:0:0:0:
192,192,93446,1,0,0:0:0:70:kick.wav
320,192,93618,1,0,0:0:0:100:snare.wav
64,192,93618,1,0,0:0:0:0:
448,192,93791,128,0,94481:0:0:0:0:
192,192,93963,1,0,0:0:0:70:kick.wav
192,192,94308,1,0,0:0:0:100:snare.wav
64,192,94308,1,0,0:0:0:0:
320,192,94481,1,0,0:0:0:0:
64,192,94653,1,0,0:0:0:0:
192,192,94825,1,0,0:0:0:70:kick.wav
448,192,94998,1,0,0:0:0:100:snare.wav
320,192,94998,1,0,0:0:0:0:
64,192,95170,128,0,95515:0:0:0:0:
448,192,95343,1,0,0:0:0:70:kick.wav
192,192,95515,1,0,0:0:0:0:
320,192,95687,1,0,0:0:0:100:snare.wav
448,192,95687,1,0,0:0:0:0:
192,192,95860,128,0,96205:0:0:0:70:kick.wav
320,192,96205,128,0,96377:0:0:0:100:snare.wav
448,192,96205,1,0,0:0:0:0:
448,192,96550,128,0,96894:0:0:0:60:cymbal.wav
64,192,96550,1,0,0:0:0:70:kick.wav
320,192,96894,1,0,0:0:0:70:kick.wav
448,192,97067,1,0,0:0:0:100:snare.wav
64,192,97067,1,0,0:0:0:0:
192,192,97239,1,0,0:0:0:70:kick.wav
320,192,97325,1,0,0:0:0:0:
192,192,97412,1,0,0:0:0:70:kick.wav
320,192,97498,1,0,0:0:0:0:
448,192,97584,1,0,0:0:0:100:snare.wav
64,192,97584,1,0,0:0:0:0:
320,192,97756,1,0,0:0:0:70:kick.wav
192,192,97843,1,0,0:0:0:100:snare.wav
448,192,97929,1,0,0:0:0:70:kick.wav
320,192,98015,1,0,0:0:0:70:kick.wav
192,192,98101,1,0,0:0:0:60:cymbal.wav
64,192,98101,1,0,0:0:0:70:kick.wav
448,192,98274,128,0,98446:0:0:0:0:
192,192,98446,1,0,0:0:0:0:
320,192,98446,128,0,98618:0:0:0:100:snare.wav
64,192,98618,128,0,98963:0:0:0:0:
320,192,98963,128,0,99136:0:0:0:70:kick.wav
64,192,99136,128,0,99308:0:0:0:100:snare.wav
192,192,99136,1,0,0:0:0:0:
448,192,99308,1,0,0:0:0:0:
192,192,99481,128,0,99653:0:0:0:70:kick.wav
320,192,99653,128,0,99825:0:0:0:0:
448,192,99825,128,0,99998:0:0:0:100:snare.wav
192,192,99825,1,0,0:0:0:0:
64,192,99998,128,0,100343:0:0:0:0:
448,192,100343,128,0,100515:0:0:0:70:kick.wav
192,192,100515,128,0,100687:0:0:0:100:snare.wav
320,192,100515,1,0,0:0:0:0:
64,192,100687,128,0,100860:0:0:0:0:
448,192,100860,1,0,0:0:0:100:snare.wav
320,192,100860,1,0,0:0:0:0:
192,192,101032,1,0,0:0:0:70:kick.wav
192,192,101205,1,0,0:0:0:70:kick.wav
448,192,101377,1,0,0:0:0:100:snare.wav
64,192,101377,1,0,0:0:0:0:
320,192,101550,1,0,0:0:0:70:kick.wav
192,192,101636,1,0,0:0:0:100:snare.wav
64,192,101722,1,0,0:0:0:70:kick.wav
320,192,101894,1,0,0:0:0:100:snare.wav
448,192,101894,1,0,0:0:0:0:
192,192,102067,1,0,0:0:0:70:kick.wav
448,192,102412,1,0,0:0:0:70:kick.wav
448,192,102584,128,0,103274:0:0:0:70:kick.wav
192,192,103274,128,0,103618:0:0:0:70:tom03.wav
64,192,103618,128,0,104825:0:0:0:60:cymbal.wav
320,192,103618,1,0,0:0:0:70:kick.wav
448,192,103963,1,0,0:0:0:100:snare.wav
192,192,103963,1,0,0:0:0:0:
448,192,104481,1,0,0:0:0:70:kick.wav
320,192,104653,1,0,0:0:0:100:snare.wav
192,192,104653,1,0,0:0:0:0:
448,192,104825,128,0,106377:0:0:0:0:
192,192,104998,1,0,0:0:0:70:kick.wav
320,192,105343,1,0,0:0:0:100:snare.wav
64,192,105343,1,0,0:0:0:0:
64,192,105860,1,0,0:0:0:70:kick.wav
192,192,106032,1,0,0:0:0:100:snare.wav
320,192,106032,1,0,0:0:0:0:
192,192,106377,128,0,107584:0:0:0:70:kick.wav
448,192,106722,1,0,0:0:0:100:snare.wav
64,192,106722,1,0,0:0:0:0:
64,192,107239,1,0,0:0:0:70:kick.wav
320,192,107412,1,0,0:0:0:100:snare.wav
448,192,107412,1,0,0:0:0:0:
64,192,107584,128,0,108618:0:0:0:0:
448,192,107756,1,0,0:0:0:70:kick.wav
192,192,108101,1,0,0:0:0:100:snare.wav
320,192,108101,1,0,0:0:0:0:
448,192,108274,1,0,0:0:0:70:kick.wav
320,192,108618,1,0,0:0:0:100:snare.wav
192,192,108618,1,0,0:0:0:0:
448,192,108791,1,0,0:0:0:70:kick.wav
320,192,108877,1,0,0:0:0:100:snare.wav
64,192,108963,1,0,0:0:0:70:kick.wav
192,192,109050,1,0,0:0:0:0:
448,192,109136,128,0,109308:0:0:0:70:kick.wav
320,192,109136,1,0,0:0:0:60:cymbal.wav
64,192,109308,128,0,109481:0:0:0:0:
192,192,109481,128,0,109653:0:0:0:100:snare.wav
320,192,109481,1,0,0:0:0:0:
448,192,109653,128,0,109825:0:0:0:0:
64,192,109825,128,0,109998:0:0:0:70:kick.wav
320,192,109998,128,0,110170:0:0:0:0:
192,192,110170,128,0,110343:0:0:0:100:snare.wav
448,192,110170,1,0,0:0:0:0:
64,192,110343,128,0,110515:0:0:0:0:
448,192,110515,128,0,110687:0:0:0:70:kick.wav
192,192,110687,128,0,110860:0:0:0:0:
320,192,110860,128,0,111032:0:0:0:100:snare.wav
64,192,110860,1,0,0:0:0:0:
448,192,111032,128,0,111205:0:0:0:0:
64,192,111205,128,0,111377:0:0:0:70:kick.wav
192,192,111377,128,0,111550:0:0:0:0:
448,192,111550,128,0,111722:0:0:0:100:snare.wav
320,192,111550,1,0,0:0:0:0:
64,192,111722,1,0,0:0:0:70:kick.wav
192,192,111808,1,0,0:0:0:70:kick.wav
320,192,111894,1,0,0:0:0:100:snare.wav
448,192,111894,1,0,0:0:0:0:
64,192,112067,1,0,0:0:0:70:kick.wav
192,192,112153,1,0,0:0:0:100:snare.wav
320,192,112239,1,0,0:0:0:70:kick.wav
64,192,112412,1,0,0:0:0:100:snare.wav
448,192,112584,1,0,0:0:0:70:kick.wav
320,192,112670,1,0,0:0:0:70:snare.wav
192,192,112756,1,0,0:0:0:70:kick.wav
448,192,112929,1,0,0:0:0:100:snare.wav
64,192,113101,1,0,0:0:0:70:kick.wav
192,192,113187,1,0,0:0:0:100:snare.wav
320,192,113274,1,0,0:0:0:70:kick.wav
64,192,113446,1,0,0:0:0:100:snare.wav
192,192,113618,1,0,0:0:0:70:kick.wav
320,192,113705,1,0,0:0:0:100:snare.wav
448,192,113791,1,0,0:0:0:70:kick.wav
64,192,113963,1,0,0:0:0:100:snare.wav
192,192,114050,1,0,0:0:0:100:snare.wav
448,192,114136,1,0,0:0:0:0:
320,192,114222,1,0,0:0:0:100:snare.wav
192,192,114308,1,0,0:0:0:70:kick.wav
448,192,114481,1,0,0:0:0:60:cymbal.wav
64,192,114481,128,0,118446:0:0:0:70:kick.wav
448,192,116176,128,0,118446:0:0:0:0:
