osu file format v14

[General]
AudioFilename: audio.mp3
AudioLeadIn: 0
PreviewTime: 60411
Countdown: 0
SampleSet: Normal
StackLeniency: 0.7
Mode: 0
LetterboxInBreaks: 0
WidescreenStoryboard: 0

[Editor]
Bookmarks: 90880
DistanceSpacing: 1.5
BeatDivisor: 8
GridSize: 4
TimelineZoom: 2.4

[Metadata]
Title:choux a la creme
TitleUnicode:choux a la creme
Artist:kamome sano
ArtistUnicode:kamome sano
Creator:Xilver
Version:cream puffs
Source:SOUND VOLTEX II -infinite infection-
Tags:D
BeatmapID:975771
BeatmapSetID:455227

[Difficulty]
HPDrainRate:6
CircleSize:4.2
OverallDifficulty:9
ApproachRate:9.6
SliderMultiplier:1.8
SliderTickRate:1

[Events]
//Background and Video events
0,0,"choux.jpg",0,0
//Break Periods
2,80767,85059
//Storyboard Layer 0 (Background)
//Storyboard Layer 1 (Fail)
//Storyboard Layer 2 (Pass)
//Storyboard Layer 3 (Foreground)
//Storyboard Sound Samples

[TimingPoints]
600,312.5,4,1,0,100,1,0
600,-125,4,1,0,100,0,0
9318,312.5,4,1,0,100,1,0
9318,-166.666666666667,4,1,0,100,0,0
10255,-83.3333333333333,4,1,0,100,0,0
10568,-111.111111111111,4,1,0,100,0,0
20255,-66.6666666666667,4,1,0,100,0,0
20568,-100,4,1,0,100,0,0
40568,-90.9090909090909,4,1,0,100,0,0
59943,-83.3333333333333,4,1,0,100,0,0
60568,-83.3333333333333,4,1,0,100,0,1
64005,-66.6666666666667,4,1,0,100,0,1
64318,-133.333333333333,4,1,0,100,0,1
64630,-83.3333333333333,4,1,0,100,0,1
64943,-71.4285714285714,4,1,0,100,0,1
65255,-133.333333333333,4,1,0,100,0,1
65568,-66.6666666666667,4,1,0,100,0,1
66818,-83.3333333333333,4,1,0,100,0,1
68536,-66.6666666666667,4,1,0,100,0,1
68693,-58.8235294117647,4,1,0,100,0,1
69474,-83.3333333333333,4,1,0,100,0,1
69943,-125,4,1,0,100,0,1
70568,-83.3333333333333,4,1,0,100,0,1
74943,-66.6666666666667,4,1,0,100,0,1
75568,-83.3333333333333,4,1,0,100,0,1
75880,-76.9230769230769,4,1,0,100,0,1
76036,-71.4285714285714,4,1,0,100,0,1
76193,-83.3333333333333,4,1,0,100,0,1
77911,-76.9230769230769,4,1,0,100,0,1
78068,-83.3333333333333,4,1,0,100,0,1
80568,-83.3333333333333,4,1,0,100,0,0
85568,-100,4,1,0,100,0,0
86505,-83.3333333333333,4,1,0,100,0,0
87755,-100,4,1,0,100,0,0
88068,312.5,6,1,0,100,1,0
89630,-83.3333333333333,4,1,0,100,0,0
89943,312.5,4,1,0,100,1,0
89943,-83.3333333333333,4,1,0,100,0,0

[HitObjects]
331,158,600,6,0,P|307:129|300:92,1,72
409,41,912,1,0,0:0:0:0:
392,275,1068,2,0,P|427:212|427:134,1,144
299,96,1537,5,0,0:0:0:0:
235,219,1693,2,0,P|197:202|167:109,1,144
65,32,2162,1,0,0:0:0:0:
179,117,2318,2,0,P|250:133|321:116,1,144
397,28,2787,2,0,P|418:57|430:104,1,72
414,255,3100,6,0,P|445:234|466:193,1,72
317,96,3412,2,0,P|325:135|347:169,1,72
369,320,3725,2,0,P|336:330|291:327,1,72
200,231,4037,1,0,0:0:0:0:
302,337,4193,2,0,P|317:268|300:189,1,144
239,66,4662,1,0,0:0:0:0:
420,110,4818,2,0,P|384:117|344:110,1,72
477,36,5131,1,0,0:0:0:0:
433,245,5287,2,0,P|461:221|475:181,1,72
343,106,5600,6,0,P|326:98|314:84,8,36
320,182,6381,2,0,P|342:157|351:111,1,72
279,273,6693,2,0,P|249:261|208:161,1,144
205,32,7162,1,0,0:0:0:0:
85,100,7318,6,0,P|107:103|129:100,14,36
263,86,8568,1,0,0:0:0:0:
221,238,8725,2,0,P|196:209|188:169,1,72
254,17,9037,2,0,P|266:53|260:93,1,72
369,205,9318,6,0,P|400:191|430:97,1,134.999995880127
483,303,9786,6,0,P|452:289|422:195,1,134.999995880127
328,334,10255,6,0,P|295:283|355:312,1,161.999995056153
335,342,10568,6,0,P|256:358|169:342,1,161.999995056153
54,236,11036,1,0,0:0:0:0:
94,233,11114,1,0,0:0:0:0:
128,213,11192,1,0,0:0:0:0:
148,178,11270,1,0,0:0:0:0:
150,138,11348,1,0,0:0:0:0:
119,33,11505,1,0,0:0:0:0:
246,166,11661,1,0,0:0:0:0:
246,166,11739,1,0,0:0:0:0:
246,166,11818,6,0,P|285:173|335:166,1,80.9999975280763
386,49,12130,1,0,0:0:0:0:
429,246,12286,1,0,0:0:0:0:
429,246,12364,1,0,0:0:0:0:
429,246,12443,2,0,P|454:216|466:168,1,80.9999975280763
351,339,12755,1,0,0:0:0:0:
351,339,12833,2,0,L|322:308,2,40.4999987640381
235,315,13068,6,0,P|261:247|235:144,1,161.999995056153
122,241,13536,1,0,0:0:0:0:
82,231,13614,1,0,0:0:0:0:
51,206,13692,1,0,0:0:0:0:
34,169,13770,1,0,0:0:0:0:
34,129,13848,1,0,0:0:0:0:
89,31,14005,1,0,0:0:0:0:
228,138,14161,1,0,0:0:0:0:
228,138,14239,1,0,0:0:0:0:
228,138,14318,6,0,P|268:132|306:101,1,80.9999975280763
175,37,14630,1,0,0:0:0:0:
178,288,14786,2,0,P|149:262|139:183,1,121.499996292114
55,172,15099,6,0,L|37:183,2,20.2499993820191
173,103,15255,6,0,L|191:92,2,20.2499993820191
55,34,15411,5,0,0:0:0:0:
207,198,15568,6,0,P|227:200|248:197,3,40.4999987640381
317,112,15880,2,0,P|298:109|278:112,3,40.4999987640381
323,235,16193,1,0,0:0:0:0:
362,244,16271,1,0,0:0:0:0:
402,242,16349,1,0,0:0:0:0:
439,227,16427,1,0,0:0:0:0:
470,201,16505,5,0,0:0:0:0:
447,167,16583,1,0,0:0:0:0:
434,129,16661,1,0,0:0:0:0:
432,89,16739,1,0,0:0:0:0:
442,49,16818,6,0,P|418:45|394:49,3,40.4999987640381
305,122,17130,2,0,P|329:126|353:122,3,40.4999987640381
250,27,17443,1,0,0:0:0:0:
210,34,17521,1,0,0:0:0:0:
179,59,17599,1,0,0:0:0:0:
162,96,17677,1,0,0:0:0:0:
163,136,17755,5,0,0:0:0:0:
178,173,17833,1,0,0:0:0:0:
180,213,17911,1,0,0:0:0:0:
168,252,17989,1,0,0:0:0:0:
144,284,18068,6,0,P|125:271|112:249,1,40.4999987640381
58,134,18224,2,0,P|77:147|90:169,1,40.4999987640381
116,294,18380,2,0,P|102:275|97:250,1,40.4999987640381
86,123,18536,2,0,P|100:143|105:168,1,40.4999987640381
207,326,18693,5,0,0:0:0:0:
247,326,18771,1,0,0:0:0:0:
284,311,18849,1,0,0:0:0:0:
313,283,18927,1,0,0:0:0:0:
329,247,19005,1,0,0:0:0:0:
330,206,19083,1,0,0:0:0:0:
315,169,19161,5,0,0:0:0:0:
305,155,19474,5,0,0:0:0:0:
295,142,19786,5,0,0:0:0:0:
284,129,20099,5,0,0:0:0:0:
167,259,20255,6,0,P|119:222|194:241,1,202.500007724762
270,335,20568,6,0,P|302:306|316:256,1,90
412,84,20880,2,0,P|414:134|435:173,1,90
473,331,21193,1,0,0:0:0:0:
344,183,21349,1,0,0:0:0:0:
394,360,21505,1,0,0:0:0:0:
431,168,21661,1,0,0:0:0:0:
387,368,21818,6,0,P|352:336|333:290,1,90
464,87,22130,2,0,P|454:136|419:177,1,90
196,207,22443,2,0,P|241:208|293:194,1,90
298,201,22651,2,0,L|293:167,2,30
280,46,22911,1,0,0:0:0:0:
120,272,23068,5,0,0:0:0:0:
221,122,23224,1,0,0:0:0:0:
248,335,23380,1,0,0:0:0:0:
136,192,23536,1,0,0:0:0:0:
360,202,23693,1,0,0:0:0:0:
195,278,23849,1,0,0:0:0:0:
238,120,24005,1,0,0:0:0:0:
366,306,24161,6,0,P|406:295|458:175,1,180
393,42,24630,1,0,0:0:0:0:
226,152,24786,2,0,P|271:160|319:152,1,90
156,37,25099,1,0,0:0:0:0:
233,251,25255,2,0,P|225:208|233:158,1,90
446,205,25568,6,0,P|408:231|359:238,1,90
290,27,25880,2,0,P|314:66|320:111,1,90
334,321,26193,1,0,0:0:0:0:
228,184,26349,1,0,0:0:0:0:
414,263,26505,1,0,0:0:0:0:
213,328,26661,1,0,0:0:0:0:
352,183,26818,6,0,P|386:162|402:108,1,90
206,28,27130,2,0,P|214:72|244:115,1,90
298,294,27443,2,0,P|261:314|207:318,1,90
86,98,27755,1,0,0:0:0:0:
161,263,27911,1,0,0:0:0:0:
281,95,28068,5,0,0:0:0:0:
116,170,28224,1,0,0:0:0:0:
281,259,28380,2,0,P|327:273|376:274,1,90
450,121,28693,1,0,0:0:0:0:
375,286,28849,1,0,0:0:0:0:
285,121,29005,2,0,P|271:75|270:26,1,90
265,319,29318,5,0,0:0:0:0:
167,130,29474,1,0,0:0:0:0:
273,311,29630,1,0,0:0:0:0:
393,135,29786,1,0,0:0:0:0:
248,323,29943,5,0,0:0:0:0:
203,317,30021,1,0,0:0:0:0:
168,290,30099,1,0,0:0:0:0:
153,248,30177,1,0,0:0:0:0:
160,205,30255,1,0,0:0:0:0:
168,161,30333,1,0,0:0:0:0:
152,120,30411,1,0,0:0:0:0:
117,92,30489,1,0,0:0:0:0:
73,87,30568,6,0,P|126:78|179:87,1,90
291,257,30880,2,0,P|265:224|252:171,1,90
217,32,31193,1,0,0:0:0:0:
352,183,31349,1,0,0:0:0:0:
455,47,31505,1,0,0:0:0:0:
258,95,31661,1,0,0:0:0:0:
406,264,31818,6,0,P|428:227|437:172,1,90
265,91,32130,2,0,P|280:137|309:172,1,90
288,321,32443,2,0,P|247:348|206:356,1,90
195,358,32651,2,0,L|189:314,2,30
44,96,32911,1,0,0:0:0:0:
206,230,33068,5,0,0:0:0:0:
0,271,33224,1,0,2:0:0:0:
134,109,33381,1,0,2:0:0:0:
99,362,33536,1,0,2:0:0:0:
8,172,33693,1,0,2:0:0:0:
187,256,33849,1,0,2:0:0:0:
278,66,34006,1,0,2:0:0:0:
319,294,34161,6,0,P|268:289|208:181,1,180
230,37,34630,1,0,0:0:0:0:
365,171,34786,2,0,P|319:177|274:171,1,90
419,38,35099,1,0,0:0:0:0:
425,277,35255,2,0,P|449:235|453:187,1,90
301,19,35568,6,0,P|306:71|329:107,1,90
319,292,35880,2,0,P|282:323|233:337,1,90
102,320,36193,1,0,0:0:0:0:
261,192,36349,1,0,0:0:0:0:
94,92,36505,1,0,0:0:0:0:
94,328,36661,6,0,P|83:286|87:232,1,90
240,71,36974,2,0,P|226:117|191:150,1,90
210,339,37286,2,0,P|249:333|315:219,1,180
321,212,37651,2,0,P|339:215|359:212,2,30
427,58,37911,1,0,0:0:0:0:
328,207,38068,5,0,0:0:0:0:
267,32,38224,1,0,0:0:0:0:
175,252,38380,2,0,P|199:217|200:166,1,90
132,9,38693,1,0,0:0:0:0:
312,98,38849,1,0,0:0:0:0:
117,152,39005,2,0,P|76:172|16:179,1,90
325,180,39318,5,0,0:0:0:0:
325,180,39474,1,0,0:0:0:0:
157,67,39630,1,0,0:0:0:0:
190,268,39786,5,0,0:0:0:0:
190,268,39942,1,0,0:0:0:0:
303,100,40098,1,0,0:0:0:0:
405,234,40255,6,0,P|422:216|434:182,1,45
338,26,40411,2,0,P|334:50|344:85,1,45
289,292,40568,6,0,P|252:264|237:210,1,99.0000030212403
185,137,40802,1,0,0:0:0:0:
176,129,40880,2,0,L|115:136,1,49.5000015106202
27,52,41036,2,0,L|88:45,1,49.5000015106202
76,229,41193,2,0,P|48:194|35:137,1,99.0000030212403
155,35,41427,1,0,0:0:0:0:
164,43,41505,2,0,L|225:36,1,49.5000015106202
321,106,41661,2,0,L|260:113,1,49.5000015106202
153,227,41818,6,0,L|253:216,1,99.0000030212403
363,174,42052,1,0,0:0:0:0:
374,168,42130,2,0,P|388:145|392:115,1,49.5000015106202
253,66,42286,2,0,P|258:90|271:110,1,49.5000015106202
332,277,42443,5,0,0:0:0:0:
307,319,42521,1,0,0:0:0:0:
265,345,42599,1,0,0:0:0:0:
217,349,42677,1,0,0:0:0:0:
172,329,42755,2,0,P|147:320|129:299,1,49.5000015106202
67,149,42911,2,0,P|92:158|110:179,1,49.5000015106202
228,257,43068,6,0,P|259:238|284:177,1,99.0000030212403
190,75,43302,1,0,0:0:0:0:
185,86,43380,2,0,P|196:109|216:128,1,49.5000015106202
366,81,43536,2,0,P|355:58|335:39,1,49.5000015106202
330,272,43693,2,0,P|297:237|286:189,1,99.0000030212403
440,264,43927,1,0,0:0:0:0:
454,267,44005,2,0,P|469:292|475:320,1,49.5000015106202
363,135,44161,2,0,P|365:105|376:79,1,49.5000015106202
315,294,44318,6,0,P|261:302|212:294,1,99.0000030212403
95,220,44552,1,0,0:0:0:0:
92,205,44630,2,0,L|140:220,1,49.5000015106202
247,97,44786,2,0,L|199:112,1,49.5000015106202
317,305,44943,5,0,0:0:0:0:
364,292,45021,1,0,0:0:0:0:
397,256,45099,1,0,0:0:0:0:
407,208,45177,1,0,0:0:0:0:
390,162,45255,2,0,P|384:139|369:117,1,49.5000015106202
226,46,45411,2,0,P|232:69|247:91,1,49.5000015106202
212,288,45568,6,0,P|184:271|157:204,1,99.0000030212403
93,62,45802,1,0,0:0:0:0:
89,51,45880,2,0,P|114:48|141:51,1,49.5000015106202
55,209,46036,2,0,P|40:188|32:158,1,49.5000015106202
264,206,46193,2,0,P|213:213|159:206,1,99.0000030212403
374,296,46427,1,0,0:0:0:0:
386,303,46505,2,0,P|406:288|420:258,1,49.5000015106202
342,140,46661,2,0,P|334:163|339:196,1,49.5000015106202
272,353,46818,6,0,P|229:319|215:273,1,99.0000030212403
214,162,47052,1,0,0:0:0:0:
201,155,47130,2,0,L|146:172,1,49.5000015106202
48,48,47286,2,0,L|103:65,1,49.5000015106202
102,334,47443,1,0,0:0:0:0:
57,314,47521,1,0,0:0:0:0:
27,275,47599,1,0,0:0:0:0:
21,226,47677,1,0,0:0:0:0:
39,181,47755,2,0,P|49:158|73:138,1,49.5000015106202
232,64,47911,2,0,P|207:69|177:64,1,49.5000015106202
176,254,48068,6,0,P|203:217|210:162,1,99.0000030212403
297,218,48302,1,0,0:0:0:0:
311,224,48380,2,0,P|336:227|362:224,1,49.5000015106202
351,72,48536,2,0,P|348:97|351:123,1,49.5000015106202
470,298,48693,2,0,P|419:304|366:298,1,99.0000030212403
431,187,48927,1,0,0:0:0:0:
445,176,49005,2,0,P|460:161|471:133,1,49.5000015106202
244,72,49161,2,0,P|253:96|272:113,1,49.5000015106202
371,299,49318,5,0,0:0:0:0:
195,150,49474,1,0,0:0:0:0:
403,87,49630,1,0,0:0:0:0:
262,327,49786,1,0,0:0:0:0:
262,327,49864,1,0,0:0:0:0:
262,327,49943,5,0,0:0:0:0:
213,323,50021,1,0,0:0:0:0:
170,299,50099,1,0,0:0:0:0:
142,258,50177,1,0,0:0:0:0:
133,210,50255,5,0,0:0:0:0:
189,194,50333,1,0,0:0:0:0:
231,152,50411,1,0,0:0:0:0:
248,96,50489,1,0,0:0:0:0:
235,38,50567,5,0,0:0:0:0:
41,125,50724,1,0,0:0:0:0:
247,242,50880,5,0,0:0:0:0:
160,48,51037,1,0,0:0:0:0:
160,48,51114,1,0,0:0:0:0:
160,48,51193,1,0,0:0:0:0:
88,255,51349,1,0,0:0:0:0:
264,103,51505,1,0,0:0:0:0:
55,170,51661,1,0,0:0:0:0:
252,270,51818,6,0,P|294:298|347:307,1,99.0000030212403
443,61,52130,5,0,0:0:0:0:
404,91,52208,1,0,0:0:0:0:
383,135,52286,1,0,0:0:0:0:
384,184,52364,1,0,0:0:0:0:
407,227,52442,1,0,0:0:0:0:
221,136,52599,1,0,0:0:0:0:
223,336,52755,1,0,0:0:0:0:
307,119,52912,1,0,0:0:0:0:
372,325,53068,6,0,P|403:292|419:235,1,99.0000030212403
121,263,53380,1,0,0:0:0:0:
352,179,53536,1,0,0:0:0:0:
352,179,53614,1,0,0:0:0:0:
352,179,53693,1,0,0:0:0:0:
125,153,53849,1,0,0:0:0:0:
280,323,54005,1,0,0:0:0:0:
290,95,54161,1,0,0:0:0:0:
110,289,54318,6,0,P|160:297|216:289,1,99.0000030212403
367,239,54630,1,0,0:0:0:0:
197,116,54786,1,0,0:0:0:0:
458,213,54943,1,0,0:0:0:0:
458,213,55021,1,0,0:0:0:0:
458,213,55099,1,0,0:0:0:0:
306,348,55255,1,0,0:0:0:0:
326,57,55411,1,0,0:0:0:0:
230,253,55568,6,0,P|278:259|327:252,1,99.0000030212403
162,87,55880,1,0,0:0:0:0:
150,313,56036,1,0,0:0:0:0:
150,313,56114,1,0,0:0:0:0:
150,313,56193,1,0,0:0:0:0:
0,155,56349,1,0,0:0:0:0:
255,178,56505,1,0,0:0:0:0:
62,279,56661,1,0,0:0:0:0:
297,333,56818,6,0,P|346:346|397:344,1,99.0000030212403
464,205,57130,1,0,0:0:0:0:
415,196,57208,1,0,0:0:0:0:
378,165,57286,1,0,0:0:0:0:
361,119,57364,1,0,0:0:0:0:
370,70,57442,1,0,0:0:0:0:
157,36,57599,1,0,0:0:0:0:
289,219,57755,1,0,0:0:0:0:
323,6,57912,1,0,0:0:0:0:
142,256,58068,5,0,0:0:0:0:
180,216,58146,5,0,0:0:0:0:
155,168,58224,5,0,0:0:0:0:
101,176,58302,5,0,0:0:0:0:
93,231,58380,5,0,0:0:0:0:
298,117,58536,1,0,0:0:0:0:
298,117,58614,1,0,0:0:0:0:
298,117,58693,1,0,0:0:0:0:
238,356,58849,1,0,0:0:0:0:
124,151,59005,1,0,0:0:0:0:
372,200,59161,1,0,0:0:0:0:
167,314,59318,5,0,0:0:0:0:
123,291,59396,1,0,0:0:0:0:
101,248,59474,1,0,0:0:0:0:
284,33,59630,5,0,0:0:0:0:
283,81,59708,1,0,0:0:0:0:
254,120,59786,1,0,0:0:0:0:
372,301,59943,5,0,0:0:0:0:
428,285,60021,1,0,0:0:0:0:
465,240,60099,1,0,0:0:0:0:
471,182,60177,1,0,0:0:0:0:
442,131,60255,2,0,P|427:108|406:91,1,53.9999983520508
183,80,60411,2,0,P|160:94|143:115,1,53.9999983520508
283,286,60568,6,0,P|286:229|259:180,1,107.999996704102
48,344,60880,2,0,P|104:340|150:307,1,107.999996704102
12,70,61193,2,0,P|10:98|17:124,1,53.9999983520508
178,141,61349,1,0,0:0:0:0:
178,141,61427,1,0,0:0:0:0:
178,141,61505,2,0,P|163:116|142:99,1,53.9999983520508,0|0,2:0|2:0,2:0:0:0:
57,320,61661,2,0,P|81:273|78:213,1,107.999996704102
456,125,61974,5,0,0:0:0:0:
456,125,62052,1,0,0:0:0:0:
456,125,62130,1,0,0:0:0:0:
411,95,62208,1,0,0:0:0:0:
357,90,62286,1,0,0:0:0:0:
308,109,62364,1,0,0:0:0:0:
272,150,62442,1,0,0:0:0:0:
236,190,62521,1,0,0:0:0:0:
186,209,62599,1,0,0:0:0:0:
133,204,62677,1,0,0:0:0:0:
89,175,62755,5,0,0:0:0:0:
133,204,62833,1,0,0:0:0:0:
154,253,62911,1,0,0:0:0:0:
146,306,62989,1,0,0:0:0:0:
111,346,63068,6,0,P|163:357|221:346,1,107.999996704102
273,44,63380,2,0,P|262:96|273:154,1,107.999996704102
462,158,63693,6,0,P|451:132|429:111,1,53.9999983520508
384,239,63849,1,0,0:0:0:0:
384,239,63927,1,0,0:0:0:0:
384,239,64005,2,0,P|379:277|357:305,1,67.5000025749208
263,134,64161,2,0,P|268:96|290:68,1,67.5000025749208
239,290,64318,6,0,B|219:289|205:278|205:278|192:290|192:290|164:282|137:295,1,101.250003862381
143,194,64630,6,0,P|166:180|186:152,1,53.9999983520508
69,36,64786,2,0,P|76:61|93:82,1,53.9999983520508
263,134,64943,2,0,P|250:104|229:82,1,62.9999980773926
0,131,65099,2,0,P|13:161|34:183,1,62.9999980773926
145,303,65255,6,0,P|153:253|141:195,1,101.250003862381
208,99,65568,6,0,P|209:133|223:165,1,67.5000025749208
307,256,65724,6,0,P|319:224|342:200,1,67.5000025749208
360,33,65880,1,0,0:0:0:0:
360,33,65958,6,0,P|347:64|324:88,1,67.5000025749208
294,251,66114,6,0,P|361:265|433:251,1,135.000005149842
159,298,66349,6,0,P|140:270|133:234,1,67.5000025749208
252,128,66505,6,0,P|251:161|236:195,1,67.5000025749208
71,115,66661,6,0,P|49:90|38:49,1,67.5000025749208
263,131,66818,6,0,L|287:118,8,26.9999991760254
160,52,67286,1,0,0:0:0:0:
285,249,67443,1,0,0:0:0:0:
285,249,67521,1,0,0:0:0:0:
285,249,67599,2,0,P|309:237|327:215,1,53.9999983520508
308,71,67755,2,0,P|306:97|316:124,1,53.9999983520508
449,179,67911,2,0,P|426:164|398:159,1,53.9999983520508
309,345,68068,6,0,P|338:341|381:276,1,107.999996704102
392,73,68380,1,0,0:0:0:0:
164,189,68536,6,0,P|180:223|209:244,1,67.5000025749208
230,118,68693,6,0,P|227:84|239:53,1,67.5000025749208
426,150,68849,6,0,P|431:182|421:214,1,67.5000025749208,0|0,2:0|2:0,2:0:0:0:
303,338,69005,6,0,P|300:305|313:274,1,67.5000025749208
305,130,69161,6,0,P|307:163|295:194,1,67.5000025749208
177,331,69318,5,0,0:0:0:0:
177,331,69396,1,0,0:0:0:0:
177,331,69474,2,0,P|156:314|142:281,1,53.9999983520508
108,58,69630,1,0,0:0:0:0:
108,58,69734,2,0,P|134:82|151:119,1,71.9999978027344
201,196,69943,6,0,L|229:169,1,36
245,80,70099,2,0,L|273:53,1,36
305,207,70255,2,0,L|333:180,1,36
349,91,70411,2,0,L|377:64,1,36
372,332,70568,6,0,P|402:288|400:228,1,107.999996704102
173,148,70880,2,0,P|223:178|276:183,1,107.999996704102
55,272,71193,1,0,0:0:0:0:
91,88,71349,1,0,0:0:0:0:
122,342,71505,2,0,P|148:293|141:230,1,107.999996704102
230,47,71818,5,0,0:0:0:0:
230,47,71896,1,0,0:0:0:0:
230,47,71974,2,0,L|241:103,1,53.9999983520508
382,160,72130,5,0,0:0:0:0:
382,160,72208,1,0,0:0:0:0:
382,160,72286,2,0,L|371:104,1,53.9999983520508
117,284,72443,5,0,0:0:0:0:
151,325,72521,1,0,0:0:0:0:
201,343,72599,1,0,0:0:0:0:
253,334,72677,1,0,0:0:0:0:
294,300,72755,2,0,P|315:283|326:253,1,53.9999983520508
142,142,72911,1,0,0:0:0:0:
142,142,72989,2,0,P|156:194|198:230,1,107.999996704102
227,36,73224,5,0,0:0:0:0:
349,188,73380,1,0,0:0:0:0:
441,26,73536,1,0,0:0:0:0:
355,197,73693,2,0,P|332:155|330:78,1,107.999996704102
282,319,74005,1,0,0:0:0:0:
221,118,74161,1,0,0:0:0:0:
164,297,74318,5,0,0:0:0:0:
164,297,74396,1,0,0:0:0:0:
164,297,74474,2,0,P|138:290|117:267,1,53.9999983520508
12,162,74630,1,0,0:0:0:0:
12,162,74708,1,0,0:0:0:0:
12,162,74786,2,0,P|39:153|69:159,1,53.9999983520508
189,146,74943,6,0,L|233:86,1,67.5000025749208
318,56,75099,6,0,L|358:2,1,67.5000025749208
321,203,75255,6,0,L|365:143,1,67.5000025749208
450,113,75411,6,0,L|490:59,1,67.5000025749208
429,274,75568,6,0,L|438:299,6,26.9999991760254
311,343,75880,2,0,L|323:283,1,58.4999973220826
231,155,76036,2,0,L|242:212,1,58.4999973220826
157,330,76193,1,0,0:0:0:0:
157,330,76297,2,0,P|125:316|101:285,1,71.9999978027344
79,143,76505,1,0,0:0:0:0:
79,143,76609,2,0,P|111:157|135:188,1,71.9999978027344
246,294,76818,6,0,P|300:302|361:294,1,107.999996704102
423,246,77052,1,0,0:0:0:0:
423,246,77130,2,0,P|431:192|423:131,1,107.999996704102
334,92,77364,1,0,0:0:0:0:
334,92,77443,2,0,P|300:84|338:56,1,107.999996704102
219,199,77677,2,0,P|242:173|248:220,1,107.999996704102
164,62,77911,2,0,P|138:82|108:87,1,58.4999973220826
121,278,78068,5,0,0:0:0:0:
66,286,78146,1,0,0:0:0:0:
42,238,78224,1,0,0:0:0:0:
80,198,78302,1,0,0:0:0:0:
129,223,78380,2,0,P|157:227|185:223,1,53.9999983520508
214,61,78536,2,0,P|210:89|214:117,1,53.9999983520508
241,324,78693,5,0,0:0:0:0:
325,173,78849,1,0,0:0:0:0:
275,290,79005,5,0,0:0:0:0:
289,205,79161,1,0,0:0:0:0:
299,333,79318,6,0,P|352:330|402:292,1,107.999996704102
236,51,79630,2,0,P|239:103|277:153,1,107.999996704102
138,316,79943,5,0,0:0:0:0:
83,324,80021,1,0,0:0:0:0:
59,276,80099,1,0,0:0:0:0:
97,236,80177,1,0,0:0:0:0:
146,261,80255,1,0,0:0:0:0:
198,269,80333,1,0,0:0:0:0:
247,248,80411,1,0,0:0:0:0:
278,204,80489,1,0,0:0:0:0:
280,151,80567,5,0,0:0:0:0:
362,224,85568,5,0,0:0:0:0:
362,224,85724,6,0,L|370:244,18,22.5
330,124,86505,2,0,L|293:117,2,26.9999991760254
432,147,86661,6,0,L|449:126,7,26.9999991760254
474,243,86974,6,0,L|468:277,2,26.9999991760254
352,362,87130,6,0,L|355:335,2,26.9999991760254
285,190,87286,6,0,L|279:218,6,26.9999991760254
267,299,87599,6,0,L|292:289,2,26.9999991760254
394,84,87755,2,0,L|304:121,1,90
164,350,88068,2,0,P|140:320|128:267,1,90
280,94,88380,2,0,P|250:118|197:130,1,90
296,322,88693,5,0,0:0:0:0:
457,263,88849,1,0,0:0:0:0:
320,164,89005,1,0,0:0:0:0:
379,325,89161,5,0,0:0:0:0:
169,185,89630,5,0,0:0:0:0:
216,119,89708,5,0,0:0:0:0:
169,53,89787,5,0,0:0:0:0:
91,78,89865,5,0,0:0:0:0:
91,159,89943,6,0,P|77:216|91:273,1,107.999996704102
346,230,90255,2,0,P|293:241|237:230,1,107.999996704102
440,69,90568,1,0,0:0:0:0:
251,145,90724,1,0,0:0:0:0:
440,223,90880,1,0,0:0:0:0:
364,34,91036,1,0,0:0:0:0:
338,244,91193,2,0,P|360:202|362:141,1,107.999996704102
76,123,91505,2,0,P|119:148|187:153,1,107.999996704102
224,364,91818,2,0,P|203:314|204:260,1,107.999996704102
192,272,92026,2,0,L|156:280,2,35.9999989013672
323,126,92286,1,0,0:0:0:0:
382,263,92443,5,0,0:0:0:0:
236,132,92599,1,0,0:0:0:0:
260,323,92755,1,0,0:0:0:0:
391,177,92911,1,0,0:0:0:0:
200,219,93068,1,0,0:0:0:0:
386,283,93224,1,0,0:0:0:0:
331,73,93380,1,0,0:0:0:0:
260,323,93536,6,0,P|215:301|212:154,1,215.999993408203
75,77,94005,1,0,0:0:0:0:
95,326,94161,2,0,P|112:277|103:216,1,107.999996704102
217,73,94474,1,0,0:0:0:0:
412,165,94630,2,0,P|354:177|298:165,1,107.999996704102
249,365,94943,6,0,P|282:334|299:267,1,107.999996704102
66,157,95255,2,0,P|84:208|131:244,1,107.999996704102
326,100,95568,1,0,0:0:0:0:
142,135,95724,1,0,0:0:0:0:
274,268,95880,1,0,0:0:0:0:
239,84,96036,1,0,0:0:0:0:
105,317,96193,6,0,P|157:330|216:317,1,107.999996704102
320,71,96505,2,0,P|333:123|320:182,1,107.999996704102
37,102,96818,2,0,P|89:115|148:102,1,107.999996704102
18,230,97130,1,0,0:0:0:0:
210,160,97286,1,0,0:0:0:0:
136,357,97443,5,0,0:0:0:0:
66,165,97599,1,0,0:0:0:0:
274,217,97755,2,0,P|324:231|382:225,1,107.999996704102
64,303,98068,5,0,0:0:0:0:
164,111,98224,1,0,0:0:0:0:
216,348,98380,2,0,P|189:309|181:245,1,107.999996704102
79,89,98693,5,0,0:0:0:0:
307,142,98849,1,0,0:0:0:0:
100,273,99005,1,0,0:0:0:0:
153,45,99161,1,0,0:0:0:0:
244,293,99318,5,0,0:0:0:0:
295,280,99396,1,0,0:0:0:0:
331,241,99474,1,0,0:0:0:0:
340,188,99552,1,0,0:0:0:0:
319,140,99630,5,0,0:0:0:0:
262,125,99708,5,0,0:0:0:0:
205,140,99786,5,0,0:0:0:0:
148,124,99864,5,0,0:0:0:0:
91,139,99943,6,0,P|77:197|91:252,1,107.999996704102
414,233,100255,2,0,P|361:242|309:228,1,107.999996704102
139,344,100568,1,0,0:0:0:0:
251,161,100724,1,0,0:0:0:0:
330,365,100880,1,0,0:0:0:0:
147,253,101036,1,0,0:0:0:0:
357,235,101193,6,0,P|387:196|396:133,1,107.999996704102
125,89,101505,2,0,P|164:119|227:128,1,107.999996704102
132,344,101818,2,0,P|96:310|79:244,1,107.999996704102
69,265,102026,2,0,L|34:276,2,35.9999989013672
14,71,102286,1,0,0:0:0:0:
211,129,102443,5,0,0:0:0:0:
22,208,102599,1,0,0:0:0:0:
215,297,102755,1,0,0:0:0:0:
135,108,102911,1,0,0:0:0:0:
34,300,103068,1,0,0:0:0:0:
223,220,103224,1,0,0:0:0:0:
44,100,103380,1,0,0:0:0:0:
124,289,103536,6,0,B|167:290|197:269|197:269|237:304|237:304|271:279|341:289,1,215.999993408203
430,113,104005,1,0,0:0:0:0:
364,370,104161,2,0,P|351:321|364:260,1,107.999996704102
292,67,104474,1,0,0:0:0:0:
81,186,104630,2,0,P|133:198|190:186,1,107.999996704102
372,285,104943,6,0,P|320:273|263:285,1,107.999996704102
86,73,105255,2,0,P|95:130|86:181,1,107.999996704102
87,301,105568,1,0,0:0:0:0:
285,215,105724,1,0,0:0:0:0:
166,128,105880,1,0,0:0:0:0:
381,126,106036,1,0,0:0:0:0:
235,336,106193,6,0,P|213:293|214:227,1,107.999996704102
479,214,106505,2,0,P|436:236|370:235,1,107.999996704102
337,1,106818,2,0,P|336:54|359:102,1,107.999996704102,0|0,2:0|2:0,2:0:0:0:
351,99,107026,2,0,L|309:114,2,35.9999989013672
124,55,107286,1,0,0:0:0:0:
239,280,107443,5,0,0:0:0:0:
283,53,107599,1,0,0:0:0:0:
77,172,107755,1,0,0:0:0:0:
304,216,107911,1,0,0:0:0:0:
179,7,108068,1,0,0:0:0:0:
135,234,108224,1,0,0:0:0:0:
77,32,108380,1,0,0:0:0:0:
232,246,108536,6,0,B|273:244|310:217|310:217|347:246|347:246|378:228|439:246,1,215.999993408203
463,105,109005,1,0,0:0:0:0:
384,329,109161,1,0,0:0:0:0:
388,134,109318,1,0,0:0:0:0:
463,359,109474,1,0,0:0:0:0:
278,305,109630,2,0,P|225:300|172:271,1,107.999996704102
237,40,109943,6,0,P|261:87|266:141,1,107.999996704102,0|0,2:0|2:0,2:0:0:0:
53,48,110255,1,0,0:0:0:0:
159,248,110411,1,0,0:0:0:0:
150,79,110568,1,0,0:0:0:0:
13,259,110724,1,0,0:0:0:0:
37,40,110880,1,0,0:0:0:0:
167,255,111036,6,0,B|206:256|238:227|238:227|284:266|284:266|325:248|387:258,1,242.999992584229
501,141,111505,1,0,0:0:0:0:
295,75,111661,1,0,0:0:0:0:
394,283,111818,1,0,2:0:0:0:
460,78,111974,1,0,2:0:0:0:
274,222,112130,2,0,P|228:257|175:269,1,107.999996704102
103,33,112443,6,0,P|138:79|150:132,1,107.999996704102
402,155,112755,1,0,0:0:0:0:
210,48,112911,1,0,0:0:0:0:
406,69,113068,1,0,0:0:0:0:
239,212,113224,1,0,0:0:0:0:
356,9,113380,1,0,0:0:0:0:
336,262,113536,6,0,B|290:255|263:230|263:230|226:270|226:270|190:250|141:265,1,215.999993408203
85,10,114005,2,0,P|111:60|112:119,1,107.999996704102
410,63,114318,2,0,P|364:87|302:91,1,107.999996704102
257,324,114630,1,0,0:0:0:0:
187,110,114786,1,0,0:0:0:0:
393,211,114943,5,0,0:0:0:0:
179,281,115099,1,0,0:0:0:0:
275,35,115255,1,0,0:0:0:0:
359,291,115411,1,0,0:0:0:0:
95,174,115568,5,0,0:0:0:0:
43,139,115646,1,0,0:0:0:0:
54,79,115724,1,0,0:0:0:0:
113,63,115802,1,0,0:0:0:0:
151,111,115880,5,0,0:0:0:0:
211,135,115958,1,0,0:0:0:0:
276,136,116036,1,0,0:0:0:0:
337,116,116114,1,0,0:0:0:0:
67,348,116661,5,0,0:0:0:0:
256,192,116818,12,0,119161,0:0:0:0:
