osu file format v14

[General]
AudioFilename: Choux a la creme.mp3
AudioLeadIn: 0
PreviewTime: 89940
Countdown: 0
SampleSet: Soft
StackLeniency: 1
Mode: 3
LetterboxInBreaks: 0
SpecialStyle: 0
WidescreenStoryboard: 0

[Editor]
DistanceSpacing: 2
BeatDivisor: 4
GridSize: 4
TimelineZoom: 1

[Metadata]
Title:choux a la creme
TitleUnicode:choux à la crème
Artist:kamome sano
ArtistUnicode:kamome sano
Creator:Feerum
Version:BASIC
Source:SOUND VOLTEX II -infinite infection-
Tags:electronic instrumental video game konami bemani sdvx beta_20140817 éclair au chocolat KAC2013オリジナル楽曲コンテスト Critical_Star Ichigaki
BeatmapID:867647
BeatmapSetID:399063

[Difficulty]
HPDrainRate:6.5
CircleSize:4
OverallDifficulty:6
ApproachRate:10
SliderMultiplier:1.4
SliderTickRate:1

[Events]
//Background and Video events
0,0,"BG.jpg",0,0
//Break Periods
//Storyboard Layer 0 (Background)
//Storyboard Layer 1 (Fail)
//Storyboard Layer 2 (Pass)
//Storyboard Layer 3 (Foreground)
//Storyboard Layer 4 (Overlay)
//Storyboard Sound Samples
Sample,60568,0,"LR_Clap DS.wav",60

[TimingPoints]
568,312.5,4,2,1,35,1,0
20568,-100,4,2,1,35,0,1
29318,-100,4,2,1,35,0,0
30568,-100,4,2,1,35,0,1
39318,-100,4,2,1,35,0,0
89943,-100,4,2,1,35,0,1
98693,-100,4,2,1,35,0,0
99943,-100,4,2,1,35,0,1
116193,-100,4,2,1,35,0,0

[HitObjects]
64,192,568,5,0,0:0:0:0:
320,192,880,1,0,0:0:0:0:
448,192,1193,1,0,0:0:0:0:
192,192,1349,1,0,0:0:0:0:
64,192,1661,128,0,1974:0:0:0:0:
320,192,1974,1,0,0:0:0:0:
192,192,2130,1,0,0:0:0:0:
448,192,2443,1,0,0:0:0:0:
320,192,2599,1,0,0:0:0:0:
64,192,2755,1,0,0:0:0:0:
192,192,2911,1,0,0:0:0:0:
448,192,3068,1,0,0:0:0:0:
320,192,3380,1,0,0:0:0:0:
192,192,3536,128,0,3849:0:0:0:0:
448,192,3849,1,0,0:0:0:0:
320,192,4161,128,0,4474:0:0:0:0:
64,192,4474,1,0,0:0:0:0:
448,192,4630,1,0,0:0:0:0:
192,192,4943,1,0,0:0:0:0:
320,192,5099,1,0,0:0:0:0:
64,192,5255,1,0,0:0:0:0:
448,192,5411,1,0,0:0:0:0:
192,192,5568,1,0,0:0:0:0:
320,192,5880,1,0,0:0:0:0:
64,192,6193,1,0,0:0:0:0:
192,192,6349,1,0,0:0:0:0:
448,192,6661,128,0,6974:0:0:0:0:
320,192,6974,1,0,0:0:0:0:
64,192,7130,1,0,0:0:0:0:
192,192,7443,1,0,0:0:0:0:
448,192,7599,1,0,0:0:0:0:
320,192,7755,1,0,0:0:0:0:
64,192,7911,1,0,0:0:0:0:
192,192,8068,1,0,0:0:0:0:
448,192,8380,1,0,0:0:0:0:
320,192,8536,128,0,8849:0:0:0:0:
64,192,8849,1,0,0:0:0:0:
448,192,9161,1,0,0:0:0:0:
192,192,9318,1,2,3:0:0:0:
64,192,9864,1,2,3:0:0:0:
448,192,10255,128,2,10568:3:0:0:0:
64,192,10568,1,8,3:0:0:0:
320,192,10880,1,2,3:0:0:0:
448,192,11349,1,8,3:0:0:0:
64,192,11505,1,2,3:0:0:0:
320,192,11818,1,8,3:0:0:0:
64,192,12130,1,2,3:0:0:0:
448,192,12286,1,8,3:0:0:0:
320,192,12599,1,2,3:0:0:0:
192,192,12911,1,2,3:0:0:0:
448,192,13068,1,8,3:0:0:0:
64,192,13380,1,2,3:0:0:0:
192,192,13849,1,8,3:0:0:0:
320,192,14005,1,2,3:0:0:0:
448,192,14318,1,8,3:0:0:0:
320,192,14630,1,2,3:0:0:0:
64,192,14786,1,8,3:0:0:0:
192,192,15099,128,2,15568:3:0:0:0:
448,192,15568,1,8,3:0:0:0:
192,192,15880,1,2,3:0:0:0:
448,192,16349,1,8,3:0:0:0:
64,192,16505,1,2,3:0:0:0:
320,192,16818,1,8,3:0:0:0:
192,192,17130,1,2,3:0:0:0:
448,192,17286,1,8,3:0:0:0:
64,192,17599,1,2,3:0:0:0:
320,192,17755,1,8,3:0:0:0:
192,192,17911,1,2,3:0:0:0:
448,192,18068,128,0,19161:3:0:0:0:
192,192,19161,1,2,3:0:0:0:
320,192,19474,1,2,3:0:0:0:
192,192,19786,1,2,3:0:0:0:
320,192,20099,1,2,3:0:0:0:
64,192,20255,128,0,20568:0:0:0:60:LR_Clap DS.wav
448,192,20568,128,0,20880:0:0:0:40:Finish.wav
320,192,20880,1,8,0:0:0:0:
64,192,21193,1,0,3:0:0:0:
448,192,21505,1,8,0:0:0:0:
192,192,21818,1,0,3:0:0:0:
320,192,22130,1,8,0:0:0:0:
64,192,22443,1,0,3:0:0:0:
448,192,22755,1,8,0:0:0:0:
320,192,23068,1,0,3:0:0:0:
64,192,23380,1,8,0:0:0:0:
448,192,23693,1,0,3:0:0:0:
192,192,24005,1,8,0:0:0:0:
64,192,24318,1,0,3:0:0:0:
448,192,24630,1,8,0:0:0:0:
320,192,24943,1,0,3:0:0:0:
64,192,25255,1,8,0:0:0:0:
448,192,25568,1,0,3:0:0:0:
192,192,25880,1,8,0:0:0:0:
320,192,26193,1,0,3:0:0:0:
64,192,26505,1,8,0:0:0:0:
448,192,26818,1,0,3:0:0:0:
192,192,27130,1,8,0:0:0:0:
448,192,27443,1,0,3:0:0:0:
192,192,27755,1,8,0:0:0:0:
320,192,28068,1,0,3:0:0:0:
64,192,28380,1,8,0:0:0:0:
320,192,28693,1,0,3:0:0:0:
64,192,29005,1,8,0:0:0:0:
192,192,29318,128,8,29943:3:0:0:0:
320,192,29943,128,2,30568:3:0:0:0:
64,192,30568,1,0,0:0:0:60:LR_Clap DS.wav
448,192,31036,1,0,0:0:0:0:
192,192,31193,1,0,3:0:0:0:
320,192,31661,1,0,0:0:0:0:
320,192,31974,1,0,0:0:0:0:
64,192,32286,1,0,0:0:0:0:
448,192,32443,1,0,3:0:0:0:
320,192,33068,1,0,3:0:0:0:
192,192,33536,1,0,0:0:0:0:
448,192,33693,1,0,3:0:0:0:
192,192,34161,1,0,0:0:0:0:
192,192,34474,1,0,0:0:0:0:
320,192,34786,1,0,0:0:0:0:
64,192,34943,1,0,3:0:0:0:
192,192,35255,1,0,3:0:0:0:
320,192,35568,1,0,3:0:0:0:
448,192,36036,1,0,0:0:0:0:
64,192,36193,1,0,3:0:0:0:
320,192,36661,1,0,0:0:0:0:
320,192,36974,1,0,0:0:0:0:
192,192,37286,1,0,0:0:0:0:
448,192,37443,1,0,3:0:0:0:
320,192,38068,1,0,3:0:0:0:
64,192,38536,1,0,0:0:0:0:
320,192,38693,1,0,3:0:0:0:
192,192,38849,1,0,0:0:0:0:
448,192,39161,1,0,0:0:0:0:
320,192,39318,128,0,39630:3:0:0:0:
64,192,39630,1,0,0:0:0:0:
192,192,39786,128,0,40099:3:0:0:0:
448,192,40099,1,0,0:0:0:0:
64,192,40255,128,0,40568:3:0:0:0:
448,192,40568,1,0,0:0:0:60:LR_Clap DS.wav
320,192,40724,1,0,0:0:0:0:
64,192,40880,128,8,41505:0:0:0:0:
192,192,41505,1,8,0:0:0:0:
448,192,41661,1,0,0:0:0:0:
64,192,41818,1,0,3:0:0:0:
320,192,41974,1,0,0:0:0:0:
192,192,42130,128,8,42755:0:0:0:0:
448,192,42755,1,8,0:0:0:0:
320,192,42911,1,0,0:0:0:0:
64,192,43068,1,0,3:0:0:0:
192,192,43224,1,0,0:0:0:0:
448,192,43380,128,8,44005:0:0:0:0:
320,192,44005,1,8,0:0:0:0:
64,192,44161,1,0,0:0:0:0:
448,192,44318,1,0,3:0:0:0:
192,192,44474,1,0,0:0:0:0:
320,192,44630,128,8,45255:0:0:0:0:
64,192,45255,1,8,0:0:0:0:
192,192,45411,1,0,0:0:0:0:
448,192,45568,1,0,3:0:0:0:
320,192,45724,1,0,0:0:0:0:
64,192,45880,128,8,46505:0:0:0:0:
320,192,46505,1,8,0:0:0:0:
192,192,46661,1,0,0:0:0:0:
448,192,46818,1,0,3:0:0:0:
64,192,46974,1,0,0:0:0:0:
320,192,47130,128,8,47755:0:0:0:0:
192,192,47755,1,8,0:0:0:0:
64,192,47911,1,0,0:0:0:0:
448,192,48068,1,0,3:0:0:0:
320,192,48224,1,0,0:0:0:0:
192,192,48380,128,8,49005:0:0:0:0:
448,192,49005,1,8,0:0:0:0:
320,192,49161,1,0,0:0:0:0:
64,192,49318,128,8,49943:0:0:0:0:
320,192,49943,128,2,50568:3:0:0:0:
64,192,50568,1,0,0:0:0:60:LR_Clap DS.wav
448,192,50880,1,8,0:0:0:0:
192,192,51193,1,0,3:0:0:0:
320,192,51505,1,8,0:0:0:0:
64,192,51818,1,0,3:0:0:0:
448,192,52130,1,8,0:0:0:0:
320,192,52443,1,0,3:0:0:0:
192,192,52755,1,8,0:0:0:0:
64,192,53068,1,0,3:0:0:0:
320,192,53380,1,8,0:0:0:0:
448,192,53693,1,0,3:0:0:0:
192,192,54005,1,8,0:0:0:0:
448,192,54318,1,0,3:0:0:0:
64,192,54630,1,8,0:0:0:0:
192,192,54943,1,0,3:0:0:0:
320,192,55255,1,8,0:0:0:0:
448,192,55568,1,0,3:0:0:0:
192,192,55880,1,8,0:0:0:0:
320,192,56193,1,0,3:0:0:0:
448,192,56505,1,8,0:0:0:0:
192,192,56818,1,0,3:0:0:0:
64,192,57130,1,8,0:0:0:0:
448,192,57443,1,0,3:0:0:0:
320,192,57755,1,8,0:0:0:0:
192,192,58068,128,0,58380:3:0:0:0:
448,192,58380,1,8,0:0:0:0:
320,192,58693,1,0,3:0:0:0:
64,192,59005,1,8,0:0:0:0:
192,192,59318,1,0,3:0:0:0:
448,192,59630,1,8,0:0:0:0:
192,192,59943,1,0,3:0:0:0:
320,192,60255,1,8,0:0:0:0:
64,192,60568,1,0,3:0:0:0:
448,192,60880,1,0,3:0:0:0:
64,192,61193,1,0,3:0:0:0:
448,192,61505,1,0,3:0:0:0:
192,192,61818,1,0,3:0:0:0:
320,192,61974,128,0,63068:0:0:0:0:
64,192,63068,1,0,3:0:0:0:
192,192,63380,1,8,0:0:0:0:
448,192,63536,128,0,64318:3:0:0:0:
64,192,64318,128,0,64943:3:0:0:0:
192,192,64943,128,0,65568:0:0:0:0:
448,192,65568,1,0,3:0:0:0:
64,192,65880,1,8,0:0:0:0:
320,192,66193,128,0,66505:3:0:0:0:
192,192,66505,128,8,67130:0:0:0:0:
64,192,67130,128,8,67443:0:0:0:0:
320,192,67443,1,0,3:0:0:0:
448,192,67599,1,0,0:0:0:0:
64,192,67755,1,8,0:0:0:0:
320,192,67911,128,0,68224:0:0:0:0:
192,192,68224,128,0,68693:0:0:0:0:
448,192,68693,1,0,3:0:0:0:
320,192,69005,1,8,0:0:0:0:
64,192,69318,1,0,3:0:0:0:
192,192,69630,1,8,0:0:0:0:
448,192,69943,128,0,70568:3:0:0:0:
64,192,70568,1,0,0:0:0:60:LR_Clap DS.wav
192,192,70880,1,8,0:0:0:0:
448,192,71193,1,0,3:0:0:0:
320,192,71505,1,8,0:0:0:0:
64,192,71818,128,0,72443:3:0:0:0:
448,192,72443,128,0,73068:3:0:0:0:
64,192,73068,1,0,3:0:0:0:
320,192,73380,1,8,0:0:0:0:
192,192,73693,1,0,3:0:0:0:
448,192,74005,1,8,0:0:0:0:
320,192,74318,128,0,74943:3:0:0:0:
192,192,74943,128,0,75568:3:0:0:0:
448,192,75568,128,0,75880:3:0:0:0:
64,192,75880,1,8,0:0:0:0:
320,192,76193,128,0,76505:3:0:0:0:
192,192,76505,128,8,76818:0:0:0:0:
448,192,76818,1,0,3:0:0:0:
320,192,77130,1,8,0:0:0:0:
64,192,77443,1,0,3:0:0:0:
192,192,77755,1,8,0:0:0:0:
320,192,78068,128,2,78693:3:0:0:0:
64,192,78693,1,0,0:0:0:0:
448,192,79005,1,0,0:0:0:0:
64,192,79318,128,8,80568:0:0:0:0:
448,192,80568,1,4,0:0:0:0:
192,192,80880,1,0,0:0:0:0:
64,192,81193,1,0,0:0:0:0:
448,192,81349,1,0,0:0:0:0:
192,192,81661,128,0,81974:0:0:0:0:
448,192,81974,1,0,0:0:0:0:
320,192,82130,1,0,0:0:0:0:
64,192,82443,1,0,0:0:0:0:
192,192,82599,1,0,0:0:0:0:
320,192,82755,1,0,0:0:0:0:
64,192,82911,1,0,0:0:0:0:
448,192,83068,1,0,0:0:0:0:
192,192,83380,1,0,0:0:0:0:
320,192,83536,128,0,83849:0:0:0:0:
64,192,83849,1,0,0:0:0:0:
192,192,84161,128,0,84474:0:0:0:0:
448,192,84474,1,0,0:0:0:0:
320,192,84630,1,0,0:0:0:0:
64,192,84943,1,0,0:0:0:0:
192,192,85099,1,0,0:0:0:0:
448,192,85255,1,0,0:0:0:0:
320,192,85411,1,0,0:0:0:0:
64,192,85568,1,0,0:0:0:0:
448,192,85880,1,0,0:0:0:0:
192,192,86193,1,0,0:0:0:0:
320,192,86349,1,0,0:0:0:0:
448,192,86661,128,0,86974:0:0:0:0:
64,192,86974,1,0,0:0:0:0:
320,192,87130,1,0,0:0:0:0:
448,192,87443,1,0,0:0:0:0:
192,192,87599,1,0,0:0:0:0:
64,192,87755,1,0,0:0:0:0:
320,192,87911,1,0,0:0:0:0:
448,192,88068,1,0,0:0:0:0:
64,192,88380,1,0,0:0:0:0:
320,192,88536,128,0,88849:0:0:0:0:
192,192,88849,1,0,0:0:0:0:
448,192,89161,1,0,0:0:0:0:
192,192,89630,128,2,89943:3:0:0:0:
64,192,89943,1,0,0:0:0:60:LR_Clap DS.wav
448,192,90255,1,8,0:0:0:0:
192,192,90568,1,0,3:0:0:0:
320,192,90880,1,8,0:0:0:0:
64,192,91193,1,0,3:0:0:0:
448,192,91505,1,8,0:0:0:0:
192,192,91818,1,0,3:0:0:0:
320,192,92130,1,8,0:0:0:0:
64,192,92443,1,0,3:0:0:0:
448,192,92755,1,8,0:0:0:0:
192,192,93068,1,0,3:0:0:0:
320,192,93380,1,8,0:0:0:0:
448,192,93693,1,0,3:0:0:0:
64,192,94005,1,8,0:0:0:0:
192,192,94318,1,0,3:0:0:0:
448,192,94630,1,8,0:0:0:0:
64,192,94943,1,0,3:0:0:0:
320,192,95255,1,8,0:0:0:0:
192,192,95568,1,0,3:0:0:0:
64,192,95880,1,8,0:0:0:0:
448,192,96193,1,0,3:0:0:0:
320,192,96505,1,8,0:0:0:0:
64,192,96818,1,0,3:0:0:0:
320,192,97130,1,8,0:0:0:0:
192,192,97443,1,0,3:0:0:0:
448,192,97755,1,8,0:0:0:0:
64,192,98068,1,0,3:0:0:0:
320,192,98380,1,8,0:0:0:0:
192,192,98693,128,8,99318:3:0:0:0:
320,192,99318,128,2,99943:3:0:0:0:
64,192,99943,1,0,0:0:0:60:LR_Clap DS.wav
448,192,100411,1,0,0:0:0:0:
192,192,100568,1,0,3:0:0:0:
320,192,101036,1,0,0:0:0:0:
320,192,101349,1,0,0:0:0:0:
64,192,101661,1,0,0:0:0:0:
448,192,101818,1,0,3:0:0:0:
320,192,102443,1,0,3:0:0:0:
448,192,102911,1,0,0:0:0:0:
64,192,103068,1,0,3:0:0:0:
192,192,103536,1,0,0:0:0:0:
192,192,103849,1,0,0:0:0:0:
320,192,104161,1,0,0:0:0:0:
64,192,104318,1,0,3:0:0:0:
448,192,104630,1,8,0:0:0:0:
192,192,104943,1,0,3:0:0:0:
64,192,105411,1,0,0:0:0:0:
448,192,105568,1,0,3:0:0:0:
320,192,106036,1,0,0:0:0:0:
320,192,106349,1,0,0:0:0:0:
192,192,106661,1,0,3:0:0:0:
448,192,106818,1,0,0:0:0:0:
64,192,107130,1,8,0:0:0:0:
448,192,107443,1,0,3:0:0:0:
320,192,107755,1,8,0:0:0:0:
64,192,108068,1,0,3:0:0:0:
192,192,108380,1,8,0:0:0:0:
320,192,108693,1,0,3:0:0:0:
448,192,109005,1,8,0:0:0:0:
64,192,109318,1,0,3:0:0:0:
320,192,109630,1,8,0:0:0:0:
192,192,109943,1,0,3:0:0:0:
448,192,110255,1,8,0:0:0:0:
320,192,110568,1,0,3:0:0:0:
192,192,110880,1,8,0:0:0:0:
448,192,111193,1,0,3:0:0:0:
64,192,111505,1,8,0:0:0:0:
320,192,111818,1,0,3:0:0:0:
192,192,112130,1,8,0:0:0:0:
448,192,112443,1,0,3:0:0:0:
320,192,112755,1,8,0:0:0:0:
64,192,113068,1,0,0:0:0:0:
192,192,113380,1,8,0:0:0:0:
448,192,113693,1,0,0:0:0:0:
320,192,114005,1,8,0:0:0:0:
64,192,114318,1,0,0:0:0:0:
448,192,114630,1,8,0:0:0:0:
192,192,114943,1,0,3:0:0:0:
320,192,115255,1,8,0:0:0:0:
64,192,115568,1,0,3:0:0:0:
448,192,115724,1,0,0:0:0:0:
192,192,115880,1,8,0:0:0:0:
320,192,116036,1,0,0:0:0:0:
64,192,116661,128,8,119161:0:0:0:0:
448,192,116661,1,4,0:0:0:0:
