osu file format v14

[General]
AudioFilename: Choux a la creme.mp3
AudioLeadIn: 0
PreviewTime: 89940
Countdown: 0
SampleSet: Soft
StackLeniency: 1
Mode: 3
LetterboxInBreaks: 0
SpecialStyle: 0
WidescreenStoryboard: 0

[Editor]
DistanceSpacing: 2
BeatDivisor: 4
GridSize: 4
TimelineZoom: 1.9

[Metadata]
Title:choux a la creme
TitleUnicode:choux à la crème
Artist:kamome sano
ArtistUnicode:kamome sano
Creator:Feerum
Version:ADVANCED
Source:SOUND VOLTEX II -infinite infection-
Tags:electronic instrumental video game konami bemani sdvx beta_20140817 éclair au chocolat KAC2013オリジナル楽曲コンテスト Critical_Star Ichigaki
BeatmapID:867646
BeatmapSetID:399063

[Difficulty]
HPDrainRate:7.5
CircleSize:4
OverallDifficulty:7.5
ApproachRate:10
SliderMultiplier:1.4
SliderTickRate:1

[Events]
//Background and Video events
0,0,"BG.jpg",0,0
//Break Periods
//Storyboard Layer 0 (Background)
//Storyboard Layer 1 (Fail)
//Storyboard Layer 2 (Pass)
//Storyboard Layer 3 (Foreground)
//Storyboard Layer 4 (Overlay)
//Storyboard Sound Samples

[TimingPoints]
568,312.5,4,2,1,35,1,0
20568,-100,4,2,1,35,0,1
29318,-100,4,2,1,35,0,0
30568,-100,4,2,1,35,0,1
39318,-100,4,2,1,35,0,0
80568,-105.263157894737,4,2,1,35,0,0
80724,-111.111111111111,4,2,1,35,0,0
80880,-117.647058823529,4,2,1,35,0,0
81036,-125,4,2,1,35,0,0
89318,-117.647058823529,4,2,1,35,0,0
89396,-111.111111111111,4,2,1,35,0,0
89474,-105.263157894737,4,2,1,35,0,0
89552,-100,4,2,1,35,0,0
89943,-100,4,2,1,35,0,1
98693,-100,4,2,1,35,0,0
99943,-100,4,2,1,35,0,1
116193,-100,4,2,1,35,0,0

[HitObjects]
64,192,568,5,0,0:0:0:0:
320,192,724,1,0,0:0:0:0:
192,192,880,1,0,0:0:0:0:
448,192,1036,128,0,1349:0:0:0:0:
320,192,1349,1,0,0:0:0:0:
64,192,1505,1,0,0:0:0:0:
192,192,1661,128,0,1974:0:0:0:0:
320,192,1974,1,0,0:0:0:0:
448,192,2130,1,0,0:0:0:0:
64,192,2286,128,0,2599:0:0:0:0:
192,192,2599,1,0,0:0:0:0:
320,192,2755,1,0,0:0:0:0:
448,192,2911,1,0,0:0:0:0:
192,192,3068,1,0,0:0:0:0:
64,192,3224,1,0,0:0:0:0:
320,192,3380,1,0,0:0:0:0:
192,192,3536,1,0,0:0:0:0:
320,192,3693,1,0,0:0:0:0:
448,192,3849,1,0,0:0:0:0:
192,192,4005,1,0,0:0:0:0:
320,192,4161,128,0,4474:0:0:0:0:
448,192,4474,1,0,0:0:0:0:
192,192,4630,1,0,0:0:0:0:
64,192,4786,128,0,5099:0:0:0:0:
448,192,5099,1,0,0:0:0:0:
192,192,5255,1,0,0:0:0:0:
320,192,5411,1,0,0:0:0:0:
64,192,5568,1,0,0:0:0:0:
448,192,5724,1,0,0:0:0:0:
192,192,5880,1,0,0:0:0:0:
320,192,6036,128,0,6349:0:0:0:0:
192,192,6349,1,0,0:0:0:0:
320,192,6505,1,0,0:0:0:0:
448,192,6661,128,0,6974:0:0:0:0:
64,192,6974,1,0,0:0:0:0:
320,192,7130,1,0,0:0:0:0:
192,192,7286,128,0,7443:0:0:0:0:
448,192,7599,1,0,0:0:0:0:
192,192,7755,1,0,0:0:0:0:
320,192,7911,1,0,0:0:0:0:
64,192,8068,1,0,0:0:0:0:
448,192,8224,1,0,0:0:0:0:
192,192,8380,1,0,0:0:0:0:
320,192,8536,1,0,0:0:0:0:
448,192,8693,1,0,0:0:0:0:
192,192,8849,1,0,0:0:0:0:
64,192,9005,1,0,0:0:0:0:
320,192,9161,128,0,9474:0:0:0:0:
192,192,9318,1,0,0:0:0:0:
64,192,9318,1,2,3:0:0:0:
448,192,9474,1,0,0:0:0:0:
64,192,9708,1,0,0:0:0:0:
192,192,9864,1,2,3:0:0:0:
448,192,9864,1,0,0:0:0:0:
320,192,10099,1,0,0:0:0:0:
448,192,10255,1,0,0:0:0:0:
320,192,10333,1,0,0:0:0:0:
64,192,10333,1,2,3:0:0:0:
192,192,10411,1,0,0:0:0:0:
320,192,10489,1,0,0:0:0:0:
448,192,10568,5,8,3:0:0:0:
64,192,10568,1,0,3:0:0:0:
192,192,10724,1,0,0:0:0:0:
320,192,10880,1,2,3:0:0:0:
448,192,10880,1,0,0:0:0:0:
192,192,11036,128,0,11349:0:0:0:0:
320,192,11349,1,0,0:0:0:0:
64,192,11349,1,8,3:0:0:0:
448,192,11505,1,0,0:0:0:0:
192,192,11505,1,2,3:0:0:0:
320,192,11661,128,0,11974:0:0:0:0:
64,192,11818,1,8,3:0:0:0:
192,192,11974,1,0,0:0:0:0:
320,192,12130,1,0,0:0:0:0:
448,192,12130,1,2,3:0:0:0:
64,192,12286,128,0,12599:0:0:0:0:
192,192,12286,1,8,3:0:0:0:
192,192,12599,1,2,3:0:0:0:
448,192,12599,1,0,0:0:0:0:
320,192,12755,1,0,0:0:0:0:
448,192,12911,1,0,0:0:0:0:
64,192,12911,1,2,3:0:0:0:
192,192,13068,1,8,3:0:0:0:
320,192,13068,1,0,0:0:0:0:
448,192,13224,1,0,0:0:0:0:
64,192,13380,1,2,3:0:0:0:
192,192,13380,1,0,0:0:0:0:
320,192,13536,1,0,0:0:0:0:
448,192,13693,1,0,0:0:0:0:
320,192,13849,1,8,3:0:0:0:
192,192,13849,1,0,0:0:0:0:
448,192,14005,1,0,0:0:0:0:
64,192,14005,1,2,3:0:0:0:
192,192,14161,128,0,14474:0:0:0:0:
448,192,14318,1,8,3:0:0:0:
320,192,14474,1,0,0:0:0:0:
192,192,14630,1,0,0:0:0:0:
448,192,14630,1,2,3:0:0:0:
64,192,14786,128,0,15099:0:0:0:0:
320,192,14786,1,8,3:0:0:0:
448,192,15099,1,2,3:0:0:0:
192,192,15099,1,0,0:0:0:0:
320,192,15255,1,8,3:0:0:0:
64,192,15255,1,0,0:0:0:0:
192,192,15411,1,0,0:0:0:0:
448,192,15411,1,0,0:0:0:0:
448,192,15568,1,0,0:0:0:40:Finish.wav
320,192,15568,1,8,3:0:0:0:
64,192,15724,1,0,0:0:0:0:
192,192,15880,1,2,3:0:0:0:
448,192,15880,1,0,0:0:0:0:
320,192,16036,128,0,16349:3:0:0:0:
64,192,16349,1,8,3:0:0:0:
192,192,16349,1,0,0:0:0:0:
320,192,16505,1,2,3:0:0:0:
448,192,16505,1,0,0:0:0:0:
192,192,16661,128,0,16974:3:0:0:0:
64,192,16818,1,0,3:0:0:0:
320,192,16974,1,0,3:0:0:0:
448,192,17130,1,0,0:0:0:0:
192,192,17130,1,2,3:0:0:0:
320,192,17286,1,0,0:0:0:0:
64,192,17286,128,8,17599:3:0:0:0:
192,192,17599,1,2,3:0:0:0:
448,192,17599,1,0,0:0:0:0:
320,192,17755,1,0,3:0:0:0:
192,192,17911,1,2,3:0:0:0:
64,192,18068,1,0,3:0:0:0:
192,192,18146,1,0,3:0:0:0:
448,192,18224,1,0,3:0:0:0:
320,192,18302,1,0,3:0:0:0:
64,192,18380,1,0,3:0:0:0:
192,192,18458,1,0,3:0:0:0:
448,192,18536,1,0,3:0:0:0:
320,192,18614,1,0,3:0:0:0:
64,192,18693,1,0,3:0:0:0:
192,192,18771,1,0,3:0:0:0:
448,192,18849,1,0,3:0:0:0:
320,192,18927,1,0,3:0:0:0:
64,192,19005,1,0,3:0:0:0:
192,192,19083,1,0,3:0:0:0:
320,192,19161,1,2,3:0:0:0:
448,192,19161,1,0,3:0:0:0:
320,192,19474,1,2,3:0:0:0:
448,192,19474,1,0,3:0:0:0:
320,192,19786,1,2,3:0:0:0:
448,192,19786,1,0,3:0:0:0:
64,192,20099,1,2,3:0:0:0:
192,192,20099,1,0,3:0:0:0:
448,192,20255,1,0,0:0:0:60:LR_Clap DS.wav
320,192,20255,1,0,0:0:0:0:
64,192,20255,1,0,0:0:0:40:Finish.wav
192,192,20568,1,0,3:0:0:0:
448,192,20568,128,4,20880:0:0:0:0:
64,192,20880,1,0,0:0:0:0:
320,192,20880,1,8,0:0:0:0:
192,192,21036,1,0,0:0:0:0:
448,192,21193,1,0,3:0:0:0:
320,192,21349,1,0,0:0:0:0:
64,192,21505,1,8,0:0:0:0:
192,192,21505,1,0,0:0:0:0:
192,192,21661,1,0,0:0:0:0:
448,192,21661,1,0,0:0:0:0:
320,192,21818,1,0,3:0:0:0:
64,192,21974,1,0,0:0:0:0:
320,192,21974,1,0,0:0:0:0:
64,192,22130,1,0,0:0:0:0:
192,192,22130,1,8,0:0:0:0:
320,192,22286,1,0,0:0:0:0:
448,192,22286,128,0,22599:0:0:0:0:
64,192,22443,1,0,3:0:0:0:
192,192,22599,1,0,0:0:0:0:
64,192,22755,1,0,0:0:0:0:
448,192,22755,1,8,0:0:0:0:
320,192,22911,1,0,0:0:0:0:
192,192,23068,1,0,3:0:0:0:
320,192,23224,1,0,0:0:0:0:
64,192,23380,1,8,0:0:0:0:
192,192,23380,1,0,0:0:0:0:
448,192,23536,1,0,0:0:0:0:
192,192,23693,1,0,3:0:0:0:
320,192,23849,1,0,0:0:0:0:
64,192,24005,1,0,0:0:0:0:
448,192,24005,1,8,0:0:0:0:
192,192,24161,128,0,24474:0:0:0:0:
448,192,24161,1,0,0:0:0:0:
320,192,24318,1,0,3:0:0:0:
448,192,24474,1,0,0:0:0:0:
192,192,24630,1,8,0:0:0:0:
64,192,24630,1,0,0:0:0:0:
320,192,24786,128,0,25099:0:0:0:0:
448,192,24786,1,0,0:0:0:0:
192,192,24943,1,0,3:0:0:0:
64,192,25099,1,8,0:0:0:0:
448,192,25099,1,0,0:0:0:0:
192,192,25255,1,0,3:0:0:0:
320,192,25411,1,0,0:0:0:0:
64,192,25411,1,8,0:0:0:0:
448,192,25568,128,0,25880:0:0:0:0:
192,192,25568,1,0,3:0:0:0:
320,192,25724,1,0,0:0:0:0:
64,192,25880,1,0,0:0:0:0:
192,192,25880,1,8,0:0:0:0:
320,192,26036,1,0,0:0:0:0:
448,192,26193,1,0,3:0:0:0:
192,192,26349,1,0,0:0:0:0:
320,192,26505,1,8,0:0:0:0:
64,192,26505,1,0,0:0:0:0:
448,192,26661,1,0,0:0:0:0:
192,192,26661,1,0,0:0:0:0:
320,192,26818,1,0,3:0:0:0:
64,192,26974,1,0,0:0:0:0:
192,192,26974,1,0,0:0:0:0:
448,192,27130,1,0,0:0:0:0:
320,192,27130,1,8,0:0:0:0:
64,192,27286,1,0,0:0:0:0:
192,192,27286,128,0,27599:0:0:0:0:
448,192,27443,1,0,3:0:0:0:
320,192,27599,1,0,0:0:0:0:
64,192,27755,1,0,0:0:0:0:
448,192,27755,1,8,0:0:0:0:
192,192,27911,1,0,0:0:0:0:
64,192,28068,1,0,0:0:0:0:
320,192,28068,1,0,3:0:0:0:
192,192,28224,1,0,0:0:0:0:
320,192,28224,1,0,0:0:0:0:
192,192,28380,1,0,0:0:0:0:
448,192,28380,1,8,0:0:0:0:
320,192,28536,1,0,0:0:0:0:
64,192,28536,1,0,0:0:0:0:
320,192,28693,1,0,0:0:0:0:
192,192,28693,1,0,3:0:0:0:
448,192,28849,1,0,0:0:0:0:
64,192,28849,1,0,0:0:0:0:
320,192,29005,1,0,0:0:0:0:
64,192,29005,1,8,0:0:0:0:
320,192,29161,1,0,0:0:0:0:
448,192,29161,1,0,0:0:0:0:
192,192,29318,1,0,0:0:0:0:
64,192,29318,1,8,3:0:0:0:
192,192,29474,1,0,0:0:0:0:
64,192,29474,1,8,3:0:0:0:
320,192,29630,1,8,0:0:0:0:
448,192,29630,1,0,0:0:0:0:
192,192,29786,1,0,0:0:0:0:
64,192,29786,1,0,3:0:0:0:
448,192,29943,1,2,3:0:0:0:
320,192,30021,1,2,3:0:0:0:
64,192,30099,1,2,3:0:0:0:
192,192,30177,1,2,3:0:0:0:
320,192,30255,1,2,3:0:0:0:
448,192,30333,1,2,3:0:0:0:
192,192,30411,1,2,3:0:0:0:
64,192,30489,1,2,3:0:0:0:
320,192,30568,1,0,0:0:0:40:Finish.wav
448,192,30568,1,0,0:0:0:60:LR_Clap DS.wav
192,192,30568,1,0,3:0:0:0:
64,192,30880,1,8,0:0:0:0:
192,192,31036,1,0,0:0:0:0:
448,192,31036,1,0,0:0:0:0:
320,192,31193,1,0,3:0:0:0:
448,192,31193,1,0,0:0:0:0:
64,192,31349,1,0,0:0:0:0:
320,192,31505,1,8,0:0:0:0:
448,192,31661,1,0,0:0:0:0:
192,192,31661,1,0,0:0:0:0:
64,192,31818,1,0,3:0:0:0:
320,192,31974,1,0,0:0:0:0:
192,192,31974,1,0,0:0:0:0:
448,192,32130,1,8,0:0:0:0:
64,192,32286,1,0,0:0:0:0:
192,192,32286,1,0,0:0:0:0:
448,192,32443,1,0,0:0:0:0:
192,192,32443,1,0,3:0:0:0:
320,192,32599,1,0,0:0:0:0:
64,192,32755,1,8,0:0:0:0:
448,192,32911,1,0,0:0:0:0:
320,192,33068,1,0,3:0:0:0:
64,192,33068,1,0,0:0:0:0:
192,192,33224,1,0,0:0:0:0:
448,192,33380,1,8,0:0:0:0:
320,192,33536,1,0,0:0:0:0:
192,192,33536,1,0,0:0:0:0:
192,192,33693,1,0,3:0:0:0:
64,192,33693,1,0,0:0:0:0:
448,192,33849,1,0,0:0:0:0:
320,192,34005,1,8,0:0:0:0:
192,192,34161,1,0,0:0:0:0:
448,192,34161,1,0,0:0:0:0:
64,192,34318,1,0,3:0:0:0:
320,192,34474,1,0,0:0:0:0:
192,192,34474,1,0,0:0:0:0:
448,192,34630,1,8,0:0:0:0:
320,192,34786,1,0,0:0:0:0:
64,192,34786,1,0,0:0:0:0:
192,192,34943,1,0,3:0:0:0:
64,192,34943,1,0,0:0:0:0:
448,192,35099,1,8,0:0:0:0:
320,192,35255,1,0,3:0:0:0:
192,192,35255,1,0,0:0:0:0:
64,192,35411,1,8,0:0:0:0:
192,192,35568,1,0,0:0:0:40:Finish.wav
448,192,35568,1,0,3:0:0:0:
320,192,35724,1,0,0:0:0:0:
64,192,35880,1,8,0:0:0:0:
320,192,36036,1,0,0:0:0:0:
192,192,36036,1,0,0:0:0:0:
320,192,36193,1,0,3:0:0:0:
448,192,36193,1,0,0:0:0:0:
64,192,36349,1,0,0:0:0:0:
320,192,36505,1,8,0:0:0:0:
448,192,36661,1,0,0:0:0:0:
192,192,36661,1,0,0:0:0:0:
64,192,36818,1,0,3:0:0:0:
320,192,36974,1,0,0:0:0:0:
192,192,36974,1,0,0:0:0:0:
448,192,37130,1,8,0:0:0:0:
64,192,37286,1,0,0:0:0:0:
192,192,37286,1,0,0:0:0:0:
192,192,37443,1,0,3:0:0:0:
448,192,37443,1,0,0:0:0:0:
320,192,37599,1,0,0:0:0:0:
64,192,37755,1,8,0:0:0:0:
448,192,37911,1,0,0:0:0:0:
64,192,38068,1,0,3:0:0:0:
192,192,38068,1,0,0:0:0:0:
320,192,38224,1,0,0:0:0:0:
192,192,38224,1,0,0:0:0:0:
448,192,38380,1,8,0:0:0:0:
320,192,38380,1,0,0:0:0:0:
64,192,38536,1,0,0:0:0:0:
192,192,38536,1,0,0:0:0:0:
448,192,38693,1,0,0:0:0:0:
192,192,38693,1,0,3:0:0:0:
320,192,38849,1,0,0:0:0:0:
192,192,38849,1,0,0:0:0:0:
64,192,39005,1,8,0:0:0:0:
448,192,39005,1,0,0:0:0:0:
320,192,39161,1,0,0:0:0:0:
448,192,39161,1,0,0:0:0:0:
64,192,39318,1,8,3:0:0:0:
64,192,39474,1,8,3:0:0:0:
192,192,39630,1,2,3:0:0:0:
320,192,39630,1,0,3:0:0:0:
448,192,39786,1,8,3:0:0:0:
448,192,39943,1,8,3:0:0:0:
320,192,40099,1,2,3:0:0:0:
192,192,40099,1,0,3:0:0:0:
64,192,40255,1,0,3:0:0:0:
192,192,40333,1,0,3:0:0:0:
448,192,40411,1,0,3:0:0:0:
320,192,40489,1,0,3:0:0:0:
192,192,40568,1,0,0:0:0:40:Finish.wav
64,192,40568,1,0,0:0:0:60:LR_Clap DS.wav
448,192,40724,1,0,0:0:0:0:
320,192,40724,1,0,0:0:0:0:
64,192,40880,1,8,0:0:0:0:
192,192,40958,1,0,0:0:0:0:
448,192,41036,1,0,0:0:0:0:
320,192,41114,1,0,0:0:0:0:
64,192,41193,1,0,3:0:0:0:
192,192,41271,1,0,0:0:0:0:
448,192,41349,1,0,0:0:0:0:
64,192,41427,1,0,0:0:0:0:
320,192,41505,1,8,0:0:0:0:
192,192,41661,1,0,0:0:0:0:
448,192,41818,1,0,0:0:0:0:
64,192,41818,1,0,3:0:0:0:
192,192,41974,1,0,0:0:0:0:
64,192,41974,1,0,0:0:0:0:
448,192,42130,1,8,0:0:0:0:
320,192,42208,1,0,0:0:0:0:
192,192,42286,1,0,0:0:0:0:
320,192,42364,1,0,0:0:0:0:
64,192,42443,1,0,3:0:0:0:
192,192,42521,1,0,0:0:0:0:
448,192,42599,1,0,0:0:0:0:
320,192,42677,1,0,0:0:0:0:
64,192,42755,1,8,0:0:0:0:
448,192,42911,1,0,0:0:0:0:
320,192,43068,1,0,3:0:0:0:
64,192,43068,1,0,0:0:0:0:
320,192,43224,1,0,0:0:0:0:
448,192,43224,1,0,0:0:0:0:
64,192,43380,1,8,0:0:0:0:
192,192,43458,1,0,0:0:0:0:
448,192,43536,1,0,0:0:0:0:
64,192,43614,1,0,0:0:0:0:
320,192,43693,1,0,3:0:0:0:
192,192,43771,1,0,0:0:0:0:
448,192,43849,1,0,0:0:0:0:
320,192,43927,1,0,0:0:0:0:
192,192,44005,1,8,0:0:0:0:
320,192,44161,1,0,0:0:0:0:
448,192,44318,1,0,0:0:0:0:
64,192,44318,1,0,3:0:0:0:
448,192,44474,1,0,0:0:0:0:
320,192,44474,1,0,0:0:0:0:
192,192,44630,1,8,0:0:0:0:
64,192,44708,1,0,0:0:0:0:
320,192,44786,1,0,0:0:0:0:
448,192,44864,1,0,0:0:0:0:
192,192,44943,1,0,3:0:0:0:
320,192,45021,1,0,0:0:0:0:
64,192,45099,1,0,3:0:0:0:
192,192,45177,1,0,0:0:0:0:
448,192,45255,1,8,0:0:0:0:
320,192,45255,1,0,0:0:0:0:
64,192,45411,1,0,3:0:0:0:
192,192,45411,1,0,0:0:0:0:
320,192,45568,1,0,0:0:0:0:
448,192,45568,1,0,3:0:0:0:
320,192,45724,1,0,0:0:0:0:
192,192,45724,1,0,0:0:0:0:
64,192,45880,1,8,0:0:0:0:
448,192,45958,1,0,0:0:0:0:
192,192,46036,1,0,0:0:0:0:
320,192,46114,1,0,0:0:0:0:
64,192,46193,1,0,3:0:0:0:
192,192,46271,1,0,0:0:0:0:
448,192,46349,1,0,0:0:0:0:
320,192,46427,1,0,0:0:0:0:
64,192,46505,1,8,0:0:0:0:
448,192,46661,1,0,0:0:0:0:
64,192,46818,1,0,3:0:0:0:
192,192,46818,1,0,0:0:0:0:
448,192,46974,1,0,0:0:0:0:
192,192,46974,1,0,0:0:0:0:
64,192,47130,1,8,0:0:0:0:
320,192,47208,1,0,0:0:0:0:
192,192,47286,1,0,0:0:0:0:
448,192,47364,1,0,0:0:0:0:
320,192,47443,1,0,3:0:0:0:
64,192,47521,1,0,0:0:0:0:
192,192,47599,1,0,0:0:0:0:
320,192,47677,1,0,0:0:0:0:
192,192,47755,1,8,0:0:0:0:
448,192,47911,1,0,0:0:0:0:
448,192,48068,1,0,0:0:0:0:
320,192,48068,1,0,3:0:0:0:
64,192,48224,1,0,0:0:0:0:
192,192,48224,1,0,0:0:0:0:
448,192,48380,1,8,0:0:0:0:
192,192,48458,1,0,0:0:0:0:
320,192,48536,1,0,0:0:0:0:
64,192,48614,1,0,0:0:0:0:
192,192,48693,1,0,3:0:0:0:
320,192,48771,1,0,0:0:0:0:
192,192,48849,1,0,0:0:0:0:
448,192,48927,1,0,0:0:0:0:
64,192,49005,1,8,0:0:0:0:
320,192,49161,1,0,0:0:0:0:
64,192,49318,1,0,3:0:0:0:
192,192,49318,1,2,3:0:0:0:
320,192,49474,1,2,3:0:0:0:
448,192,49474,1,0,3:0:0:0:
192,192,49630,1,2,3:0:0:0:
64,192,49630,1,0,3:0:0:0:
320,192,49786,1,2,3:0:0:0:
448,192,49786,1,0,3:0:0:0:
64,192,49943,1,2,3:0:0:0:
192,192,50021,1,2,3:0:0:0:
320,192,50099,1,2,3:0:0:0:
64,192,50177,1,2,3:0:0:0:
448,192,50255,1,2,3:0:0:0:
320,192,50333,1,2,3:0:0:0:
192,192,50411,1,2,3:0:0:0:
448,192,50489,1,2,3:0:0:0:
320,192,50568,1,0,0:0:0:40:Finish.wav
64,192,50568,1,0,0:0:0:60:LR_Clap DS.wav
192,192,50724,1,0,0:0:0:0:
320,192,50880,1,0,0:0:0:0:
448,192,50880,1,8,0:0:0:0:
64,192,51036,1,0,0:0:0:0:
192,192,51193,1,0,0:0:0:0:
320,192,51193,1,0,3:0:0:0:
64,192,51349,1,0,0:0:0:0:
192,192,51505,1,0,0:0:0:0:
448,192,51505,1,8,0:0:0:0:
320,192,51661,1,0,0:0:0:0:
64,192,51818,1,0,0:0:0:0:
192,192,51818,1,0,3:0:0:0:
448,192,51974,1,0,0:0:0:0:
320,192,52130,1,8,0:0:0:0:
64,192,52130,1,0,0:0:0:0:
192,192,52286,1,0,0:0:0:0:
320,192,52443,1,0,3:0:0:0:
448,192,52443,1,0,0:0:0:0:
64,192,52599,1,0,0:0:0:0:
320,192,52755,1,8,0:0:0:0:
192,192,52755,1,0,0:0:0:0:
448,192,52911,1,0,0:0:0:0:
192,192,53068,1,0,3:0:0:0:
64,192,53068,1,0,0:0:0:0:
320,192,53224,1,0,0:0:0:0:
448,192,53380,1,0,0:0:0:0:
192,192,53380,1,8,0:0:0:0:
64,192,53536,1,0,0:0:0:0:
320,192,53693,1,0,0:0:0:0:
448,192,53693,1,0,3:0:0:0:
192,192,53849,1,0,0:0:0:0:
320,192,54005,1,0,0:0:0:0:
64,192,54005,1,8,0:0:0:0:
448,192,54161,1,0,0:0:0:0:
320,192,54318,1,0,3:0:0:0:
192,192,54318,1,0,0:0:0:0:
64,192,54474,1,0,0:0:0:0:
192,192,54630,1,8,0:0:0:0:
448,192,54630,1,0,0:0:0:0:
320,192,54786,1,0,0:0:0:0:
448,192,54943,1,0,0:0:0:0:
64,192,54943,1,0,3:0:0:0:
192,192,55099,1,0,3:0:0:0:
448,192,55099,1,0,0:0:0:0:
192,192,55255,1,8,0:0:0:0:
64,192,55255,1,0,3:0:0:0:
320,192,55411,1,0,3:0:0:0:
448,192,55411,1,0,0:0:0:0:
320,192,55568,1,0,0:0:0:0:
64,192,55568,1,0,3:0:0:0:
448,192,55724,1,0,0:0:0:0:
320,192,55880,1,0,0:0:0:0:
192,192,55880,1,8,0:0:0:0:
64,192,56036,1,0,0:0:0:0:
320,192,56193,1,0,3:0:0:0:
448,192,56193,1,0,0:0:0:0:
192,192,56349,1,0,0:0:0:0:
320,192,56505,1,0,0:0:0:0:
64,192,56505,1,8,0:0:0:0:
448,192,56661,1,0,0:0:0:0:
320,192,56818,1,0,0:0:0:0:
192,192,56818,1,0,3:0:0:0:
64,192,56974,1,0,0:0:0:0:
192,192,57130,1,8,0:0:0:0:
448,192,57130,1,0,0:0:0:0:
320,192,57286,1,0,0:0:0:0:
192,192,57443,1,0,3:0:0:0:
64,192,57443,1,0,0:0:0:0:
448,192,57599,1,0,0:0:0:0:
320,192,57755,1,0,0:0:0:0:
192,192,57755,1,8,0:0:0:0:
448,192,57911,1,0,0:0:0:0:
64,192,58068,1,0,3:0:0:0:
192,192,58146,1,0,3:0:0:0:
448,192,58224,1,0,3:0:0:0:
320,192,58302,1,0,3:0:0:0:
192,192,58380,1,8,0:0:0:0:
64,192,58380,1,0,0:0:0:40:Finish.wav
448,192,58380,1,0,0:0:0:0:
320,192,58536,1,0,0:0:0:0:
192,192,58693,1,0,3:0:0:0:
448,192,58693,1,0,0:0:0:0:
64,192,58849,1,0,0:0:0:0:
192,192,59005,1,0,0:0:0:0:
320,192,59005,1,8,0:0:0:0:
448,192,59161,1,0,0:0:0:0:
320,192,59318,1,0,3:0:0:0:
64,192,59318,1,2,3:0:0:0:
192,192,59474,1,0,0:0:0:0:
448,192,59630,1,0,3:0:0:0:
320,192,59630,1,2,3:0:0:0:
64,192,59708,1,0,0:0:0:0:
192,192,59786,1,0,0:0:0:0:
320,192,59864,1,0,0:0:0:0:
448,192,59943,1,2,3:0:0:0:
64,192,59943,1,0,3:0:0:0:
192,192,60021,1,2,3:0:0:0:
320,192,60099,1,2,3:0:0:0:
192,192,60177,1,2,3:0:0:0:
448,192,60255,1,2,3:0:0:0:
64,192,60255,1,0,3:0:0:0:
320,192,60333,1,2,3:0:0:0:
192,192,60411,1,2,3:0:0:0:
320,192,60489,1,2,3:0:0:0:
448,192,60568,1,0,0:0:0:40:Finish.wav
64,192,60568,1,0,0:0:0:60:LR_Clap DS.wav
192,192,60724,1,0,0:0:0:0:
320,192,60880,1,8,0:0:0:0:
448,192,60880,1,0,0:0:0:0:
64,192,61036,1,0,0:0:0:0:
448,192,61114,1,0,0:0:0:0:
320,192,61193,1,0,0:0:0:0:
192,192,61193,1,0,3:0:0:0:
64,192,61271,1,0,0:0:0:0:
448,192,61349,1,0,0:0:0:0:
64,192,61505,1,8,0:0:0:0:
320,192,61505,1,0,0:0:0:0:
192,192,61661,1,0,0:0:0:0:
320,192,61818,1,0,3:0:0:0:
448,192,61818,1,0,0:0:0:0:
64,192,61974,1,0,0:0:0:0:
192,192,62052,1,0,0:0:0:0:
320,192,62130,1,8,0:0:0:0:
64,192,62208,1,0,0:0:0:0:
448,192,62286,1,0,0:0:0:0:
320,192,62364,1,0,0:0:0:0:
192,192,62443,1,0,3:0:0:0:
448,192,62521,1,0,0:0:0:0:
64,192,62599,1,0,0:0:0:0:
192,192,62677,1,0,0:0:0:0:
320,192,62755,1,8,0:0:0:0:
192,192,62833,1,0,0:0:0:0:
448,192,62911,1,0,0:0:0:0:
320,192,62989,1,0,0:0:0:0:
192,192,63068,1,0,0:0:0:0:
64,192,63068,1,0,3:0:0:0:
448,192,63146,1,0,0:0:0:0:
320,192,63224,1,0,0:0:0:0:
192,192,63380,1,8,0:0:0:0:
448,192,63380,1,0,0:0:0:0:
64,192,63536,1,0,0:0:0:0:
192,192,63614,1,0,0:0:0:0:
320,192,63693,1,0,3:0:0:0:
192,192,63771,1,0,0:0:0:0:
448,192,63849,1,0,0:0:0:0:
320,192,63927,1,0,0:0:0:0:
192,192,64005,1,8,0:0:0:0:
448,192,64083,1,0,0:0:0:0:
64,192,64161,1,0,0:0:0:0:
192,192,64239,1,0,0:0:0:0:
320,192,64318,1,0,3:0:0:0:
448,192,64318,128,0,64552:0:0:0:0:
64,192,64552,1,0,0:0:0:0:
320,192,64630,1,8,0:0:0:0:
448,192,64708,1,0,0:0:0:0:
192,192,64786,1,0,0:0:0:0:
64,192,64864,1,0,0:0:0:0:
320,192,64943,1,0,3:0:0:0:
448,192,64943,1,0,0:0:0:0:
64,192,65021,1,0,0:0:0:0:
192,192,65099,1,0,0:0:0:0:
320,192,65099,1,0,3:0:0:0:
448,192,65177,1,0,0:0:0:0:
64,192,65255,1,0,3:0:0:0:
192,192,65255,1,8,0:0:0:0:
320,192,65333,1,0,0:0:0:0:
64,192,65411,1,0,0:0:0:0:
448,192,65411,1,0,3:0:0:0:
192,192,65489,1,0,0:0:0:0:
320,192,65568,1,0,3:0:0:0:
448,192,65568,1,0,0:0:0:40:Finish.wav
64,192,65724,1,0,0:0:0:0:
192,192,65802,1,0,0:0:0:0:
320,192,65880,1,0,0:0:0:0:
64,192,65880,1,8,0:0:0:0:
448,192,65958,1,0,0:0:0:0:
192,192,66036,1,0,0:0:0:0:
320,192,66114,1,0,0:0:0:0:
64,192,66193,1,0,3:0:0:0:
448,192,66271,1,0,0:0:0:0:
192,192,66349,1,0,0:0:0:0:
64,192,66505,1,8,0:0:0:0:
448,192,66583,1,0,0:0:0:0:
192,192,66661,1,0,0:0:0:0:
320,192,66739,1,0,0:0:0:0:
448,192,66818,1,0,3:0:0:0:
64,192,66818,128,0,67130:0:0:0:0:
320,192,66974,1,0,0:0:0:0:
192,192,67130,1,8,0:0:0:0:
448,192,67130,1,0,0:0:0:0:
320,192,67208,1,0,0:0:0:0:
192,192,67286,1,0,0:0:0:0:
64,192,67364,1,0,0:0:0:0:
448,192,67443,128,0,67599:0:0:0:0:
320,192,67443,1,0,3:0:0:0:
192,192,67521,1,0,0:0:0:0:
64,192,67599,128,0,67755:0:0:0:0:
320,192,67755,128,0,67911:0:0:0:0:
448,192,67755,1,8,0:0:0:0:
192,192,67911,128,0,68224:0:0:0:0:
64,192,68068,1,0,3:0:0:0:
448,192,68224,1,0,0:0:0:0:
320,192,68302,1,0,0:0:0:0:
64,192,68380,1,8,0:0:0:0:
192,192,68458,1,0,0:0:0:0:
320,192,68536,1,0,0:0:0:0:
448,192,68614,1,0,0:0:0:0:
64,192,68693,1,0,3:0:0:0:
192,192,68693,1,0,0:0:0:0:
320,192,68771,1,0,0:0:0:0:
448,192,68849,1,0,0:0:0:0:
192,192,68927,1,0,0:0:0:0:
320,192,69005,1,8,0:0:0:0:
64,192,69005,1,0,0:0:0:0:
448,192,69083,1,0,0:0:0:0:
192,192,69161,1,0,0:0:0:0:
320,192,69239,1,0,0:0:0:0:
448,192,69318,1,0,3:0:0:0:
64,192,69318,128,0,69630:0:0:0:0:
192,192,69630,1,8,0:0:0:0:
448,192,69734,1,0,0:0:0:0:
320,192,69838,1,0,0:0:0:0:
64,192,69943,1,0,0:0:0:0:
192,192,69943,1,0,3:0:0:0:
64,192,70099,1,0,3:0:0:0:
192,192,70099,1,0,0:0:0:0:
448,192,70255,1,0,3:0:0:0:
320,192,70255,1,0,0:0:0:0:
320,192,70411,1,0,3:0:0:0:
448,192,70411,1,0,0:0:0:0:
64,192,70568,1,0,0:0:0:60:LR_Clap DS.wav
192,192,70568,1,0,0:0:0:40:Finish.wav
448,192,70568,1,0,0:0:0:0:
320,192,70724,1,0,0:0:0:0:
64,192,70724,1,0,0:0:0:0:
192,192,70880,1,8,0:0:0:0:
320,192,70880,1,0,0:0:0:0:
192,192,71036,1,0,0:0:0:0:
448,192,71036,1,0,0:0:0:0:
320,192,71193,1,0,3:0:0:0:
448,192,71193,1,0,0:0:0:0:
64,192,71349,1,0,0:0:0:0:
192,192,71349,1,0,0:0:0:0:
448,192,71505,1,0,0:0:0:0:
192,192,71505,1,8,0:0:0:0:
320,192,71661,1,0,0:0:0:0:
64,192,71661,1,0,0:0:0:0:
448,192,71818,1,0,3:0:0:0:
320,192,71896,1,0,0:0:0:0:
192,192,71974,1,0,0:0:0:0:
448,192,72052,1,0,0:0:0:0:
64,192,72130,1,8,0:0:0:0:
192,192,72208,1,0,0:0:0:0:
320,192,72286,128,0,72443:0:0:0:0:
448,192,72443,1,0,3:0:0:0:
64,192,72521,1,0,0:0:0:0:
192,192,72599,1,0,0:0:0:0:
320,192,72677,1,0,0:0:0:0:
64,192,72755,1,8,0:0:0:0:
448,192,72833,1,0,0:0:0:0:
320,192,72911,1,0,0:0:0:0:
192,192,72989,1,0,0:0:0:0:
64,192,73068,1,0,0:0:0:0:
448,192,73068,1,0,3:0:0:0:
192,192,73224,1,0,0:0:0:0:
320,192,73224,1,0,0:0:0:0:
448,192,73380,1,0,0:0:0:0:
192,192,73380,1,8,0:0:0:0:
320,192,73536,1,0,0:0:0:0:
64,192,73536,1,0,0:0:0:0:
192,192,73693,1,0,3:0:0:0:
64,192,73693,1,0,0:0:0:0:
192,192,73849,1,0,0:0:0:0:
320,192,73849,1,0,0:0:0:0:
320,192,74005,1,8,0:0:0:0:
448,192,74005,1,0,0:0:0:0:
64,192,74161,1,0,0:0:0:0:
192,192,74161,1,0,0:0:0:0:
448,192,74318,1,0,3:0:0:0:
320,192,74396,1,0,0:0:0:0:
64,192,74474,1,0,0:0:0:0:
192,192,74552,1,0,0:0:0:0:
320,192,74630,1,8,0:0:0:0:
64,192,74708,1,0,0:0:0:0:
448,192,74786,1,0,0:0:0:0:
320,192,74864,1,0,0:0:0:0:
192,192,74943,1,0,0:0:0:0:
64,192,74943,1,0,3:0:0:0:
448,192,75021,1,0,0:0:0:0:
320,192,75099,1,0,0:0:0:0:
192,192,75099,1,0,3:0:0:0:
64,192,75177,1,0,0:0:0:0:
320,192,75255,1,8,0:0:0:0:
448,192,75255,1,0,3:0:0:0:
192,192,75333,1,0,0:0:0:0:
448,192,75411,1,0,0:0:0:0:
64,192,75411,1,0,0:0:0:0:
320,192,75489,1,0,0:0:0:0:
192,192,75568,128,0,75880:3:0:0:0:
448,192,75880,1,8,0:0:0:0:
64,192,75880,1,0,0:0:0:0:
320,192,75958,1,0,0:0:0:0:
192,192,76036,1,0,0:0:0:0:
64,192,76114,1,0,0:0:0:0:
448,192,76193,1,0,0:0:0:0:
192,192,76193,1,8,0:0:0:0:
320,192,76297,1,0,0:0:0:0:
192,192,76401,1,0,0:0:0:0:
64,192,76505,1,0,3:0:0:0:
320,192,76609,1,0,3:0:0:0:
192,192,76713,1,0,3:0:0:0:
448,192,76818,1,0,3:0:0:0:
64,192,76818,1,0,0:0:0:40:Finish.wav
320,192,76974,1,0,0:0:0:0:
192,192,77052,1,0,0:0:0:0:
320,192,77130,1,8,0:0:0:0:
64,192,77208,1,0,0:0:0:0:
192,192,77286,1,0,0:0:0:0:
320,192,77364,1,0,0:0:0:0:
448,192,77443,1,0,0:0:0:0:
64,192,77443,1,0,3:0:0:0:
192,192,77599,1,0,0:0:0:0:
320,192,77677,1,0,0:0:0:0:
448,192,77755,1,8,0:0:0:0:
64,192,77755,1,0,0:0:0:0:
192,192,77833,1,0,0:0:0:0:
320,192,77911,1,0,0:0:0:0:
448,192,78068,1,2,3:0:0:0:
192,192,78146,1,2,3:0:0:0:
320,192,78224,1,2,3:0:0:0:
64,192,78302,1,2,3:0:0:0:
192,192,78380,1,2,3:0:0:0:
448,192,78458,1,2,3:0:0:0:
320,192,78536,1,2,3:0:0:0:
192,192,78614,1,2,3:0:0:0:
64,192,78693,1,0,0:0:0:0:
448,192,78849,1,0,0:0:0:0:
192,192,79005,1,0,0:0:0:0:
320,192,79161,1,0,0:0:0:0:
64,192,79318,1,8,3:0:0:0:
192,192,79396,1,0,3:0:0:0:
448,192,79474,1,8,3:0:0:0:
320,192,79552,1,0,3:0:0:0:
64,192,79630,1,8,3:0:0:0:
192,192,79708,1,0,3:0:0:0:
320,192,79786,1,0,3:0:0:0:
64,192,79864,1,0,3:0:0:0:
448,192,79943,1,0,3:0:0:0:
320,192,80021,1,0,3:0:0:0:
192,192,80099,1,0,3:0:0:0:
448,192,80177,1,0,3:0:0:0:
64,192,80255,1,0,3:0:0:0:
192,192,80333,1,0,3:0:0:0:
320,192,80411,1,0,3:0:0:0:
192,192,80489,1,0,3:0:0:0:
448,192,80568,128,0,80724:0:0:0:0:
64,192,80568,1,0,0:0:0:40:Finish.wav
320,192,80724,128,0,80880:0:0:0:0:
64,192,80880,128,0,81036:0:0:0:0:
192,192,81036,128,0,81349:0:0:0:0:
320,192,81349,128,0,81505:0:0:0:0:
448,192,81505,128,0,81661:0:0:0:0:
320,192,81661,128,0,81974:0:0:0:0:
64,192,81974,128,0,82130:0:0:0:0:
192,192,82130,128,0,82286:0:0:0:0:
448,192,82286,128,0,82599:0:0:0:0:
320,192,82599,128,0,82755:0:0:0:0:
192,192,82755,128,0,82911:0:0:0:0:
64,192,82911,128,0,83068:0:0:0:0:
320,192,83068,128,0,83224:0:0:0:0:
448,192,83224,128,0,83380:0:0:0:0:
192,192,83380,128,0,83536:0:0:0:0:
64,192,83536,128,0,83693:0:0:0:0:
320,192,83693,128,0,83849:0:0:0:0:
448,192,83849,128,0,84005:0:0:0:0:
192,192,84005,128,0,84161:0:0:0:0:
64,192,84161,128,0,84474:0:0:0:0:
448,192,84474,128,0,84630:0:0:0:0:
320,192,84630,128,0,84786:0:0:0:0:
192,192,84786,128,0,85099:0:0:0:0:
64,192,85099,128,0,85255:0:0:0:0:
192,192,85255,128,0,85411:0:0:0:0:
320,192,85411,128,0,85568:0:0:0:0:
64,192,85568,128,0,85724:0:0:0:0:
448,192,85724,128,0,85880:0:0:0:0:
192,192,85880,128,0,86036:0:0:0:0:
320,192,86036,128,0,86349:0:0:0:0:
64,192,86349,128,0,86505:0:0:0:0:
192,192,86505,128,0,86661:0:0:0:0:
448,192,86661,128,0,86974:0:0:0:0:
320,192,86974,128,0,87130:0:0:0:0:
192,192,87130,128,0,87286:0:0:0:0:
64,192,87286,128,0,87443:0:0:0:0:
320,192,87599,128,0,87755:0:0:0:0:
192,192,87755,128,0,87911:0:0:0:0:
448,192,87911,128,0,88068:0:0:0:0:
320,192,88068,128,0,88224:0:0:0:0:
192,192,88224,128,0,88380:0:0:0:0:
320,192,88380,128,0,88536:0:0:0:0:
448,192,88536,128,0,88693:0:0:0:0:
192,192,88693,128,0,88849:0:0:0:0:
64,192,88849,128,0,89005:0:0:0:0:
320,192,89005,128,0,89161:0:0:0:0:
448,192,89161,128,0,89318:0:0:0:0:
64,192,89630,1,2,3:0:0:0:
192,192,89708,1,2,3:0:0:0:
448,192,89786,1,2,3:0:0:0:
320,192,89864,1,2,3:0:0:0:
192,192,89943,1,0,0:0:0:60:LR_Clap DS.wav
64,192,89943,128,0,90255:0:0:0:40:Finish.wav
448,192,90255,1,8,0:0:0:0:
192,192,90255,1,0,0:0:0:0:
320,192,90411,1,0,0:0:0:0:
64,192,90568,1,0,3:0:0:0:
192,192,90724,1,0,0:0:0:0:
448,192,90880,1,0,0:0:0:0:
320,192,90880,1,8,0:0:0:0:
192,192,91036,1,0,0:0:0:0:
64,192,91036,1,0,0:0:0:0:
448,192,91193,1,0,3:0:0:0:
320,192,91349,1,0,0:0:0:0:
192,192,91349,1,0,0:0:0:0:
64,192,91505,1,8,0:0:0:0:
192,192,91505,1,0,0:0:0:0:
448,192,91661,128,0,91974:0:0:0:0:
320,192,91661,1,0,0:0:0:0:
192,192,91818,1,0,3:0:0:0:
64,192,91974,1,0,0:0:0:0:
320,192,91974,1,0,0:0:0:0:
192,192,92130,1,8,0:0:0:0:
448,192,92130,1,0,0:0:0:0:
64,192,92286,1,0,0:0:0:0:
320,192,92443,1,0,3:0:0:0:
192,192,92599,1,0,0:0:0:0:
448,192,92755,1,0,0:0:0:0:
320,192,92755,1,8,0:0:0:0:
64,192,92911,1,0,0:0:0:0:
192,192,93068,1,0,3:0:0:0:
448,192,93224,1,0,0:0:0:0:
320,192,93380,1,8,0:0:0:0:
192,192,93380,1,0,0:0:0:0:
64,192,93536,128,0,93849:0:0:0:0:
192,192,93536,1,0,0:0:0:0:
320,192,93693,1,0,3:0:0:0:
448,192,93849,1,0,0:0:0:0:
320,192,94005,1,8,0:0:0:0:
64,192,94005,1,0,0:0:0:0:
448,192,94161,128,0,94474:0:0:0:0:
192,192,94161,1,0,0:0:0:0:
320,192,94318,1,0,3:0:0:0:
64,192,94474,1,0,0:0:0:0:
320,192,94630,1,8,0:0:0:0:
192,192,94630,1,0,0:0:0:0:
448,192,94786,1,8,0:0:0:0:
64,192,94786,1,0,0:0:0:0:
192,192,94943,128,0,95255:0:0:0:0:
320,192,94943,1,0,3:0:0:0:
448,192,95255,1,0,0:0:0:0:
64,192,95255,1,8,0:0:0:0:
320,192,95411,1,0,0:0:0:0:
64,192,95568,1,0,3:0:0:0:
192,192,95724,1,0,0:0:0:0:
448,192,95880,1,0,0:0:0:0:
320,192,95880,1,8,0:0:0:0:
320,192,96036,1,0,0:0:0:0:
64,192,96036,1,0,0:0:0:0:
192,192,96193,1,0,3:0:0:0:
448,192,96349,1,0,0:0:0:0:
320,192,96349,1,0,0:0:0:0:
192,192,96505,1,8,0:0:0:0:
64,192,96505,1,0,0:0:0:0:
448,192,96661,128,0,96974:0:0:0:0:
320,192,96661,1,0,0:0:0:0:
64,192,96818,1,0,3:0:0:0:
192,192,96974,1,0,0:0:0:0:
320,192,97130,1,8,0:0:0:0:
64,192,97130,1,0,0:0:0:0:
448,192,97286,1,0,0:0:0:0:
64,192,97443,1,0,3:0:0:0:
192,192,97443,1,0,0:0:0:0:
320,192,97599,1,0,0:0:0:0:
192,192,97599,1,0,0:0:0:0:
64,192,97755,1,0,0:0:0:0:
448,192,97755,1,8,0:0:0:0:
448,192,97911,1,0,0:0:0:0:
192,192,97911,1,0,0:0:0:0:
64,192,98068,1,0,3:0:0:0:
320,192,98068,1,0,0:0:0:0:
448,192,98224,1,0,0:0:0:0:
64,192,98224,1,0,0:0:0:0:
192,192,98380,1,8,0:0:0:0:
320,192,98380,1,0,0:0:0:0:
448,192,98536,1,0,0:0:0:0:
320,192,98536,1,0,0:0:0:0:
64,192,98693,1,8,3:0:0:0:
192,192,98693,1,0,0:0:0:0:
192,192,98849,1,0,0:0:0:0:
64,192,98849,1,8,3:0:0:0:
320,192,99005,1,8,0:0:0:0:
448,192,99005,1,0,0:0:0:0:
192,192,99161,1,0,0:0:0:0:
64,192,99161,1,8,3:0:0:0:
448,192,99318,1,2,3:0:0:0:
320,192,99396,1,2,3:0:0:0:
64,192,99474,1,2,3:0:0:0:
192,192,99552,1,2,3:0:0:0:
320,192,99630,1,2,3:0:0:0:
448,192,99708,1,2,3:0:0:0:
192,192,99786,1,2,3:0:0:0:
64,192,99864,1,2,3:0:0:0:
320,192,99943,1,0,0:0:0:60:LR_Clap DS.wav
448,192,99943,128,0,101974:0:0:0:40:Finish.wav
64,192,100099,1,0,0:0:0:0:
192,192,100255,1,8,0:0:0:0:
320,192,100411,1,0,0:0:0:0:
64,192,100411,1,0,0:0:0:0:
192,192,100568,1,0,3:0:0:0:
64,192,100568,1,0,0:0:0:0:
192,192,100724,1,0,0:0:0:0:
320,192,100880,1,8,0:0:0:0:
192,192,101036,1,0,0:0:0:0:
64,192,101036,1,0,0:0:0:0:
320,192,101193,1,0,3:0:0:0:
64,192,101349,1,0,0:0:0:0:
192,192,101349,1,0,0:0:0:0:
320,192,101505,1,8,0:0:0:0:
64,192,101661,1,0,0:0:0:0:
192,192,101661,1,0,0:0:0:0:
192,192,101818,1,0,3:0:0:0:
320,192,101818,1,0,0:0:0:0:
64,192,101974,1,0,0:0:0:0:
320,192,101974,1,0,0:0:0:0:
192,192,102130,1,8,0:0:0:0:
448,192,102130,1,0,0:0:0:0:
64,192,102286,128,0,103224:0:0:0:0:
192,192,102286,1,0,0:0:0:0:
448,192,102443,1,0,0:0:0:0:
320,192,102443,1,0,3:0:0:0:
448,192,102599,1,0,0:0:0:0:
192,192,102755,1,8,0:0:0:0:
448,192,102911,1,0,0:0:0:0:
320,192,102911,1,0,0:0:0:0:
192,192,103068,1,0,0:0:0:0:
320,192,103068,1,0,3:0:0:0:
448,192,103224,1,0,0:0:0:0:
192,192,103224,1,0,0:0:0:0:
320,192,103380,1,8,0:0:0:0:
64,192,103380,1,0,0:0:0:0:
320,192,103536,128,0,103849:0:0:0:0:
448,192,103536,1,0,0:0:0:0:
64,192,103693,1,0,3:0:0:0:
192,192,103849,1,0,0:0:0:0:
448,192,103849,1,0,0:0:0:0:
320,192,104005,1,8,0:0:0:0:
64,192,104005,1,0,0:0:0:0:
192,192,104161,128,0,104474:0:0:0:0:
448,192,104161,1,0,0:0:0:0:
320,192,104318,1,0,3:0:0:0:
64,192,104474,1,0,0:0:0:0:
448,192,104474,1,0,0:0:0:0:
448,192,104630,1,0,3:0:0:0:
320,192,104630,1,8,0:0:0:0:
320,192,104786,1,0,3:0:0:0:
192,192,104786,1,0,0:0:0:0:
448,192,104943,128,0,106349:0:0:0:0:
64,192,104943,1,0,3:0:0:0:
192,192,105099,1,0,0:0:0:0:
320,192,105255,1,8,0:0:0:0:
192,192,105411,1,0,0:0:0:0:
64,192,105411,1,0,0:0:0:0:
320,192,105568,1,0,0:0:0:0:
192,192,105568,1,0,3:0:0:0:
320,192,105724,1,0,0:0:0:0:
64,192,105880,1,8,0:0:0:0:
192,192,106036,1,0,0:0:0:0:
320,192,106036,1,0,0:0:0:0:
64,192,106193,1,0,3:0:0:0:
192,192,106349,1,0,0:0:0:0:
320,192,106349,1,0,0:0:0:0:
64,192,106505,1,0,0:0:0:0:
192,192,106505,1,8,0:0:0:0:
448,192,106661,1,0,0:0:0:0:
320,192,106661,1,0,0:0:0:0:
64,192,106818,1,0,0:0:0:0:
320,192,106818,1,0,3:0:0:0:
192,192,106974,1,0,0:0:0:0:
448,192,107130,1,8,0:0:0:0:
320,192,107286,1,0,0:0:0:0:
64,192,107443,1,0,3:0:0:0:
192,192,107443,1,0,0:0:0:0:
192,192,107599,1,0,0:0:0:0:
448,192,107599,1,0,0:0:0:0:
320,192,107755,1,8,0:0:0:0:
64,192,107755,1,0,0:0:0:0:
448,192,107911,1,0,0:0:0:0:
320,192,107911,1,0,0:0:0:0:
192,192,108068,1,0,3:0:0:0:
64,192,108068,1,0,0:0:0:0:
448,192,108224,1,0,0:0:0:0:
192,192,108224,1,0,0:0:0:0:
448,192,108380,1,0,0:0:0:0:
64,192,108380,1,8,0:0:0:0:
192,192,108536,1,0,0:0:0:0:
320,192,108536,128,0,108849:0:0:0:0:
64,192,108849,1,0,0:0:0:0:
448,192,108849,1,0,0:0:0:0:
192,192,109005,1,8,0:0:0:0:
448,192,109005,1,0,0:0:0:0:
320,192,109161,1,0,0:0:0:0:
64,192,109161,1,0,0:0:0:0:
448,192,109318,1,0,0:0:0:0:
64,192,109318,1,0,3:0:0:0:
192,192,109474,1,0,0:0:0:0:
320,192,109474,1,0,0:0:0:0:
320,192,109630,1,8,0:0:0:0:
448,192,109630,1,0,0:0:0:0:
64,192,109786,1,0,0:0:0:0:
192,192,109786,1,0,0:0:0:0:
448,192,109943,1,0,0:0:0:0:
320,192,109943,1,0,3:0:0:0:
448,192,110099,1,0,0:0:0:0:
192,192,110099,1,0,0:0:0:0:
320,192,110255,1,0,0:0:0:0:
64,192,110255,1,8,0:0:0:0:
448,192,110411,1,0,0:0:0:0:
64,192,110411,1,0,0:0:0:0:
192,192,110568,1,0,3:0:0:0:
320,192,110568,1,0,0:0:0:0:
320,192,110724,1,0,0:0:0:0:
64,192,110724,1,0,0:0:0:0:
448,192,110880,1,8,0:0:0:0:
192,192,110880,1,0,0:0:0:0:
192,192,111036,128,0,111349:0:0:0:0:
64,192,111036,1,0,0:0:0:0:
448,192,111349,1,0,0:0:0:0:
320,192,111349,1,0,0:0:0:0:
448,192,111505,1,0,0:0:0:0:
192,192,111505,1,8,0:0:0:0:
320,192,111661,1,0,0:0:0:0:
64,192,111661,1,0,0:0:0:0:
320,192,111818,1,0,3:0:0:0:
448,192,111818,1,0,0:0:0:0:
192,192,111974,1,0,0:0:0:0:
64,192,111974,1,0,0:0:0:0:
192,192,112130,1,8,0:0:0:0:
448,192,112130,1,0,0:0:0:0:
320,192,112286,1,0,0:0:0:0:
64,192,112286,1,0,0:0:0:0:
448,192,112443,1,0,0:0:0:0:
192,192,112443,1,0,3:0:0:0:
192,192,112599,1,0,3:0:0:0:
320,192,112599,1,0,0:0:0:0:
64,192,112755,1,8,0:0:0:0:
448,192,112755,1,0,0:0:0:0:
64,192,112911,1,0,3:0:0:0:
192,192,112911,1,0,0:0:0:0:
320,192,113068,1,0,0:0:0:0:
448,192,113068,1,0,0:0:0:0:
320,192,113224,1,0,3:0:0:0:
64,192,113224,1,0,0:0:0:0:
448,192,113380,1,0,0:0:0:0:
192,192,113380,1,8,0:0:0:0:
448,192,113536,128,0,113849:3:0:0:0:
64,192,113536,1,0,0:0:0:0:
320,192,113849,1,0,0:0:0:0:
64,192,113849,1,0,3:0:0:0:
448,192,114005,1,0,0:0:0:0:
64,192,114005,1,8,0:0:0:0:
192,192,114161,1,0,3:0:0:0:
320,192,114161,1,0,0:0:0:0:
64,192,114318,1,0,0:0:0:0:
192,192,114318,1,0,0:0:0:0:
448,192,114474,1,0,0:0:0:0:
320,192,114474,1,0,3:0:0:0:
320,192,114630,1,8,0:0:0:0:
64,192,114630,1,0,0:0:0:0:
192,192,114786,1,0,3:0:0:0:
448,192,114786,1,0,0:0:0:0:
64,192,114943,1,0,3:0:0:0:
192,192,114943,1,0,0:0:0:0:
448,192,115099,1,0,0:0:0:0:
320,192,115099,1,0,3:0:0:0:
448,192,115255,1,8,0:0:0:0:
192,192,115255,1,0,0:0:0:0:
64,192,115411,1,0,3:0:0:0:
320,192,115411,1,0,0:0:0:0:
192,192,115568,1,0,0:0:0:0:
64,192,115568,1,0,3:0:0:0:
192,192,115724,1,0,3:0:0:0:
320,192,115724,1,0,0:0:0:0:
448,192,115880,1,0,3:0:0:0:
64,192,115880,1,8,0:0:0:0:
320,192,116036,1,0,3:0:0:0:
448,192,116036,1,0,0:0:0:0:
64,192,116661,128,0,119161:0:0:0:40:Finish.wav
192,192,116661,128,0,119161:0:0:0:60:LR_Clap DS.wav
448,192,116661,1,0,3:0:0:0:
