osu file format v14

[General]
AudioFilename: audio.mp3
AudioLeadIn: 0
PreviewTime: 65147
Countdown: 0
SampleSet: Soft
StackLeniency: 0.4
Mode: 0
LetterboxInBreaks: 0
WidescreenStoryboard: 1

[Editor]
Bookmarks: 688,12363,24039,34417,44796,55174,65552,75931,86309,91498,96687,107066,118904
DistanceSpacing: 0.5
BeatDivisor: 4
GridSize: 32
TimelineZoom: 2.599999

[Metadata]
Title:archive::zip
TitleUnicode:archive::zip
Artist:kamome sano
ArtistUnicode:kamome sano
Creator:Realazy
Version:Extra (#1)
Source:SOUND VOLTEX III GRAVITY WARS
Tags:agatsu niva axarious acylica hypercyte senseabel captin1 kkipalt ioexception deadcode pdc pdc2019 pending cup 2019 sdvx 3 ultimate tracks -floor anthem- ep.01 album konami original song bemani electronic instrumental video game
BeatmapID:2219878
BeatmapSetID:1060190

[Difficulty]
HPDrainRate:5
CircleSize:4.5
OverallDifficulty:9
ApproachRate:9.3
SliderMultiplier:2
SliderTickRate:1

[Events]
//Background and Video events
0,0,"archivezip.jpg",0,0
//Break Periods
2,86509,90944
//Storyboard Layer 0 (Background)
//Storyboard Layer 1 (Fail)
//Storyboard Layer 2 (Pass)
//Storyboard Layer 3 (Foreground)
//Storyboard Layer 4 (Overlay)
//Storyboard Sound Samples

[TimingPoints]
688,324.324324324324,4,2,0,30,1,0
688,-200,4,2,0,30,0,0
6201,-200,4,2,11,30,0,0
7255,-200,4,2,0,30,0,0
10904,-200,4,2,0,50,0,0
11066,-200,4,2,0,46,0,0
11228,-200,4,2,0,42,0,0
11390,-200,4,2,0,38,0,0
11552,-200,4,2,0,34,0,0
11715,-200,4,2,0,30,0,0
11877,-200,4,2,0,55,0,0
12363,-100,4,2,2,70,0,0
12850,-200,4,2,2,70,0,0
13174,-200,4,2,11,50,0,0
14633,-200,4,2,0,50,0,0
14958,-100,4,2,2,70,0,0
15444,-200,4,2,2,70,0,0
15769,-200,4,2,11,50,0,0
16742,-200,4,2,0,50,0,0
17552,-100,4,2,2,70,0,0
24039,-133.333333333333,4,2,1,50,0,0
32796,-100,4,2,4,50,0,0
32958,-250,4,2,1,50,0,0
33606,-100,4,2,1,50,0,0
34093,-80,4,2,3,60,0,0
34417,-100,4,2,1,60,0,0
36525,-133.333333333333,4,2,11,60,0,0
37174,-100,4,2,1,60,0,0
37985,-86.9565217391304,4,2,11,70,0,0
38471,-86.9565217391304,4,2,1,70,0,0
38633,-86.9565217391304,4,2,11,70,0,0
39120,-86.9565217391304,4,2,1,70,0,0
39282,-86.9565217391304,4,2,11,70,0,0
39931,-100,4,2,1,60,0,0
41715,-133.333333333333,4,2,11,60,0,0
42363,-100,4,2,1,60,0,0
43498,-200,4,2,2,60,0,0
44471,-80,4,2,3,60,0,0
44796,-66.6666666666667,4,2,1,80,0,0
45039,-66.6666666666667,4,2,1,5,0,0
45120,-66.6666666666667,4,2,1,80,0,0
45363,-66.6666666666667,4,2,1,5,0,0
45444,-133.333333333333,4,2,1,70,0,0
46093,-66.6666666666667,4,2,1,80,0,0
46417,-100,4,2,1,70,0,0
46579,-57.1428571428571,4,2,1,80,0,0
47066,-100,4,2,1,70,0,0
47390,-66.6666666666667,4,2,1,80,0,0
47633,-66.6666666666667,4,2,1,5,0,0
47715,-100,4,2,1,70,0,0
48039,-133.333333333333,4,2,1,70,0,0
48363,-100,4,2,1,70,0,0
49336,-50,4,2,1,80,0,0
49579,-50,4,2,1,5,0,0
49660,-50,4,2,1,80,0,0
49904,-50,4,2,1,5,0,0
49985,-50,4,2,1,80,0,0
50228,-50,4,2,1,5,0,0
50309,-66.6666666666667,4,2,1,80,0,0
50633,-133.333333333333,4,2,1,70,0,0
51282,-66.6666666666667,4,2,1,80,0,0
51606,-100,4,2,1,70,0,0
51769,-57.1428571428571,4,2,1,80,0,0
52255,-100,4,2,1,70,0,0
52579,-80,4,2,12,70,0,0
54363,-66.6666666666667,4,2,1,70,0,0
54850,-57.1428571428571,4,2,3,80,0,0
55174,-66.6666666666667,4,2,1,80,0,0
55823,-133.333333333333,4,2,1,70,0,0
56471,-66.6666666666667,4,2,1,80,0,0
57444,-100,4,2,1,70,0,0
57769,-66.6666666666667,4,2,1,80,0,0
58093,-133.333333333333,4,2,1,70,0,0
58417,-133.333333333333,4,2,21,70,0,0
59066,-133.333333333333,4,2,1,70,0,0
59715,-57.1428571428571,4,2,1,80,0,0
59958,-57.1428571428571,4,2,1,5,0,0
60039,-57.1428571428571,4,2,1,80,0,0
60282,-57.1428571428571,4,2,1,5,0,0
60363,-66.6666666666667,4,2,6,70,0,0
62309,-133.333333333333,4,2,1,70,0,0
62552,-133.333333333333,4,2,1,5,0,0
62633,-66.6666666666667,4,2,6,80,0,0
62958,-100,4,2,1,80,0,0
63931,-66.6666666666667,4,2,5,80,0,0
65228,-66.6666666666667,4,2,1,80,0,0
65552,-80,4,2,5,90,0,1
69931,-74.0740740740741,4,2,5,90,0,1
70742,-80,4,2,5,90,0,1
74877,-80,4,2,5,5,0,1
74958,-80,4,2,5,90,0,1
75120,-80,4,2,5,5,0,1
75201,-80,4,2,5,90,0,1
75282,-80,4,2,5,5,0,1
75363,-80,4,2,5,90,0,1
75444,-80,4,2,5,5,0,1
75606,-66.6666666666667,4,2,3,90,0,1
75931,-80,4,2,5,70,0,0
76255,-80,4,2,5,90,0,1
80309,-74.0740740740741,4,2,5,90,0,1
81120,-68.9655172413793,4,2,6,90,0,1
84363,-64.5161290322581,4,2,6,90,0,1
84687,-60.6060606060606,4,2,6,90,0,1
86309,-133.333333333333,4,2,2,70,0,0
95390,-399.999999999997,4,2,5,70,0,0
96687,-133.333333333333,4,2,0,70,0,0
97985,-80,4,2,5,90,0,1
101066,-68.9655172413793,4,2,5,90,0,1
101877,-80,4,2,5,90,0,1
106255,-100,4,2,5,90,0,1
106498,-133.333333333333,4,2,5,90,0,1
106742,-57.1428571428571,4,2,3,90,0,0
106985,-57.1428571428571,4,2,3,5,0,0
107066,-100,4,2,5,90,0,0
107390,-74.0740740740741,4,2,5,95,0,1
111444,-62.5,4,2,5,95,0,1
112255,-66.6666666666667,4,2,6,95,0,1
116147,-80,4,2,5,100,0,1
117363,-71.4285714285714,4,2,5,90,0,0
117525,-66.6666666666667,4,2,5,100,0,1
117606,-71.4285714285714,4,2,5,100,0,0
117687,-71.4285714285714,4,2,5,5,0,0
117769,-66.6666666666667,4,2,5,100,0,1
117850,-71.4285714285714,4,2,5,100,0,0
117931,-71.4285714285714,4,2,5,5,0,0
118012,-66.6666666666667,4,2,5,100,0,1
118093,-71.4285714285714,4,2,5,100,0,0
118174,-71.4285714285714,4,2,5,5,0,0
118255,-66.6666666666667,4,2,5,100,0,1
118336,-71.4285714285714,4,2,5,100,0,0
118417,-71.4285714285714,4,2,5,5,0,0
118579,-57.1428571428571,4,2,5,100,0,1
118660,-71.4285714285714,4,2,5,100,0,0
118904,-71.4285714285714,4,2,5,5,0,0

[Colours]
Combo1 : 248,228,118
Combo2 : 209,171,235
Combo3 : 171,231,175
Combo4 : 255,64,64
Combo5 : 216,65,254
Combo6 : 118,186,254
Combo7 : 237,116,191
Combo8 : 248,179,109

[HitObjects]
274,167,1013,5,2,0:0:0:0:
264,190,1337,1,2,0:0:0:0:
241,181,1661,1,2,0:0:0:0:
249,157,1985,6,0,P|276:251|242:343,1,200,2|8,1:2|0:0,0:0:0:0:
297,290,2796,1,2,0:0:0:0:
371,311,2958,1,2,0:0:0:0:
445,332,3120,2,0,P|492:237|387:231,1,250,2|8,0:0|0:0,0:0:0:0:
387,231,4255,1,2,0:0:0:0:
425,166,4417,1,2,0:0:0:0:
355,79,4579,102,0,B|303:66|261:100|261:100|220:135|167:122,1,200,2|8,0:0|0:0,0:0:0:0:
120,60,5390,1,2,0:0:0:0:
90,133,5552,1,2,0:0:0:0:
43,72,5715,2,0,P|13:138|51:199,1,150,2|2,0:0|0:0,0:0:0:0:
70,204,6525,1,10,0:0:0:0:
92,205,6850,1,2,0:0:0:0:
115,201,7174,6,0,B|172:241|172:241|145:368,1,200,2|8,0:0|0:0,0:0:0:0:
85,315,7985,1,2,0:0:0:0:
162,292,8147,1,2,0:0:0:0:
223,345,8309,2,0,P|333:327|307:219,1,250,2|8,0:0|0:0,0:0:0:0:
307,219,9444,1,2,0:0:0:0:
271,286,9606,1,2,0:0:0:0:
390,373,9769,102,0,B|488:350|488:350|471:251,1,200,2|8,0:0|0:0,0:0:0:0:
420,194,10579,1,2,0:0:0:0:
469,135,10742,1,2,0:0:0:0:
404,80,10904,101,2,0:0:0:0:
404,80,10985,1,2,0:0:0:0:
404,80,11066,1,2,0:0:0:0:
392,90,11147,1,2,0:0:0:0:
370,102,11228,1,2,0:0:0:0:
335,106,11309,1,2,0:0:0:0:
292,90,11390,1,2,0:0:0:0:
253,76,11471,1,2,0:0:0:0:
216,83,11552,1,2,0:0:0:0:
190,104,11633,1,2,0:0:0:0:
177,131,11715,1,2,0:0:0:0:
175,157,11796,1,2,0:0:0:0:
181,178,11877,69,2,0:0:0:0:
226,244,12039,1,2,0:0:0:0:
192,317,12201,1,2,0:0:0:0:
95,333,12363,86,0,L|46:325,1,50,8|0,0:1|0:0,0:0:0:0:
79,236,12525,2,0,L|30:228,1,50,8|0,0:1|0:0,0:0:0:0:
192,317,12687,1,8,0:0:0:0:
226,244,12850,2,0,L|233:220,3,25,2|2|2|2,0:3|0:3|0:3|0:3,0:0:0:0:
241,267,13174,85,2,0:0:0:0:
335,237,13336,1,2,0:0:0:0:
382,150,13498,1,2,0:0:0:0:
382,150,14633,1,2,0:0:0:0:
335,237,14795,1,2,0:0:0:0:
449,318,14958,22,0,L|498:326,1,50,8|0,0:1|0:0,0:0:0:0:
433,221,15120,2,0,L|482:229,1,50,8|0,0:1|0:0,0:0:0:0:
350,333,15282,1,8,0:0:0:0:
238,261,15444,2,0,L|213:265,3,25,2|2|2|2,0:3|0:3|0:3|0:3,0:0:0:0:
189,285,15769,85,2,0:0:0:0:
157,87,15931,1,2,0:0:0:0:
173,186,16093,1,2,0:0:0:0:
173,186,16742,1,2,0:0:0:0:
157,87,16904,1,2,0:0:0:0:
189,285,17066,1,2,0:0:0:0:
173,186,17228,1,2,0:0:0:0:
205,384,17390,1,2,0:0:0:0:
68,157,17552,22,0,L|83:204,1,50,8|0,0:1|0:0,0:0:0:0:
263,126,17715,2,0,L|262:175,1,50,8|0,0:1|0:0,0:0:0:0:
157,87,17877,1,8,0:0:0:0:
60,164,18201,6,0,L|77:216,1,50,8|0,0:1|0:0,0:0:0:0:
274,129,18363,2,0,L|273:183,1,50,8|0,0:1|0:0,0:0:0:0:
157,87,18526,1,8,0:0:0:0:
52,171,18850,102,0,L|69:223,1,50,8|0,0:1|0:0,0:0:0:0:
285,132,19012,2,0,L|284:186,1,50,8|0,0:1|0:0,0:0:0:0:
157,87,19174,1,8,0:0:0:0:
44,178,19498,6,0,L|61:230,1,50,8|0,0:1|0:0,0:0:0:0:
296,135,19660,2,0,L|295:189,1,50,8|0,0:1|0:0,0:0:0:0:
157,87,19823,1,8,0:0:0:0:
36,185,20147,102,8,L|51:232,1,50,8|0,0:1|0:1,0:1:0:0:
307,138,20309,2,8,L|306:192,1,50,8|0,0:1|0:1,0:1:0:0:
157,87,20471,6,8,L|164:135,1,50,8|0,0:1|0:1,0:1:0:0:
432,82,20633,2,8,L|427:106,2,25,8|8|8,0:1|0:1|0:1,0:1:0:0:
422,63,20796,101,8,0:1:0:0:
410,111,20877,1,8,0:1:0:0:
399,159,20958,1,8,0:1:0:0:
445,239,21120,1,8,0:1:0:0:
369,371,21282,6,8,L|343:366,2,25,8|8|8,0:1|0:1|0:1,0:1:0:0:
393,354,21444,101,8,0:1:0:0:
344,345,21526,1,8,0:1:0:0:
295,337,21606,1,8,0:1:0:0:
246,328,21687,1,8,0:1:0:0:
197,320,21769,2,8,L|181:325,6,16.6666666666667,8|8|8|8|8|8|8,0:1|0:1|0:1|0:1|0:1|0:1|0:1,0:1:0:0:
263,243,22012,1,8,0:1:0:0:
263,243,22093,6,8,L|261:230,4,12.5,8|8|8|8|8,0:1|0:1|0:1|0:1|0:1,0:1:0:0:
192,189,22255,2,8,L|196:177,4,12.5,8|8|8|8|8,0:1|0:1|0:1|0:1|0:1,0:1:0:0:
157,106,22417,2,8,L|166:98,16,12.5,8|8|8|8|8|8|8|8|8|8|8|8|8|8|8|8|8,0:1|0:1|0:1|0:1|0:1|0:1|0:1|0:1|0:1|0:1|0:1|0:1|0:1|0:1|0:1|0:1|0:1,0:1:0:0:
157,106,24039,5,0,1:0:0:0:
157,106,24201,1,2,0:0:0:0:
35,179,24363,1,2,1:2:0:0:
35,179,24444,1,2,0:0:0:0:
35,179,24525,2,0,P|71:177|105:159,2,75.0000028610231,2|0|0,0:0|1:0|0:0,0:0:0:0:
129,31,25012,1,2,1:2:0:0:
129,31,25174,2,0,L|203:40,2,75.0000028610231,2|0|0,0:0|1:0|0:0,0:0:0:0:
218,159,25660,1,2,1:2:0:0:
218,159,25822,2,0,P|250:141|287:139,2,75.0000028610231,2|0|0,0:0|1:0|0:0,0:0:0:0:
151,230,26309,1,0,1:0:0:0:
151,230,26633,1,0,1:0:0:0:
239,311,26796,53,2,0:0:0:0:
139,384,26958,1,2,1:2:0:0:
139,384,27039,1,2,0:0:0:0:
139,384,27120,2,0,L|65:370,1,75.0000028610231,2|0,0:0|1:0,0:0:0:0:
239,311,27444,1,2,0:0:0:0:
331,370,27606,1,2,1:2:0:0:
331,370,27769,2,0,P|347:337|349:300,2,75.0000028610231,2|0|0,0:0|1:0|0:0,0:0:0:0:
327,206,28255,1,2,1:2:0:0:
420,245,28417,2,0,P|436:279|439:316,1,75.0000028610231,2|0,0:0|1:0,0:0:0:0:
409,145,28742,53,2,0:0:0:0:
502,184,28904,1,2,1:2:0:0:
327,206,29066,2,0,L|253:193,1,75.0000028610231,2|0,0:0|1:0,0:0:0:0:
253,193,29552,53,2,1:2:0:0:
193,121,29715,2,0,B|163:144|163:144|125:147,2,75.0000028610231,2|0|0,0:0|1:0|0:0,0:0:0:0:
263,202,30201,1,2,1:2:0:0:
230,289,30363,2,0,P|222:325|228:362,2,75.0000028610231,2|0|0,0:0|1:0|0:0,0:0:0:0:
267,188,30850,1,2,1:2:0:0:
359,173,31012,2,0,L|432:190,2,75.0000028610231,2|0|0,0:0|1:0|0:0,0:0:0:0:
251,90,31498,53,2,1:2:0:0:
267,188,31660,1,0,0:0:0:0:
231,71,31823,1,2,1:2:0:0:
247,169,31985,1,0,0:0:0:0:
192,250,32147,1,2,1:2:0:0:
98,243,32309,69,8,0:3:0:0:
168,271,32471,1,8,1:3:0:0:
207,334,32633,1,4,0:3:0:0:
380,97,32796,70,0,L|386:146,1,50,8|0,0:0|0:0,0:0:0:0:
366,217,32958,2,2,L|380:97,1,120,6|0,1:0|0:0,0:1:0:0:
261,260,33606,6,2,L|279:111,1,150,2|0,1:0|0:0,0:1:0:0:
279,111,33931,1,0,1:0:0:0:
401,357,34093,38,0,B|445:321|445:321|316:345,1,187.5,8|0,1:2|0:0,1:0:0:0:
225,360,34417,21,0,1:0:0:0:
185,239,34579,1,2,0:0:0:0:
232,367,34742,1,2,1:2:0:0:
232,367,34823,1,2,0:0:0:0:
232,367,34904,2,0,L|251:268,2,100,2|0|2,0:0|1:0|0:3,0:0:0:0:
173,223,35390,5,2,1:2:0:0:
316,345,35552,2,0,L|335:246,2,100,2|0|2,0:0|1:0|0:3,0:0:0:0:
395,147,36039,101,2,1:2:0:0:
250,268,36201,2,0,L|230:169,1,100,2|0,0:0|1:0,0:0:0:0:
68,58,36525,53,2,0:0:0:0:
135,92,36687,1,2,1:2:0:0:
69,129,36850,2,2,P|58:93|68:58,1,75.0000028610231,2|0,0:0|1:0,0:0:0:0:
135,242,37174,53,2,0:0:0:0:
0,352,37336,1,2,1:2:0:0:
0,352,37417,1,2,0:0:0:0:
0,352,37498,2,0,P|49:350|92:325,1,100,2|0,0:0|1:0,0:0:0:0:
222,222,37823,1,2,0:0:0:0:
368,291,37985,54,0,P|369:319|377:346,1,57.5000010967255,2|0,1:2|0:0,0:0:0:0:
316,390,38147,2,0,P|294:338|292:281,2,115.000002193451,2|0|0,0:0|1:0|0:0,0:0:0:0:
436,180,38633,6,0,P|435:208|427:235,1,57.5000010967255,2|0,1:2|0:0,0:0:0:0:
488,279,38795,2,0,P|510:226|512:169,1,115.000002193451,2|0,0:0|1:0,0:0:0:0:
377,346,39120,101,2,0:0:0:0:
427,235,39282,1,2,1:2:0:0:
377,124,39444,1,2,1:2:0:0:
427,13,39606,1,0,1:0:0:0:
427,13,39931,53,2,1:2:0:0:
316,27,40093,2,0,P|267:23|223:0,2,100,2|0|2,0:0|1:0|0:3,0:0:0:0:
320,168,40579,5,2,1:2:0:0:
220,116,40741,2,0,P|172:102|123:109,2,100,2|0|2,0:0|1:0|0:3,0:0:0:0:
220,221,41228,101,2,1:2:0:0:
320,168,41390,2,0,P|367:154|416:160,1,100,2|0,0:0|1:0,0:0:0:0:
375,334,41715,53,2,0:0:0:0:
442,301,41877,1,2,1:2:0:0:
488,242,42039,2,0,P|502:207|501:170,1,75.0000028610231,2|0,0:0|1:0,0:0:0:0:
375,334,42363,53,2,0:0:0:0:
211,302,42525,1,2,1:2:0:0:
285,369,42687,1,2,0:0:0:0:
285,369,42850,1,2,1:2:0:0:
301,267,43012,5,2,0:0:0:0:
152,379,43174,1,2,1:2:0:0:
41,244,43336,1,2,0:0:0:0:
122,286,43498,5,8,0:1:0:0:
122,286,43660,1,8,0:1:0:0:
68,335,43823,2,0,L|43:329,1,25,8|0,0:0|0:0,0:0:0:0:
207,266,43985,5,8,0:1:0:0:
207,266,44147,1,8,0:1:0:0:
68,335,44309,2,0,L|43:329,1,25,8|0,0:0|0:0,0:0:0:0:
335,291,44471,38,0,P|253:261|262:175,1,187.5,8|0,1:2|0:0,0:0:0:0:
262,175,44796,6,2,B|292:236|292:236|137:209,1,225.000008583069,6|0,1:0|0:0,0:1:0:0:
226,106,45120,2,2,B|71:79|71:79|101:140,1,225.000008583069,2|0,1:0|0:0,0:1:0:0:
377,125,45444,38,0,P|384:108|386:90,1,37.5000014305115,0|0,1:0|0:0,0:0:0:0:
318,71,45606,2,0,P|310:88|309:106,1,37.5000014305115
456,211,45769,37,2,1:2:0:0:
460,202,45850,1,2,0:0:0:0:
456,194,45931,1,2,0:0:0:0:
460,185,46012,1,2,0:0:0:0:
512,259,46093,6,2,B|403:248|403:248|406:253|406:253|295:243,1,225.000008583069,2|0,1:0|0:0,0:1:0:0:
307,261,46417,2,0,B|356:265,1,50,0|0,1:0|0:0,0:0:0:0:
309,106,46579,6,2,B|224:113|224:113|226:109|226:109|140:117,2,175.00000166893,2|0|2,0:1|1:0|0:0,0:1:0:0:
59,286,47066,5,2,1:2:0:0:
47,277,47147,2,0,P|24:266|-1:262,1,50,2|0,0:0|0:0,0:0:0:0:
108,347,47309,1,2,0:0:0:0:
168,296,47390,86,2,B|208:261|289:267|317:331|262:388|218:358,1,225.000008583069,2|0,1:0|0:0,0:1:0:0:
120,235,47715,53,0,1:0:0:0:
120,235,47796,2,0,B|111:135,1,100,2|0,0:0|0:0,0:0:0:0:
50,62,48039,38,0,B|35:52|35:52|16:53,1,37.5000014305115,0|0,1:0|0:0,0:0:0:0:
12,64,48201,2,0,B|27:73|27:73|46:73,1,37.5000014305115
213,121,48363,70,0,P|252:90|302:85,1,100,2|0,1:2|0:0,0:0:0:0:
380,177,48606,1,2,0:0:0:0:
380,177,48687,101,2,0:0:0:0:
357,201,48742,1,2,0:0:0:0:
346,229,48796,1,2,0:0:0:0:
345,255,48850,2,0,L|350:287,2,33.3333333333333,2|0|0,0:0|0:0|0:0,0:0:0:0:
392,378,49012,37,2,0:0:0:0:
406,383,49066,1,2,0:0:0:0:
427,382,49120,1,2,0:0:0:0:
447,372,49174,1,2,0:0:0:0:
461,350,49228,1,2,0:0:0:0:
462,321,49282,1,2,0:0:0:0:
443,295,49336,22,2,B|348:286|348:286|289:362|289:362|181:352,1,300,6|0,1:0|0:2,0:1:0:0:
91,236,49660,2,2,B|198:245|198:245|257:169|257:169|352:178,1,300,2|0,1:1|0:0,0:1:0:0:
505,49,49985,6,2,B|414:1|414:1|452:194,1,300,2|0,1:1|0:0,0:1:0:0:
498,60,50309,2,0,B|429:23|429:23|458:168,1,225.000008583069,2|0,1:2|0:0,0:0:0:0:
469,381,50633,38,0,L|505:373,1,37.5000014305115,0|0,1:0|0:0,0:0:0:0:
512,357,50796,2,0,L|475:364,1,37.5000014305115
274,284,50958,37,2,1:2:0:0:
262,285,51039,1,2,0:0:0:0:
251,286,51120,1,2,0:0:0:0:
240,287,51201,1,2,0:0:0:0:
314,347,51282,6,2,B|308:261|308:261|342:216|342:216|337:133,1,225.000008583069,2|0,1:0|0:0,0:1:0:0:
323,145,51606,2,0,L|326:194,1,50,0|0,1:0|0:0,0:0:0:0:
470,57,51769,6,2,B|403:61|403:61|368:35|368:35|305:39,2,175.00000166893,2|0|2,0:1|1:0|0:0,0:1:0:0:
344,255,52255,5,2,0:0:0:0:
336,242,52336,2,0,P|326:218|326:194,1,50,2|0,0:0|0:0,0:0:0:0:
401,303,52498,1,2,0:0:0:0:
337,347,52579,54,0,P|306:342|279:325,1,62.5,2|0,1:2|0:0,0:0:0:0:
202,336,52742,2,0,P|183:310|176:280,1,62.5,2|0,0:0|0:0,0:0:0:0:
115,232,52904,2,0,P|119:201|136:174,1,62.5,2|0,1:2|0:0,0:0:0:0:
126,96,53066,2,0,P|151:77|181:70,2,62.5,2|0|0,0:0|0:0|1:0,0:0:0:0:
126,96,53552,70,0,P|151:77|181:70,1,62.5,2|0,1:2|0:0,0:0:0:0:
229,9,53715,2,0,P|259:13|286:30,1,62.5,2|0,0:0|0:0,0:0:0:0:
365,21,53877,2,0,P|383:46|390:76,1,62.5,2|0,1:2|0:0,0:0:0:0:
235,0,54039,2,0,P|265:6|290:24,1,62.5,2|0,0:0|0:0,0:0:0:0:
375,18,54201,2,0,P|391:43|397:74,1,62.5,2|0,1:2|0:0,0:0:0:0:
373,272,54363,102,0,L|361:236,2,37.5000014305115,2|2|2,0:0|0:0|0:0,0:0:0:0:
306,136,54525,2,0,L|298:172,2,37.5000014305115,2|2|2,1:2|0:0|0:0,0:0:0:0:
261,281,54687,2,0,L|249:245,2,37.5000014305115,2|2|2,0:0|0:0|0:0,0:0:0:0:
175,217,54850,86,0,L|436:195,1,262.500002503395,8|0,1:2|0:0,0:0:0:0:
486,1,55174,54,0,P|455:23|431:51,1,75.0000028610231,2|0,1:0|0:0,0:0:0:0:
414,124,55336,2,0,P|420:160|436:194,1,75.0000028610231,2|0,0:3|0:0,0:0:0:0:
486,1,55498,22,0,P|501:34|508:71,1,75.0000028610231,2|0,1:0|0:0,0:0:0:0:
491,144,55660,2,0,P|467:172|436:194,1,75.0000028610231,2|0,0:3|0:0,0:0:0:0:
261,281,55823,86,0,P|242:278|225:271,1,37.5000014305115,0|0,1:0|0:0,0:0:0:0:
228,259,55985,2,0,P|246:261|263:268,1,37.5000014305115,2|0,0:3|0:0,0:0:0:0:
402,318,56147,21,2,1:2:0:0:
408,316,56228,1,2,0:0:0:0:
415,315,56309,1,2,0:0:0:0:
422,313,56391,1,2,0:0:0:0:
336,276,56472,22,2,B|339:315|304:340|304:340|346:348|361:385,2,150.000005722046,2|2|0,1:0|0:3|1:0,0:1:0:0:
489,355,56958,2,2,B|485:315|520:290|520:290|478:282|463:245,2,150.000005722046,2|0|2,0:1|1:0|0:0,0:1:0:0:
347,162,57444,21,2,0:0:0:0:
360,156,57525,2,0,P|384:150|409:149,1,50,2|2,0:0|0:3,0:0:0:0:
290,211,57687,1,2,0:0:0:0:
232,164,57769,86,0,L|159:178,1,75.0000028610231,2|0,1:0|0:0,0:0:0:0:
84,192,57931,2,0,L|11:206,1,75.0000028610231,2|0,0:3|0:0,0:0:0:0:
97,86,58093,21,2,1:2:0:0:
97,86,58174,2,0,P|105:102|108:120,1,37.5000014305115,2|2,0:0|0:3,0:0:0:0:
142,308,58336,1,2,0:0:0:0:
142,308,58417,54,0,L|124:301,1,18.7500007152558,2|0,3:2|0:0,0:0:0:0:
232,338,58579,2,0,L|214:331,1,18.7500007152558,2|0,3:2|0:0,0:0:0:0:
58,354,58742,2,0,L|40:347,1,18.7500007152558,0|0,3:0|0:0,0:0:0:0:
148,384,58904,2,0,L|130:377,1,18.7500007152558,2|0,3:2|0:0,0:0:0:0:
329,251,59066,85,2,1:2:0:0:
332,235,59147,1,2,0:0:0:0:
331,220,59228,1,2,0:0:0:0:
325,205,59309,1,2,0:0:0:0:
251,216,59390,1,2,1:2:0:0:
248,232,59471,1,2,0:0:0:0:
249,247,59552,1,2,0:0:0:0:
255,262,59633,1,2,0:0:0:0:
278,144,59715,54,2,B|244:93|176:77|117:116|117:116|163:122|185:156,1,262.500002503395,6|2,1:1|0:1,0:1:0:0:
332,77,60039,2,2,B|365:26|433:10|492:49|492:49|446:55|424:89,1,262.500002503395,6|0,1:0|0:0,0:1:0:0:
232,5,60362,53,8,1:2:0:0:
234,16,60525,1,2,0:3:0:0:
363,174,60687,21,8,1:2:0:0:
361,185,60850,1,2,0:3:0:0:
232,5,61012,85,10,1:2:0:0:
163,42,61120,1,2,0:0:0:0:
89,22,61228,1,2,0:0:0:0:
118,113,61336,101,10,1:2:0:0:
42,89,61444,1,2,0:0:0:0:
4,23,61552,1,2,0:0:0:0:
132,133,61660,102,0,B|156:127|156:127|148:137,2,37.5000014305115,10|2|2,1:2|0:0|0:0,0:0:0:0:
52,189,61823,2,0,B|28:183|28:183|35:193,2,37.5000014305115,10|2|2,0:0|0:0|0:0,0:0:0:0:
180,211,61985,2,0,B|204:205|204:205|196:215,2,37.5000014305115,10|2|2,1:2|0:0|0:0,0:0:0:0:
26,271,62147,2,0,B|2:265|2:265|10:275,2,37.5000014305115,10|2|2,0:0|0:0|0:0,0:0:0:0:
145,355,62309,70,0,P|125:321|137:359,1,112.500004291535,2|0,0:0|0:0,0:0:0:0:
136,344,62633,6,2,P|243:313|355:307,1,225.000008583069,10|0,1:0|0:0,1:0:0:0:
428,168,62958,53,2,1:2:0:0:
417,152,63039,1,2,1:2:0:0:
398,130,63120,1,2,1:2:0:0:
371,106,63201,1,2,1:2:0:0:
335,81,63282,1,2,1:2:0:0:
287,62,63363,1,2,1:2:0:0:
228,51,63444,1,2,1:2:0:0:
161,55,63525,1,2,1:2:0:0:
90,81,63606,22,0,L|65:95,1,25,0|0,1:0|0:0,0:0:0:0:
68,93,63931,38,0,P|155:64|133:154,1,225.000008583069,8|0,0:0|0:0,0:0:0:0:
16,265,64255,85,8,0:3:0:0:
45,260,64336,1,8,0:3:0:0:
75,256,64417,1,8,0:3:0:0:
105,252,64498,1,8,0:3:0:0:
134,248,64579,1,8,0:3:0:0:
223,236,64742,1,8,0:3:0:0:
246,232,64823,1,8,0:3:0:0:
270,228,64904,1,8,0:3:0:0:
294,225,64985,1,8,0:3:0:0:
317,222,65066,1,8,0:3:0:0:
490,119,65228,53,10,0:0:0:0:
480,74,65309,1,2,0:0:0:0:
434,69,65390,1,2,0:0:0:0:
411,108,65471,1,2,0:0:0:0:
443,142,65552,6,0,P|461:200|436:256,1,125,6|0,1:2|0:0,0:0:0:0:
478,331,65796,1,2,0:0:0:0:
478,331,65877,2,0,P|427:296|365:298,1,125,10|0,1:2|0:0,0:0:0:0:
223,236,66201,6,0,L|162:251,1,62.5,2|0,1:2|0:0,0:0:0:0:
288,149,66363,1,2,0:0:0:0:
310,154,66444,2,0,L|370:169,1,62.5,2|8,0:0|1:2,0:0:0:0:
209,81,66606,101,2,0:0:0:0:
176,65,66687,1,2,0:0:0:0:
191,34,66769,1,2,0:0:0:0:
223,48,66850,6,0,P|164:68|103:59,1,125,2|0,1:2|0:0,0:0:0:0:
92,46,67093,1,2,0:0:0:0:
29,93,67174,2,0,P|38:149|93:140,1,125,10|0,1:2|0:0,0:0:0:0:
36,302,67498,102,0,L|24:364,1,62.5,2|0,1:2|0:0,0:0:0:0:
141,255,67660,1,2,0:0:0:0:
138,272,67742,2,0,L|125:333,1,62.5,2|8,0:0|1:2,0:0:0:0:
259,373,67904,5,2,0:0:0:0:
295,375,67985,1,2,0:0:0:0:
328,359,68066,1,2,0:0:0:0:
348,327,68147,102,0,L|338:203,1,125,2|0,1:2|0:0,0:0:0:0:
323,200,68390,1,2,0:0:0:0:
370,138,68471,2,0,B|407:162|407:162|414:243,1,125,10|0,1:2|0:0,0:0:0:0:
271,127,68796,6,0,P|242:140|212:143,1,62.5,2|0,1:2|0:0,0:0:0:0:
292,21,68958,1,2,0:0:0:0:
275,34,69039,2,0,P|253:56|225:69,1,62.5,2|8,0:0|1:2,0:0:0:0:
19,99,69201,101,2,0:0:0:0:
38,67,69282,1,2,0:0:0:0:
69,47,69363,1,2,0:0:0:0:
107,43,69444,6,0,L|85:166,1,125,2|0,1:2|0:0,0:0:0:0:
96,177,69687,1,2,0:0:0:0:
29,219,69769,1,10,0:0:0:0:
133,334,69931,69,2,0:0:0:0:
170,357,70012,1,2,0:0:0:0:
206,338,70093,5,2,1:2:0:0:
249,339,70174,1,2,0:0:0:0:
270,306,70255,37,2,0:0:0:0:
310,284,70336,1,2,0:0:0:0:
310,245,70417,6,0,P|342:255|369:273,1,67.5000002574921,10|0,1:2|0:0,0:0:0:0:
445,261,70579,2,0,P|467:285|482:314,1,67.5000002574921,0|0,1:0|0:0,0:0:0:0:
402,168,70742,70,0,P|354:130|352:70,1,125,2|0,1:2|0:0,0:0:0:0:
338,73,70985,1,2,0:0:0:0:
381,7,71066,2,0,P|437:4|435:60,1,125,10|0,1:2|0:0,0:0:0:0:
268,21,71390,6,0,L|206:12,1,62.5,2|0,1:2|0:0,0:0:0:0:
58,85,71552,1,2,0:0:0:0:
73,82,71633,2,0,L|134:73,1,62.5,2|8,0:0|1:2,0:0:0:0:
262,184,71796,101,2,0:0:0:0:
233,207,71877,1,2,0:0:0:0:
210,178,71958,1,2,0:0:0:0:
239,154,72039,6,0,L|224:278,1,125,2|0,1:2|0:0,0:0:0:0:
232,292,72282,1,2,0:0:0:0:
162,321,72363,2,0,P|102:313|58:354,1,125,10|0,1:2|0:0,0:0:0:0:
363,368,72687,102,0,B|351:340|351:340|355:308,1,62.5,2|0,1:2|0:0,0:0:0:0:
468,225,72850,1,2,0:0:0:0:
474,237,72931,2,0,B|486:265|486:265|481:296,1,62.5,2|8,0:0|1:2,0:0:0:0:
345,196,73093,5,2,0:0:0:0:
320,168,73174,1,2,0:0:0:0:
316,131,73255,1,2,0:0:0:0:
337,101,73336,102,0,L|459:123,1,125,2|0,1:2|0:0,0:0:0:0:
472,118,73579,1,2,0:0:0:0:
446,48,73660,2,0,L|322:25,1,125,10|0,1:2|0:0,0:0:0:0:
16,164,73985,6,0,P|2:135|3:104,1,62.5,2|0,1:2|0:0,0:0:0:0:
91,63,74147,1,2,0:0:0:0:
97,72,74228,1,2,0:0:0:0:
103,83,74309,2,2,P|116:111|115:142,1,62.5,10|0,1:2|0:0,0:0:0:0:
171,216,74471,2,2,P|160:244|137:266,1,62.5,0|0,1:0|0:0,0:0:0:0:
137,267,74715,70,0,L|260:248,1,125,0|0,1:0|0:0,0:0:0:0:
204,298,74958,2,0,L|327:279,1,125,0|0,1:0|0:0,0:0:0:0:
272,327,75201,6,0,L|333:317,1,62.5,0|0,1:0|0:0,0:0:0:0:
349,315,75363,2,0,L|410:305,1,62.5,0|0,1:0|0:0,0:0:0:0:
411,305,75606,70,0,L|377:82,1,225.000008583069,8|0,1:2|0:0,0:0:0:0:
447,4,75931,101,0,1:0:0:0:
439,31,76012,1,0,1:0:0:0:
463,11,76093,1,8,0:3:0:0:
455,39,76174,1,4,0:3:0:0:
377,82,76255,70,0,L|254:57,1,125,14|0,1:2|0:0,0:0:0:0:
5,157,76579,6,0,P|32:143|63:140,1,62.5,2|0,1:2|0:0,0:0:0:0:
88,42,76742,1,2,0:0:0:0:
101,43,76823,2,0,P|130:52|154:72,1,62.5,2|8,0:0|1:2,0:0:0:0:
222,133,76985,101,2,0:0:0:0:
214,169,77066,1,2,0:0:0:0:
206,206,77147,1,2,0:0:0:0:
198,243,77228,6,0,P|152:283|92:277,1,125,2|0,1:2|0:0,0:0:0:0:
78,287,77471,1,2,0:0:0:0:
96,358,77552,2,0,P|158:359|215:336,1,125,10|0,1:2|0:0,0:0:0:0:
358,384,77877,102,0,P|364:353|362:322,1,62.5,2|0,1:2|0:0,0:0:0:0:
287,254,78039,1,2,0:0:0:0:
283,243,78120,2,0,P|276:213|278:182,1,62.5,2|8,0:0|1:2,0:0:0:0:
404,10,78282,5,2,0:0:0:0:
435,28,78363,1,2,0:0:0:0:
451,61,78444,1,2,0:0:0:0:
443,97,78525,102,0,B|318:110,1,125,2|0,1:2|0:0,0:0:0:0:
326,122,78769,1,2,0:0:0:0:
278,181,78850,2,0,P|236:136|175:129,1,125,10|0,1:2|0:0,0:0:0:0:
10,30,79174,6,0,L|21:91,1,62.5,2|0,1:2|0:0,0:0:0:0:
88,0,79336,1,2,0:0:0:0:
90,10,79417,2,0,L|101:71,1,62.5,2|8,0:0|1:2,0:0:0:0:
131,221,79579,101,2,0:0:0:0:
108,191,79660,1,2,0:0:0:0:
73,179,79741,1,2,0:0:0:0:
37,188,79823,6,0,L|59:310,1,125,2|0,1:2|0:0,0:0:0:0:
71,321,80066,1,2,0:0:0:0:
12,369,80147,1,8,0:0:0:0:
215,322,80309,69,2,0:0:0:0:
251,301,80390,1,2,0:0:0:0:
287,320,80471,5,2,1:2:0:0:
328,309,80552,1,2,0:0:0:0:
358,336,80633,37,2,0:0:0:0:
399,336,80714,1,2,0:0:0:0:
424,368,80796,6,0,P|449:347|463:317,1,67.5000002574921,10|0,1:2|0:0,0:0:0:0:
495,229,80958,2,0,P|498:195|487:164,1,67.5000002574921,0|0,1:0|0:0,0:0:0:0:
421,70,81120,38,0,L|278:89,1,145.000004425049,2|0,1:2|0:0,0:0:0:0:
225,135,81363,1,2,0:0:0:0:
166,176,81444,2,0,L|23:157,1,145.000004425049,10|0,1:2|0:0,0:0:0:0:
37,346,81769,38,0,P|71:359|107:358,1,72.5000022125245,2|0,1:2|0:0,0:0:0:0:
182,264,81931,1,2,0:0:0:0:
161,260,82012,2,0,P|126:262|93:278,1,72.5000022125245,2|10,0:0|1:2,0:0:0:0:
290,383,82174,69,2,0:0:0:0:
334,377,82255,1,2,0:0:0:0:
378,372,82336,1,2,0:0:0:0:
423,366,82417,38,0,P|463:307|446:238,1,145.000004425049,2|0,1:2|0:0,0:0:0:0:
395,186,82660,1,2,0:0:0:0:
353,127,82742,2,0,P|337:58|376:0,1,145.000004425049,10|0,1:2|0:0,0:0:0:0:
377,287,83066,70,0,L|306:277,1,72.5000022125245,2|0,1:2|0:0,0:0:0:0:
224,149,83228,1,2,0:0:0:0:
211,151,83309,2,0,L|140:160,1,72.5000022125245,2|10,0:0|1:2,0:0:0:0:
23,57,83471,37,2,0:0:0:0:
1,22,83552,1,2,0:0:0:0:
35,0,83633,1,2,0:0:0:0:
57,34,83715,70,0,L|50:106,1,72.5000022125245,2|0,1:2|0:0,0:0:0:0:
37,208,83877,2,0,L|30:280,1,72.5000022125245,0|0,1:0|0:0,0:0:0:0:
39,292,84039,38,0,L|46:220,1,72.5000022125245,8|0,1:2|0:0,0:0:0:0:
59,118,84201,2,0,L|66:46,1,72.5000022125245,0|0,1:2|0:0,0:0:0:0:
76,59,84363,70,0,L|68:137,1,77.5000005912781,0|0,1:0|0:0,0:0:0:0:
54,235,84525,2,0,L|47:312,1,77.5000005912781,0|0,1:0|0:0,0:0:0:0:
147,78,84687,86,0,L|140:160,1,82.5000007867813,8|0,1:2|0:0,0:0:0:0:
122,368,84849,2,0,L|130:286,1,82.5000007867813,8|0,1:2|0:0,0:0:0:0:
322,90,85012,5,8,1:3:0:0:
340,79,85093,1,8,1:3:0:0:
363,73,85174,1,8,1:3:0:0:
391,76,85255,1,8,1:3:0:0:
417,93,85336,1,8,1:2:0:0:
433,126,85417,1,8,1:3:0:0:
430,164,85498,1,8,1:3:0:0:
401,197,85580,1,8,1:3:0:0:
362,219,85661,1,8,1:3:0:0:
329,259,85742,1,8,1:3:0:0:
326,313,85823,1,8,1:3:0:0:
359,361,85904,1,8,1:3:0:0:
422,375,85985,1,8,1:2:0:0:
478,339,86066,1,8,1:3:0:0:
490,269,86147,1,8,1:2:0:0:
450,204,86228,1,8,1:3:0:0:
439,215,86309,69,2,0:0:0:0:
68,192,91498,118,0,P|94:144|93:88,1,112.500004291535,2|0,3:0|0:0,0:0:0:0:
87,48,91823,1,8,0:0:0:0:
147,209,91984,54,0,P|159:194|168:177,1,37.5000014305115,2|0,0:3|0:0,0:0:0:0:
177,145,92147,2,0,P|179:126|179:107,1,37.5000014305115,2|0,0:3|0:0,0:0:0:0:
167,65,92309,1,8,0:0:0:0:
259,19,92471,53,0,3:0:0:0:
258,26,92552,1,0,3:0:0:0:
257,33,92633,1,0,3:0:0:0:
256,40,92715,1,0,3:0:0:0:
255,47,92796,54,0,L|328:32,1,75.0000028610231,2|0,3:0|0:0,0:0:0:0:
402,17,93120,1,8,0:0:0:0:
312,121,93282,2,0,L|348:113,1,37.5000014305115,2|0,3:0|0:0,0:0:0:0:
385,106,93444,2,0,L|421:98,1,37.5000014305115,2|0,3:0|0:0,0:0:0:0:
459,91,93606,1,8,0:0:0:0:
362,198,93769,2,0,L|398:190,1,37.5000014305115,2|0,3:0|0:0,0:0:0:0:
435,183,93931,2,0,L|471:175,1,37.5000014305115,2|0,3:0|0:0,0:0:0:0:
509,168,94093,1,8,0:0:0:0:
448,343,94255,53,0,3:0:0:0:
448,343,94336,1,0,3:0:0:0:
448,343,94417,2,0,P|431:334|412:331,1,37.5000014305115,2|0,3:0|0:0,0:0:0:0:
489,286,94579,2,0,P|456:268|420:261,1,75.0000028610231,8|0,0:0|0:0,0:0:0:0:
297,346,94904,2,0,P|280:337|261:334,1,37.5000014305115,0|0,3:0|0:0,0:0:0:0:
338,289,95066,2,0,P|305:271|269:264,1,75.0000028610231,8|0,0:0|0:0,0:0:0:0:
135,282,95390,86,0,P|130:235|149:283,1,150,2|8,1:2|0:0,0:0:0:0:
146,258,96687,37,2,0:0:0:0:
146,258,96850,1,2,0:0:0:0:
115,186,97093,1,2,0:0:0:0:
59,128,97336,38,0,P|51:112|45:92,1,37.5000014305115,2|0,0:0|0:0,0:0:0:0:
114,69,97498,2,0,P|123:85|126:103,1,37.5000014305115,2|0,0:0|0:0,0:0:0:0:
256,133,97660,5,2,0:0:0:0:
281,133,97741,1,2,0:0:0:0:
305,122,97822,1,2,0:0:0:0:
321,102,97903,1,2,0:0:0:0:
325,76,97985,6,0,P|311:136|324:197,1,125,6|0,1:2|0:0,0:0:0:0:
311,209,98228,1,2,0:0:0:0:
380,243,98309,2,0,P|434:230|441:285,1,125,10|0,1:2|0:0,0:0:0:0:
262,363,98633,6,0,P|233:351|202:351,1,62.5,2|0,1:2|0:0,0:0:0:0:
122,291,98796,1,2,0:0:0:0:
106,293,98877,2,0,P|77:305|55:327,1,62.5,2|8,0:0|1:2,0:0:0:0:
204,190,99039,101,2,0:0:0:0:
192,155,99120,1,2,0:0:0:0:
159,139,99201,1,2,0:0:0:0:
124,149,99282,6,0,L|247:135,1,125,2|0,1:2|0:0,0:0:0:0:
262,133,99525,1,2,0:0:0:0:
226,66,99606,2,0,B|307:57|307:57|333:22,1,125,10|0,1:2|0:0,0:0:0:0:
484,108,99931,102,0,B|489:138|489:138|477:167,1,62.5,2|0,1:2|0:0,0:0:0:0:
402,229,100093,1,2,0:0:0:0:
388,225,100174,2,0,B|358:220|358:220|329:233,1,62.5,2|8,0:0|1:2,0:0:0:0:
216,352,100336,5,2,0:0:0:0:
200,318,100417,1,2,0:0:0:0:
234,302,100498,1,2,0:0:0:0:
249,336,100579,102,0,L|124:320,1,125,2|0,1:2|0:0,0:0:0:0:
115,310,100823,1,2,0:0:0:0:
58,360,100904,1,10,1:2:0:0:
28,197,101066,85,2,0:0:0:0:
66,182,101147,1,2,0:0:0:0:
83,143,101228,5,2,1:2:0:0:
123,149,101309,1,2,0:0:0:0:
157,123,101390,37,2,0:0:0:0:
189,148,101471,1,2,0:0:0:0:
231,143,101552,6,0,P|259:165|294:174,1,72.5000022125245,10|0,1:2|0:0,0:0:0:0:
370,165,101715,2,0,P|403:151|429:126,1,72.5000022125245,0|0,1:0|0:0,0:0:0:0:
454,3,101877,70,0,L|429:126,1,125,2|0,1:2|0:0,0:0:0:0:
443,114,102120,1,2,0:0:0:0:
480,184,102201,2,0,L|454:306,1,125,10|0,1:2|0:0,0:0:0:0:
293,370,102525,6,0,P|283:340|284:309,1,62.5,2|0,1:2|0:0,0:0:0:0:
195,322,102687,1,2,0:0:0:0:
194,306,102769,2,0,P|201:275|216:248,1,62.5,2|8,0:0|1:2,0:0:0:0:
319,135,102931,101,2,0:0:0:0:
283,122,103012,1,2,0:0:0:0:
270,156,103093,1,2,0:0:0:0:
305,169,103174,6,0,P|253:134|191:131,1,125,2|0,1:2|0:0,0:0:0:0:
200,139,103417,1,2,0:0:0:0:
171,65,103498,2,0,P|116:63|124:117,1,125,10|0,1:2|0:0,0:0:0:0:
32,233,103823,102,0,L|22:171,1,62.5,2|0,1:2|0:0,0:0:0:0:
119,267,103985,1,2,0:0:0:0:
117,257,104066,2,0,L|107:195,1,62.5,2|8,0:0|1:2,0:0:0:0:
0,378,104228,5,2,0:0:0:0:
28,354,104309,1,2,0:0:0:0:
64,345,104390,1,2,0:0:0:0:
101,354,104471,102,0,P|160:369|214:341,1,125,2|0,1:2|0:0,0:0:0:0:
210,330,104715,1,2,0:0:0:0:
281,368,104796,2,0,L|297:244,1,125,10|0,1:2|0:0,0:0:0:0:
407,373,105120,6,0,P|426:349|436:319,1,62.5,2|0,1:2|0:0,0:0:0:0:
512,246,105282,1,2,0:0:0:0:
512,233,105363,2,0,P|509:202|495:174,1,62.5,2|8,0:0|1:2,0:0:0:0:
363,51,105525,101,2,0:0:0:0:
338,78,105606,1,2,0:0:0:0:
302,88,105687,1,2,0:0:0:0:
267,78,105769,5,8,1:3:0:0:
267,78,105850,2,0,L|254:16,1,62.5,8|0,0:3|0:0,0:0:0:0:
132,142,106012,101,8,0:3:0:0:
132,142,106094,2,0,L|145:80,1,62.5,8|0,1:2|0:0,0:0:0:0:
252,222,106255,21,8,0:3:0:0:
252,222,106336,2,0,L|241:173,1,50,8|0,0:3|1:0,0:0:0:0:
146,290,106498,5,8,0:3:0:0:
146,290,106579,2,0,L|153:253,1,37.5000014305115,8|0,0:3|0:0,0:0:0:0:
232,326,106742,22,0,B|318:314|318:314|351:232|351:232|436:214,1,262.500002503395,8|0,1:2|0:0,0:0:0:0:
491,275,107066,69,0,1:0:0:0:
485,289,107147,1,0,1:0:0:0:
502,287,107228,1,8,0:3:0:0:
497,301,107309,1,4,0:3:0:0:
436,213,107390,22,0,P|372:197|342:139,1,135.000000514984,14|0,1:2|0:0,0:0:0:0:
417,68,107633,1,0,0:0:0:0:
417,68,107715,54,0,P|425:100|421:133,1,67.5000002574921,2|0,1:2|0:0,0:0:0:0:
360,213,107877,1,2,0:0:0:0:
348,226,107958,2,0,P|320:245|287:253,1,67.5000002574921,2|8,0:0|1:2,0:0:0:0:
156,189,108120,53,2,0:0:0:0:
135,145,108201,1,2,0:0:0:0:
178,126,108282,1,2,0:0:0:0:
198,168,108363,54,0,L|64:146,1,135.000000514984,2|0,1:2|0:0,0:0:0:0:
51,134,108606,1,2,0:0:0:0:
0,195,108687,2,0,B|30:240|30:240|6:317,1,135.000000514984,10|0,1:2|0:0,0:0:0:0:
105,384,108931,1,2,0:0:0:0:
105,384,109012,54,0,P|133:365|166:357,1,67.5000002574921,2|0,1:2|0:0,0:0:0:0:
213,274,109174,1,2,0:0:0:0:
224,287,109255,2,0,P|251:305|284:313,1,67.5000002574921,2|8,0:0|1:2,0:0:0:0:
451,384,109417,53,2,0:0:0:0:
488,371,109498,1,2,0:0:0:0:
512,339,109579,1,2,0:0:0:0:
512,300,109660,54,0,L|379:324,1,135.000000514984,2|0,1:2|0:0,0:0:0:0:
366,315,109904,1,2,0:0:0:0:
392,240,109985,2,0,B|355:210|355:210|268:226,1,135.000000514984,10|0,1:2|0:0,0:0:0:0:
178,110,110228,1,0,0:0:0:0:
178,110,110309,54,0,P|165:141|166:174,1,67.5000002574921,2|0,1:2|0:0,0:0:0:0:
85,235,110471,1,2,0:0:0:0:
86,247,110552,2,0,P|98:277|123:300,1,67.5000002574921,2|8,0:0|1:2,0:0:0:0:
183,384,110715,53,2,0:0:0:0:
223,378,110796,1,2,0:0:0:0:
263,373,110877,1,2,0:0:0:0:
302,367,110958,54,0,P|335:310|400:302,1,135.000000514984,2|0,1:2|0:0,0:0:0:0:
414,294,111201,1,2,0:0:0:0:
460,358,111282,1,10,1:2:0:0:
503,210,111444,69,2,0:0:0:0:
495,178,111525,1,2,0:0:0:0:
426,152,111606,5,2,1:2:0:0:
403,128,111687,1,2,0:0:0:0:
330,140,111768,5,2,0:0:0:0:
298,130,111849,1,2,0:0:0:0:
239,177,111931,38,0,P|227:214|232:254,1,80,10|0,1:2|0:0,0:0:0:0:
315,380,112093,2,0,P|327:342|322:302,1,80,2|0,1:2|0:0,0:0:0:0:
147,40,112255,22,0,L|-1:15,1,150.000005722046,10|0,1:2|0:0,1:0:0:0:
107,144,112498,1,2,0:0:0:0:
188,118,112579,2,0,L|40:93,1,150.000005722046,10|0,1:2|0:0,1:0:0:0:
19,252,112823,1,0,0:0:0:0:
19,252,112904,22,0,P|56:244|88:225,1,75.0000028610231,10|0,1:2|0:0,0:0:0:0:
211,310,113066,1,2,0:0:0:0:
193,289,113147,2,0,P|229:297|260:317,1,75.0000028610231,2|8,0:0|1:2,0:0:0:0:
351,376,113309,85,2,0:0:0:0:
401,381,113390,1,2,0:0:0:0:
441,349,113471,1,2,0:0:0:0:
444,298,113552,22,0,P|436:224|468:158,1,150.000005722046,10|0,1:2|0:0,0:0:0:0:
324,65,113796,1,2,0:0:0:0:
301,143,113877,2,0,P|373:130|404:65,1,150.000005722046,10|0,1:2|0:0,0:0:0:0:
222,229,114120,1,0,0:0:0:0:
222,229,114201,86,0,L|148:215,1,75.0000028610231,10|0,1:2|0:0,0:0:0:0:
53,123,114363,1,2,0:0:0:0:
76,135,114444,2,0,L|2:148,1,75.0000028610231,2|8,0:0|1:2,0:0:0:0:
167,6,114606,21,2,0:0:0:0:
180,48,114687,1,2,0:0:0:0:
216,73,114768,1,2,0:0:0:0:
261,71,114850,102,0,L|335:59,1,75.0000028610231,8|0,1:2|0:0,0:0:0:0:
483,36,115012,2,0,L|408:47,1,75.0000028610231,8|0,1:2|0:0,0:0:0:0:
290,161,115174,22,0,L|364:149,1,75.0000028610231,8|0,1:2|0:0,0:0:0:0:
512,125,115336,2,0,L|437:136,1,75.0000028610231,8|0,1:2|0:0,0:0:0:0:
232,278,115498,86,0,L|306:266,1,75.0000028610231,8|0,1:2|0:0,0:0:0:0:
454,243,115660,2,0,L|379:254,1,75.0000028610231,8|0,1:2|0:0,0:0:0:0:
261,368,115822,22,0,L|335:356,1,75.0000028610231,8|0,1:2|0:0,0:0:0:0:
483,332,115984,2,0,L|408:343,1,75.0000028610231,8|0,1:2|0:0,0:0:0:0:
78,236,116147,69,8,1:3:0:0:
62,227,116228,1,8,1:3:0:0:
38,225,116309,1,8,1:3:0:0:
12,240,116390,1,8,1:3:0:0:
0,272,116471,1,8,1:2:0:0:
19,307,116552,1,8,1:3:0:0:
65,313,116633,1,8,1:3:0:0:
93,268,116715,1,8,1:3:0:0:
64,216,116796,1,8,1:3:0:0:
58,151,116877,1,8,1:3:0:0:
101,94,116958,1,8,1:3:0:0:
177,86,117039,1,8,1:3:0:0:
236,138,117120,5,10,1:2:0:0:
223,205,117201,1,2,1:2:0:0:
210,272,117282,1,2,1:2:0:0:
197,339,117363,1,2,1:2:0:0:
197,339,117525,102,2,B|156:324|156:324|260:299,1,150.000005722046,2|0,1:0|0:0,0:1:0:0:
384,260,117769,2,2,B|424:245|424:245|320:220,1,150.000005722046,2|0,1:0|0:0,0:1:0:0:
197,181,118012,2,2,B|156:166|156:166|260:141,1,150.000005722046,2|0,1:0|0:0,0:1:0:0:
384,102,118255,2,2,B|424:87|424:87|320:62,1,150.000005722046,2|0,1:0|0:0,0:1:0:0:
277,1,118579,38,2,L|313:350,1,350.00000333786,2|0,1:0|0:0,0:1:0:0:
