osu file format v14

[General]
AudioFilename: audio.mp3
AudioLeadIn: 0
PreviewTime: 65146
Countdown: 0
SampleSet: Soft
StackLeniency: 0.7
Mode: 3
LetterboxInBreaks: 0
SpecialStyle: 0
WidescreenStoryboard: 0

[Editor]
DistanceSpacing: 1.2
BeatDivisor: 4
GridSize: 4
TimelineZoom: 1.9

[Metadata]
Title:archive::zip
TitleUnicode:archive::zip
Artist:kamome sano
ArtistUnicode:kamome sano
Creator:Fresh Chicken
Version:GRAVITY
Source:SOUND VOLTEX III GRAVITY WARS
Tags:ultimate tracks -floor anthem- ep.01 album konami original song bemani sdvx jakads Wonki Lass -_R_e_b_a_- Reba
BeatmapID:973380
BeatmapSetID:453953

[Difficulty]
HPDrainRate:8.5
CircleSize:7
OverallDifficulty:8
ApproachRate:5
SliderMultiplier:1.4
SliderTickRate:1

[Events]
//Background and Video events
0,0,"74.png",0,0
//Break Periods
//Storyboard Layer 0 (Background)
//Storyboard Layer 1 (Fail)
//Storyboard Layer 2 (Pass)
//Storyboard Layer 3 (Foreground)
//Storyboard Sound Samples

[TimingPoints]
1984,324.324324324324,4,2,1,55,1,0
65551,-100,4,2,1,55,0,1
75929,-100,4,2,1,55,0,0
76254,-100,4,2,1,55,0,1
86308,-100,4,2,1,55,0,0
97983,-100,4,2,1,55,0,1
107065,-100,4,2,1,55,0,0
107389,-100,4,2,1,55,0,1
119065,-100,4,2,1,55,0,0

[HitObjects]
36,192,1011,128,0,1335:0:0:0:0:
109,192,1335,128,0,1659:0:0:0:0:
182,192,1659,128,0,1984:0:0:0:0:
256,192,1984,1,0,0:0:0:0:
36,192,1984,1,0,0:0:0:0:
475,192,1984,128,4,2794:0:0:0:0:
329,192,1984,1,2,0:0:0:0:
109,192,2146,1,0,0:0:0:0:
329,192,2308,1,0,0:0:0:0:
256,192,2470,1,0,0:0:0:0:
109,192,2632,1,0,0:0:0:0:
36,192,2632,1,0,0:0:0:0:
329,192,2794,128,0,2956:0:0:0:0:
182,192,2956,128,0,3119:0:0:0:0:
36,192,3119,128,0,4254:0:0:0:0:
475,192,3281,1,0,0:0:0:0:
329,192,3443,1,0,0:0:0:0:
402,192,3605,1,0,0:0:0:0:
256,192,3767,1,0,0:0:0:0:
329,192,3929,1,0,0:0:0:0:
182,192,3929,1,0,0:0:0:0:
475,192,4092,1,0,0:0:0:0:
109,192,4254,128,0,4416:0:0:0:0:
256,192,4416,128,0,4578:0:0:0:0:
402,192,4578,128,0,5389:0:0:0:0:
36,192,4578,1,0,0:0:0:0:
182,192,4740,1,0,0:0:0:0:
109,192,4902,1,0,0:0:0:0:
256,192,5065,1,0,0:0:0:0:
36,192,5227,1,0,0:0:0:0:
182,192,5227,1,0,0:0:0:0:
329,192,5389,128,0,5551:0:0:0:0:
256,192,5551,128,0,5713:0:0:0:0:
182,192,5713,128,0,6524:0:0:0:0:
475,192,5875,1,0,0:0:0:0:
402,192,6038,1,0,0:0:0:0:
329,192,6200,1,0,0:0:0:0:
475,192,6362,1,0,0:0:0:0:
36,192,6524,128,0,6686:0:0:0:0:
329,192,6524,1,0,0:0:0:0:
182,192,6686,128,0,6848:0:0:0:0:
329,192,6848,128,0,7011:0:0:0:0:
475,192,7011,128,0,7173:0:0:0:0:
256,192,7173,128,0,7983:0:0:0:0:
36,192,7173,1,0,0:0:0:0:
109,192,7335,1,0,0:0:0:0:
402,192,7497,1,0,0:0:0:0:
36,192,7659,1,0,0:0:0:0:
475,192,7821,1,0,0:0:0:0:
109,192,7821,1,0,0:0:0:0:
402,192,7983,128,0,8146:0:0:0:0:
256,192,8146,128,0,8308:0:0:0:0:
109,192,8308,128,0,9443:0:0:0:0:
475,192,8470,1,0,0:0:0:0:
329,192,8632,1,0,0:0:0:0:
402,192,8794,1,0,0:0:0:0:
256,192,8956,1,0,0:0:0:0:
329,192,9119,1,0,0:0:0:0:
475,192,9119,1,0,0:0:0:0:
256,192,9281,1,0,0:0:0:0:
475,192,9443,128,0,9605:0:0:0:0:
329,192,9605,128,0,9767:0:0:0:0:
182,192,9767,128,0,10578:0:0:0:0:
36,192,9767,1,0,0:0:0:0:
475,192,9929,1,0,0:0:0:0:
402,192,10092,1,0,0:0:0:0:
329,192,10254,1,0,0:0:0:0:
475,192,10416,1,0,0:0:0:0:
256,192,10416,1,0,0:0:0:0:
36,192,10578,128,0,10740:0:0:0:0:
475,192,10740,128,0,10902:0:0:0:0:
109,192,10902,1,0,0:0:0:0:
182,192,10983,1,0,0:0:0:0:
329,192,11065,1,0,0:0:0:0:
402,192,11146,1,0,0:0:0:0:
256,192,11227,1,0,0:0:0:0:
329,192,11308,1,0,0:0:0:0:
182,192,11389,1,0,0:0:0:0:
256,192,11470,1,0,0:0:0:0:
109,192,11551,1,0,0:0:0:0:
182,192,11632,1,0,0:0:0:0:
36,192,11713,1,0,0:0:0:0:
109,192,11794,1,0,0:0:0:0:
182,192,11875,1,0,0:0:0:0:
329,192,11875,1,0,0:0:0:0:
256,192,11956,1,0,0:0:0:0:
109,192,12038,1,0,0:0:0:0:
402,192,12038,1,0,0:0:0:0:
182,192,12119,1,0,0:0:0:0:
256,192,12200,1,0,0:0:0:0:
475,192,12200,1,0,0:0:0:0:
329,192,12362,1,2,0:0:0:0:
402,192,12362,1,0,0:0:0:0:
182,192,12362,1,0,0:0:0:0:
109,192,12362,1,0,0:0:0:0:
182,192,12524,1,0,0:0:0:0:
109,192,12524,1,0,0:0:0:0:
329,192,12524,1,2,0:0:0:0:
402,192,12524,1,0,0:0:0:0:
475,192,12686,1,0,0:0:0:0:
36,192,12686,1,0,0:0:0:0:
256,192,12686,1,8,0:0:0:0:
109,192,12848,1,0,0:0:0:0:
402,192,12929,1,0,0:0:0:0:
182,192,13011,1,0,0:0:0:0:
329,192,13092,1,0,0:0:0:0:
109,192,13173,128,0,13335:0:0:0:0:
182,192,13335,128,0,13497:0:0:0:0:
256,192,13497,128,0,14632:0:0:0:0:
475,192,13659,1,0,0:0:0:0:
402,192,13821,1,0,0:0:0:0:
329,192,13983,1,0,0:0:0:0:
36,192,14632,1,0,0:0:0:0:
475,192,14794,1,0,0:0:0:0:
402,192,14956,1,0,0:0:0:0:
329,192,14956,1,0,0:0:0:0:
109,192,14956,1,0,0:0:0:0:
182,192,14956,1,2,0:0:0:0:
329,192,15119,1,0,0:0:0:0:
402,192,15119,1,0,0:0:0:0:
182,192,15119,1,2,0:0:0:0:
109,192,15119,1,0,0:0:0:0:
36,192,15281,1,0,0:0:0:0:
256,192,15281,1,8,0:0:0:0:
475,192,15281,1,0,0:0:0:0:
402,192,15443,1,0,0:0:0:0:
109,192,15524,1,0,0:0:0:0:
329,192,15605,1,0,0:0:0:0:
182,192,15686,1,0,0:0:0:0:
402,192,15767,128,0,15929:0:0:0:0:
329,192,15929,128,0,16092:0:0:0:0:
256,192,16092,128,0,16740:0:0:0:0:
36,192,16254,1,0,0:0:0:0:
109,192,16416,1,0,0:0:0:0:
182,192,16578,1,0,0:0:0:0:
329,192,16740,1,0,0:0:0:0:
36,192,16740,1,0,0:0:0:0:
402,192,16902,1,0,0:0:0:0:
109,192,16902,1,0,0:0:0:0:
475,192,17065,1,0,0:0:0:0:
182,192,17065,1,0,0:0:0:0:
36,192,17227,1,0,0:0:0:0:
256,192,17227,1,0,0:0:0:0:
109,192,17389,1,0,0:0:0:0:
329,192,17389,1,0,0:0:0:0:
182,192,17551,1,2,0:0:0:0:
402,192,17551,1,4,0:0:0:0:
475,192,17551,1,0,0:0:0:0:
36,192,17551,1,0,0:0:0:0:
329,192,17713,1,0,0:0:0:0:
475,192,17713,1,0,0:0:0:0:
109,192,17713,1,2,0:0:0:0:
36,192,17713,1,0,0:0:0:0:
256,192,17875,1,0,0:0:0:0:
182,192,17875,1,8,0:0:0:0:
402,192,17875,1,0,0:0:0:0:
109,192,18200,1,2,0:0:0:0:
36,192,18200,1,0,0:0:0:0:
329,192,18200,1,4,0:0:0:0:
475,192,18200,1,0,0:0:0:0:
36,192,18362,1,0,0:0:0:0:
402,192,18362,1,0,0:0:0:0:
475,192,18362,1,0,0:0:0:0:
182,192,18362,1,2,0:0:0:0:
329,192,18524,1,0,0:0:0:0:
256,192,18524,1,0,0:0:0:0:
109,192,18524,1,8,0:0:0:0:
256,192,18848,1,4,0:0:0:0:
182,192,18848,1,2,0:0:0:0:
402,192,18848,1,0,0:0:0:0:
475,192,18848,1,0,0:0:0:0:
36,192,19011,1,0,0:0:0:0:
329,192,19011,1,0,0:0:0:0:
256,192,19011,1,0,0:0:0:0:
109,192,19011,1,2,0:0:0:0:
402,192,19173,1,0,0:0:0:0:
475,192,19173,1,0,0:0:0:0:
182,192,19173,1,8,0:0:0:0:
329,192,19497,1,4,0:0:0:0:
256,192,19497,1,0,0:0:0:0:
109,192,19497,1,2,0:0:0:0:
36,192,19497,1,0,0:0:0:0:
256,192,19659,1,0,0:0:0:0:
475,192,19659,1,0,0:0:0:0:
182,192,19659,1,2,0:0:0:0:
402,192,19659,1,0,0:0:0:0:
329,192,19821,1,0,0:0:0:0:
36,192,19821,1,0,0:0:0:0:
109,192,19821,1,8,0:0:0:0:
329,192,20146,1,4,0:0:0:0:
475,192,20146,1,0,0:0:0:0:
182,192,20146,1,2,0:0:0:0:
36,192,20146,1,0,0:0:0:0:
402,192,20308,1,0,0:0:0:0:
475,192,20308,1,0,0:0:0:0:
109,192,20308,1,2,0:0:0:0:
36,192,20308,1,0,0:0:0:0:
109,192,20470,1,4,0:0:0:0:
182,192,20470,1,8,0:0:0:0:
329,192,20470,1,0,0:0:0:0:
402,192,20470,1,0,0:0:0:0:
256,192,20632,1,2,0:0:0:0:
329,192,20673,1,2,0:0:0:0:
402,192,20713,1,2,0:0:0:0:
475,192,20754,1,2,0:0:0:0:
182,192,20794,1,2,0:0:0:0:
36,192,20794,1,4,0:0:0:0:
329,192,20875,1,2,0:0:0:0:
475,192,20875,1,0,0:0:0:0:
182,192,20956,1,2,0:0:0:0:
36,192,20956,1,0,0:0:0:0:
402,192,21119,1,4,0:0:0:0:
109,192,21119,1,2,0:0:0:0:
256,192,21281,1,2,0:0:0:0:
182,192,21321,1,2,0:0:0:0:
109,192,21362,1,2,0:0:0:0:
36,192,21402,1,2,0:0:0:0:
329,192,21443,1,2,0:0:0:0:
475,192,21443,1,0,0:0:0:0:
182,192,21524,1,2,0:0:0:0:
36,192,21524,1,0,0:0:0:0:
402,192,21605,1,0,0:0:0:0:
329,192,21605,1,2,0:0:0:0:
182,192,21686,1,2,0:0:0:0:
109,192,21686,1,0,0:0:0:0:
475,192,21767,1,2,0:0:0:0:
402,192,21808,1,2,0:0:0:0:
329,192,21848,1,2,0:0:0:0:
256,192,21889,1,2,0:0:0:0:
182,192,21929,1,2,0:0:0:0:
36,192,21929,1,0,0:0:0:0:
329,192,22011,1,2,0:0:0:0:
475,192,22011,1,0,0:0:0:0:
36,192,22092,1,0,0:0:0:0:
109,192,22132,1,0,0:0:0:0:
182,192,22173,1,0,0:0:0:0:
256,192,22213,1,0,0:0:0:0:
475,192,22254,1,0,0:0:0:0:
402,192,22294,1,0,0:0:0:0:
329,192,22335,1,0,0:0:0:0:
256,192,22375,1,0,0:0:0:0:
182,192,22416,128,0,22740:0:0:0:0:
475,192,22740,1,0,0:0:0:0:
36,192,22740,1,0,0:0:0:0:
402,192,24038,1,0,0:0:0:0:
475,192,24038,1,2,0:0:0:0:
182,192,24038,1,4,0:0:0:0:
36,192,24038,1,0,0:0:0:0:
109,192,24200,1,0,0:0:0:0:
475,192,24362,1,2,0:0:0:0:
402,192,24362,1,0,0:0:0:0:
256,192,24362,1,0,0:0:0:0:
182,192,24524,1,0,0:0:0:0:
475,192,24686,1,2,0:0:0:0:
402,192,24686,1,0,0:0:0:0:
109,192,24686,128,0,25011:0:0:0:0:
475,192,25011,1,2,0:0:0:0:
402,192,25011,1,0,0:0:0:0:
256,192,25011,1,0,0:0:0:0:
36,192,25173,1,0,0:0:0:0:
475,192,25335,1,2,0:0:0:0:
402,192,25335,1,0,0:0:0:0:
182,192,25335,128,0,25659:0:0:0:0:
475,192,25659,1,2,0:0:0:0:
402,192,25659,1,0,0:0:0:0:
36,192,25659,1,0,0:0:0:0:
256,192,25821,128,0,26308:0:0:0:0:
475,192,25983,1,2,0:0:0:0:
402,192,25983,1,0,0:0:0:0:
475,192,26308,1,2,0:0:0:0:
402,192,26308,1,0,0:0:0:0:
109,192,26470,1,0,0:0:0:0:
475,192,26632,1,0,0:0:0:0:
36,192,26632,1,2,0:0:0:0:
329,192,26794,1,0,0:0:0:0:
256,192,26956,1,0,0:0:0:0:
109,192,26956,1,0,0:0:0:0:
36,192,26956,1,2,0:0:0:0:
329,192,27119,1,0,0:0:0:0:
402,192,27281,128,0,27605:0:0:0:0:
36,192,27281,1,2,0:0:0:0:
109,192,27281,1,0,0:0:0:0:
109,192,27605,1,0,0:0:0:0:
256,192,27605,1,0,0:0:0:0:
36,192,27605,1,2,0:0:0:0:
475,192,27767,1,0,0:0:0:0:
36,192,27929,1,2,0:0:0:0:
329,192,27929,128,0,28254:0:0:0:0:
109,192,27929,1,0,0:0:0:0:
36,192,28254,1,2,0:0:0:0:
109,192,28254,1,0,0:0:0:0:
475,192,28254,1,0,0:0:0:0:
256,192,28416,128,0,28740:0:0:0:0:
109,192,28578,1,0,0:0:0:0:
36,192,28578,1,2,0:0:0:0:
475,192,28740,1,0,0:0:0:0:
36,192,28902,1,2,0:0:0:0:
109,192,28902,1,0,0:0:0:0:
402,192,28902,1,0,0:0:0:0:
329,192,29065,1,0,0:0:0:0:
475,192,29227,1,2,0:0:0:0:
36,192,29227,1,0,0:0:0:0:
475,192,29551,1,2,0:0:0:0:
329,192,29551,1,0,0:0:0:0:
182,192,29551,1,0,0:0:0:0:
109,192,29713,1,0,0:0:0:0:
475,192,29875,1,2,0:0:0:0:
329,192,29875,1,0,0:0:0:0:
36,192,29875,128,0,30200:0:0:0:0:
475,192,30200,1,2,0:0:0:0:
329,192,30200,1,0,0:0:0:0:
109,192,30200,1,0,0:0:0:0:
182,192,30362,1,0,0:0:0:0:
475,192,30524,1,2,0:0:0:0:
329,192,30524,1,0,0:0:0:0:
256,192,30524,128,0,30848:0:0:0:0:
475,192,30848,1,2,0:0:0:0:
329,192,30848,1,0,0:0:0:0:
36,192,30848,1,0,0:0:0:0:
182,192,31011,128,0,31497:0:0:0:0:
475,192,31173,1,2,0:0:0:0:
329,192,31173,1,0,0:0:0:0:
475,192,31497,1,2,0:0:0:0:
329,192,31497,1,0,0:0:0:0:
36,192,31497,1,0,0:0:0:0:
256,192,31659,1,0,0:0:0:0:
182,192,31821,1,0,0:0:0:0:
36,192,31821,1,0,0:0:0:0:
475,192,31821,1,2,0:0:0:0:
329,192,31983,1,0,0:0:0:0:
182,192,32146,1,0,0:0:0:0:
36,192,32146,1,2,0:0:0:0:
402,192,32146,1,0,0:0:0:0:
329,192,32308,128,0,32632:0:0:0:0:
182,192,32470,1,0,0:0:0:0:
36,192,32470,1,2,0:0:0:0:
402,192,32632,1,0,0:0:0:0:
256,192,32632,1,0,0:0:0:0:
329,192,32794,1,0,0:0:0:0:
475,192,32794,1,0,0:0:0:0:
182,192,32794,1,8,0:0:0:0:
36,192,32794,1,0,0:0:0:0:
402,192,32956,128,2,33443:0:0:0:0:
109,192,32956,128,0,33443:0:0:0:0:
256,192,32956,128,4,33443:0:0:0:0:
36,192,32956,1,0,0:0:0:0:
475,192,32956,1,0,0:0:0:0:
182,192,33443,1,0,0:0:0:0:
329,192,33443,1,0,0:0:0:0:
475,192,33605,128,0,33929:0:0:0:0:
329,192,33605,128,4,33929:0:0:0:0:
182,192,33605,128,2,33929:0:0:0:0:
36,192,33605,128,0,33929:0:0:0:0:
256,192,33605,1,0,0:0:0:0:
402,192,33929,1,2,0:0:0:0:
109,192,33929,1,0,0:0:0:0:
256,192,34092,1,0,0:0:0:0:
329,192,34092,1,8,0:0:0:0:
475,192,34092,1,0,0:0:0:0:
182,192,34092,1,0,0:0:0:0:
36,192,34092,1,0,0:0:0:0:
475,192,34416,1,2,0:0:0:0:
36,192,34416,1,4,0:0:0:0:
182,192,34578,128,0,34740:0:0:0:0:
329,192,34578,1,0,0:0:0:0:
109,192,34740,1,0,0:0:0:0:
36,192,34740,1,2,0:0:0:0:
475,192,34740,1,0,0:0:0:0:
182,192,34902,128,0,35065:0:0:0:0:
402,192,34902,1,0,0:0:0:0:
109,192,35065,1,0,0:0:0:0:
36,192,35065,1,2,0:0:0:0:
475,192,35065,128,0,35389:0:0:0:0:
182,192,35227,128,0,35389:0:0:0:0:
109,192,35389,1,0,0:0:0:0:
36,192,35389,1,2,0:0:0:0:
402,192,35389,1,0,0:0:0:0:
182,192,35551,128,0,35713:0:0:0:0:
329,192,35551,1,0,0:0:0:0:
109,192,35713,1,0,0:0:0:0:
36,192,35713,1,2,0:0:0:0:
402,192,35713,128,0,36038:0:0:0:0:
182,192,35875,128,0,36038:0:0:0:0:
109,192,36038,1,0,0:0:0:0:
36,192,36038,1,2,0:0:0:0:
256,192,36038,1,0,0:0:0:0:
182,192,36200,128,0,36362:0:0:0:0:
475,192,36200,128,0,36524:0:0:0:0:
109,192,36362,1,0,0:0:0:0:
36,192,36362,1,2,0:0:0:0:
182,192,36524,128,0,36686:0:0:0:0:
402,192,36524,1,0,0:0:0:0:
109,192,36686,1,0,0:0:0:0:
36,192,36686,1,2,0:0:0:0:
329,192,36686,1,0,0:0:0:0:
256,192,36848,1,0,0:0:0:0:
475,192,37011,1,0,0:0:0:0:
36,192,37011,1,2,0:0:0:0:
182,192,37173,1,0,0:0:0:0:
329,192,37173,128,0,37335:0:0:0:0:
36,192,37335,1,0,0:0:0:0:
475,192,37335,1,2,0:0:0:0:
402,192,37335,1,0,0:0:0:0:
329,192,37497,128,0,37659:0:0:0:0:
109,192,37497,1,0,0:0:0:0:
36,192,37659,128,0,37983:0:0:0:0:
475,192,37659,1,2,0:0:0:0:
402,192,37659,1,0,0:0:0:0:
329,192,37821,128,0,37983:0:0:0:0:
475,192,37983,1,2,0:0:0:0:
402,192,37983,1,0,0:0:0:0:
109,192,37983,1,0,0:0:0:0:
182,192,38146,1,0,0:0:0:0:
329,192,38146,128,0,38308:0:0:0:0:
475,192,38308,1,2,0:0:0:0:
109,192,38308,128,0,38632:0:0:0:0:
402,192,38308,1,0,0:0:0:0:
329,192,38470,128,0,38632:0:0:0:0:
256,192,38632,1,0,0:0:0:0:
475,192,38632,1,2,0:0:0:0:
402,192,38632,1,0,0:0:0:0:
36,192,38794,128,0,39119:0:0:0:0:
329,192,38794,128,0,38956:0:0:0:0:
475,192,38956,1,2,0:0:0:0:
402,192,38956,1,0,0:0:0:0:
109,192,39119,1,0,0:0:0:0:
329,192,39119,128,0,39281:0:0:0:0:
402,192,39281,1,0,0:0:0:0:
475,192,39281,1,2,0:0:0:0:
109,192,39443,1,2,0:0:0:0:
36,192,39443,1,0,0:0:0:0:
182,192,39605,1,0,0:0:0:0:
329,192,39605,1,2,0:0:0:0:
475,192,39767,128,0,39929:0:0:0:0:
402,192,39929,1,2,0:0:0:0:
329,192,39929,1,0,0:0:0:0:
36,192,39929,1,0,0:0:0:0:
475,192,40092,128,0,40254:0:0:0:0:
109,192,40092,1,0,0:0:0:0:
402,192,40254,1,2,0:0:0:0:
329,192,40254,1,0,0:0:0:0:
182,192,40254,128,0,40578:0:0:0:0:
475,192,40416,128,0,40578:0:0:0:0:
402,192,40578,1,2,0:0:0:0:
329,192,40578,1,0,0:0:0:0:
109,192,40578,1,0,0:0:0:0:
475,192,40740,128,0,40902:0:0:0:0:
36,192,40740,1,0,0:0:0:0:
402,192,40902,1,2,0:0:0:0:
329,192,40902,1,0,0:0:0:0:
256,192,40902,128,0,41227:0:0:0:0:
475,192,41065,128,0,41227:0:0:0:0:
402,192,41227,1,2,0:0:0:0:
329,192,41227,1,0,0:0:0:0:
182,192,41227,1,0,0:0:0:0:
475,192,41389,128,0,41551:0:0:0:0:
109,192,41389,128,0,41713:0:0:0:0:
402,192,41551,1,2,0:0:0:0:
329,192,41551,1,0,0:0:0:0:
475,192,41713,128,0,41875:0:0:0:0:
36,192,41713,1,0,0:0:0:0:
402,192,41875,1,2,0:0:0:0:
329,192,41875,1,0,0:0:0:0:
109,192,41875,1,0,0:0:0:0:
182,192,42038,1,0,0:0:0:0:
256,192,42200,1,0,0:0:0:0:
329,192,42200,1,2,0:0:0:0:
36,192,42362,128,0,42524:0:0:0:0:
475,192,42362,1,0,0:0:0:0:
182,192,42524,1,0,0:0:0:0:
109,192,42524,1,2,0:0:0:0:
402,192,42524,1,0,0:0:0:0:
36,192,42686,128,0,42848:0:0:0:0:
329,192,42686,128,0,43011:0:0:0:0:
109,192,42848,1,2,0:0:0:0:
182,192,42848,1,0,0:0:0:0:
36,192,43011,128,0,43173:0:0:0:0:
475,192,43011,1,0,0:0:0:0:
109,192,43173,1,2,0:0:0:0:
182,192,43173,1,0,0:0:0:0:
256,192,43173,1,0,0:0:0:0:
402,192,43335,1,0,0:0:0:0:
329,192,43497,1,0,0:0:0:0:
182,192,43497,1,2,0:0:0:0:
329,192,43659,1,0,0:0:0:0:
182,192,43659,1,2,0:0:0:0:
475,192,43821,1,0,0:0:0:0:
256,192,43821,1,8,0:0:0:0:
36,192,43821,1,0,0:0:0:0:
402,192,43983,1,0,0:0:0:0:
109,192,43983,1,2,0:0:0:0:
329,192,44146,1,0,0:0:0:0:
182,192,44146,1,2,0:0:0:0:
256,192,44308,1,8,0:0:0:0:
475,192,44308,1,0,0:0:0:0:
36,192,44308,1,0,0:0:0:0:
402,192,44470,1,0,0:0:0:0:
329,192,44470,1,0,0:0:0:0:
182,192,44470,1,8,0:0:0:0:
109,192,44470,1,0,0:0:0:0:
36,192,44470,1,0,0:0:0:0:
475,192,44470,1,0,0:0:0:0:
475,192,44794,1,4,0:0:0:0:
402,192,44794,128,0,45038:0:0:0:0:
329,192,44794,128,0,45038:0:0:0:0:
36,192,44794,1,2,0:0:0:0:
182,192,44956,1,0,0:0:0:0:
475,192,45119,1,0,0:0:0:0:
402,192,45119,128,0,45443:0:0:0:0:
329,192,45119,128,0,45443:0:0:0:0:
36,192,45119,1,2,0:0:0:0:
182,192,45281,1,0,0:0:0:0:
256,192,45443,1,0,0:0:0:0:
475,192,45443,1,0,0:0:0:0:
36,192,45443,1,2,0:0:0:0:
109,192,45605,1,0,0:0:0:0:
402,192,45767,1,0,0:0:0:0:
256,192,45767,1,2,0:0:0:0:
329,192,45848,1,0,0:0:0:0:
402,192,45929,1,0,0:0:0:0:
329,192,46011,1,0,0:0:0:0:
256,192,46092,128,0,46416:0:0:0:0:
36,192,46092,1,2,0:0:0:0:
475,192,46092,128,0,46416:0:0:0:0:
109,192,46254,1,0,0:0:0:0:
182,192,46416,1,0,0:0:0:0:
329,192,46416,1,2,0:0:0:0:
475,192,46578,1,0,0:0:0:0:
256,192,46578,128,0,47065:0:0:0:0:
36,192,46578,128,0,47065:0:0:0:0:
402,192,46740,1,2,0:0:0:0:
109,192,46740,1,0,0:0:0:0:
329,192,46902,1,0,0:0:0:0:
475,192,47065,1,2,0:0:0:0:
109,192,47065,1,0,0:0:0:0:
182,192,47146,1,0,0:0:0:0:
182,192,47308,1,0,0:0:0:0:
36,192,47389,128,0,47713:0:0:0:0:
475,192,47389,128,0,47713:0:0:0:0:
329,192,47389,1,2,0:0:0:0:
256,192,47551,1,0,0:0:0:0:
329,192,47713,1,0,0:0:0:0:
182,192,47713,1,2,0:0:0:0:
256,192,47794,128,0,47875:0:0:0:0:
256,192,47956,128,0,48038:0:0:0:0:
182,192,48038,128,0,48119:0:0:0:0:
329,192,48038,1,2,0:0:0:0:
182,192,48200,128,0,48281:0:0:0:0:
36,192,48362,1,2,0:0:0:0:
475,192,48362,1,0,0:0:0:0:
402,192,48443,1,0,0:0:0:0:
329,192,48524,1,0,0:0:0:0:
256,192,48605,1,0,0:0:0:0:
475,192,48686,1,2,0:0:0:0:
36,192,48686,1,0,0:0:0:0:
109,192,48740,1,0,0:0:0:0:
182,192,48794,1,0,0:0:0:0:
475,192,48848,1,0,0:0:0:0:
402,192,48902,1,0,0:0:0:0:
329,192,48956,1,0,0:0:0:0:
182,192,49011,1,0,0:0:0:0:
256,192,49011,1,2,0:0:0:0:
109,192,49065,1,0,0:0:0:0:
36,192,49119,1,0,0:0:0:0:
329,192,49173,1,0,0:0:0:0:
402,192,49227,1,0,0:0:0:0:
475,192,49281,1,0,0:0:0:0:
256,192,49335,1,2,0:0:0:0:
182,192,49335,128,0,49659:0:0:0:0:
109,192,49335,128,0,49659:0:0:0:0:
256,192,49659,1,2,0:0:0:0:
329,192,49659,128,0,49983:0:0:0:0:
402,192,49659,128,0,49983:0:0:0:0:
182,192,49983,1,2,0:0:0:0:
109,192,49983,128,0,50308:0:0:0:0:
36,192,49983,128,0,50308:0:0:0:0:
402,192,50146,1,0,0:0:0:0:
256,192,50308,1,0,0:0:0:0:
475,192,50308,1,2,0:0:0:0:
329,192,50470,1,0,0:0:0:0:
36,192,50632,1,2,0:0:0:0:
475,192,50632,128,0,50713:0:0:0:0:
475,192,50794,128,0,50875:0:0:0:0:
402,192,50956,1,0,0:0:0:0:
36,192,50956,1,2,0:0:0:0:
109,192,51038,1,0,0:0:0:0:
182,192,51119,1,0,0:0:0:0:
256,192,51200,1,0,0:0:0:0:
329,192,51281,128,2,51605:0:0:0:0:
475,192,51281,128,0,51605:0:0:0:0:
402,192,51281,1,0,0:0:0:0:
182,192,51443,1,0,0:0:0:0:
256,192,51605,1,2,0:0:0:0:
36,192,51605,1,0,0:0:0:0:
182,192,51767,128,0,52092:0:0:0:0:
36,192,51767,128,0,52092:0:0:0:0:
329,192,51929,1,2,0:0:0:0:
475,192,51929,1,0,0:0:0:0:
402,192,52092,1,0,0:0:0:0:
329,192,52254,1,0,0:0:0:0:
109,192,52254,1,2,0:0:0:0:
256,192,52335,1,0,0:0:0:0:
256,192,52497,1,0,0:0:0:0:
182,192,52578,1,0,0:0:0:0:
36,192,52578,1,0,0:0:0:0:
329,192,52578,1,2,0:0:0:0:
475,192,52578,1,0,0:0:0:0:
109,192,52740,1,0,0:0:0:0:
256,192,52902,1,2,0:0:0:0:
402,192,53065,1,0,0:0:0:0:
329,192,53227,1,0,0:0:0:0:
182,192,53227,1,2,0:0:0:0:
475,192,53551,1,0,0:0:0:0:
329,192,53551,1,4,0:0:0:0:
182,192,53551,1,2,0:0:0:0:
36,192,53551,1,0,0:0:0:0:
402,192,53713,1,0,0:0:0:0:
329,192,53875,1,0,0:0:0:0:
182,192,53875,1,2,0:0:0:0:
109,192,54038,1,0,0:0:0:0:
475,192,54200,1,2,0:0:0:0:
36,192,54200,1,0,0:0:0:0:
402,192,54362,128,0,54524:0:0:0:0:
256,192,54524,128,0,54686:0:0:0:0:
182,192,54524,1,2,0:0:0:0:
109,192,54686,128,0,54848:0:0:0:0:
182,192,54848,1,8,0:0:0:0:
36,192,54848,1,0,0:0:0:0:
475,192,54848,1,0,0:0:0:0:
329,192,54848,128,0,55011:0:0:0:0:
256,192,55011,128,0,55173:0:0:0:0:
475,192,55173,1,2,0:0:0:0:
109,192,55173,128,0,55416:0:0:0:0:
36,192,55173,1,4,0:0:0:0:
182,192,55173,128,0,55416:0:0:0:0:
329,192,55335,1,0,0:0:0:0:
36,192,55497,1,0,0:0:0:0:
182,192,55497,128,0,55821:0:0:0:0:
475,192,55497,1,2,0:0:0:0:
109,192,55497,128,0,55821:0:0:0:0:
329,192,55659,1,0,0:0:0:0:
475,192,55821,1,2,0:0:0:0:
36,192,55821,1,0,0:0:0:0:
256,192,55821,1,0,0:0:0:0:
402,192,55983,1,0,0:0:0:0:
329,192,56146,1,2,0:0:0:0:
109,192,56146,1,0,0:0:0:0:
182,192,56227,1,0,0:0:0:0:
109,192,56308,1,0,0:0:0:0:
182,192,56389,1,0,0:0:0:0:
36,192,56470,128,0,56794:0:0:0:0:
475,192,56470,1,2,0:0:0:0:
256,192,56470,128,0,56794:0:0:0:0:
402,192,56632,1,0,0:0:0:0:
329,192,56794,1,2,0:0:0:0:
182,192,56794,1,0,0:0:0:0:
256,192,56956,128,0,57443:0:0:0:0:
475,192,56956,128,0,57443:0:0:0:0:
36,192,56956,1,0,0:0:0:0:
402,192,57119,1,0,0:0:0:0:
109,192,57119,1,2,0:0:0:0:
182,192,57281,1,0,0:0:0:0:
36,192,57443,1,2,0:0:0:0:
402,192,57443,1,0,0:0:0:0:
329,192,57524,1,0,0:0:0:0:
329,192,57686,1,0,0:0:0:0:
36,192,57767,128,0,58092:0:0:0:0:
475,192,57767,128,0,58092:0:0:0:0:
182,192,57767,1,2,0:0:0:0:
256,192,57929,1,0,0:0:0:0:
182,192,58092,1,0,0:0:0:0:
329,192,58092,1,2,0:0:0:0:
256,192,58173,128,0,58254:0:0:0:0:
256,192,58335,128,0,58416:0:0:0:0:
182,192,58416,1,0,0:0:0:0:
329,192,58416,1,2,0:0:0:0:
402,192,58578,1,0,0:0:0:0:
36,192,58740,128,0,59065:0:0:0:0:
475,192,58740,1,2,0:0:0:0:
329,192,58902,1,0,0:0:0:0:
475,192,59065,1,2,0:0:0:0:
109,192,59065,1,0,0:0:0:0:
182,192,59146,1,0,0:0:0:0:
109,192,59227,1,0,0:0:0:0:
182,192,59308,1,0,0:0:0:0:
256,192,59389,1,0,0:0:0:0:
475,192,59389,1,2,0:0:0:0:
402,192,59470,1,0,0:0:0:0:
329,192,59551,1,0,0:0:0:0:
256,192,59632,1,0,0:0:0:0:
329,192,59713,128,0,60038:0:0:0:0:
402,192,59713,128,0,60038:0:0:0:0:
36,192,59713,1,2,0:0:0:0:
475,192,60038,1,2,0:0:0:0:
109,192,60038,128,0,60362:0:0:0:0:
182,192,60038,128,0,60362:0:0:0:0:
329,192,60362,1,0,0:0:0:0:
402,192,60362,1,8,0:0:0:0:
475,192,60362,1,0,0:0:0:0:
256,192,60362,128,0,60605:0:0:0:0:
475,192,60686,1,0,0:0:0:0:
402,192,60686,1,8,0:0:0:0:
329,192,60686,1,0,0:0:0:0:
256,192,60686,128,0,61011:0:0:0:0:
182,192,61011,1,0,0:0:0:0:
109,192,61011,1,8,0:0:0:0:
36,192,61011,1,0,0:0:0:0:
329,192,61119,1,0,0:0:0:0:
475,192,61119,1,0,0:0:0:0:
182,192,61227,1,0,0:0:0:0:
36,192,61227,1,0,0:0:0:0:
329,192,61335,1,0,0:0:0:0:
402,192,61335,1,8,0:0:0:0:
475,192,61335,1,0,0:0:0:0:
182,192,61443,1,0,0:0:0:0:
36,192,61443,1,0,0:0:0:0:
329,192,61551,1,0,0:0:0:0:
475,192,61551,1,0,0:0:0:0:
256,192,61659,128,0,62308:0:0:0:0:
109,192,61659,1,8,0:0:0:0:
402,192,61659,1,0,0:0:0:0:
402,192,61821,1,0,0:0:0:0:
109,192,61821,1,8,0:0:0:0:
36,192,61983,1,8,0:0:0:0:
475,192,61983,1,0,0:0:0:0:
475,192,62146,1,0,0:0:0:0:
36,192,62146,1,8,0:0:0:0:
329,192,62308,1,0,0:0:0:0:
182,192,62308,1,8,0:0:0:0:
256,192,62632,1,2,0:0:0:0:
475,192,62632,1,0,0:0:0:0:
36,192,62632,1,0,0:0:0:0:
36,192,62956,1,0,0:0:0:0:
182,192,62956,1,2,0:0:0:0:
256,192,62956,1,8,0:0:0:0:
329,192,63038,1,2,0:0:0:0:
475,192,63038,1,0,0:0:0:0:
182,192,63119,1,2,0:0:0:0:
36,192,63119,1,0,0:0:0:0:
329,192,63200,1,2,0:0:0:0:
475,192,63200,1,0,0:0:0:0:
109,192,63281,1,0,0:0:0:0:
182,192,63281,1,2,0:0:0:0:
256,192,63281,1,8,0:0:0:0:
36,192,63281,1,0,0:0:0:0:
329,192,63362,1,2,0:0:0:0:
402,192,63362,1,0,0:0:0:0:
475,192,63362,1,0,0:0:0:0:
109,192,63443,1,0,0:0:0:0:
182,192,63443,1,2,0:0:0:0:
36,192,63443,1,0,0:0:0:0:
329,192,63524,1,2,0:0:0:0:
402,192,63524,1,0,0:0:0:0:
475,192,63524,1,0,0:0:0:0:
182,192,63605,1,2,0:0:0:0:
109,192,63605,1,0,0:0:0:0:
36,192,63605,1,0,0:0:0:0:
475,192,63929,1,0,0:0:0:0:
36,192,63929,1,0,0:0:0:0:
329,192,63929,1,8,0:0:0:0:
182,192,63929,1,0,0:0:0:0:
402,192,64254,1,0,0:0:0:0:
329,192,64335,1,0,0:0:0:0:
402,192,64416,1,0,0:0:0:0:
329,192,64497,1,0,0:0:0:0:
402,192,64578,1,0,0:0:0:0:
109,192,64740,1,0,0:0:0:0:
182,192,64821,1,0,0:0:0:0:
109,192,64902,1,0,0:0:0:0:
182,192,64983,1,0,0:0:0:0:
109,192,65065,1,0,0:0:0:0:
475,192,65227,1,0,0:0:0:0:
256,192,65227,1,0,0:0:0:0:
402,192,65308,1,0,0:0:0:0:
182,192,65308,1,0,0:0:0:0:
329,192,65389,1,0,0:0:0:0:
109,192,65389,1,0,0:0:0:0:
256,192,65470,1,0,0:0:0:0:
36,192,65470,1,0,0:0:0:0:
182,192,65551,1,2,0:0:0:0:
109,192,65551,1,4,0:0:0:0:
329,192,65551,1,0,0:0:0:0:
475,192,65551,128,0,65713:0:0:0:0:
256,192,65713,1,0,0:0:0:0:
402,192,65713,128,0,65875:0:0:0:0:
36,192,65875,1,0,0:0:0:0:
182,192,65875,1,2,0:0:0:0:
329,192,65875,128,0,66038:0:0:0:0:
109,192,66038,1,0,0:0:0:0:
256,192,66038,128,0,66200:0:0:0:0:
475,192,66200,1,0,0:0:0:0:
36,192,66200,1,2,0:0:0:0:
329,192,66200,128,0,66362:0:0:0:0:
182,192,66362,1,0,0:0:0:0:
109,192,66362,1,0,0:0:0:0:
402,192,66443,1,0,0:0:0:0:
329,192,66443,1,0,0:0:0:0:
256,192,66524,1,0,0:0:0:0:
475,192,66524,1,0,0:0:0:0:
36,192,66524,1,2,0:0:0:0:
402,192,66605,1,0,0:0:0:0:
182,192,66605,1,0,0:0:0:0:
329,192,66686,1,0,0:0:0:0:
109,192,66686,1,0,0:0:0:0:
402,192,66767,1,0,0:0:0:0:
182,192,66767,1,0,0:0:0:0:
36,192,66848,128,0,67011:0:0:0:0:
475,192,66848,1,0,0:0:0:0:
256,192,66848,1,2,0:0:0:0:
109,192,67011,128,0,67173:0:0:0:0:
329,192,67011,1,0,0:0:0:0:
182,192,67173,128,0,67335:0:0:0:0:
402,192,67173,1,2,0:0:0:0:
36,192,67173,1,0,0:0:0:0:
256,192,67335,128,0,67497:0:0:0:0:
475,192,67335,1,0,0:0:0:0:
182,192,67497,128,0,67659:0:0:0:0:
402,192,67497,1,2,0:0:0:0:
109,192,67497,1,0,0:0:0:0:
475,192,67659,1,0,0:0:0:0:
329,192,67659,1,0,0:0:0:0:
36,192,67740,1,0,0:0:0:0:
182,192,67740,1,0,0:0:0:0:
402,192,67821,1,2,0:0:0:0:
109,192,67821,1,0,0:0:0:0:
256,192,67821,1,0,0:0:0:0:
329,192,67902,1,0,0:0:0:0:
182,192,67902,1,0,0:0:0:0:
475,192,67983,1,0,0:0:0:0:
36,192,67983,1,0,0:0:0:0:
109,192,68065,1,0,0:0:0:0:
402,192,68065,1,0,0:0:0:0:
256,192,68146,1,2,0:0:0:0:
182,192,68146,1,0,0:0:0:0:
329,192,68146,128,0,68308:0:0:0:0:
182,192,68308,128,0,68470:0:0:0:0:
36,192,68308,1,0,0:0:0:0:
475,192,68470,128,0,68632:0:0:0:0:
109,192,68470,1,0,0:0:0:0:
402,192,68470,1,2,0:0:0:0:
36,192,68632,128,0,68794:0:0:0:0:
329,192,68632,1,0,0:0:0:0:
256,192,68794,128,0,68956:0:0:0:0:
182,192,68794,1,2,0:0:0:0:
402,192,68794,1,0,0:0:0:0:
109,192,68956,1,0,0:0:0:0:
329,192,68956,1,0,0:0:0:0:
402,192,69038,1,0,0:0:0:0:
182,192,69038,1,0,0:0:0:0:
36,192,69119,1,0,0:0:0:0:
329,192,69119,1,0,0:0:0:0:
256,192,69119,1,2,0:0:0:0:
402,192,69200,1,0,0:0:0:0:
109,192,69200,1,0,0:0:0:0:
475,192,69281,1,0,0:0:0:0:
182,192,69281,1,0,0:0:0:0:
329,192,69362,1,0,0:0:0:0:
36,192,69362,1,0,0:0:0:0:
402,192,69443,1,0,0:0:0:0:
256,192,69443,1,2,0:0:0:0:
182,192,69443,128,0,69605:0:0:0:0:
329,192,69605,128,0,69767:0:0:0:0:
475,192,69605,1,0,0:0:0:0:
402,192,69767,1,0,0:0:0:0:
109,192,69767,1,2,0:0:0:0:
36,192,69767,128,0,69929:0:0:0:0:
475,192,69929,128,0,70092:0:0:0:0:
182,192,69929,1,0,0:0:0:0:
402,192,70092,1,0,0:0:0:0:
256,192,70092,1,2,0:0:0:0:
36,192,70092,1,0,0:0:0:0:
109,192,70173,1,0,0:0:0:0:
329,192,70173,1,0,0:0:0:0:
182,192,70254,1,0,0:0:0:0:
402,192,70254,1,0,0:0:0:0:
256,192,70335,1,0,0:0:0:0:
475,192,70335,1,0,0:0:0:0:
329,192,70416,1,0,0:0:0:0:
109,192,70416,1,2,0:0:0:0:
36,192,70416,1,0,0:0:0:0:
475,192,70497,1,0,0:0:0:0:
256,192,70497,1,0,0:0:0:0:
402,192,70578,1,0,0:0:0:0:
182,192,70578,1,2,0:0:0:0:
36,192,70578,1,0,0:0:0:0:
329,192,70659,1,0,0:0:0:0:
109,192,70659,1,0,0:0:0:0:
256,192,70740,1,2,0:0:0:0:
475,192,70740,128,0,70902:0:0:0:0:
182,192,70740,1,0,0:0:0:0:
36,192,70902,128,0,71065:0:0:0:0:
329,192,70902,1,0,0:0:0:0:
182,192,71065,128,0,71227:0:0:0:0:
475,192,71065,1,0,0:0:0:0:
109,192,71065,1,2,0:0:0:0:
329,192,71227,128,0,71389:0:0:0:0:
256,192,71227,1,0,0:0:0:0:
475,192,71389,1,0,0:0:0:0:
36,192,71389,128,0,71551:0:0:0:0:
109,192,71389,1,2,0:0:0:0:
402,192,71551,1,0,0:0:0:0:
329,192,71551,1,0,0:0:0:0:
182,192,71632,1,0,0:0:0:0:
109,192,71632,1,0,0:0:0:0:
475,192,71713,1,0,0:0:0:0:
256,192,71713,1,2,0:0:0:0:
36,192,71713,1,0,0:0:0:0:
402,192,71794,1,0,0:0:0:0:
182,192,71794,1,0,0:0:0:0:
329,192,71875,1,0,0:0:0:0:
109,192,71875,1,0,0:0:0:0:
256,192,71956,1,0,0:0:0:0:
36,192,71956,1,0,0:0:0:0:
402,192,72038,128,0,72200:0:0:0:0:
329,192,72038,1,2,0:0:0:0:
475,192,72038,1,0,0:0:0:0:
109,192,72200,128,0,72362:0:0:0:0:
182,192,72200,1,0,0:0:0:0:
329,192,72362,128,0,72524:0:0:0:0:
36,192,72362,1,0,0:0:0:0:
402,192,72362,1,2,0:0:0:0:
182,192,72524,128,0,72686:0:0:0:0:
256,192,72524,1,0,0:0:0:0:
36,192,72686,1,0,0:0:0:0:
475,192,72686,128,0,72848:0:0:0:0:
329,192,72686,1,2,0:0:0:0:
182,192,72848,1,0,0:0:0:0:
109,192,72848,1,0,0:0:0:0:
402,192,72929,1,0,0:0:0:0:
329,192,72929,1,0,0:0:0:0:
36,192,73011,1,0,0:0:0:0:
256,192,73011,1,2,0:0:0:0:
475,192,73011,1,0,0:0:0:0:
402,192,73092,1,0,0:0:0:0:
182,192,73092,1,0,0:0:0:0:
329,192,73173,1,0,0:0:0:0:
109,192,73173,1,0,0:0:0:0:
256,192,73254,1,0,0:0:0:0:
36,192,73254,1,0,0:0:0:0:
475,192,73335,128,0,73497:0:0:0:0:
182,192,73335,1,2,0:0:0:0:
109,192,73335,1,0,0:0:0:0:
329,192,73497,128,0,73659:0:0:0:0:
36,192,73497,1,0,0:0:0:0:
182,192,73659,128,0,73821:0:0:0:0:
256,192,73659,1,2,0:0:0:0:
402,192,73659,1,0,0:0:0:0:
36,192,73821,128,0,73983:0:0:0:0:
475,192,73821,1,0,0:0:0:0:
402,192,73983,1,0,0:0:0:0:
256,192,73983,1,2,0:0:0:0:
329,192,73983,128,0,74146:0:0:0:0:
182,192,74146,1,0,0:0:0:0:
109,192,74146,1,0,0:0:0:0:
402,192,74227,1,0,0:0:0:0:
475,192,74227,1,0,0:0:0:0:
256,192,74308,1,2,0:0:0:0:
36,192,74308,1,0,0:0:0:0:
329,192,74308,1,0,0:0:0:0:
109,192,74389,1,0,0:0:0:0:
475,192,74470,1,0,0:0:0:0:
256,192,74470,1,2,0:0:0:0:
182,192,74470,1,0,0:0:0:0:
402,192,74551,1,0,0:0:0:0:
36,192,74632,1,0,0:0:0:0:
182,192,74713,1,2,0:0:0:0:
109,192,74713,1,0,0:0:0:0:
475,192,74794,1,0,0:0:0:0:
329,192,74875,1,0,0:0:0:0:
402,192,74956,1,0,0:0:0:0:
256,192,74956,1,2,0:0:0:0:
109,192,74956,1,0,0:0:0:0:
182,192,75119,1,0,0:0:0:0:
329,192,75200,1,2,0:0:0:0:
402,192,75200,1,0,0:0:0:0:
256,192,75281,1,0,0:0:0:0:
475,192,75362,1,0,0:0:0:0:
36,192,75362,1,2,0:0:0:0:
329,192,75443,1,0,0:0:0:0:
182,192,75524,1,0,0:0:0:0:
329,192,75605,1,8,0:0:0:0:
109,192,75605,1,0,0:0:0:0:
475,192,75686,1,0,0:0:0:0:
36,192,75767,1,0,0:0:0:0:
182,192,75848,1,0,0:0:0:0:
256,192,75929,1,0,0:0:0:0:
402,192,75929,1,0,0:0:0:0:
182,192,76011,1,0,0:0:0:0:
36,192,76011,1,0,0:0:0:0:
329,192,76092,1,0,0:0:0:0:
475,192,76092,1,0,0:0:0:0:
256,192,76173,1,0,0:0:0:0:
109,192,76173,1,0,0:0:0:0:
402,192,76254,1,2,0:0:0:0:
475,192,76254,1,4,0:0:0:0:
182,192,76254,1,0,0:0:0:0:
36,192,76254,1,0,0:0:0:0:
256,192,76335,1,0,0:0:0:0:
329,192,76416,1,0,0:0:0:0:
109,192,76416,1,0,0:0:0:0:
182,192,76497,1,0,0:0:0:0:
256,192,76578,1,2,0:0:0:0:
475,192,76578,1,0,0:0:0:0:
402,192,76659,1,0,0:0:0:0:
182,192,76740,1,0,0:0:0:0:
36,192,76740,1,0,0:0:0:0:
329,192,76821,1,0,0:0:0:0:
475,192,76821,1,0,0:0:0:0:
256,192,76902,1,2,0:0:0:0:
109,192,76902,1,0,0:0:0:0:
329,192,76983,1,0,0:0:0:0:
475,192,76983,1,0,0:0:0:0:
182,192,77065,1,0,0:0:0:0:
36,192,77065,1,0,0:0:0:0:
256,192,77146,1,0,0:0:0:0:
402,192,77146,1,0,0:0:0:0:
329,192,77227,1,2,0:0:0:0:
109,192,77227,1,0,0:0:0:0:
475,192,77308,1,0,0:0:0:0:
402,192,77389,1,0,0:0:0:0:
182,192,77389,1,0,0:0:0:0:
329,192,77470,1,0,0:0:0:0:
36,192,77551,1,2,0:0:0:0:
475,192,77551,1,0,0:0:0:0:
256,192,77632,1,0,0:0:0:0:
109,192,77713,1,0,0:0:0:0:
329,192,77713,1,0,0:0:0:0:
182,192,77794,1,0,0:0:0:0:
256,192,77875,1,2,0:0:0:0:
475,192,77875,1,0,0:0:0:0:
402,192,77956,1,0,0:0:0:0:
36,192,78038,1,0,0:0:0:0:
182,192,78038,1,0,0:0:0:0:
475,192,78119,1,0,0:0:0:0:
329,192,78119,1,0,0:0:0:0:
109,192,78200,1,0,0:0:0:0:
256,192,78200,1,2,0:0:0:0:
329,192,78281,1,0,0:0:0:0:
475,192,78281,1,0,0:0:0:0:
36,192,78362,1,0,0:0:0:0:
182,192,78362,1,0,0:0:0:0:
402,192,78443,1,0,0:0:0:0:
256,192,78443,1,0,0:0:0:0:
182,192,78524,1,2,0:0:0:0:
109,192,78524,1,0,0:0:0:0:
475,192,78605,1,0,0:0:0:0:
402,192,78686,1,0,0:0:0:0:
329,192,78686,1,0,0:0:0:0:
182,192,78767,1,0,0:0:0:0:
256,192,78848,1,2,0:0:0:0:
36,192,78848,1,0,0:0:0:0:
329,192,78929,1,0,0:0:0:0:
475,192,79011,1,0,0:0:0:0:
109,192,79011,1,0,0:0:0:0:
256,192,79092,1,0,0:0:0:0:
402,192,79173,1,0,0:0:0:0:
182,192,79173,1,2,0:0:0:0:
475,192,79254,1,0,0:0:0:0:
256,192,79335,1,0,0:0:0:0:
36,192,79335,1,0,0:0:0:0:
109,192,79416,1,0,0:0:0:0:
329,192,79416,1,0,0:0:0:0:
475,192,79497,1,0,0:0:0:0:
402,192,79497,1,2,0:0:0:0:
256,192,79578,1,0,0:0:0:0:
182,192,79578,1,0,0:0:0:0:
402,192,79659,1,0,0:0:0:0:
329,192,79659,1,0,0:0:0:0:
109,192,79740,1,0,0:0:0:0:
36,192,79740,1,0,0:0:0:0:
329,192,79821,1,0,0:0:0:0:
402,192,79821,1,2,0:0:0:0:
36,192,79902,1,0,0:0:0:0:
182,192,79983,1,0,0:0:0:0:
109,192,79983,1,0,0:0:0:0:
329,192,80065,1,0,0:0:0:0:
256,192,80146,1,2,0:0:0:0:
475,192,80146,1,0,0:0:0:0:
182,192,80227,1,0,0:0:0:0:
36,192,80308,1,0,0:0:0:0:
402,192,80308,1,0,0:0:0:0:
329,192,80389,1,0,0:0:0:0:
475,192,80389,1,0,0:0:0:0:
182,192,80470,1,2,0:0:0:0:
36,192,80470,1,0,0:0:0:0:
109,192,80551,1,0,0:0:0:0:
256,192,80551,1,0,0:0:0:0:
182,192,80632,1,0,0:0:0:0:
329,192,80632,1,0,0:0:0:0:
256,192,80713,1,0,0:0:0:0:
402,192,80713,1,0,0:0:0:0:
182,192,80794,1,0,0:0:0:0:
36,192,80794,1,2,0:0:0:0:
329,192,80875,1,0,0:0:0:0:
475,192,80875,1,0,0:0:0:0:
256,192,80956,1,0,0:0:0:0:
109,192,80956,1,2,0:0:0:0:
329,192,81038,1,0,0:0:0:0:
475,192,81038,1,0,0:0:0:0:
36,192,81119,1,0,0:0:0:0:
182,192,81119,1,8,0:0:0:0:
256,192,81119,1,0,0:0:0:0:
402,192,81200,1,0,0:0:0:0:
475,192,81281,1,0,0:0:0:0:
36,192,81281,1,0,0:0:0:0:
109,192,81362,1,0,0:0:0:0:
402,192,81443,1,0,0:0:0:0:
329,192,81443,1,0,0:0:0:0:
256,192,81443,1,8,0:0:0:0:
36,192,81524,1,0,0:0:0:0:
182,192,81605,1,0,0:0:0:0:
475,192,81605,1,0,0:0:0:0:
402,192,81686,1,0,0:0:0:0:
329,192,81767,1,0,0:0:0:0:
256,192,81767,1,8,0:0:0:0:
182,192,81767,1,0,0:0:0:0:
109,192,81848,1,0,0:0:0:0:
475,192,81929,1,0,0:0:0:0:
402,192,81929,1,0,0:0:0:0:
329,192,82011,1,0,0:0:0:0:
36,192,82011,1,0,0:0:0:0:
256,192,82092,1,8,0:0:0:0:
182,192,82092,1,0,0:0:0:0:
109,192,82092,1,0,0:0:0:0:
475,192,82173,1,0,0:0:0:0:
402,192,82173,1,0,0:0:0:0:
329,192,82254,1,0,0:0:0:0:
36,192,82254,1,0,0:0:0:0:
402,192,82335,1,0,0:0:0:0:
256,192,82335,1,0,0:0:0:0:
36,192,82416,1,0,0:0:0:0:
109,192,82416,1,0,0:0:0:0:
182,192,82416,1,8,0:0:0:0:
329,192,82497,1,0,0:0:0:0:
36,192,82578,1,0,0:0:0:0:
475,192,82578,1,0,0:0:0:0:
402,192,82659,1,0,0:0:0:0:
182,192,82740,1,8,0:0:0:0:
256,192,82740,1,0,0:0:0:0:
109,192,82740,1,0,0:0:0:0:
475,192,82821,1,0,0:0:0:0:
329,192,82902,1,0,0:0:0:0:
36,192,82902,1,0,0:0:0:0:
109,192,82983,1,0,0:0:0:0:
329,192,83065,1,0,0:0:0:0:
256,192,83065,1,0,0:0:0:0:
182,192,83065,1,8,0:0:0:0:
402,192,83146,1,0,0:0:0:0:
36,192,83227,1,0,0:0:0:0:
109,192,83227,1,0,0:0:0:0:
475,192,83308,1,0,0:0:0:0:
182,192,83308,1,0,0:0:0:0:
256,192,83389,1,0,0:0:0:0:
402,192,83389,1,0,0:0:0:0:
329,192,83389,1,8,0:0:0:0:
36,192,83470,1,0,0:0:0:0:
182,192,83470,1,0,0:0:0:0:
256,192,83551,1,0,0:0:0:0:
109,192,83551,1,0,0:0:0:0:
329,192,83632,1,0,0:0:0:0:
182,192,83632,1,0,0:0:0:0:
402,192,83713,1,8,0:0:0:0:
475,192,83713,1,0,0:0:0:0:
36,192,83713,1,0,0:0:0:0:
256,192,83794,1,0,0:0:0:0:
402,192,83875,1,8,0:0:0:0:
475,192,83875,1,0,0:0:0:0:
36,192,83875,1,0,0:0:0:0:
182,192,83956,1,0,0:0:0:0:
109,192,84038,1,8,0:0:0:0:
36,192,84038,1,0,0:0:0:0:
475,192,84038,1,0,0:0:0:0:
329,192,84119,1,0,0:0:0:0:
475,192,84200,1,0,0:0:0:0:
109,192,84200,1,8,0:0:0:0:
36,192,84200,1,0,0:0:0:0:
256,192,84281,1,0,0:0:0:0:
329,192,84362,1,8,0:0:0:0:
402,192,84362,1,0,0:0:0:0:
475,192,84362,1,0,0:0:0:0:
182,192,84443,1,0,0:0:0:0:
329,192,84524,1,8,0:0:0:0:
402,192,84524,1,0,0:0:0:0:
475,192,84524,1,0,0:0:0:0:
256,192,84605,1,0,0:0:0:0:
182,192,84686,1,8,0:0:0:0:
109,192,84686,1,0,0:0:0:0:
36,192,84686,1,0,0:0:0:0:
402,192,84767,1,0,0:0:0:0:
182,192,84848,1,8,0:0:0:0:
109,192,84848,1,2,0:0:0:0:
36,192,84848,1,0,0:0:0:0:
256,192,84929,1,0,0:0:0:0:
402,192,85011,1,0,0:0:0:0:
109,192,85092,1,0,0:0:0:0:
329,192,85173,1,0,0:0:0:0:
182,192,85254,1,0,0:0:0:0:
475,192,85335,1,0,0:0:0:0:
36,192,85416,1,0,0:0:0:0:
329,192,85497,1,0,0:0:0:0:
182,192,85578,1,0,0:0:0:0:
256,192,85659,128,0,86308:0:0:0:0:
475,192,85659,1,0,0:0:0:0:
329,192,85740,1,0,0:0:0:0:
36,192,85821,1,0,0:0:0:0:
182,192,85902,1,0,0:0:0:0:
109,192,85983,1,0,0:0:0:0:
36,192,85983,1,0,0:0:0:0:
402,192,86065,1,0,0:0:0:0:
475,192,86065,1,0,0:0:0:0:
109,192,86146,1,0,0:0:0:0:
36,192,86146,1,0,0:0:0:0:
402,192,86227,1,0,0:0:0:0:
475,192,86227,1,0,0:0:0:0:
109,192,86308,1,4,0:0:0:0:
36,192,86308,128,0,87605:0:0:0:0:
329,192,86470,1,0,0:0:0:0:
256,192,86632,1,0,0:0:0:0:
329,192,86794,1,0,0:0:0:0:
402,192,86875,1,0,0:0:0:0:
402,192,87038,1,0,0:0:0:0:
329,192,87119,1,0,0:0:0:0:
256,192,87281,1,0,0:0:0:0:
475,192,87443,1,0,0:0:0:0:
402,192,87524,1,0,0:0:0:0:
329,192,87686,1,0,0:0:0:0:
182,192,87767,1,0,0:0:0:0:
109,192,87929,1,0,0:0:0:0:
109,192,88092,1,0,0:0:0:0:
182,192,88173,1,0,0:0:0:0:
182,192,88335,1,0,0:0:0:0:
109,192,88416,1,0,0:0:0:0:
256,192,88578,1,0,0:0:0:0:
402,192,88740,1,0,0:0:0:0:
329,192,88821,1,0,0:0:0:0:
256,192,88983,1,0,0:0:0:0:
182,192,89065,1,0,0:0:0:0:
475,192,89227,1,0,0:0:0:0:
109,192,89389,1,0,0:0:0:0:
256,192,89470,1,0,0:0:0:0:
475,192,89632,1,0,0:0:0:0:
329,192,89713,1,0,0:0:0:0:
36,192,89875,1,0,0:0:0:0:
475,192,90038,1,0,0:0:0:0:
402,192,90119,1,0,0:0:0:0:
329,192,90281,1,0,0:0:0:0:
182,192,90362,1,0,0:0:0:0:
109,192,90524,1,0,0:0:0:0:
109,192,90686,1,0,0:0:0:0:
182,192,90767,1,0,0:0:0:0:
182,192,90929,1,0,0:0:0:0:
109,192,91011,1,0,0:0:0:0:
256,192,91173,1,0,0:0:0:0:
402,192,91335,1,0,0:0:0:0:
329,192,91416,1,0,0:0:0:0:
182,192,91497,1,2,0:0:0:0:
36,192,91497,1,0,0:0:0:0:
475,192,91497,1,0,0:0:0:0:
256,192,91659,1,0,0:0:0:0:
402,192,91821,1,0,0:0:0:0:
109,192,91821,1,0,0:0:0:0:
329,192,91821,1,8,0:0:0:0:
36,192,91983,1,0,0:0:0:0:
182,192,91983,1,2,0:0:0:0:
475,192,92146,1,0,0:0:0:0:
256,192,92308,1,8,0:0:0:0:
329,192,92308,1,0,0:0:0:0:
109,192,92308,1,0,0:0:0:0:
36,192,92470,1,0,0:0:0:0:
402,192,92632,1,0,0:0:0:0:
182,192,92794,1,2,0:0:0:0:
109,192,92794,1,0,0:0:0:0:
402,192,92956,1,0,0:0:0:0:
256,192,93119,1,8,0:0:0:0:
475,192,93119,1,0,0:0:0:0:
36,192,93119,1,0,0:0:0:0:
329,192,93281,1,0,0:0:0:0:
182,192,93281,1,2,0:0:0:0:
402,192,93443,1,0,0:0:0:0:
329,192,93605,1,8,0:0:0:0:
109,192,93605,1,0,0:0:0:0:
475,192,93605,1,0,0:0:0:0:
256,192,93767,1,2,0:0:0:0:
402,192,93767,1,0,0:0:0:0:
36,192,93929,1,0,0:0:0:0:
182,192,94092,1,8,0:0:0:0:
475,192,94092,1,0,0:0:0:0:
109,192,94092,1,0,0:0:0:0:
329,192,94254,1,0,0:0:0:0:
256,192,94416,1,2,0:0:0:0:
402,192,94416,1,0,0:0:0:0:
329,192,94578,1,0,0:0:0:0:
36,192,94578,1,0,0:0:0:0:
182,192,94578,1,8,0:0:0:0:
109,192,94740,1,0,0:0:0:0:
475,192,94902,1,0,0:0:0:0:
182,192,95065,1,8,0:0:0:0:
329,192,95065,1,0,0:0:0:0:
36,192,95065,1,0,0:0:0:0:
402,192,95227,1,0,0:0:0:0:
329,192,95389,1,0,0:0:0:0:
182,192,95389,1,0,0:0:0:0:
256,192,95389,128,2,96362:0:0:0:0:
36,192,96362,128,0,96443:0:0:0:0:
182,192,96443,128,0,96524:0:0:0:0:
329,192,96524,128,0,96605:0:0:0:0:
475,192,96605,128,0,96686:0:0:0:0:
109,192,96686,128,0,96848:0:0:0:0:
402,192,96848,128,0,97011:0:0:0:0:
36,192,97011,128,0,97173:0:0:0:0:
475,192,97173,128,0,97335:0:0:0:0:
109,192,97335,128,0,97416:0:0:0:0:
182,192,97416,1,0,0:0:0:0:
402,192,97497,128,0,97578:0:0:0:0:
329,192,97578,1,0,0:0:0:0:
256,192,97659,1,0,0:0:0:0:
109,192,97659,1,0,0:0:0:0:
475,192,97740,1,0,0:0:0:0:
329,192,97740,1,0,0:0:0:0:
36,192,97821,1,0,0:0:0:0:
182,192,97821,1,0,0:0:0:0:
402,192,97902,1,0,0:0:0:0:
256,192,97902,1,0,0:0:0:0:
109,192,97983,128,2,98146:0:0:0:0:
36,192,97983,128,0,98146:0:0:0:0:
329,192,97983,128,0,98146:0:0:0:0:
475,192,97983,128,0,98146:0:0:0:0:
182,192,97983,1,4,0:0:0:0:
182,192,98146,128,0,98308:0:0:0:0:
402,192,98146,128,0,98308:0:0:0:0:
256,192,98308,128,0,98470:0:0:0:0:
329,192,98308,128,0,98470:0:0:0:0:
475,192,98308,128,0,98470:0:0:0:0:
109,192,98308,128,2,98470:0:0:0:0:
402,192,98470,128,0,98632:0:0:0:0:
36,192,98470,128,0,98632:0:0:0:0:
475,192,98632,128,0,98794:0:0:0:0:
256,192,98632,128,0,98794:0:0:0:0:
182,192,98632,128,0,98794:0:0:0:0:
109,192,98632,128,2,98794:0:0:0:0:
329,192,98794,1,0,0:0:0:0:
402,192,98794,1,0,0:0:0:0:
256,192,98875,1,0,0:0:0:0:
182,192,98875,1,0,0:0:0:0:
109,192,98956,1,2,0:0:0:0:
36,192,98956,1,0,0:0:0:0:
475,192,98956,1,0,0:0:0:0:
256,192,99038,1,0,0:0:0:0:
329,192,99038,1,0,0:0:0:0:
402,192,99119,1,0,0:0:0:0:
109,192,99119,1,0,0:0:0:0:
182,192,99200,1,0,0:0:0:0:
475,192,99281,128,0,99443:0:0:0:0:
329,192,99281,128,0,99443:0:0:0:0:
36,192,99281,128,0,99443:0:0:0:0:
256,192,99281,128,2,99443:0:0:0:0:
402,192,99443,128,0,99605:0:0:0:0:
109,192,99443,128,0,99605:0:0:0:0:
329,192,99605,128,0,99767:0:0:0:0:
36,192,99605,128,0,99767:0:0:0:0:
182,192,99605,128,2,99767:0:0:0:0:
475,192,99605,128,0,99767:0:0:0:0:
109,192,99767,128,0,99929:0:0:0:0:
256,192,99767,128,0,99929:0:0:0:0:
475,192,99929,1,0,0:0:0:0:
402,192,99929,1,2,0:0:0:0:
329,192,99929,1,0,0:0:0:0:
329,192,100092,1,0,0:0:0:0:
182,192,100092,1,0,0:0:0:0:
109,192,100173,1,0,0:0:0:0:
256,192,100173,1,0,0:0:0:0:
402,192,100254,1,0,0:0:0:0:
329,192,100254,1,2,0:0:0:0:
475,192,100254,1,0,0:0:0:0:
36,192,100335,1,0,0:0:0:0:
182,192,100335,1,0,0:0:0:0:
402,192,100416,1,0,0:0:0:0:
475,192,100416,1,0,0:0:0:0:
36,192,100497,1,0,0:0:0:0:
256,192,100497,1,0,0:0:0:0:
475,192,100578,128,0,100740:0:0:0:0:
109,192,100578,128,0,100740:0:0:0:0:
329,192,100578,128,0,100740:0:0:0:0:
182,192,100578,128,2,100740:0:0:0:0:
402,192,100740,128,0,100902:0:0:0:0:
36,192,100740,128,0,100902:0:0:0:0:
329,192,100902,128,0,101065:0:0:0:0:
109,192,100902,128,0,101065:0:0:0:0:
182,192,100902,128,2,101065:0:0:0:0:
475,192,100902,128,0,101065:0:0:0:0:
256,192,101065,128,0,101227:0:0:0:0:
402,192,101065,128,0,101227:0:0:0:0:
182,192,101227,1,2,0:0:0:0:
109,192,101227,1,0,0:0:0:0:
36,192,101227,1,0,0:0:0:0:
329,192,101308,1,0,0:0:0:0:
256,192,101308,1,0,0:0:0:0:
182,192,101389,1,0,0:0:0:0:
109,192,101389,1,0,0:0:0:0:
402,192,101470,1,0,0:0:0:0:
475,192,101470,1,0,0:0:0:0:
182,192,101551,1,2,0:0:0:0:
109,192,101551,1,0,0:0:0:0:
36,192,101551,1,0,0:0:0:0:
256,192,101632,1,0,0:0:0:0:
475,192,101713,1,0,0:0:0:0:
329,192,101713,1,2,0:0:0:0:
402,192,101713,1,0,0:0:0:0:
182,192,101794,1,0,0:0:0:0:
36,192,101875,128,0,102038:0:0:0:0:
329,192,101875,128,0,102038:0:0:0:0:
475,192,101875,128,0,102038:0:0:0:0:
256,192,101875,128,2,102038:0:0:0:0:
402,192,102038,128,0,102200:0:0:0:0:
182,192,102038,128,0,102200:0:0:0:0:
109,192,102200,128,2,102362:0:0:0:0:
36,192,102200,128,0,102362:0:0:0:0:
329,192,102200,128,0,102362:0:0:0:0:
475,192,102200,128,0,102362:0:0:0:0:
256,192,102362,128,0,102524:0:0:0:0:
402,192,102362,128,0,102524:0:0:0:0:
329,192,102524,1,0,0:0:0:0:
182,192,102524,1,2,0:0:0:0:
256,192,102686,1,0,0:0:0:0:
402,192,102686,1,0,0:0:0:0:
329,192,102767,1,0,0:0:0:0:
182,192,102767,1,0,0:0:0:0:
475,192,102848,1,0,0:0:0:0:
36,192,102848,1,0,0:0:0:0:
109,192,102848,1,2,0:0:0:0:
402,192,102929,1,0,0:0:0:0:
329,192,102929,1,0,0:0:0:0:
256,192,103011,1,0,0:0:0:0:
36,192,103011,1,0,0:0:0:0:
402,192,103092,1,0,0:0:0:0:
475,192,103092,1,0,0:0:0:0:
329,192,103173,128,0,103335:0:0:0:0:
182,192,103173,128,2,103335:0:0:0:0:
36,192,103173,128,0,103335:0:0:0:0:
256,192,103173,128,0,103335:0:0:0:0:
402,192,103335,128,0,103497:0:0:0:0:
109,192,103335,128,0,103497:0:0:0:0:
329,192,103497,128,0,103659:0:0:0:0:
36,192,103497,128,0,103659:0:0:0:0:
182,192,103497,128,2,103659:0:0:0:0:
475,192,103497,128,0,103659:0:0:0:0:
109,192,103659,128,0,103821:0:0:0:0:
256,192,103659,128,0,103821:0:0:0:0:
402,192,103821,1,0,0:0:0:0:
475,192,103821,1,0,0:0:0:0:
329,192,103821,1,2,0:0:0:0:
109,192,103983,1,0,0:0:0:0:
256,192,103983,1,0,0:0:0:0:
329,192,104065,1,0,0:0:0:0:
475,192,104065,1,0,0:0:0:0:
182,192,104146,1,2,0:0:0:0:
36,192,104146,1,0,0:0:0:0:
402,192,104146,1,0,0:0:0:0:
109,192,104227,1,0,0:0:0:0:
256,192,104227,1,0,0:0:0:0:
182,192,104308,1,0,0:0:0:0:
329,192,104308,1,0,0:0:0:0:
256,192,104389,1,0,0:0:0:0:
402,192,104389,1,0,0:0:0:0:
475,192,104470,128,0,104632:0:0:0:0:
109,192,104470,128,2,104632:0:0:0:0:
36,192,104470,128,0,104632:0:0:0:0:
329,192,104470,128,0,104632:0:0:0:0:
256,192,104632,128,0,104794:0:0:0:0:
402,192,104632,128,0,104794:0:0:0:0:
329,192,104794,128,0,104956:0:0:0:0:
36,192,104794,128,0,104956:0:0:0:0:
109,192,104794,128,2,104956:0:0:0:0:
475,192,104794,128,0,104956:0:0:0:0:
182,192,104956,128,0,105119:0:0:0:0:
402,192,104956,128,0,105119:0:0:0:0:
329,192,105119,1,2,0:0:0:0:
36,192,105119,1,0,0:0:0:0:
475,192,105119,1,0,0:0:0:0:
329,192,105281,1,0,0:0:0:0:
475,192,105281,1,0,0:0:0:0:
402,192,105362,1,0,0:0:0:0:
256,192,105362,1,0,0:0:0:0:
182,192,105443,1,2,0:0:0:0:
36,192,105443,1,0,0:0:0:0:
109,192,105443,1,0,0:0:0:0:
329,192,105524,1,0,0:0:0:0:
475,192,105524,1,0,0:0:0:0:
182,192,105605,1,0,0:0:0:0:
109,192,105605,1,0,0:0:0:0:
402,192,105686,1,0,0:0:0:0:
329,192,105686,1,0,0:0:0:0:
256,192,105767,1,2,0:0:0:0:
36,192,105767,1,0,0:0:0:0:
109,192,105848,1,0,0:0:0:0:
329,192,105848,1,0,0:0:0:0:
475,192,105929,1,0,0:0:0:0:
109,192,106011,1,0,0:0:0:0:
329,192,106011,1,0,0:0:0:0:
182,192,106092,1,0,0:0:0:0:
402,192,106092,1,0,0:0:0:0:
256,192,106092,1,2,0:0:0:0:
36,192,106173,1,0,0:0:0:0:
182,192,106254,1,0,0:0:0:0:
402,192,106254,1,0,0:0:0:0:
256,192,106335,1,0,0:0:0:0:
475,192,106335,1,0,0:0:0:0:
109,192,106416,1,2,0:0:0:0:
256,192,106497,1,0,0:0:0:0:
475,192,106497,1,0,0:0:0:0:
182,192,106578,1,0,0:0:0:0:
402,192,106578,1,0,0:0:0:0:
109,192,106659,1,0,0:0:0:0:
329,192,106740,1,8,0:0:0:0:
475,192,106740,1,0,0:0:0:0:
36,192,106740,1,0,0:0:0:0:
256,192,106740,1,0,0:0:0:0:
182,192,106821,1,0,0:0:0:0:
329,192,106902,1,0,0:0:0:0:
475,192,106983,1,0,0:0:0:0:
182,192,107065,1,2,0:0:0:0:
109,192,107065,1,0,0:0:0:0:
36,192,107065,1,0,0:0:0:0:
329,192,107146,1,2,0:0:0:0:
402,192,107146,1,0,0:0:0:0:
475,192,107146,1,0,0:0:0:0:
182,192,107227,1,2,0:0:0:0:
109,192,107227,1,0,0:0:0:0:
36,192,107227,1,0,0:0:0:0:
329,192,107308,1,2,0:0:0:0:
402,192,107308,1,0,0:0:0:0:
475,192,107308,1,0,0:0:0:0:
256,192,107389,1,4,0:0:0:0:
182,192,107389,1,2,0:0:0:0:
109,192,107389,1,0,0:0:0:0:
36,192,107389,1,0,0:0:0:0:
475,192,107470,1,0,0:0:0:0:
402,192,107551,1,0,0:0:0:0:
182,192,107551,1,0,0:0:0:0:
329,192,107632,1,0,0:0:0:0:
256,192,107713,1,2,0:0:0:0:
109,192,107713,1,0,0:0:0:0:
36,192,107713,1,0,0:0:0:0:
475,192,107794,1,0,0:0:0:0:
402,192,107875,1,0,0:0:0:0:
109,192,107875,1,0,0:0:0:0:
329,192,107956,1,0,0:0:0:0:
256,192,107956,1,0,0:0:0:0:
402,192,108038,1,2,0:0:0:0:
475,192,108038,1,0,0:0:0:0:
182,192,108038,1,0,0:0:0:0:
109,192,108119,1,0,0:0:0:0:
36,192,108119,1,0,0:0:0:0:
182,192,108200,1,0,0:0:0:0:
329,192,108200,1,0,0:0:0:0:
402,192,108281,1,0,0:0:0:0:
475,192,108281,1,0,0:0:0:0:
256,192,108362,1,0,0:0:0:0:
109,192,108362,1,2,0:0:0:0:
36,192,108362,1,0,0:0:0:0:
329,192,108443,1,0,0:0:0:0:
475,192,108524,1,0,0:0:0:0:
182,192,108524,1,0,0:0:0:0:
256,192,108605,1,0,0:0:0:0:
402,192,108686,1,0,0:0:0:0:
475,192,108686,1,0,0:0:0:0:
329,192,108686,1,2,0:0:0:0:
256,192,108767,1,0,0:0:0:0:
182,192,108848,1,0,0:0:0:0:
36,192,108848,1,0,0:0:0:0:
109,192,108929,1,0,0:0:0:0:
256,192,109011,1,0,0:0:0:0:
475,192,109011,1,0,0:0:0:0:
402,192,109011,1,2,0:0:0:0:
36,192,109092,1,0,0:0:0:0:
109,192,109173,1,0,0:0:0:0:
402,192,109173,1,0,0:0:0:0:
256,192,109254,1,0,0:0:0:0:
182,192,109254,1,0,0:0:0:0:
109,192,109335,1,2,0:0:0:0:
329,192,109335,1,0,0:0:0:0:
36,192,109335,1,0,0:0:0:0:
402,192,109416,1,0,0:0:0:0:
475,192,109416,1,0,0:0:0:0:
329,192,109497,1,0,0:0:0:0:
182,192,109497,1,0,0:0:0:0:
109,192,109578,1,0,0:0:0:0:
36,192,109578,1,0,0:0:0:0:
256,192,109659,1,0,0:0:0:0:
475,192,109659,1,0,0:0:0:0:
402,192,109659,1,2,0:0:0:0:
182,192,109740,1,0,0:0:0:0:
36,192,109821,1,0,0:0:0:0:
475,192,109821,1,0,0:0:0:0:
329,192,109902,1,0,0:0:0:0:
402,192,109983,1,0,0:0:0:0:
36,192,109983,1,0,0:0:0:0:
109,192,109983,1,2,0:0:0:0:
182,192,110065,1,0,0:0:0:0:
256,192,110146,1,0,0:0:0:0:
475,192,110146,1,0,0:0:0:0:
329,192,110227,1,0,0:0:0:0:
36,192,110308,1,0,0:0:0:0:
109,192,110308,1,2,0:0:0:0:
402,192,110308,1,0,0:0:0:0:
329,192,110389,1,0,0:0:0:0:
36,192,110470,1,0,0:0:0:0:
475,192,110470,1,0,0:0:0:0:
402,192,110551,1,0,0:0:0:0:
256,192,110551,1,0,0:0:0:0:
329,192,110632,1,0,0:0:0:0:
182,192,110632,1,2,0:0:0:0:
109,192,110632,1,0,0:0:0:0:
402,192,110713,1,0,0:0:0:0:
36,192,110713,1,0,0:0:0:0:
182,192,110794,1,0,0:0:0:0:
329,192,110794,1,0,0:0:0:0:
475,192,110875,1,0,0:0:0:0:
109,192,110875,1,0,0:0:0:0:
182,192,110956,1,0,0:0:0:0:
36,192,110956,1,0,0:0:0:0:
256,192,110956,1,2,0:0:0:0:
329,192,111038,1,0,0:0:0:0:
36,192,111119,1,0,0:0:0:0:
475,192,111119,1,0,0:0:0:0:
182,192,111200,1,0,0:0:0:0:
475,192,111281,1,0,0:0:0:0:
109,192,111281,1,0,0:0:0:0:
402,192,111281,1,2,0:0:0:0:
329,192,111362,1,0,0:0:0:0:
256,192,111443,1,0,0:0:0:0:
36,192,111443,1,0,0:0:0:0:
182,192,111524,1,0,0:0:0:0:
402,192,111605,1,2,0:0:0:0:
475,192,111605,1,0,0:0:0:0:
109,192,111605,1,0,0:0:0:0:
329,192,111686,1,0,0:0:0:0:
256,192,111686,1,0,0:0:0:0:
475,192,111767,1,0,0:0:0:0:
36,192,111767,1,0,0:0:0:0:
109,192,111848,1,0,0:0:0:0:
256,192,111848,1,0,0:0:0:0:
329,192,111929,1,2,0:0:0:0:
402,192,111929,1,0,0:0:0:0:
182,192,111929,1,0,0:0:0:0:
109,192,112011,1,0,0:0:0:0:
475,192,112011,1,0,0:0:0:0:
182,192,112092,1,0,0:0:0:0:
329,192,112092,1,2,0:0:0:0:
402,192,112173,1,0,0:0:0:0:
36,192,112173,1,0,0:0:0:0:
329,192,112254,1,0,0:0:0:0:
475,192,112254,1,0,0:0:0:0:
256,192,112254,1,8,0:0:0:0:
182,192,112254,1,0,0:0:0:0:
109,192,112335,1,0,0:0:0:0:
402,192,112416,1,0,0:0:0:0:
36,192,112416,1,0,0:0:0:0:
329,192,112497,1,0,0:0:0:0:
256,192,112578,1,8,0:0:0:0:
182,192,112578,1,0,0:0:0:0:
109,192,112578,1,0,0:0:0:0:
475,192,112578,1,0,0:0:0:0:
402,192,112659,1,0,0:0:0:0:
329,192,112740,1,0,0:0:0:0:
36,192,112740,1,0,0:0:0:0:
256,192,112821,1,0,0:0:0:0:
182,192,112902,1,8,0:0:0:0:
109,192,112902,1,0,0:0:0:0:
329,192,112902,1,0,0:0:0:0:
402,192,112902,1,0,0:0:0:0:
475,192,112983,1,0,0:0:0:0:
402,192,113065,1,0,0:0:0:0:
36,192,113065,1,0,0:0:0:0:
256,192,113146,1,0,0:0:0:0:
329,192,113227,1,8,0:0:0:0:
475,192,113227,1,0,0:0:0:0:
182,192,113308,1,0,0:0:0:0:
36,192,113308,1,0,0:0:0:0:
329,192,113389,1,0,0:0:0:0:
402,192,113389,1,0,0:0:0:0:
182,192,113470,1,0,0:0:0:0:
109,192,113470,1,0,0:0:0:0:
256,192,113551,1,0,0:0:0:0:
402,192,113551,1,8,0:0:0:0:
475,192,113551,1,0,0:0:0:0:
36,192,113551,1,0,0:0:0:0:
329,192,113632,1,0,0:0:0:0:
182,192,113713,1,0,0:0:0:0:
109,192,113713,1,0,0:0:0:0:
475,192,113794,1,0,0:0:0:0:
402,192,113875,1,0,0:0:0:0:
329,192,113875,1,8,0:0:0:0:
36,192,113875,1,0,0:0:0:0:
256,192,113875,1,0,0:0:0:0:
109,192,113956,1,0,0:0:0:0:
182,192,114038,1,0,0:0:0:0:
475,192,114038,1,0,0:0:0:0:
256,192,114119,1,0,0:0:0:0:
329,192,114200,1,8,0:0:0:0:
402,192,114200,1,0,0:0:0:0:
109,192,114200,1,0,0:0:0:0:
36,192,114200,1,0,0:0:0:0:
182,192,114281,1,0,0:0:0:0:
475,192,114362,1,0,0:0:0:0:
256,192,114362,1,0,0:0:0:0:
329,192,114443,1,0,0:0:0:0:
402,192,114524,1,0,0:0:0:0:
475,192,114524,1,0,0:0:0:0:
182,192,114524,1,8,0:0:0:0:
36,192,114524,1,0,0:0:0:0:
329,192,114605,1,0,0:0:0:0:
256,192,114686,1,0,0:0:0:0:
109,192,114686,1,0,0:0:0:0:
402,192,114767,1,0,0:0:0:0:
182,192,114848,1,8,0:0:0:0:
36,192,114848,1,0,0:0:0:0:
329,192,114848,1,0,0:0:0:0:
256,192,114929,1,0,0:0:0:0:
182,192,115011,1,8,0:0:0:0:
36,192,115011,1,0,0:0:0:0:
402,192,115011,1,0,0:0:0:0:
329,192,115092,1,0,0:0:0:0:
475,192,115173,1,0,0:0:0:0:
182,192,115173,1,8,0:0:0:0:
36,192,115173,1,0,0:0:0:0:
329,192,115254,1,0,0:0:0:0:
109,192,115335,1,8,0:0:0:0:
256,192,115335,1,0,0:0:0:0:
402,192,115335,1,0,0:0:0:0:
36,192,115416,1,0,0:0:0:0:
329,192,115497,1,8,0:0:0:0:
475,192,115497,1,0,0:0:0:0:
182,192,115497,1,0,0:0:0:0:
256,192,115578,1,0,0:0:0:0:
329,192,115659,1,8,0:0:0:0:
475,192,115659,1,0,0:0:0:0:
109,192,115659,1,0,0:0:0:0:
182,192,115740,1,0,0:0:0:0:
475,192,115821,1,0,0:0:0:0:
329,192,115821,1,8,0:0:0:0:
36,192,115821,1,0,0:0:0:0:
109,192,115902,1,0,0:0:0:0:
402,192,115983,1,8,0:0:0:0:
256,192,115983,1,0,0:0:0:0:
329,192,116065,1,0,0:0:0:0:
109,192,116146,1,8,0:0:0:0:
36,192,116146,1,0,0:0:0:0:
402,192,116227,1,8,0:0:0:0:
475,192,116227,1,0,0:0:0:0:
182,192,116308,1,8,0:0:0:0:
109,192,116308,1,0,0:0:0:0:
402,192,116389,1,0,0:0:0:0:
329,192,116389,1,8,0:0:0:0:
36,192,116470,1,0,0:0:0:0:
182,192,116470,1,8,0:0:0:0:
329,192,116551,1,8,0:0:0:0:
475,192,116551,1,0,0:0:0:0:
182,192,116632,1,8,0:0:0:0:
36,192,116632,1,0,0:0:0:0:
475,192,116713,1,0,0:0:0:0:
329,192,116713,1,8,0:0:0:0:
109,192,116794,1,0,0:0:0:0:
36,192,116794,1,0,0:0:0:0:
182,192,116794,1,8,0:0:0:0:
329,192,116875,1,8,0:0:0:0:
402,192,116875,1,0,0:0:0:0:
475,192,116875,1,0,0:0:0:0:
256,192,116956,1,0,0:0:0:0:
109,192,116956,1,0,0:0:0:0:
182,192,116956,1,8,0:0:0:0:
475,192,117038,1,0,0:0:0:0:
402,192,117038,1,0,0:0:0:0:
329,192,117038,1,8,0:0:0:0:
182,192,117119,1,8,0:0:0:0:
36,192,117119,1,0,0:0:0:0:
109,192,117119,1,0,0:0:0:0:
329,192,117200,1,8,0:0:0:0:
475,192,117200,1,0,0:0:0:0:
402,192,117200,1,0,0:0:0:0:
182,192,117281,1,8,0:0:0:0:
36,192,117281,1,0,0:0:0:0:
109,192,117281,1,0,0:0:0:0:
256,192,117362,1,0,0:0:0:0:
329,192,117362,1,8,0:0:0:0:
402,192,117362,1,0,0:0:0:0:
182,192,117524,1,0,0:0:0:0:
109,192,117524,1,0,0:0:0:0:
36,192,117524,1,0,0:0:0:0:
329,192,117524,1,2,0:0:0:0:
475,192,117524,1,0,0:0:0:0:
329,192,117767,1,2,0:0:0:0:
402,192,117767,1,0,0:0:0:0:
475,192,117767,1,0,0:0:0:0:
182,192,117767,1,0,0:0:0:0:
36,192,117767,1,0,0:0:0:0:
182,192,118011,1,0,0:0:0:0:
109,192,118011,1,0,0:0:0:0:
36,192,118011,1,0,0:0:0:0:
329,192,118011,1,2,0:0:0:0:
402,192,118011,1,0,0:0:0:0:
329,192,118254,1,2,0:0:0:0:
402,192,118254,1,0,0:0:0:0:
475,192,118254,1,0,0:0:0:0:
182,192,118254,1,0,0:0:0:0:
109,192,118254,1,0,0:0:0:0:
329,192,118578,128,0,119065:0:0:0:0:
402,192,118578,128,0,119065:0:0:0:0:
475,192,118578,128,0,119065:0:0:0:0:
182,192,118578,128,2,119065:0:0:0:0:
109,192,118578,128,0,119065:0:0:0:0:
36,192,118578,128,0,119065:0:0:0:0:
