osu file format v14

[General]
AudioFilename: audio.mp3
AudioLeadIn: 0
PreviewTime: 22662
Countdown: 0
SampleSet: Normal
StackLeniency: 0.7
Mode: 1
LetterboxInBreaks: 0
WidescreenStoryboard: 0

[Editor]
Bookmarks: 11959,23635
DistanceSpacing: 2
BeatDivisor: 4
GridSize: 32
TimelineZoom: 2.799999

[Metadata]
Title:archive::zip
TitleUnicode:archive::zip
Artist:kamome sano
ArtistUnicode:kamome sano
Creator:[_Chichinya_]
Version:Winrar.exe
Source:SOUND VOLTEX III GRAVITY WARS
Tags:ULTIMATE TRACKS -FLOOR ANTHEM- EP.01 album KONAMI original song BEMANI SDVX -BANGKE- 沙野カモメ Vulkin
BeatmapID:1372226
BeatmapSetID:647654

[Difficulty]
HPDrainRate:7
CircleSize:2
OverallDifficulty:7
ApproachRate:9
SliderMultiplier:1.5
SliderTickRate:1

[Events]
//Background and Video events
0,0,"Anime-1.jpg",0,0
//Break Periods
//Storyboard Layer 0 (Background)
//Storyboard Layer 1 (Fail)
//Storyboard Layer 2 (Pass)
//Storyboard Layer 3 (Foreground)
//Storyboard Sound Samples

[TimingPoints]
1581,324.324324324324,4,1,0,50,1,0
28824,-100,4,1,0,60,0,0
29148,-100,4,1,0,70,0,0
29472,-100,4,1,0,80,0,0
29797,-100,4,1,0,90,0,0
30121,-100,4,1,0,95,0,0
64337,-99.009900990099,4,1,0,95,0,0
64824,-98.0392156862745,4,1,0,95,0,0
64905,-96.1538461538461,4,1,0,95,0,0
64986,-94.3396226415094,4,1,0,95,0,0
65067,-92.5925925925926,4,1,0,95,0,0
65148,-90.9090909090909,4,1,0,95,0,1
84608,-100,4,1,0,95,0,1
85905,-100,4,1,0,95,0,0
86067,-105.263157894737,4,1,0,70,0,0
86716,-111.111111111111,4,1,0,70,0,0
87364,-117.647058823529,4,1,0,70,0,0
88013,-125,4,1,0,70,0,0
88662,-133.333333333333,4,1,0,70,0,0
90770,-131.578947368421,4,1,0,70,0,0
90851,-129.87012987013,4,1,0,70,0,0
90932,-128.205128205128,4,1,0,70,0,0
91013,-126.582278481013,4,1,0,70,0,0
91094,-125,4,1,0,70,0,0
92067,-123.456790123457,4,1,0,70,0,0
92148,-121.951219512195,4,1,0,70,0,0
92229,-120.481927710843,4,1,0,70,0,0
92310,-119.047619047619,4,1,0,70,0,0
92391,-117.647058823529,4,1,0,70,0,0
93283,-116.279069767442,4,1,0,70,0,0
93364,-114.942528735632,4,1,0,70,0,0
93526,-113.636363636364,4,1,0,70,0,0
93608,-112.359550561798,4,1,0,70,0,0
93689,-111.111111111111,4,1,0,70,0,0
94580,-109.89010989011,4,1,0,70,0,0
94662,-108.695652173913,4,1,0,70,0,0
94824,-107.52688172043,4,1,0,70,0,0
94905,-106.382978723404,4,1,0,70,0,0
94986,-105.263157894737,4,1,0,70,0,0
96283,-100,4,1,0,95,0,0
97580,-100,4,1,0,95,0,1
97662,-90.9090909090909,4,1,0,95,0,1
106662,-89.2857142857143,4,1,0,95,0,1
106743,-87.719298245614,4,1,0,95,0,1
106824,-86.2068965517241,4,1,0,95,0,1
106905,-84.7457627118644,4,1,0,95,0,1
106986,-83.3333333333333,4,1,0,95,0,1
117040,-83.3333333333333,4,1,0,95,0,0

[HitObjects]
256,192,608,5,0,0:0:0:0:
256,192,932,1,0,0:0:0:0:
256,192,1256,1,8,0:0:0:0:
256,192,1581,5,4,0:0:0:0:
256,192,1905,1,8,0:0:0:0:
256,192,2229,1,8,0:0:0:0:
256,192,2391,1,0,0:0:0:0:
256,192,2553,1,8,0:0:0:0:
256,192,2716,1,8,0:0:0:0:
256,192,3040,1,0,0:0:0:0:
256,192,3202,1,8,0:0:0:0:
256,192,3526,1,8,0:0:0:0:
256,192,3851,1,8,0:0:0:0:
256,192,4013,1,0,0:0:0:0:
256,192,4175,1,8,0:0:0:0:
256,192,4499,1,0,0:0:0:0:
256,192,4662,1,0,0:0:0:0:
256,192,4824,1,8,0:0:0:0:
256,192,4986,1,0,0:0:0:0:
256,192,5148,1,8,0:0:0:0:
256,192,5310,1,8,0:0:0:0:
256,192,5472,1,0,0:0:0:0:
256,192,5797,1,8,0:0:0:0:
256,192,6121,1,8,0:0:0:0:
256,192,6283,1,8,0:0:0:0:
256,192,6445,1,0,0:0:0:0:
256,192,6608,1,8,0:0:0:0:
256,192,6770,1,0,0:0:0:0:
256,192,7094,1,0,0:0:0:0:
256,192,7256,1,0,0:0:0:0:
256,192,7418,1,8,0:0:0:0:
256,192,7581,1,8,0:0:0:0:
256,192,7743,1,0,0:0:0:0:
256,192,7905,1,8,0:0:0:0:
256,192,8229,1,8,0:0:0:0:
256,192,8391,1,0,0:0:0:0:
256,192,8553,1,0,0:0:0:0:
256,192,8716,1,8,0:0:0:0:
256,192,9040,1,8,0:0:0:0:
256,192,9202,1,8,0:0:0:0:
256,192,9364,1,0,0:0:0:0:
256,192,9689,1,0,0:0:0:0:
256,192,10013,1,8,0:0:0:0:
256,192,10175,1,0,0:0:0:0:
256,192,10337,1,0,0:0:0:0:
256,192,10499,1,8,0:0:0:0:
256,192,10580,1,0,0:0:0:0:
256,192,10662,1,8,0:0:0:0:
256,192,10743,1,0,0:0:0:0:
256,192,10824,1,8,0:0:0:0:
256,192,10905,1,8,0:0:0:0:
256,192,10986,1,0,0:0:0:0:
256,192,11067,1,8,0:0:0:0:
256,192,11148,1,8,0:0:0:0:
256,192,11229,1,0,0:0:0:0:
256,192,11310,1,8,0:0:0:0:
256,192,11391,1,0,0:0:0:0:
256,192,11472,1,0,0:0:0:0:
256,192,11553,1,0,0:0:0:0:
256,192,11635,1,8,0:0:0:0:
256,192,11716,1,0,0:0:0:0:
256,192,11797,1,8,0:0:0:0:
256,192,11878,1,8,0:0:0:0:
256,192,11959,1,0,0:0:0:0:
256,192,12040,1,8,0:0:0:0:
256,192,12121,1,0,0:0:0:0:
256,192,12283,1,8,0:0:0:0:
256,192,12364,1,0,0:0:0:0:
256,192,12445,1,8,0:0:0:0:
256,192,12526,1,8,0:0:0:0:
256,192,12608,1,8,0:0:0:0:
256,192,12770,1,8,0:0:0:0:
256,192,12932,1,0,0:0:0:0:
256,192,13094,1,8,0:0:0:0:
256,192,13256,1,8,0:0:0:0:
256,192,13418,1,8,0:0:0:0:
256,192,13499,1,8,0:0:0:0:
256,192,13580,1,8,0:0:0:0:
256,192,13743,1,8,0:0:0:0:
256,192,14229,1,8,0:0:0:0:
256,192,14391,1,8,0:0:0:0:
256,192,14553,1,0,0:0:0:0:
256,192,14635,1,8,0:0:0:0:
256,192,14716,1,0,0:0:0:0:
256,192,14878,1,8,0:0:0:0:
256,192,14959,1,0,0:0:0:0:
256,192,15040,1,8,0:0:0:0:
256,192,15121,1,8,0:0:0:0:
256,192,15202,1,8,0:0:0:0:
256,192,15364,1,8,0:0:0:0:
256,192,15526,1,8,0:0:0:0:
256,192,15689,1,0,0:0:0:0:
256,192,15851,1,8,0:0:0:0:
256,192,15932,1,8,0:0:0:0:
256,192,16013,1,8,0:0:0:0:
256,192,16094,1,8,0:0:0:0:
256,192,16175,1,8,0:0:0:0:
256,192,16337,1,8,0:0:0:0:
256,192,16499,1,8,0:0:0:0:
256,192,16662,1,8,0:0:0:0:
256,192,16824,1,0,0:0:0:0:
256,192,16986,1,8,0:0:0:0:
256,192,17148,1,0,0:0:0:0:
256,192,17229,1,8,0:0:0:0:
256,192,17310,1,0,0:0:0:0:
256,192,17472,1,12,0:0:0:0:
256,192,17797,1,8,0:0:0:0:
256,192,17878,1,0,0:0:0:0:
256,192,17959,1,8,0:0:0:0:
256,192,18121,1,4,0:0:0:0:
256,192,18445,1,0,0:0:0:0:
256,192,18526,1,8,0:0:0:0:
256,192,18608,1,0,0:0:0:0:
256,192,18770,1,12,0:0:0:0:
256,192,19094,1,8,0:0:0:0:
256,192,19175,1,8,0:0:0:0:
256,192,19256,1,0,0:0:0:0:
256,192,19418,1,12,0:0:0:0:
256,192,19743,1,0,0:0:0:0:
256,192,19824,1,0,0:0:0:0:
256,192,19905,1,8,0:0:0:0:
256,192,20067,1,0,0:0:0:0:
256,192,20229,1,8,0:0:0:0:
256,192,20283,1,8,0:0:0:0:
256,192,20337,1,0,0:0:0:0:
256,192,20391,1,0,0:0:0:0:
256,192,20472,1,0,0:0:0:0:
256,192,20553,1,8,0:0:0:0:
256,192,20716,1,8,0:0:0:0:
256,192,20878,1,0,0:0:0:0:
256,192,20932,1,0,0:0:0:0:
256,192,20986,1,0,0:0:0:0:
256,192,21040,1,8,0:0:0:0:
256,192,21121,1,0,0:0:0:0:
256,192,21202,1,0,0:0:0:0:
256,192,21283,1,8,0:0:0:0:
256,192,21364,1,8,0:0:0:0:
256,192,21689,1,0,0:0:0:0:
256,192,21851,1,8,0:0:0:0:
256,192,22013,1,0,0:0:0:0:
256,192,22067,1,0,0:0:0:0:
256,192,22121,1,0,0:0:0:0:
256,192,22175,1,0,0:0:0:0:
256,192,22229,1,0,0:0:0:0:
256,192,22283,1,0,0:0:0:0:
256,192,22337,1,8,0:0:0:0:
256,192,22662,12,0,23472,0:0:0:0:
256,192,23635,5,0,0:0:0:0:
256,192,23797,5,8,0:0:0:0:
256,192,23878,1,8,0:0:0:0:
256,192,23959,1,0,0:0:0:0:
256,192,24121,1,8,0:0:0:0:
256,192,24283,1,0,0:0:0:0:
256,192,24445,1,8,0:0:0:0:
256,192,24526,1,8,0:0:0:0:
256,192,24608,1,0,0:0:0:0:
256,192,24770,1,8,0:0:0:0:
256,192,24932,1,0,0:0:0:0:
256,192,25094,1,8,0:0:0:0:
256,192,25175,1,8,0:0:0:0:
256,192,25256,1,0,0:0:0:0:
256,192,25337,1,8,0:0:0:0:
256,192,25418,1,8,0:0:0:0:
256,192,25580,1,0,0:0:0:0:
256,192,25743,1,8,0:0:0:0:
256,192,25905,1,0,0:0:0:0:
256,192,26067,1,0,0:0:0:0:
256,192,26229,1,0,0:0:0:0:
256,192,26391,1,8,0:0:0:0:
256,192,26472,1,8,0:0:0:0:
256,192,26553,1,0,0:0:0:0:
256,192,26716,1,8,0:0:0:0:
256,192,26878,1,0,0:0:0:0:
256,192,26959,1,8,0:0:0:0:
256,192,27121,1,8,0:0:0:0:
256,192,27202,1,0,0:0:0:0:
256,192,27364,1,8,0:0:0:0:
256,192,27526,1,0,0:0:0:0:
256,192,27608,1,8,0:0:0:0:
256,192,27689,1,8,0:0:0:0:
256,192,27770,1,8,0:0:0:0:
256,192,27851,1,0,0:0:0:0:
256,192,28013,1,8,0:0:0:0:
256,192,28094,1,8,0:0:0:0:
256,192,28175,1,0,0:0:0:0:
256,192,28337,1,8,0:0:0:0:
256,192,28418,1,8,0:0:0:0:
256,192,28499,1,0,0:0:0:0:
256,192,28580,1,8,0:0:0:0:
256,192,28662,1,0,0:0:0:0:
256,192,28743,1,8,0:0:0:0:
256,192,28824,1,0,0:0:0:0:
256,192,28986,1,8,0:0:0:0:
256,192,29067,1,8,0:0:0:0:
256,192,29148,1,0,0:0:0:0:
256,192,29310,1,8,0:0:0:0:
256,192,29472,1,0,0:0:0:0:
256,192,29553,1,8,0:0:0:0:
256,192,29716,1,8,0:0:0:0:
256,192,29797,1,0,0:0:0:0:
256,192,29959,1,8,0:0:0:0:
256,192,30121,1,0,0:0:0:0:
256,192,30283,1,8,0:0:0:0:
256,192,30364,1,8,0:0:0:0:
256,192,30445,1,0,0:0:0:0:
256,192,30608,1,8,0:0:0:0:
256,192,30770,1,0,0:0:0:0:
256,192,30851,1,8,0:0:0:0:
256,192,30932,1,8,0:0:0:0:
256,192,31013,1,8,0:0:0:0:
256,192,31094,1,0,0:0:0:0:
256,192,31256,1,8,0:0:0:0:
256,192,31337,1,8,0:0:0:0:
256,192,31418,1,0,0:0:0:0:
256,192,31499,1,0,0:0:0:0:
256,192,31580,1,8,0:0:0:0:
256,192,31662,1,8,0:0:0:0:
256,192,31743,1,0,0:0:0:0:
256,192,31905,1,8,0:0:0:0:
256,192,32067,1,0,0:0:0:0:
256,192,32229,1,8,0:0:0:0:
256,192,32391,1,8,0:0:0:0:
256,192,32553,1,4,0:0:0:0:
256,192,33040,1,0,0:0:0:0:
256,192,33202,1,12,0:0:0:0:
256,192,33526,1,0,0:0:0:0:
256,192,33689,1,12,0:0:0:0:
256,192,34013,1,0,0:0:0:0:
256,192,34175,1,8,0:0:0:0:
256,192,34256,1,8,0:0:0:0:
256,192,34337,1,0,0:0:0:0:
256,192,34418,1,8,0:0:0:0:
256,192,34499,1,8,0:0:0:0:
256,192,34662,1,0,0:0:0:0:
256,192,34824,1,8,0:0:0:0:
256,192,34905,1,8,0:0:0:0:
256,192,34986,1,0,0:0:0:0:
256,192,35148,1,8,0:0:0:0:
256,192,35229,1,8,0:0:0:0:
256,192,35310,1,0,0:0:0:0:
256,192,35391,1,8,0:0:0:0:
256,192,35553,1,8,0:0:0:0:
256,192,35635,1,0,0:0:0:0:
256,192,35797,1,8,0:0:0:0:
256,192,35878,1,8,0:0:0:0:
256,192,35959,1,0,0:0:0:0:
256,192,36121,1,8,0:0:0:0:
256,192,36283,1,0,0:0:0:0:
256,192,36364,1,8,0:0:0:0:
256,192,36445,1,0,0:0:0:0:
256,192,36526,1,8,0:0:0:0:
256,192,36608,1,0,0:0:0:0:
256,192,36770,1,8,0:0:0:0:
256,192,36851,1,8,0:0:0:0:
256,192,36932,1,0,0:0:0:0:
256,192,37094,1,8,0:0:0:0:
256,192,37256,1,0,0:0:0:0:
256,192,37337,1,8,0:0:0:0:
256,192,37499,1,8,0:0:0:0:
256,192,37580,1,0,0:0:0:0:
256,192,37743,1,0,0:0:0:0:
256,192,37824,1,8,0:0:0:0:
256,192,37905,1,0,0:0:0:0:
256,192,38067,1,8,0:0:0:0:
256,192,38229,1,0,0:0:0:0:
256,192,38391,1,8,0:0:0:0:
256,192,38472,1,0,0:0:0:0:
256,192,38553,1,8,0:0:0:0:
256,192,38635,1,0,0:0:0:0:
256,192,38716,1,0,0:0:0:0:
256,192,38797,1,8,0:0:0:0:
256,192,38878,1,0,0:0:0:0:
256,192,39040,1,0,0:0:0:0:
256,192,39202,1,0,0:0:0:0:
256,192,39364,1,8,0:0:0:0:
256,192,39445,1,8,0:0:0:0:
256,192,39526,1,0,0:0:0:0:
256,192,39689,1,8,0:0:0:0:
256,192,39851,1,0,0:0:0:0:
256,192,39932,1,8,0:0:0:0:
256,192,40013,1,8,0:0:0:0:
256,192,40094,1,8,0:0:0:0:
256,192,40175,1,0,0:0:0:0:
256,192,40337,1,0,0:0:0:0:
256,192,40418,1,8,0:0:0:0:
256,192,40499,1,0,0:0:0:0:
256,192,40662,1,8,0:0:0:0:
256,192,40824,1,0,0:0:0:0:
256,192,40905,1,0,0:0:0:0:
256,192,40986,1,8,0:0:0:0:
256,192,41067,1,8,0:0:0:0:
256,192,41148,1,0,0:0:0:0:
256,192,41310,1,8,0:0:0:0:
256,192,41391,1,8,0:0:0:0:
256,192,41472,1,0,0:0:0:0:
256,192,41635,1,8,0:0:0:0:
256,192,41797,1,0,0:0:0:0:
256,192,41878,1,8,0:0:0:0:
256,192,41959,1,0,0:0:0:0:
256,192,42040,1,8,0:0:0:0:
256,192,42121,1,0,0:0:0:0:
256,192,42202,1,8,0:0:0:0:
256,192,42283,1,8,0:0:0:0:
256,192,42364,1,8,0:0:0:0:
256,192,42445,1,0,0:0:0:0:
256,192,42526,1,8,0:0:0:0:
256,192,42608,1,8,0:0:0:0:
256,192,42689,1,0,0:0:0:0:
256,192,42770,1,0,0:0:0:0:
256,192,42932,1,0,0:0:0:0:
256,192,43094,1,8,0:0:0:0:
256,192,43256,1,8,0:0:0:0:
256,192,43418,1,0,0:0:0:0:
256,192,43580,1,8,0:0:0:0:
256,192,43743,1,8,0:0:0:0:
256,192,43905,1,0,0:0:0:0:
256,192,44067,1,12,0:0:0:0:
256,192,44391,1,4,0:0:0:0:
256,192,44553,1,8,0:0:0:0:
256,192,44716,1,0,0:0:0:0:
256,192,44878,1,8,0:0:0:0:
256,192,44959,1,8,0:0:0:0:
256,192,45040,1,0,0:0:0:0:
256,192,45202,1,8,0:0:0:0:
256,192,45364,1,0,0:0:0:0:
256,192,45445,1,8,0:0:0:0:
256,192,45526,1,8,0:0:0:0:
256,192,45608,1,8,0:0:0:0:
256,192,45689,1,0,0:0:0:0:
256,192,45851,1,8,0:0:0:0:
256,192,46013,1,8,0:0:0:0:
256,192,46094,1,8,0:0:0:0:
256,192,46175,1,0,0:0:0:0:
256,192,46256,1,8,0:0:0:0:
256,192,46337,1,8,0:0:0:0:
256,192,46499,1,8,0:0:0:0:
256,192,46580,1,8,0:0:0:0:
256,192,46662,1,0,0:0:0:0:
256,192,46743,1,8,0:0:0:0:
256,192,46905,1,8,0:0:0:0:
256,192,46986,1,0,0:0:0:0:
256,192,47310,1,0,0:0:0:0:
256,192,47391,1,8,0:0:0:0:
256,192,47553,1,8,0:0:0:0:
256,192,47635,1,0,0:0:0:0:
256,192,47797,1,8,0:0:0:0:
256,192,47959,1,0,0:0:0:0:
256,192,48040,1,8,0:0:0:0:
256,192,48121,1,8,0:0:0:0:
256,192,48202,1,0,0:0:0:0:
256,192,48283,1,8,0:0:0:0:
256,192,48337,1,8,0:0:0:0:
256,192,48391,1,8,0:0:0:0:
256,192,48445,1,0,0:0:0:0:
256,192,48499,1,0,0:0:0:0:
256,192,48553,1,0,0:0:0:0:
256,192,48608,1,8,0:0:0:0:
256,192,48689,1,8,0:0:0:0:
256,192,48770,1,0,0:0:0:0:
256,192,48851,1,0,0:0:0:0:
256,192,48932,1,12,0:0:0:0:
256,192,49256,1,4,0:0:0:0:
256,192,49580,1,12,0:0:0:0:
256,192,49905,1,12,0:0:0:0:
256,192,50229,1,0,0:0:0:0:
256,192,50310,1,8,0:0:0:0:
256,192,50391,1,8,0:0:0:0:
256,192,50472,1,0,0:0:0:0:
256,192,50553,1,0,0:0:0:0:
256,192,50635,1,8,0:0:0:0:
256,192,50716,1,8,0:0:0:0:
256,192,50797,1,8,0:0:0:0:
256,192,50878,1,0,0:0:0:0:
256,192,51040,1,8,0:0:0:0:
256,192,51121,1,8,0:0:0:0:
256,192,51202,1,0,0:0:0:0:
256,192,51364,1,8,0:0:0:0:
256,192,51526,1,0,0:0:0:0:
256,192,51608,1,0,0:0:0:0:
256,192,51689,1,8,0:0:0:0:
256,192,51851,1,0,0:0:0:0:
256,192,51932,1,8,0:0:0:0:
256,192,52094,1,8,0:0:0:0:
256,192,52175,1,0,0:0:0:0:
256,192,52337,1,8,0:0:0:0:
256,192,52418,1,8,0:0:0:0:
256,192,52499,1,0,0:0:0:0:
256,192,52662,1,8,0:0:0:0:
256,192,52824,1,0,0:0:0:0:
256,192,53148,1,0,0:0:0:0:
256,192,53310,1,8,0:0:0:0:
256,192,53391,1,8,0:0:0:0:
256,192,53472,1,0,0:0:0:0:
256,192,53635,1,8,0:0:0:0:
256,192,53797,1,0,0:0:0:0:
256,192,53959,1,8,0:0:0:0:
256,192,54121,1,8,0:0:0:0:
256,192,54283,1,0,0:0:0:0:
256,192,54445,1,0,0:0:0:0:
256,192,54526,1,8,0:0:0:0:
256,192,54608,1,8,0:0:0:0:
256,192,54689,1,8,0:0:0:0:
256,192,54770,1,0,0:0:0:0:
256,192,55094,1,0,0:0:0:0:
256,192,55418,1,0,0:0:0:0:
256,192,55580,1,0,0:0:0:0:
256,192,55743,1,0,0:0:0:0:
256,192,55824,1,8,0:0:0:0:
256,192,55905,1,8,0:0:0:0:
256,192,55986,1,8,0:0:0:0:
256,192,56067,1,0,0:0:0:0:
256,192,56229,1,8,0:0:0:0:
256,192,56310,1,8,0:0:0:0:
256,192,56391,1,0,0:0:0:0:
256,192,56472,1,8,0:0:0:0:
256,192,56553,1,0,0:0:0:0:
256,192,56635,1,0,0:0:0:0:
256,192,56716,1,8,0:0:0:0:
256,192,56797,1,8,0:0:0:0:
256,192,56878,1,8,0:0:0:0:
256,192,56959,1,8,0:0:0:0:
256,192,57040,1,0,0:0:0:0:
256,192,57121,1,8,0:0:0:0:
256,192,57283,1,8,0:0:0:0:
256,192,57364,1,0,0:0:0:0:
256,192,57689,1,0,0:0:0:0:
256,192,57770,1,8,0:0:0:0:
256,192,57932,1,8,0:0:0:0:
256,192,58013,1,0,0:0:0:0:
256,192,58175,1,8,0:0:0:0:
256,192,58337,1,8,0:0:0:0:
256,192,58499,1,0,0:0:0:0:
256,192,58662,1,0,0:0:0:0:
256,192,58743,1,0,0:0:0:0:
256,192,58824,1,8,0:0:0:0:
256,192,58905,1,8,0:0:0:0:
256,192,58986,1,0,0:0:0:0:
256,192,59067,1,0,0:0:0:0:
256,192,59148,1,8,0:0:0:0:
256,192,59229,1,8,0:0:0:0:
256,192,59310,1,4,0:0:0:0:
256,192,59635,1,12,0:0:0:0:
256,192,59959,1,4,0:0:0:0:
256,192,60283,1,4,0:0:0:0:
256,192,60608,1,0,0:0:0:0:
256,192,60716,1,8,0:0:0:0:
256,192,60824,1,8,0:0:0:0:
256,192,60932,1,0,0:0:0:0:
256,192,61040,1,8,0:0:0:0:
256,192,61148,1,8,0:0:0:0:
256,192,61256,1,0,0:0:0:0:
256,192,61337,1,8,0:0:0:0:
256,192,61418,1,8,0:0:0:0:
256,192,61499,1,8,0:0:0:0:
256,192,61580,1,0,0:0:0:0:
256,192,61662,1,8,0:0:0:0:
256,192,61743,1,8,0:0:0:0:
256,192,61824,1,8,0:0:0:0:
256,192,61905,1,0,0:0:0:0:
256,192,62229,1,12,0:0:0:0:
256,192,62553,1,0,0:0:0:0:
256,192,62635,1,0,0:0:0:0:
256,192,62716,1,0,0:0:0:0:
256,192,62797,1,0,0:0:0:0:
256,192,62878,1,8,0:0:0:0:
256,192,62959,1,8,0:0:0:0:
256,192,63040,1,8,0:0:0:0:
256,192,63121,1,8,0:0:0:0:
256,192,63202,1,0,0:0:0:0:
256,192,63526,1,12,0:0:0:0:
256,192,63851,1,0,0:0:0:0:
256,192,63932,1,8,0:0:0:0:
256,192,64013,1,8,0:0:0:0:
256,192,64094,1,8,0:0:0:0:
256,192,64175,1,0,0:0:0:0:
256,192,64337,1,8,0:0:0:0:
256,192,64418,1,8,0:0:0:0:
256,192,64499,1,8,0:0:0:0:
256,192,64580,1,0,0:0:0:0:
256,192,64662,1,8,0:0:0:0:
256,192,64743,1,8,0:0:0:0:
256,192,64824,1,0,0:0:0:0:
256,192,64905,1,8,0:0:0:0:
256,192,64986,1,8,0:0:0:0:
256,192,65067,1,8,0:0:0:0:
256,192,65148,1,4,0:0:0:0:
256,192,65310,1,0,0:0:0:0:
256,192,65391,1,0,0:0:0:0:
256,192,65472,1,8,0:0:0:0:
256,192,65635,1,8,0:0:0:0:
256,192,65716,1,8,0:0:0:0:
256,192,65797,1,0,0:0:0:0:
256,192,65878,1,8,0:0:0:0:
256,192,65959,1,8,0:0:0:0:
256,192,66040,1,0,0:0:0:0:
256,192,66121,1,8,0:0:0:0:
256,192,66283,1,0,0:0:0:0:
256,192,66364,1,8,0:0:0:0:
256,192,66445,1,0,0:0:0:0:
256,192,66608,1,0,0:0:0:0:
256,192,66689,1,0,0:0:0:0:
256,192,66770,1,8,0:0:0:0:
256,192,66851,1,8,0:0:0:0:
256,192,66932,1,0,0:0:0:0:
256,192,67013,1,8,0:0:0:0:
256,192,67094,1,0,0:0:0:0:
256,192,67175,1,8,0:0:0:0:
256,192,67256,1,8,0:0:0:0:
256,192,67337,1,0,0:0:0:0:
256,192,67418,1,0,0:0:0:0:
256,192,67499,1,8,0:0:0:0:
256,192,67580,1,0,0:0:0:0:
256,192,67662,1,8,0:0:0:0:
256,192,67743,1,8,0:0:0:0:
256,192,67905,1,8,0:0:0:0:
256,192,67986,1,0,0:0:0:0:
256,192,68067,1,8,0:0:0:0:
256,192,68148,1,0,0:0:0:0:
256,192,68229,1,8,0:0:0:0:
256,192,68310,1,8,0:0:0:0:
256,192,68391,1,0,0:0:0:0:
256,192,68472,1,8,0:0:0:0:
256,192,68553,1,8,0:0:0:0:
256,192,68635,1,0,0:0:0:0:
256,192,68716,1,8,0:0:0:0:
256,192,68797,1,0,0:0:0:0:
256,192,68878,1,8,0:0:0:0:
256,192,68959,1,8,0:0:0:0:
256,192,69040,1,0,0:0:0:0:
256,192,69202,1,0,0:0:0:0:
256,192,69283,1,0,0:0:0:0:
256,192,69364,1,8,0:0:0:0:
256,192,69445,1,8,0:0:0:0:
256,192,69526,1,0,0:0:0:0:
256,192,69608,1,8,0:0:0:0:
256,192,69689,1,0,0:0:0:0:
256,192,69770,1,8,0:0:0:0:
256,192,69851,1,8,0:0:0:0:
256,192,69932,1,0,0:0:0:0:
256,192,70013,1,8,0:0:0:0:
256,192,70175,1,0,0:0:0:0:
256,192,70256,1,8,0:0:0:0:
256,192,70337,1,0,0:0:0:0:
256,192,70499,1,0,0:0:0:0:
256,192,70580,1,0,0:0:0:0:
256,192,70662,1,8,0:0:0:0:
256,192,70824,1,8,0:0:0:0:
256,192,70905,1,8,0:0:0:0:
256,192,70986,1,0,0:0:0:0:
256,192,71067,1,8,0:0:0:0:
256,192,71148,1,8,0:0:0:0:
256,192,71229,1,0,0:0:0:0:
256,192,71310,1,8,0:0:0:0:
256,192,71391,1,0,0:0:0:0:
256,192,71472,1,8,0:0:0:0:
256,192,71553,1,8,0:0:0:0:
256,192,71635,1,0,0:0:0:0:
256,192,71797,1,8,0:0:0:0:
256,192,71878,1,8,0:0:0:0:
256,192,71959,1,8,0:0:0:0:
256,192,72040,1,0,0:0:0:0:
256,192,72121,1,8,0:0:0:0:
256,192,72202,1,8,0:0:0:0:
256,192,72283,1,0,0:0:0:0:
256,192,72364,1,0,0:0:0:0:
256,192,72445,1,8,0:0:0:0:
256,192,72526,1,0,0:0:0:0:
256,192,72608,1,8,0:0:0:0:
256,192,72689,1,8,0:0:0:0:
256,192,72770,1,0,0:0:0:0:
256,192,72851,1,8,0:0:0:0:
256,192,72932,1,0,0:0:0:0:
256,192,73094,1,8,0:0:0:0:
256,192,73175,1,0,0:0:0:0:
256,192,73256,1,8,0:0:0:0:
256,192,73418,1,8,0:0:0:0:
256,192,73499,1,0,0:0:0:0:
256,192,73580,1,0,0:0:0:0:
256,192,73662,1,8,0:0:0:0:
256,192,73743,1,0,0:0:0:0:
256,192,73824,1,8,0:0:0:0:
256,192,73905,1,8,0:0:0:0:
256,192,74067,1,0,0:0:0:0:
256,192,74229,1,0,0:0:0:0:
256,192,74310,1,0,0:0:0:0:
256,192,74391,1,8,0:0:0:0:
256,192,74472,1,0,0:0:0:0:
256,192,74553,1,0,0:0:0:0:
256,192,74635,1,8,0:0:0:0:
256,192,74716,1,0,0:0:0:0:
256,192,74797,1,0,0:0:0:0:
256,192,74878,1,0,0:0:0:0:
256,192,74959,1,8,0:0:0:0:
256,192,75040,1,0,0:0:0:0:
256,192,75121,1,0,0:0:0:0:
256,192,75202,1,0,0:0:0:0:
256,192,75283,1,8,0:0:0:0:
256,192,75364,1,8,0:0:0:0:
256,192,75445,1,8,0:0:0:0:
256,192,75526,1,0,0:0:0:0:
256,192,75608,1,8,0:0:0:0:
256,192,75689,1,0,0:0:0:0:
256,192,75851,1,12,0:0:0:0:
256,192,76013,1,8,0:0:0:0:
256,192,76094,1,8,0:0:0:0:
256,192,76175,1,0,0:0:0:0:
256,192,76256,1,8,0:0:0:0:
256,192,76337,1,0,0:0:0:0:
256,192,76418,1,0,0:0:0:0:
256,192,76499,1,8,0:0:0:0:
256,192,76580,1,0,0:0:0:0:
256,192,76662,1,8,0:0:0:0:
256,192,76743,1,8,0:0:0:0:
256,192,76824,1,0,0:0:0:0:
256,192,76986,1,8,0:0:0:0:
256,192,77067,1,8,0:0:0:0:
256,192,77148,1,8,0:0:0:0:
256,192,77310,1,8,0:0:0:0:
256,192,77472,1,0,0:0:0:0:
256,192,77635,1,8,0:0:0:0:
256,192,77716,1,8,0:0:0:0:
256,192,77797,1,8,0:0:0:0:
256,192,77878,1,0,0:0:0:0:
256,192,77959,1,0,0:0:0:0:
256,192,78040,1,8,0:0:0:0:
256,192,78121,1,0,0:0:0:0:
256,192,78202,1,8,0:0:0:0:
256,192,78283,1,0,0:0:0:0:
256,192,78364,1,0,0:0:0:0:
256,192,78445,1,8,0:0:0:0:
256,192,78608,1,8,0:0:0:0:
256,192,78689,1,8,0:0:0:0:
256,192,78770,1,0,0:0:0:0:
256,192,78851,1,8,0:0:0:0:
256,192,78932,1,0,0:0:0:0:
256,192,79013,1,0,0:0:0:0:
256,192,79094,1,8,0:0:0:0:
256,192,79256,1,8,0:0:0:0:
256,192,79337,1,8,0:0:0:0:
256,192,79418,1,0,0:0:0:0:
256,192,79499,1,8,0:0:0:0:
256,192,79580,1,8,0:0:0:0:
256,192,79662,1,0,0:0:0:0:
256,192,79743,1,8,0:0:0:0:
256,192,79824,1,0,0:0:0:0:
256,192,79905,1,8,0:0:0:0:
256,192,79986,1,8,0:0:0:0:
256,192,80067,1,0,0:0:0:0:
256,192,80148,1,0,0:0:0:0:
256,192,80229,1,8,0:0:0:0:
256,192,80310,1,0,0:0:0:0:
256,192,80391,1,8,0:0:0:0:
256,192,80472,1,8,0:0:0:0:
256,192,80553,1,0,0:0:0:0:
256,192,80716,1,4,0:0:0:0:
256,192,80878,1,0,0:0:0:0:
256,192,80959,1,0,0:0:0:0:
256,192,81040,1,8,0:0:0:0:
256,192,81202,1,8,0:0:0:0:
256,192,81283,1,8,0:0:0:0:
256,192,81364,1,0,0:0:0:0:
256,192,81445,1,8,0:0:0:0:
256,192,81526,1,8,0:0:0:0:
256,192,81608,1,0,0:0:0:0:
256,192,81689,1,8,0:0:0:0:
256,192,81770,1,0,0:0:0:0:
256,192,81851,1,8,0:0:0:0:
256,192,81932,1,8,0:0:0:0:
256,192,82013,1,0,0:0:0:0:
256,192,82175,1,0,0:0:0:0:
256,192,82256,1,0,0:0:0:0:
256,192,82337,1,8,0:0:0:0:
256,192,82499,1,8,0:0:0:0:
256,192,82580,1,8,0:0:0:0:
256,192,82662,1,0,0:0:0:0:
256,192,82743,1,8,0:0:0:0:
256,192,82824,1,0,0:0:0:0:
256,192,82905,1,8,0:0:0:0:
256,192,82986,1,8,0:0:0:0:
256,192,83067,1,0,0:0:0:0:
256,192,83148,1,8,0:0:0:0:
256,192,83229,1,8,0:0:0:0:
256,192,83310,1,0,0:0:0:0:
256,192,83472,1,0,0:0:0:0:
256,192,83635,1,8,0:0:0:0:
256,192,83797,1,8,0:0:0:0:
256,192,83959,1,0,0:0:0:0:
256,192,84121,1,0,0:0:0:0:
256,192,84283,1,8,0:0:0:0:
256,192,84445,1,0,0:0:0:0:
256,192,84608,1,0,0:0:0:0:
256,192,84689,1,8,0:0:0:0:
256,192,84770,1,8,0:0:0:0:
256,192,84851,1,8,0:0:0:0:
256,192,84932,1,0,0:0:0:0:
256,192,85013,1,8,0:0:0:0:
256,192,85094,1,8,0:0:0:0:
256,192,85175,1,8,0:0:0:0:
256,192,85256,1,0,0:0:0:0:
256,192,85337,1,8,0:0:0:0:
256,192,85418,1,8,0:0:0:0:
256,192,85499,1,8,0:0:0:0:
256,192,85580,1,0,0:0:0:0:
256,192,85662,1,8,0:0:0:0:
256,192,85743,1,8,0:0:0:0:
256,192,85824,1,8,0:0:0:0:
256,192,85905,1,0,0:0:0:0:
256,192,86067,1,8,0:0:0:0:
256,192,86148,1,0,0:0:0:0:
256,192,86229,1,8,0:0:0:0:
256,192,86310,1,0,0:0:0:0:
256,192,86391,1,8,0:0:0:0:
256,192,86472,1,8,0:0:0:0:
256,192,86553,1,0,0:0:0:0:
256,192,86716,1,8,0:0:0:0:
256,192,86797,1,0,0:0:0:0:
256,192,86878,1,8,0:0:0:0:
256,192,86959,1,0,0:0:0:0:
256,192,87040,1,8,0:0:0:0:
256,192,87121,1,8,0:0:0:0:
256,192,87202,1,0,0:0:0:0:
256,192,87364,1,8,0:0:0:0:
256,192,87445,1,0,0:0:0:0:
256,192,87526,1,8,0:0:0:0:
256,192,87688,1,8,0:0:0:0:
256,192,87769,1,8,0:0:0:0:
256,192,87851,1,0,0:0:0:0:
256,192,88013,1,8,0:0:0:0:
256,192,88094,1,0,0:0:0:0:
256,192,88175,1,8,0:0:0:0:
256,192,88256,1,0,0:0:0:0:
256,192,88337,1,8,0:0:0:0:
256,192,88418,1,8,0:0:0:0:
256,192,88499,1,0,0:0:0:0:
256,192,88662,1,8,0:0:0:0:
256,192,88743,1,0,0:0:0:0:
256,192,88824,1,8,0:0:0:0:
256,192,88905,1,0,0:0:0:0:
256,192,88986,1,8,0:0:0:0:
256,192,89067,1,8,0:0:0:0:
256,192,89148,1,0,0:0:0:0:
256,192,89311,1,8,0:0:0:0:
256,192,89391,1,0,0:0:0:0:
256,192,89473,1,8,0:0:0:0:
256,192,89553,1,0,0:0:0:0:
256,192,89635,1,8,0:0:0:0:
256,192,89716,1,8,0:0:0:0:
256,192,89797,1,0,0:0:0:0:
256,192,89959,1,8,0:0:0:0:
256,192,90040,1,0,0:0:0:0:
256,192,90121,1,8,0:0:0:0:
256,192,90202,1,0,0:0:0:0:
256,192,90283,1,8,0:0:0:0:
256,192,90364,1,8,0:0:0:0:
256,192,90445,1,0,0:0:0:0:
256,192,90526,1,0,0:0:0:0:
256,192,90608,1,8,0:0:0:0:
256,192,90689,1,0,0:0:0:0:
256,192,90770,1,8,0:0:0:0:
256,192,90851,1,0,0:0:0:0:
256,192,90932,1,8,0:0:0:0:
256,192,91013,1,8,0:0:0:0:
256,192,91094,1,0,0:0:0:0:
256,192,91256,1,8,0:0:0:0:
256,192,91337,1,8,0:0:0:0:
256,192,91418,1,0,0:0:0:0:
256,192,91580,1,8,0:0:0:0:
256,192,91743,1,0,0:0:0:0:
256,192,91824,1,8,0:0:0:0:
256,192,91905,1,0,0:0:0:0:
256,192,92067,1,8,0:0:0:0:
256,192,92148,1,8,0:0:0:0:
256,192,92229,1,0,0:0:0:0:
256,192,92310,1,8,0:0:0:0:
256,192,92391,1,0,0:0:0:0:
256,192,92553,1,8,0:0:0:0:
256,192,92635,1,8,0:0:0:0:
256,192,92716,1,0,0:0:0:0:
256,192,92878,1,0,0:0:0:0:
256,192,92959,1,8,0:0:0:0:
256,192,93040,1,0,0:0:0:0:
256,192,93202,1,8,0:0:0:0:
256,192,93283,1,8,0:0:0:0:
256,192,93364,1,8,0:0:0:0:
256,192,93526,1,0,0:0:0:0:
256,192,93608,1,8,0:0:0:0:
256,192,93689,1,0,0:0:0:0:
256,192,93851,1,8,0:0:0:0:
256,192,94013,1,0,0:0:0:0:
256,192,94094,1,8,0:0:0:0:
256,192,94175,1,0,0:0:0:0:
256,192,94337,1,8,0:0:0:0:
256,192,94499,1,0,0:0:0:0:
256,192,94580,1,8,0:0:0:0:
256,192,94662,1,0,0:0:0:0:
256,192,94824,1,8,0:0:0:0:
256,192,94905,1,8,0:0:0:0:
256,192,94986,1,0,0:0:0:0:
256,192,95959,1,12,0:0:0:0:
256,192,96283,1,0,0:0:0:0:
256,192,96445,1,0,0:0:0:0:
256,192,96608,1,8,0:0:0:0:
256,192,96770,1,0,0:0:0:0:
256,192,96932,1,8,0:0:0:0:
256,192,97013,1,0,0:0:0:0:
256,192,97094,1,0,0:0:0:0:
256,192,97175,1,0,0:0:0:0:
256,192,97256,1,8,0:0:0:0:
256,192,97337,1,0,0:0:0:0:
256,192,97418,1,8,0:0:0:0:
256,192,97499,1,8,0:0:0:0:
256,192,97580,1,4,0:0:0:0:
256,192,97743,1,0,0:0:0:0:
256,192,97824,1,0,0:0:0:0:
256,192,97905,1,8,0:0:0:0:
256,192,98067,1,8,0:0:0:0:
256,192,98148,1,8,0:0:0:0:
256,192,98229,1,0,0:0:0:0:
256,192,98310,1,8,0:0:0:0:
256,192,98391,1,8,0:0:0:0:
256,192,98472,1,0,0:0:0:0:
256,192,98553,1,8,0:0:0:0:
256,192,98635,1,0,0:0:0:0:
256,192,98716,1,8,0:0:0:0:
256,192,98797,1,8,0:0:0:0:
256,192,98878,1,0,0:0:0:0:
256,192,99040,1,8,0:0:0:0:
256,192,99121,1,8,0:0:0:0:
256,192,99202,1,8,0:0:0:0:
256,192,99364,1,0,0:0:0:0:
256,192,99445,1,8,0:0:0:0:
256,192,99526,1,0,0:0:0:0:
256,192,99608,1,8,0:0:0:0:
256,192,99689,1,0,0:0:0:0:
256,192,99770,1,0,0:0:0:0:
256,192,99851,1,8,0:0:0:0:
256,192,100013,1,8,0:0:0:0:
256,192,100094,1,8,0:0:0:0:
256,192,100175,1,0,0:0:0:0:
256,192,100256,1,8,0:0:0:0:
256,192,100337,1,8,0:0:0:0:
256,192,100418,1,0,0:0:0:0:
256,192,100499,1,8,0:0:0:0:
256,192,100580,1,8,0:0:0:0:
256,192,100662,1,0,0:0:0:0:
256,192,100743,1,8,0:0:0:0:
256,192,100824,1,0,0:0:0:0:
256,192,100905,1,8,0:0:0:0:
256,192,100986,1,8,0:0:0:0:
256,192,101067,1,0,0:0:0:0:
256,192,101148,1,8,0:0:0:0:
256,192,101310,1,0,0:0:0:0:
256,192,101391,1,8,0:0:0:0:
256,192,101472,1,0,0:0:0:0:
256,192,101635,1,0,0:0:0:0:
256,192,101716,1,0,0:0:0:0:
256,192,101797,1,8,0:0:0:0:
256,192,101959,1,8,0:0:0:0:
256,192,102040,1,8,0:0:0:0:
256,192,102121,1,0,0:0:0:0:
256,192,102202,1,8,0:0:0:0:
256,192,102283,1,0,0:0:0:0:
256,192,102364,1,0,0:0:0:0:
256,192,102445,1,8,0:0:0:0:
256,192,102526,1,0,0:0:0:0:
256,192,102608,1,8,0:0:0:0:
256,192,102689,1,8,0:0:0:0:
256,192,102770,1,0,0:0:0:0:
256,192,102932,1,0,0:0:0:0:
256,192,103013,1,0,0:0:0:0:
256,192,103094,1,8,0:0:0:0:
256,192,103175,1,0,0:0:0:0:
256,192,103256,1,8,0:0:0:0:
256,192,103337,1,8,0:0:0:0:
256,192,103418,1,0,0:0:0:0:
256,192,103499,1,8,0:0:0:0:
256,192,103580,1,8,0:0:0:0:
256,192,103662,1,0,0:0:0:0:
256,192,103743,1,8,0:0:0:0:
256,192,103905,1,8,0:0:0:0:
256,192,103986,1,8,0:0:0:0:
256,192,104067,1,0,0:0:0:0:
256,192,104229,1,0,0:0:0:0:
256,192,104310,1,0,0:0:0:0:
256,192,104391,1,8,0:0:0:0:
256,192,104472,1,0,0:0:0:0:
256,192,104553,1,8,0:0:0:0:
256,192,104635,1,8,0:0:0:0:
256,192,104716,1,0,0:0:0:0:
256,192,104797,1,8,0:0:0:0:
256,192,104878,1,0,0:0:0:0:
256,192,104959,1,0,0:0:0:0:
256,192,105040,1,8,0:0:0:0:
256,192,105121,1,0,0:0:0:0:
256,192,105202,1,8,0:0:0:0:
256,192,105283,1,8,0:0:0:0:
256,192,105364,1,0,0:0:0:0:
256,192,105526,1,0,0:0:0:0:
256,192,105608,1,0,0:0:0:0:
256,192,105689,1,8,0:0:0:0:
256,192,105851,1,8,0:0:0:0:
256,192,105932,1,8,0:0:0:0:
256,192,106013,1,0,0:0:0:0:
256,192,106094,1,8,0:0:0:0:
256,192,106175,1,8,0:0:0:0:
256,192,106337,1,4,0:0:0:0:
256,192,106662,1,0,0:0:0:0:
256,192,106743,1,8,0:0:0:0:
256,192,106824,1,8,0:0:0:0:
256,192,106905,1,0,0:0:0:0:
256,192,106986,1,12,0:0:0:0:
256,192,107148,1,8,0:0:0:0:
256,192,107310,1,0,0:0:0:0:
256,192,107391,1,8,0:0:0:0:
256,192,107553,1,8,0:0:0:0:
256,192,107635,1,8,0:0:0:0:
256,192,107716,1,0,0:0:0:0:
256,192,107797,1,8,0:0:0:0:
256,192,107878,1,8,0:0:0:0:
256,192,107959,1,0,0:0:0:0:
256,192,108121,1,8,0:0:0:0:
256,192,108202,1,8,0:0:0:0:
256,192,108283,1,8,0:0:0:0:
256,192,108445,1,8,0:0:0:0:
256,192,108526,1,8,0:0:0:0:
256,192,108608,1,0,0:0:0:0:
256,192,108689,1,8,0:0:0:0:
256,192,108770,1,8,0:0:0:0:
256,192,108851,1,0,0:0:0:0:
256,192,108932,1,8,0:0:0:0:
256,192,109013,1,0,0:0:0:0:
256,192,109094,1,8,0:0:0:0:
256,192,109175,1,8,0:0:0:0:
256,192,109256,1,0,0:0:0:0:
256,192,109418,1,0,0:0:0:0:
256,192,109499,1,0,0:0:0:0:
256,192,109580,1,8,0:0:0:0:
256,192,109743,1,8,0:0:0:0:
256,192,109824,1,8,0:0:0:0:
256,192,109905,1,0,0:0:0:0:
256,192,109986,1,8,0:0:0:0:
256,192,110067,1,0,0:0:0:0:
256,192,110148,1,0,0:0:0:0:
256,192,110229,1,8,0:0:0:0:
256,192,110310,1,0,0:0:0:0:
256,192,110391,1,8,0:0:0:0:
256,192,110472,1,8,0:0:0:0:
256,192,110553,1,0,0:0:0:0:
256,192,110716,1,8,0:0:0:0:
256,192,110797,1,8,0:0:0:0:
256,192,110878,1,8,0:0:0:0:
256,192,111040,1,8,0:0:0:0:
256,192,111121,1,8,0:0:0:0:
256,192,111202,1,0,0:0:0:0:
256,192,111283,1,0,0:0:0:0:
256,192,111364,1,8,0:0:0:0:
256,192,111445,1,0,0:0:0:0:
256,192,111526,1,8,0:0:0:0:
256,192,111608,1,8,0:0:0:0:
256,192,111689,1,0,0:0:0:0:
256,192,111770,1,8,0:0:0:0:
256,192,111851,1,0,0:0:0:0:
256,192,112013,1,8,0:0:0:0:
256,192,112094,1,8,0:0:0:0:
256,192,112175,1,8,0:0:0:0:
256,192,112337,1,8,0:0:0:0:
256,192,112418,1,8,0:0:0:0:
256,192,112499,1,0,0:0:0:0:
256,192,112580,1,8,0:0:0:0:
256,192,112662,1,0,0:0:0:0:
256,192,112743,1,0,0:0:0:0:
256,192,112824,1,8,0:0:0:0:
256,192,112905,1,0,0:0:0:0:
256,192,112986,1,8,0:0:0:0:
256,192,113067,1,8,0:0:0:0:
256,192,113148,1,0,0:0:0:0:
256,192,113310,1,8,0:0:0:0:
256,192,113391,1,0,0:0:0:0:
256,192,113472,1,8,0:0:0:0:
256,192,113635,1,8,0:0:0:0:
256,192,113716,1,8,0:0:0:0:
256,192,113797,1,0,0:0:0:0:
256,192,113878,1,8,0:0:0:0:
256,192,113959,1,0,0:0:0:0:
256,192,114040,1,0,0:0:0:0:
256,192,114121,1,8,0:0:0:0:
256,192,114202,1,0,0:0:0:0:
256,192,114283,1,8,0:0:0:0:
256,192,114364,1,8,0:0:0:0:
256,192,114445,1,0,0:0:0:0:
256,192,114608,1,8,0:0:0:0:
256,192,114689,1,8,0:0:0:0:
256,192,114770,1,0,0:0:0:0:
256,192,114932,1,8,0:0:0:0:
256,192,115013,1,8,0:0:0:0:
256,192,115094,1,0,0:0:0:0:
256,192,115175,1,0,0:0:0:0:
256,192,115256,1,8,0:0:0:0:
256,192,115337,1,8,0:0:0:0:
256,192,115418,1,0,0:0:0:0:
256,192,115580,1,8,0:0:0:0:
256,192,115743,1,0,0:0:0:0:
256,192,115824,1,8,0:0:0:0:
256,192,115905,1,8,0:0:0:0:
256,192,115986,1,8,0:0:0:0:
256,192,116067,1,0,0:0:0:0:
256,192,116148,1,0,0:0:0:0:
256,192,116229,1,8,0:0:0:0:
256,192,116310,1,8,0:0:0:0:
256,192,116391,1,0,0:0:0:0:
256,192,116472,1,8,0:0:0:0:
256,192,116553,1,0,0:0:0:0:
256,192,116635,1,8,0:0:0:0:
256,192,116716,1,0,0:0:0:0:
256,192,116797,1,8,0:0:0:0:
256,192,116878,1,8,0:0:0:0:
256,192,116959,1,0,0:0:0:0:
256,192,117121,1,12,0:0:0:0:
256,192,117364,1,12,0:0:0:0:
256,192,117608,1,12,0:0:0:0:
256,192,117851,1,12,0:0:0:0:
256,192,118175,1,12,0:0:0:0:
