osu file format v14

[General]
AudioFilename: audio.mp3
AudioLeadIn: 0
PreviewTime: 22662
Countdown: 0
SampleSet: Normal
StackLeniency: 0.7
Mode: 1
LetterboxInBreaks: 0
WidescreenStoryboard: 1

[Editor]
Bookmarks: 11959,23635
DistanceSpacing: 2
BeatDivisor: 4
GridSize: 32
TimelineZoom: 2.6

[Metadata]
Title:archive::zip
TitleUnicode:archive::zip
Artist:kamome sano
ArtistUnicode:kamome sano
Creator:[_Chichinya_]
Version:Muzukashii
Source:SOUND VOLTEX III GRAVITY WARS
Tags:ULTIMATE TRACKS -FLOOR ANTHEM- EP.01 album KONAMI original song BEMANI SDVX -BANGKE- 沙野カモメ Vulkin
BeatmapID:1372230
BeatmapSetID:647654

[Difficulty]
HPDrainRate:5
CircleSize:2
OverallDifficulty:5
ApproachRate:9
SliderMultiplier:1.3999998998642
SliderTickRate:1

[Events]
//Background and Video events
0,0,"Anime-1.jpg",0,0
//Break Periods
//Storyboard Layer 0 (Background)
//Storyboard Layer 1 (Fail)
//Storyboard Layer 2 (Pass)
//Storyboard Layer 3 (Foreground)
//Storyboard Sound Samples

[TimingPoints]
1581,324.324324324324,4,1,0,50,1,0
28824,-100,4,1,0,60,0,0
29148,-100,4,1,0,70,0,0
29472,-100,4,1,0,80,0,0
29797,-100,4,1,0,90,0,0
30121,-100,4,1,0,95,0,0
65148,-100,4,1,0,95,0,1
85905,-100,4,1,0,95,0,1
86067,-100,4,1,0,70,0,0
96283,-100,4,1,0,95,0,0
97580,-100,4,1,0,95,0,1
117040,-100,4,1,0,95,0,0

[HitObjects]
256,192,608,5,0,0:0:0:0:
256,192,932,1,0,0:0:0:0:
256,192,1256,1,8,0:0:0:0:
256,192,1581,1,4,0:0:0:0:
256,192,2067,1,0,0:0:0:0:
256,192,2229,1,8,0:0:0:0:
256,192,2553,1,0,0:0:0:0:
256,192,3040,1,0,0:0:0:0:
256,192,3202,1,0,0:0:0:0:
256,192,3526,1,8,0:0:0:0:
256,192,3851,1,0,0:0:0:0:
256,192,4175,1,0,0:0:0:0:
256,192,4662,1,0,0:0:0:0:
256,192,4824,1,8,0:0:0:0:
256,192,5148,1,0,0:0:0:0:
256,192,5635,1,0,0:0:0:0:
256,192,5797,1,8,0:0:0:0:
256,192,6121,1,8,0:0:0:0:
256,192,6445,1,8,0:0:0:0:
256,192,6770,1,0,0:0:0:0:
256,192,7256,1,0,0:0:0:0:
256,192,7418,1,8,0:0:0:0:
256,192,7743,1,0,0:0:0:0:
256,192,8229,1,0,0:0:0:0:
256,192,8391,1,0,0:0:0:0:
256,192,8716,1,8,0:0:0:0:
256,192,9040,1,0,0:0:0:0:
256,192,9364,1,0,0:0:0:0:
256,192,9851,1,0,0:0:0:0:
256,192,10013,1,8,0:0:0:0:
256,192,10337,1,8,0:0:0:0:
256,192,10499,1,8,0:0:0:0:
256,192,10580,1,8,0:0:0:0:
256,192,10662,1,8,0:0:0:0:
256,192,10824,1,8,0:0:0:0:
256,192,10986,1,8,0:0:0:0:
256,192,11148,1,0,0:0:0:0:
256,192,11229,1,0,0:0:0:0:
256,192,11310,1,0,0:0:0:0:
256,192,11472,1,8,0:0:0:0:
256,192,11635,1,8,0:0:0:0:
256,192,11797,1,8,0:0:0:0:
256,192,11959,1,0,0:0:0:0:
256,192,12121,1,0,0:0:0:0:
256,192,12283,1,8,0:0:0:0:
256,192,13256,1,8,0:0:0:0:
256,192,14553,1,0,0:0:0:0:
256,192,14716,1,0,0:0:0:0:
256,192,14878,1,8,0:0:0:0:
256,192,15851,1,8,0:0:0:0:
256,192,17148,1,0,0:0:0:0:
256,192,17310,1,0,0:0:0:0:
256,192,17472,1,8,0:0:0:0:
256,192,17797,1,0,0:0:0:0:
256,192,17959,1,0,0:0:0:0:
256,192,18121,1,8,0:0:0:0:
256,192,18445,1,0,0:0:0:0:
256,192,18607,1,0,0:0:0:0:
256,192,18769,1,8,0:0:0:0:
256,192,19094,1,0,0:0:0:0:
256,192,19256,1,0,0:0:0:0:
256,192,19418,1,8,0:0:0:0:
256,192,19743,1,0,0:0:0:0:
256,192,19905,1,0,0:0:0:0:
256,192,20067,1,8,0:0:0:0:
256,192,20229,1,8,0:0:0:0:
256,192,20310,1,8,0:0:0:0:
256,192,20391,1,8,0:0:0:0:
256,192,20553,1,0,0:0:0:0:
256,192,20716,1,0,0:0:0:0:
256,192,20878,1,0,0:0:0:0:
256,192,20959,1,0,0:0:0:0:
256,192,21040,1,0,0:0:0:0:
256,192,21202,1,8,0:0:0:0:
256,192,21364,1,8,0:0:0:0:
256,192,21689,1,8,0:0:0:0:
256,192,22013,1,0,0:0:0:0:
256,192,22337,1,0,0:0:0:0:
256,192,23635,1,0,0:0:0:0:
256,192,23797,1,8,0:0:0:0:
256,192,23878,1,8,0:0:0:0:
256,192,23959,1,8,0:0:0:0:
256,192,24121,1,8,0:0:0:0:
256,192,24283,1,0,0:0:0:0:
256,192,24445,1,0,0:0:0:0:
256,192,24608,1,8,0:0:0:0:
256,192,24770,1,0,0:0:0:0:
256,192,24851,1,0,0:0:0:0:
256,192,24932,1,0,0:0:0:0:
256,192,25256,1,0,0:0:0:0:
256,192,25418,1,8,0:0:0:0:
256,192,25580,1,0,0:0:0:0:
256,192,26229,1,0,0:0:0:0:
256,192,26391,1,8,0:0:0:0:
256,192,26472,1,8,0:0:0:0:
256,192,26553,1,8,0:0:0:0:
256,192,26716,1,8,0:0:0:0:
256,192,26878,1,0,0:0:0:0:
256,192,27040,1,0,0:0:0:0:
256,192,27121,1,0,0:0:0:0:
256,192,27202,1,0,0:0:0:0:
256,192,27364,1,0,0:0:0:0:
256,192,27526,1,8,0:0:0:0:
256,192,27851,1,8,0:0:0:0:
256,192,28013,1,0,0:0:0:0:
256,192,28175,1,8,0:0:0:0:
256,192,28499,1,0,0:0:0:0:
256,192,28662,1,8,0:0:0:0:
256,192,28824,1,0,0:0:0:0:
256,192,28986,1,8,0:0:0:0:
256,192,29148,1,0,0:0:0:0:
256,192,29310,1,0,0:0:0:0:
256,192,29391,1,0,0:0:0:0:
256,192,29472,1,0,0:0:0:0:
256,192,29635,1,8,0:0:0:0:
256,192,29797,1,8,0:0:0:0:
256,192,29959,1,0,0:0:0:0:
256,192,30121,1,0,0:0:0:0:
256,192,30445,1,8,0:0:0:0:
256,192,30526,1,8,0:0:0:0:
256,192,30608,1,8,0:0:0:0:
256,192,30770,1,0,0:0:0:0:
256,192,31094,1,0,0:0:0:0:
256,192,31256,1,8,0:0:0:0:
256,192,31418,1,0,0:0:0:0:
256,192,31580,1,8,0:0:0:0:
256,192,31743,1,8,0:0:0:0:
256,192,31905,1,0,0:0:0:0:
256,192,32067,1,0,0:0:0:0:
256,192,32391,1,8,0:0:0:0:
256,192,32553,1,0,0:0:0:0:
256,192,33202,1,8,0:0:0:0:
256,192,33526,1,0,0:0:0:0:
256,192,33689,1,8,0:0:0:0:
256,192,34013,1,0,0:0:0:0:
256,192,34175,1,0,0:0:0:0:
256,192,34256,1,0,0:0:0:0:
256,192,34337,1,0,0:0:0:0:
256,192,34499,1,8,0:0:0:0:
256,192,34662,1,0,0:0:0:0:
256,192,34986,1,8,0:0:0:0:
256,192,35310,1,0,0:0:0:0:
256,192,35472,1,8,0:0:0:0:
256,192,35553,1,8,0:0:0:0:
256,192,35635,1,8,0:0:0:0:
256,192,35797,1,8,0:0:0:0:
256,192,35959,1,0,0:0:0:0:
256,192,36283,1,8,0:0:0:0:
256,192,36608,1,0,0:0:0:0:
256,192,36770,1,8,0:0:0:0:
256,192,36932,1,0,0:0:0:0:
256,192,37013,1,8,0:0:0:0:
256,192,37175,1,8,0:0:0:0:
256,192,37256,1,0,0:0:0:0:
256,192,37580,1,8,0:0:0:0:
256,192,37905,1,8,0:0:0:0:
256,192,37986,1,0,0:0:0:0:
256,192,38148,1,0,0:0:0:0:
256,192,38229,1,8,0:0:0:0:
256,192,38391,1,8,0:0:0:0:
256,192,38472,1,8,0:0:0:0:
256,192,38553,1,8,0:0:0:0:
256,192,38716,1,8,0:0:0:0:
256,192,38878,1,0,0:0:0:0:
256,192,39040,1,0,0:0:0:0:
256,192,39202,1,0,0:0:0:0:
256,192,39526,1,8,0:0:0:0:
256,192,39689,1,0,0:0:0:0:
256,192,39770,1,0,0:0:0:0:
256,192,39851,1,0,0:0:0:0:
256,192,40013,1,8,0:0:0:0:
256,192,40175,1,0,0:0:0:0:
256,192,40499,1,8,0:0:0:0:
256,192,40824,1,0,0:0:0:0:
256,192,40986,1,8,0:0:0:0:
256,192,41067,1,8,0:0:0:0:
256,192,41148,1,8,0:0:0:0:
256,192,41310,1,8,0:0:0:0:
256,192,41472,1,0,0:0:0:0:
256,192,41797,1,0,0:0:0:0:
256,192,41959,1,8,0:0:0:0:
256,192,42121,1,0,0:0:0:0:
256,192,42283,1,8,0:0:0:0:
256,192,42364,1,8,0:0:0:0:
256,192,42445,1,8,0:0:0:0:
256,192,42608,1,8,0:0:0:0:
256,192,42770,1,0,0:0:0:0:
256,192,43094,5,0,0:0:0:0:
256,192,43256,1,0,0:0:0:0:
256,192,43418,1,8,0:0:0:0:
256,192,43580,1,0,0:0:0:0:
256,192,43743,1,0,0:0:0:0:
256,192,43905,1,0,0:0:0:0:
256,192,44067,1,12,0:0:0:0:
256,192,44391,1,4,0:0:0:0:
256,192,44716,1,4,0:0:0:0:
256,192,45040,1,8,0:0:0:0:
256,192,45202,1,8,0:0:0:0:
256,192,45364,1,8,0:0:0:0:
256,192,45445,1,8,0:0:0:0:
256,192,45526,1,8,0:0:0:0:
256,192,45689,1,12,0:0:0:0:
256,192,46175,1,4,0:0:0:0:
256,192,46499,1,0,0:0:0:0:
256,192,46662,1,8,0:0:0:0:
256,192,46742,1,0,0:0:0:0:
256,192,46905,1,0,0:0:0:0:
256,192,46986,1,8,0:0:0:0:
256,192,47310,1,0,0:0:0:0:
256,192,47391,1,8,0:0:0:0:
256,192,47553,1,8,0:0:0:0:
256,192,47635,1,0,0:0:0:0:
256,192,47959,1,0,0:0:0:0:
256,192,48283,1,8,0:0:0:0:
256,192,48364,1,8,0:0:0:0:
256,192,48445,1,8,0:0:0:0:
256,192,48608,1,8,0:0:0:0:
256,192,48770,1,8,0:0:0:0:
256,192,48851,1,8,0:0:0:0:
256,192,48932,1,8,0:0:0:0:
256,192,49256,1,4,0:0:0:0:
256,192,49580,1,12,0:0:0:0:
256,192,49905,1,12,0:0:0:0:
256,192,50229,1,0,0:0:0:0:
256,192,50391,1,0,0:0:0:0:
256,192,50553,1,0,0:0:0:0:
256,192,50635,1,0,0:0:0:0:
256,192,50716,1,0,0:0:0:0:
256,192,50878,1,12,0:0:0:0:
256,192,51364,1,4,0:0:0:0:
256,192,51689,1,0,0:0:0:0:
256,192,51851,1,8,0:0:0:0:
256,192,51932,1,0,0:0:0:0:
256,192,52094,1,0,0:0:0:0:
256,192,52175,1,8,0:0:0:0:
256,192,52337,1,0,0:0:0:0:
256,192,52499,1,8,0:0:0:0:
256,192,52662,1,8,0:0:0:0:
256,192,53148,1,0,0:0:0:0:
256,192,53310,1,8,0:0:0:0:
256,192,53391,1,8,0:0:0:0:
256,192,53472,1,8,0:0:0:0:
256,192,53635,1,8,0:0:0:0:
256,192,53797,1,0,0:0:0:0:
256,192,53959,1,8,0:0:0:0:
256,192,54121,1,0,0:0:0:0:
256,192,54283,1,0,0:0:0:0:
256,192,54445,1,8,0:0:0:0:
256,192,54608,1,8,0:0:0:0:
256,192,54770,1,0,0:0:0:0:
256,192,55094,1,0,0:0:0:0:
256,192,55418,1,8,0:0:0:0:
256,192,55580,1,8,0:0:0:0:
256,192,55743,1,0,0:0:0:0:
256,192,55824,1,0,0:0:0:0:
256,192,55905,1,0,0:0:0:0:
256,192,56067,1,8,0:0:0:0:
256,192,56553,1,0,0:0:0:0:
256,192,56878,1,8,0:0:0:0:
256,192,57040,1,8,0:0:0:0:
256,192,57121,1,0,0:0:0:0:
256,192,57283,1,0,0:0:0:0:
256,192,57364,1,8,0:0:0:0:
256,192,57526,1,0,0:0:0:0:
256,192,57689,1,8,0:0:0:0:
256,192,57770,1,8,0:0:0:0:
256,192,57932,1,8,0:0:0:0:
256,192,58013,1,8,0:0:0:0:
256,192,58175,1,0,0:0:0:0:
256,192,58337,1,8,0:0:0:0:
256,192,58662,1,0,0:0:0:0:
256,192,58824,1,0,0:0:0:0:
256,192,58905,1,0,0:0:0:0:
256,192,58986,1,0,0:0:0:0:
256,192,59148,1,8,0:0:0:0:
256,192,59229,1,8,0:0:0:0:
256,192,59310,1,8,0:0:0:0:
256,192,59635,1,8,0:0:0:0:
256,192,59959,1,0,0:0:0:0:
256,192,60283,1,8,0:0:0:0:
256,192,60608,1,0,0:0:0:0:
256,192,60716,1,0,0:0:0:0:
256,192,60824,1,0,0:0:0:0:
256,192,60932,1,0,0:0:0:0:
256,192,61040,1,0,0:0:0:0:
256,192,61256,1,12,0:0:0:0:
256,192,61905,1,0,0:0:0:0:
256,192,62229,1,8,0:0:0:0:
256,192,62553,1,8,0:0:0:0:
256,192,62635,1,8,0:0:0:0:
256,192,62716,1,8,0:0:0:0:
256,192,62878,1,8,0:0:0:0:
256,192,63040,1,0,0:0:0:0:
256,192,63121,1,0,0:0:0:0:
256,192,63202,1,0,0:0:0:0:
256,192,63526,1,8,0:0:0:0:
256,192,63851,1,0,0:0:0:0:
256,192,64824,1,8,0:0:0:0:
256,192,65148,1,0,0:0:0:0:
256,192,65310,1,8,0:0:0:0:
256,192,65391,1,8,0:0:0:0:
256,192,65472,1,8,0:0:0:0:
256,192,65635,1,8,0:0:0:0:
256,192,65797,1,0,0:0:0:0:
256,192,65959,1,0,0:0:0:0:
256,192,66121,1,8,0:0:0:0:
256,192,66283,1,0,0:0:0:0:
256,192,66364,1,0,0:0:0:0:
256,192,66445,1,0,0:0:0:0:
256,192,66608,1,0,0:0:0:0:
256,192,66770,1,8,0:0:0:0:
256,192,67094,1,0,0:0:0:0:
256,192,67418,1,8,0:0:0:0:
256,192,67499,1,8,0:0:0:0:
256,192,67580,1,8,0:0:0:0:
256,192,67743,1,0,0:0:0:0:
256,192,67905,1,0,0:0:0:0:
256,192,68067,1,8,0:0:0:0:
256,192,68229,1,0,0:0:0:0:
256,192,68391,1,0,0:0:0:0:
256,192,68472,1,8,0:0:0:0:
256,192,68635,1,8,0:0:0:0:
256,192,68716,1,0,0:0:0:0:
256,192,68878,1,8,0:0:0:0:
256,192,69040,1,0,0:0:0:0:
256,192,69364,1,8,0:0:0:0:
256,192,69445,1,8,0:0:0:0:
256,192,69526,1,8,0:0:0:0:
256,192,69689,1,0,0:0:0:0:
256,192,69851,1,8,0:0:0:0:
256,192,70013,1,0,0:0:0:0:
256,192,70175,1,0,0:0:0:0:
256,192,70337,1,0,0:0:0:0:
256,192,70662,1,8,0:0:0:0:
256,192,70824,1,0,0:0:0:0:
256,192,70905,1,0,0:0:0:0:
256,192,70986,1,0,0:0:0:0:
256,192,71148,1,8,0:0:0:0:
256,192,71310,1,8,0:0:0:0:
256,192,71472,1,0,0:0:0:0:
256,192,71635,1,0,0:0:0:0:
256,192,71959,1,8,0:0:0:0:
256,192,72121,1,8,0:0:0:0:
256,192,72283,1,0,0:0:0:0:
256,192,72608,1,8,0:0:0:0:
256,192,72689,1,8,0:0:0:0:
256,192,72770,1,8,0:0:0:0:
256,192,72932,1,0,0:0:0:0:
256,192,73094,1,0,0:0:0:0:
256,192,73256,1,8,0:0:0:0:
256,192,73418,1,0,0:0:0:0:
256,192,73499,1,0,0:0:0:0:
256,192,73580,1,0,0:0:0:0:
256,192,73743,1,8,0:0:0:0:
256,192,73905,1,8,0:0:0:0:
256,192,74229,1,0,0:0:0:0:
256,192,74472,1,0,0:0:0:0:
256,192,74716,1,0,0:0:0:0:
256,192,74878,1,0,0:0:0:0:
256,192,75202,1,8,0:0:0:0:
256,192,75526,1,0,0:0:0:0:
256,192,75608,1,0,0:0:0:0:
256,192,75689,1,0,0:0:0:0:
256,192,75851,1,8,0:0:0:0:
256,192,76175,1,0,0:0:0:0:
256,192,76337,1,8,0:0:0:0:
256,192,76418,1,8,0:0:0:0:
256,192,76499,1,8,0:0:0:0:
256,192,76662,1,0,0:0:0:0:
256,192,76824,1,0,0:0:0:0:
256,192,77148,1,8,0:0:0:0:
256,192,77472,1,0,0:0:0:0:
256,192,77797,1,8,0:0:0:0:
256,192,77959,1,0,0:0:0:0:
256,192,78040,1,0,0:0:0:0:
256,192,78121,1,0,0:0:0:0:
256,192,78283,1,8,0:0:0:0:
256,192,78445,1,8,0:0:0:0:
256,192,78608,1,0,0:0:0:0:
256,192,78689,1,0,0:0:0:0:
256,192,78770,1,0,0:0:0:0:
256,192,78932,1,8,0:0:0:0:
256,192,79013,1,8,0:0:0:0:
256,192,79094,1,8,0:0:0:0:
256,192,79256,1,0,0:0:0:0:
256,192,79418,1,0,0:0:0:0:
256,192,79743,1,8,0:0:0:0:
256,192,79905,1,8,0:0:0:0:
256,192,80067,1,0,0:0:0:0:
256,192,80391,1,0,0:0:0:0:
256,192,80553,1,0,0:0:0:0:
256,192,80716,1,0,0:0:0:0:
256,192,81040,1,8,0:0:0:0:
256,192,81202,1,8,0:0:0:0:
256,192,81283,1,8,0:0:0:0:
256,192,81364,1,8,0:0:0:0:
256,192,81526,1,0,0:0:0:0:
256,192,81689,1,8,0:0:0:0:
256,192,81851,1,8,0:0:0:0:
256,192,81932,1,8,0:0:0:0:
256,192,82013,1,8,0:0:0:0:
256,192,82337,1,8,0:0:0:0:
256,192,82499,1,0,0:0:0:0:
256,192,82662,1,8,0:0:0:0:
256,192,82824,1,0,0:0:0:0:
256,192,82905,1,0,0:0:0:0:
256,192,82986,1,0,0:0:0:0:
256,192,83148,1,0,0:0:0:0:
256,192,83310,1,8,0:0:0:0:
256,192,83472,1,8,0:0:0:0:
256,192,83553,1,8,0:0:0:0:
256,192,83635,1,8,0:0:0:0:
256,192,83797,1,8,0:0:0:0:
256,192,83959,1,0,0:0:0:0:
256,192,84121,1,0,0:0:0:0:
256,192,84202,1,0,0:0:0:0:
256,192,84283,1,0,0:0:0:0:
256,192,84445,1,8,0:0:0:0:
256,192,84608,1,8,0:0:0:0:
256,192,85256,1,8,0:0:0:0:
256,192,85905,1,8,0:0:0:0:
256,192,86067,1,0,0:0:0:0:
256,192,86229,1,0,0:0:0:0:
256,192,86391,1,8,0:0:0:0:
256,192,86472,1,8,0:0:0:0:
256,192,86635,1,8,0:0:0:0:
256,192,86716,1,8,0:0:0:0:
256,192,86878,1,0,0:0:0:0:
256,192,87202,1,0,0:0:0:0:
256,192,87364,1,8,0:0:0:0:
256,192,87526,1,8,0:0:0:0:
256,192,87689,1,0,0:0:0:0:
256,192,87770,1,0,0:0:0:0:
256,192,87932,1,0,0:0:0:0:
256,192,88013,1,0,0:0:0:0:
256,192,88175,1,8,0:0:0:0:
256,192,88499,1,8,0:0:0:0:
256,192,88662,1,0,0:0:0:0:
256,192,88824,1,8,0:0:0:0:
256,192,88986,1,0,0:0:0:0:
256,192,89067,1,0,0:0:0:0:
256,192,89229,1,8,0:0:0:0:
256,192,89310,1,8,0:0:0:0:
256,192,89472,1,0,0:0:0:0:
256,192,89797,1,0,0:0:0:0:
256,192,89959,1,8,0:0:0:0:
256,192,90121,1,0,0:0:0:0:
256,192,90283,1,8,0:0:0:0:
256,192,90364,1,8,0:0:0:0:
256,192,90526,1,0,0:0:0:0:
256,192,90608,1,0,0:0:0:0:
256,192,90770,1,8,0:0:0:0:
256,192,90932,1,0,0:0:0:0:
256,192,91094,5,8,0:0:0:0:
256,192,91418,1,8,0:0:0:0:
256,192,91580,1,0,0:0:0:0:
256,192,91743,1,0,0:0:0:0:
256,192,91905,1,8,0:0:0:0:
256,192,92391,1,0,0:0:0:0:
256,192,92553,1,8,0:0:0:0:
256,192,92716,1,8,0:0:0:0:
256,192,92878,1,0,0:0:0:0:
256,192,93040,1,8,0:0:0:0:
256,192,93364,1,0,0:0:0:0:
256,192,93689,1,8,0:0:0:0:
256,192,94013,1,0,0:0:0:0:
256,192,94175,1,8,0:0:0:0:
256,192,94499,1,0,0:0:0:0:
256,192,94662,1,8,0:0:0:0:
256,192,94986,1,0,0:0:0:0:
256,192,95959,1,8,0:0:0:0:
256,192,96283,1,0,0:0:0:0:
256,192,96932,1,8,0:0:0:0:
256,192,97256,1,8,0:0:0:0:
256,192,97580,1,0,0:0:0:0:
256,192,97743,1,8,0:0:0:0:
256,192,97824,1,8,0:0:0:0:
256,192,97905,1,8,0:0:0:0:
256,192,98067,1,0,0:0:0:0:
256,192,98229,1,0,0:0:0:0:
256,192,98391,1,8,0:0:0:0:
256,192,98472,1,8,0:0:0:0:
256,192,98553,1,8,0:0:0:0:
256,192,98716,1,0,0:0:0:0:
256,192,98797,1,0,0:0:0:0:
256,192,98878,1,0,0:0:0:0:
256,192,99202,1,8,0:0:0:0:
256,192,99364,1,0,0:0:0:0:
256,192,99526,1,0,0:0:0:0:
256,192,99689,1,8,0:0:0:0:
256,192,99770,1,8,0:0:0:0:
256,192,99851,1,8,0:0:0:0:
256,192,100013,1,8,0:0:0:0:
256,192,100175,1,0,0:0:0:0:
256,192,100499,1,8,0:0:0:0:
256,192,100580,1,8,0:0:0:0:
256,192,100661,1,8,0:0:0:0:
256,192,100824,1,0,0:0:0:0:
256,192,100986,1,8,0:0:0:0:
256,192,101148,1,0,0:0:0:0:
256,192,101310,1,0,0:0:0:0:
256,192,101472,1,0,0:0:0:0:
256,192,101797,1,8,0:0:0:0:
256,192,101959,1,0,0:0:0:0:
256,192,102040,1,0,0:0:0:0:
256,192,102121,1,0,0:0:0:0:
256,192,102283,1,8,0:0:0:0:
256,192,102445,1,8,0:0:0:0:
256,192,102607,1,0,0:0:0:0:
256,192,102770,1,0,0:0:0:0:
256,192,103094,1,0,0:0:0:0:
256,192,103256,1,8,0:0:0:0:
256,192,103418,1,0,0:0:0:0:
256,192,103743,1,8,0:0:0:0:
256,192,103824,1,8,0:0:0:0:
256,192,103905,1,8,0:0:0:0:
256,192,104067,1,0,0:0:0:0:
256,192,104229,1,0,0:0:0:0:
256,192,104391,1,8,0:0:0:0:
256,192,104553,1,0,0:0:0:0:
256,192,104634,1,0,0:0:0:0:
256,192,104715,1,0,0:0:0:0:
256,192,104878,1,8,0:0:0:0:
256,192,105040,1,8,0:0:0:0:
256,192,105364,1,0,0:0:0:0:
256,192,105445,1,0,0:0:0:0:
256,192,105607,1,0,0:0:0:0:
256,192,105689,1,0,0:0:0:0:
256,192,105851,1,0,0:0:0:0:
256,192,106013,1,0,0:0:0:0:
256,192,106175,1,0,0:0:0:0:
256,192,106337,1,8,0:0:0:0:
256,192,106662,1,0,0:0:0:0:
256,192,106743,1,0,0:0:0:0:
256,192,106824,1,0,0:0:0:0:
256,192,106986,1,12,0:0:0:0:
256,192,107310,1,0,0:0:0:0:
256,192,107472,1,8,0:0:0:0:
256,192,107553,1,8,0:0:0:0:
256,192,107634,1,8,0:0:0:0:
256,192,107797,1,0,0:0:0:0:
256,192,107959,1,0,0:0:0:0:
256,192,108283,1,8,0:0:0:0:
256,192,108607,1,0,0:0:0:0:
256,192,108932,1,8,0:0:0:0:
256,192,109094,1,0,0:0:0:0:
256,192,109175,1,0,0:0:0:0:
256,192,109256,1,0,0:0:0:0:
256,192,109418,1,8,0:0:0:0:
256,192,109580,1,8,0:0:0:0:
256,192,109743,1,0,0:0:0:0:
256,192,109824,1,0,0:0:0:0:
256,192,109905,1,0,0:0:0:0:
256,192,110067,1,8,0:0:0:0:
256,192,110148,1,8,0:0:0:0:
256,192,110229,1,8,0:0:0:0:
256,192,110391,1,0,0:0:0:0:
256,192,110553,1,0,0:0:0:0:
256,192,110878,1,8,0:0:0:0:
256,192,111040,1,8,0:0:0:0:
256,192,111202,1,0,0:0:0:0:
256,192,111526,1,0,0:0:0:0:
256,192,111688,1,0,0:0:0:0:
256,192,111851,1,0,0:0:0:0:
256,192,112175,1,8,0:0:0:0:
256,192,112337,1,8,0:0:0:0:
256,192,112418,1,8,0:0:0:0:
256,192,112499,1,8,0:0:0:0:
256,192,112661,1,0,0:0:0:0:
256,192,112824,1,8,0:0:0:0:
256,192,112986,1,8,0:0:0:0:
256,192,113067,1,8,0:0:0:0:
256,192,113148,1,8,0:0:0:0:
256,192,113472,1,8,0:0:0:0:
256,192,113634,1,0,0:0:0:0:
256,192,113797,1,8,0:0:0:0:
256,192,113959,1,0,0:0:0:0:
256,192,114040,1,0,0:0:0:0:
256,192,114121,1,0,0:0:0:0:
256,192,114283,1,0,0:0:0:0:
256,192,114445,1,8,0:0:0:0:
256,192,114607,1,8,0:0:0:0:
256,192,114688,1,8,0:0:0:0:
256,192,114770,1,8,0:0:0:0:
256,192,114932,1,8,0:0:0:0:
256,192,115094,1,0,0:0:0:0:
256,192,115256,1,0,0:0:0:0:
256,192,115337,1,0,0:0:0:0:
256,192,115418,1,0,0:0:0:0:
256,192,115580,1,8,0:0:0:0:
256,192,115743,1,0,0:0:0:0:
256,192,116391,1,8,0:0:0:0:
256,192,117121,1,8,0:0:0:0:
256,192,117364,1,8,0:0:0:0:
256,192,117608,1,8,0:0:0:0:
256,192,117851,1,8,0:0:0:0:
256,192,118175,1,8,0:0:0:0:
