osu file format v14

[General]
AudioFilename: audio.mp3
AudioLeadIn: 0
PreviewTime: 22662
Countdown: 0
SampleSet: Normal
StackLeniency: 0.7
Mode: 1
LetterboxInBreaks: 0
WidescreenStoryboard: 1

[Editor]
Bookmarks: 11959,23635
DistanceSpacing: 2
BeatDivisor: 4
GridSize: 32
TimelineZoom: 2.6

[Metadata]
Title:archive::zip
TitleUnicode:archive::zip
Artist:kamome sano
ArtistUnicode:kamome sano
Creator:[_Chichinya_]
Version:Kantan
Source:SOUND VOLTEX III GRAVITY WARS
Tags:ULTIMATE TRACKS -FLOOR ANTHEM- EP.01 album KONAMI original song BEMANI SDVX -BANGKE- 沙野カモメ Vulkin
BeatmapID:1372229
BeatmapSetID:647654

[Difficulty]
HPDrainRate:7
CircleSize:2
OverallDifficulty:2
ApproachRate:9
SliderMultiplier:1.2
SliderTickRate:1

[Events]
//Background and Video events
0,0,"Anime-1.jpg",0,0
//Break Periods
2,86105,90494
//Storyboard Layer 0 (Background)
//Storyboard Layer 1 (Fail)
//Storyboard Layer 2 (Pass)
//Storyboard Layer 3 (Foreground)
//Storyboard Sound Samples

[TimingPoints]
1581,324.324324324324,4,1,0,50,1,0
28824,-100,4,1,0,60,0,0
29148,-100,4,1,0,70,0,0
29472,-100,4,1,0,80,0,0
29797,-100,4,1,0,90,0,0
30121,-100,4,1,0,95,0,0
65148,-100,4,1,0,95,0,1
84608,-100,4,1,0,95,0,1
85905,-100,4,1,0,95,0,0
96283,-100,4,1,0,95,0,0
97580,-100,4,1,0,95,0,1
117040,-100,4,1,0,95,0,0

[HitObjects]
256,192,608,5,0,0:0:0:0:
256,192,932,1,0,0:0:0:0:
256,192,1256,1,8,0:0:0:0:
256,192,1581,1,4,0:0:0:0:
256,192,2229,1,8,0:0:0:0:
256,192,3526,1,8,0:0:0:0:
256,192,4175,1,0,0:0:0:0:
256,192,4824,1,8,0:0:0:0:
256,192,6121,1,8,0:0:0:0:
256,192,6770,1,0,0:0:0:0:
256,192,7418,1,8,0:0:0:0:
256,192,8716,1,8,0:0:0:0:
256,192,9364,1,0,0:0:0:0:
256,192,10013,1,8,0:0:0:0:
256,192,11310,1,8,0:0:0:0:
256,192,11959,1,4,0:0:0:0:
256,192,14553,1,4,0:0:0:0:
256,192,17148,1,0,0:0:0:0:
256,192,17797,1,0,0:0:0:0:
256,192,18445,1,0,0:0:0:0:
256,192,19743,1,0,0:0:0:0:
256,192,20391,1,0,0:0:0:0:
256,192,21040,1,0,0:0:0:0:
256,192,22337,1,0,0:0:0:0:
256,192,23635,1,0,0:0:0:0:
256,192,24932,1,8,0:0:0:0:
256,192,26229,1,0,0:0:0:0:
256,192,26878,1,8,0:0:0:0:
256,192,27526,1,0,0:0:0:0:
256,192,28824,1,0,0:0:0:0:
256,192,29472,1,8,0:0:0:0:
256,192,30121,1,0,0:0:0:0:
256,192,31418,1,8,0:0:0:0:
256,192,32067,1,0,0:0:0:0:
256,192,32553,1,4,0:0:0:0:
256,192,33202,1,4,0:0:0:0:
256,192,33689,1,8,0:0:0:0:
256,192,34013,1,0,0:0:0:0:
256,192,35310,1,0,0:0:0:0:
256,192,36608,1,8,0:0:0:0:
256,192,37905,1,8,0:0:0:0:
256,192,39202,1,0,0:0:0:0:
256,192,40499,1,8,0:0:0:0:
256,192,41797,1,0,0:0:0:0:
256,192,43094,1,8,0:0:0:0:
256,192,43743,1,0,0:0:0:0:
256,192,44391,1,8,0:0:0:0:
256,192,44716,1,8,0:0:0:0:
256,192,45040,1,0,0:0:0:0:
256,192,45689,1,8,0:0:0:0:
256,192,46986,1,0,0:0:0:0:
256,192,47310,1,8,0:0:0:0:
256,192,47635,1,0,0:0:0:0:
256,192,48283,1,8,0:0:0:0:
256,192,48932,1,0,0:0:0:0:
256,192,49256,1,0,0:0:0:0:
256,192,49580,1,8,0:0:0:0:
256,192,50878,1,0,0:0:0:0:
256,192,51364,1,8,0:0:0:0:
256,192,52175,1,0,0:0:0:0:
256,192,53148,1,8,0:0:0:0:
256,192,54770,1,0,0:0:0:0:
256,192,56067,1,8,0:0:0:0:
256,192,56553,1,0,0:0:0:0:
256,192,57364,1,0,0:0:0:0:
256,192,58662,1,8,0:0:0:0:
256,192,59310,1,0,0:0:0:0:
256,192,59635,1,0,0:0:0:0:
256,192,59959,1,8,0:0:0:0:
256,192,61256,1,0,0:0:0:0:
256,192,62229,1,8,0:0:0:0:
256,192,63202,1,0,0:0:0:0:
256,192,63526,1,8,0:0:0:0:
256,192,65148,1,4,0:0:0:0:
256,192,65472,1,8,0:0:0:0:
256,192,65797,1,8,0:0:0:0:
256,192,66445,1,0,0:0:0:0:
256,192,66770,1,8,0:0:0:0:
256,192,67094,1,0,0:0:0:0:
256,192,67743,1,8,0:0:0:0:
256,192,68067,1,0,0:0:0:0:
256,192,68391,1,8,0:0:0:0:
256,192,69040,1,0,0:0:0:0:
256,192,69689,1,8,0:0:0:0:
256,192,70337,1,0,0:0:0:0:
256,192,70662,1,8,0:0:0:0:
256,192,70986,1,8,0:0:0:0:
256,192,71635,1,8,0:0:0:0:
256,192,71959,1,0,0:0:0:0:
256,192,72283,1,0,0:0:0:0:
256,192,72932,1,0,0:0:0:0:
256,192,73580,1,8,0:0:0:0:
256,192,74229,1,0,0:0:0:0:
256,192,75526,1,8,0:0:0:0:
256,192,75851,1,0,0:0:0:0:
256,192,76175,1,8,0:0:0:0:
256,192,76824,1,8,0:0:0:0:
256,192,77472,1,0,0:0:0:0:
256,192,78121,1,8,0:0:0:0:
256,192,78445,1,0,0:0:0:0:
256,192,78770,1,8,0:0:0:0:
256,192,79418,1,8,0:0:0:0:
256,192,80067,1,0,0:0:0:0:
256,192,80716,1,8,0:0:0:0:
256,192,81040,1,8,0:0:0:0:
256,192,81364,1,0,0:0:0:0:
256,192,82013,1,0,0:0:0:0:
256,192,82337,1,8,0:0:0:0:
256,192,82662,1,8,0:0:0:0:
256,192,83310,1,0,0:0:0:0:
256,192,83959,1,8,0:0:0:0:
256,192,84608,1,0,0:0:0:0:
256,192,85256,1,0,0:0:0:0:
256,192,85905,1,4,0:0:0:0:
256,192,91094,5,0,0:0:0:0:
256,192,92391,1,0,0:0:0:0:
256,192,93689,1,0,0:0:0:0:
256,192,94986,1,0,0:0:0:0:
256,192,95959,1,8,0:0:0:0:
256,192,96283,1,0,0:0:0:0:
256,192,97580,1,12,0:0:0:0:
256,192,97905,1,0,0:0:0:0:
256,192,98229,1,8,0:0:0:0:
256,192,98878,1,0,0:0:0:0:
256,192,99526,1,0,0:0:0:0:
256,192,100175,1,8,0:0:0:0:
256,192,100499,1,8,0:0:0:0:
256,192,100824,1,0,0:0:0:0:
256,192,101472,1,8,0:0:0:0:
256,192,102121,1,0,0:0:0:0:
256,192,102770,1,0,0:0:0:0:
256,192,103094,1,8,0:0:0:0:
256,192,103418,1,8,0:0:0:0:
256,192,104067,1,0,0:0:0:0:
256,192,104391,1,8,0:0:0:0:
256,192,104716,1,0,0:0:0:0:
256,192,105364,1,8,0:0:0:0:
256,192,106662,1,0,0:0:0:0:
256,192,106986,1,0,0:0:0:0:
256,192,107959,1,0,0:0:0:0:
256,192,108608,1,8,0:0:0:0:
256,192,109256,1,0,0:0:0:0:
256,192,109905,1,0,0:0:0:0:
256,192,110553,1,8,0:0:0:0:
256,192,110878,1,8,0:0:0:0:
256,192,111202,1,0,0:0:0:0:
256,192,111851,1,0,0:0:0:0:
256,192,112499,1,8,0:0:0:0:
256,192,113148,1,0,0:0:0:0:
256,192,113472,1,8,0:0:0:0:
256,192,113797,1,0,0:0:0:0:
256,192,114445,1,0,0:0:0:0:
256,192,115094,1,8,0:0:0:0:
256,192,115743,1,8,0:0:0:0:
256,192,116067,1,8,0:0:0:0:
256,192,116391,1,0,0:0:0:0:
256,192,116716,1,12,0:0:0:0:
256,192,117040,12,0,118175,0:0:0:0:
