osu file format v14

[General]
AudioFilename: audioo9.mp3
AudioLeadIn: 0
PreviewTime: 89581
Countdown: 0
SampleSet: Soft
StackLeniency: 0.5
Mode: 2
LetterboxInBreaks: 0
WidescreenStoryboard: 0

[Editor]
Bookmarks: 12139,23301,34464,47022,67953,90278,112604,134929,146092,157255,168418,179581,201906,224232,246557,268796
DistanceSpacing: 1
BeatDivisor: 8
GridSize: 4
TimelineZoom: 4.299998

[Metadata]
Title:Searchlight
TitleUnicode:Searchlight
Artist:kamome sano
ArtistUnicode:kamome sano
Creator:Benita
Version:Overdose
Source:
Tags:Lilium X3 DnB drum and bass BennyBananas Benny- Idu5t idust Meg
BeatmapID:1902362
BeatmapSetID:911331

[Difficulty]
HPDrainRate:6
CircleSize:4.5
OverallDifficulty:9.3
ApproachRate:9.3
SliderMultiplier:2
SliderTickRate:1

[Events]
//Background and Video events
0,0,"rojgbreoph.jpg",0,0
//Break Periods
2,157454,167862
//Storyboard Layer 0 (Background)
//Storyboard Layer 1 (Fail)
//Storyboard Layer 2 (Pass)
//Storyboard Layer 3 (Foreground)
//Storyboard Sound Samples

[TimingPoints]
-421,348.837209302326,4,2,3,40,1,0
974,-166.666666666667,4,2,3,40,0,0
12137,-100,4,2,3,40,0,0
12138,-100,4,2,5,50,0,0
23299,-125,4,2,5,50,0,0
23300,-125,4,2,3,50,0,0
34463,-100,4,2,2,60,0,0
43707,-100,4,2,1,60,0,0
43882,-100,4,2,2,60,0,0
44231,-100,4,2,1,60,0,0
45625,-166.666666666667,4,2,1,50,0,0
46585,-100,4,2,1,20,0,0
46673,-100,4,2,1,60,0,0
46847,-100,4,2,2,60,0,0
47021,-100,4,2,1,60,0,0
47545,-100,4,2,1,60,0,0
48241,-125,4,2,1,60,0,0
49114,-100,4,2,1,60,0,0
49637,-125,4,2,1,60,0,0
50334,-100,4,2,1,60,0,0
50859,-100,4,2,1,60,0,0
51207,-100,4,2,1,60,0,0
52427,-166.666666666667,4,2,1,60,0,0
53125,-100,4,2,1,60,0,0
53648,-100,4,2,1,60,0,0
53998,-100,4,2,1,60,0,0
55219,-100,4,2,1,60,0,0
56440,-100,4,2,1,60,0,0
56789,-100,4,2,1,60,0,0
58009,-142.857142857143,4,2,1,60,0,0
58706,-100,4,2,1,60,0,0
59405,-100,4,2,1,60,0,0
60277,-100,4,2,1,60,0,0
60799,-142.857142857143,4,2,1,60,0,0
61497,-100,4,2,1,60,0,0
62021,-100,4,2,1,60,0,0
62370,-100,4,2,2,60,0,0
64812,-100,4,2,1,60,0,0
65161,-100,4,2,2,60,0,0
66382,-100,4,2,2,50,0,0
67080,-100,4,2,1,60,0,0
67951,-66.6666666666667,4,2,1,60,0,0
67952,-66.6666666666667,4,3,1,60,0,0
68300,-100,4,3,1,60,0,0
70742,-66.6666666666667,4,3,1,60,0,0
71091,-100,4,3,1,60,0,0
80335,-66.6666666666667,4,3,1,60,0,0
80684,-100,4,3,1,60,0,0
81905,-66.6666666666667,4,3,1,60,0,0
82254,-100,4,3,1,60,0,0
90276,-100,4,3,1,70,0,1
98126,-100,4,3,1,70,0,1
98300,-100,4,3,1,70,0,1
98475,-100,4,3,1,70,0,1
98824,-100,4,3,1,70,0,1
98998,-100,4,3,1,70,0,1
99173,-100,4,3,1,70,0,1
109289,-100,4,3,1,70,0,1
109463,-100,4,3,1,70,0,1
109638,-100,4,3,1,70,0,1
109986,-100,4,3,1,70,0,1
110161,-100,4,3,1,70,0,1
110335,-100,4,3,1,70,0,1
112602,-100,4,3,1,50,0,0
134927,-100,4,2,3,50,0,0
145741,-66.6666666666667,4,2,3,50,0,0
146091,-100,4,2,7,50,0,0
168416,-125,4,3,4,70,0,0
169288,-125,4,2,0,70,0,0
169811,-125,4,3,4,70,0,0
171032,-125,4,2,0,70,0,0
171206,-125,4,3,4,70,0,0
172253,-125,4,2,0,70,0,0
172602,-125,4,3,4,70,0,0
172951,-125,4,2,0,70,0,0
173125,-125,4,3,4,70,0,0
173648,-125,4,2,0,70,0,0
173998,-100,4,3,4,70,0,0
176788,-100,4,2,6,70,0,0
178882,-100,4,2,3,70,0,0
179579,-66.6666666666667,4,2,3,70,0,0
179580,-66.6666666666667,4,3,1,60,0,0
179928,-100,4,3,1,60,0,0
182370,-66.6666666666667,4,3,1,60,0,0
182719,-100,4,3,1,60,0,0
191963,-66.6666666666667,4,3,1,60,0,0
192312,-100,4,3,1,60,0,0
193533,-66.6666666666667,4,3,1,60,0,0
193881,-100,4,3,1,60,0,0
201904,-100,5,3,1,70,0,1
209754,-100,5,3,1,70,0,1
209928,-100,5,3,1,70,0,1
210103,-100,5,3,1,70,0,1
210452,-100,5,3,1,70,0,1
210626,-100,5,3,1,70,0,1
210800,-100,5,3,1,70,0,1
220917,-100,5,3,1,70,0,1
221091,-100,5,3,1,70,0,1
221266,-100,5,3,1,70,0,1
221614,-100,5,3,1,70,0,1
221789,-100,5,3,1,70,0,1
221963,-100,5,3,1,70,0,1
224230,-100,5,3,1,60,0,0
246556,-100,5,3,1,50,0,0
260510,-100,5,3,1,50,0,0
266091,-100,5,3,1,50,0,0
267748,-100,5,3,1,50,0,0
268010,-100,5,3,1,50,0,0
268271,-100,5,3,1,50,0,0
268533,-100,5,3,1,50,0,0

[Colours]
Combo1 : 255,255,128
Combo2 : 200,255,255
Combo3 : 128,255,128
Combo4 : 123,123,255

[HitObjects]
204,312,975,6,0,L|385:301,1,179.999994506836,2|0,0:0|0:0,0:0:0:0:
151,260,2020,2,0,P|100:222|139:117,1,179.999994506836,2|0,0:0|0:0,0:0:0:0:
362,104,3067,1,2,0:0:0:0:
129,122,3416,1,2,0:0:0:0:
438,124,3766,6,0,P|488:187|438:258,1,179.999994506836,2|0,0:0|0:0,0:0:0:0:
203,282,4812,2,0,L|388:270,1,179.999994506836,2|0,0:0|0:0,0:0:0:0:
149,206,5858,1,2,0:0:0:0:
383,270,6206,1,2,0:0:0:0:
72,224,6556,6,0,P|104:164|208:112,1,179.999994506836,2|0,0:0|0:0,0:0:0:0:
438,153,7603,2,0,P|476:258|431:291,1,179.999994506836,2|0,0:0|0:0,0:0:0:0:
201,298,8648,1,2,0:0:0:0:
436,289,8997,1,2,0:0:0:0:
85,171,9347,6,0,P|58:268|118:306,1,179.999994506836,2|0,0:0|0:0,0:0:0:0:
345,264,10393,2,0,P|411:237|423:129,1,179.999994506836,2|0,0:0|0:0,0:0:0:0:
283,145,11439,1,2,0:0:0:0:
476,184,11788,1,2,0:0:0:0:
23,329,12138,6,0,L|19:275,1,50,4|0,3:0|0:0,0:0:0:0:
91,244,12312,2,0,L|153:242,1,50,0|0,0:0|0:0,0:0:0:0:
46,221,12486,1,0,0:0:0:0:
27,205,12530,1,0,0:0:0:0:
20,182,12574,1,0,0:0:0:0:
26,158,12617,1,0,0:0:0:0:
45,142,12661,1,2,0:0:0:0:
103,132,12748,1,0,0:0:0:0:
179,133,12835,6,0,P|196:188|179:232,1,100,4|0,0:0|0:0,0:0:0:0:
122,242,13097,1,0,0:0:0:0:
284,261,13184,2,0,L|334:261,1,50,2|0,0:0|0:0,0:0:0:0:
258,224,13359,1,0,0:0:0:0:
240,206,13402,1,0,0:0:0:0:
233,182,13446,1,0,0:0:0:0:
240,159,13489,1,0,0:0:0:0:
258,142,13533,1,0,0:0:0:0:
410,139,13707,6,0,L|435:248,1,100,2|8,0:0|3:0,0:0:0:0:
233,243,14056,2,0,L|228:307,1,50,0|0,0:0|0:0,0:0:0:0:
408,340,14230,2,0,P|427:305|407:243,1,100,6|0,0:0|0:0,0:0:0:0:
352,238,14491,1,0,0:0:0:0:
187,247,14580,2,0,L|138:248,1,50,2|0,0:0|0:0,0:0:0:0:
95,212,14754,2,0,L|92:174,2,25,0|0|0,0:0|0:0|0:0,0:0:0:0:
289,238,14928,6,0,L|356:248,1,50,8|0,3:0|0:0,0:0:0:0:
263,187,15103,1,0,0:0:0:0:
263,187,15146,1,0,0:0:0:0:
263,187,15190,1,0,0:0:0:0:
263,187,15234,1,0,0:0:0:0:
263,187,15277,1,0,0:0:0:0:
429,181,15452,2,0,L|443:132,2,50,2|0|4,0:0|0:0|0:0,0:0:0:0:
265,166,15800,6,0,L|197:162,1,50,0|0,0:0|0:0,0:0:0:0:
365,148,15975,2,0,L|415:151,1,50,2|0,0:0|0:0,0:0:0:0:
328,86,16149,1,0,0:0:0:0:
328,86,16193,1,0,0:0:0:0:
328,86,16236,1,0,0:0:0:0:
328,86,16280,1,0,0:0:0:0:
328,86,16324,1,0,0:0:0:0:
183,126,16497,6,0,L|176:184,1,50,2|0,0:0|0:0,0:0:0:0:
269,186,16673,2,0,L|329:188,1,50,8|0,3:0|0:0,0:0:0:0:
319,187,16847,2,0,L|269:186,1,50,0|0,0:0|0:0,0:0:0:0:
61,223,17021,6,0,P|25:176|50:137,1,100,6|8,0:0|3:0,0:0:0:0:
94,122,17283,1,0,0:0:0:0:
257,129,17369,1,2,0:0:0:0:
292,165,17414,1,0,0:0:0:0:
290,196,17457,1,0,0:0:0:0:
265,237,17501,1,0,0:0:0:0:
224,250,17545,1,0,0:0:0:0:
162,252,17632,1,0,0:0:0:0:
314,117,17719,6,0,L|376:128,1,50,8|0,3:0|0:0,0:0:0:0:
363,125,17893,2,0,L|314:117,1,50,0|0,0:0|0:0,0:0:0:0:
408,81,18068,1,0,0:0:0:0:
432,86,18111,1,0,0:0:0:0:
457,91,18155,1,0,0:0:0:0:
481,95,18199,1,0,0:0:0:0:
506,100,18242,1,2,0:0:0:0:
440,42,18330,1,0,0:0:0:0:
375,45,18417,6,0,P|359:90|376:145,1,100,4|0,0:0|0:0,0:0:0:0:
438,162,18678,1,0,0:0:0:0:
250,201,18766,2,0,L|191:198,1,50,2|0,0:0|0:0,0:0:0:0:
288,166,18940,1,0,0:0:0:0:
306,149,18984,1,0,0:0:0:0:
313,126,19027,1,0,0:0:0:0:
307,102,19071,1,0,0:0:0:0:
289,85,19114,1,0,0:0:0:0:
133,84,19289,6,0,P|95:112|73:163,1,100,2|8,0:0|3:0,0:0:0:0:
244,169,19637,2,0,L|272:229,1,50
115,260,19812,1,6,0:0:0:0:
255,285,19986,6,0,L|265:220,1,50,0|0,0:0|0:0,0:0:0:0:
185,229,20161,2,0,L|179:167,1,50,2|0,0:0|0:0,0:0:0:0:
275,179,20335,2,0,L|286:147,2,25,0|0|0,0:0|0:0|0:0,0:0:0:0:
79,181,20510,6,0,L|71:125,1,50,8|0,3:0|0:0,0:0:0:0:
146,125,20684,2,0,L|213:125,2,50,0|0|0,0:0|0:0|0:0,0:0:0:0:
310,55,21033,1,2,0:0:0:0:
312,54,21120,1,0,0:0:0:0:
312,54,21207,1,4,0:0:0:0:
161,120,21382,2,0,L|156:176,1,50,0|0,0:0|0:0,0:0:0:0:
356,227,21556,2,0,L|416:230,2,50,8|0|0,3:0|0:0|0:0,0:0:0:0:
328,225,21774,1,0,0:0:0:0:
303,224,21818,1,0,0:0:0:0:
278,223,21861,1,0,0:0:0:0:
253,222,21905,1,0,0:0:0:0:
405,160,22080,6,0,L|396:105,1,50,2|0,0:0|0:0,0:0:0:0:
224,77,22341,1,0,0:0:0:0:
162,88,22428,2,0,L|144:142,1,50,8|0,3:0|0:0,0:0:0:0:
358,219,22603,2,0,L|464:199,1,100,6|0,0:0|0:0,0:0:0:0:
474,160,22864,1,0,0:0:0:0:
238,125,22952,1,2,0:0:0:0:
216,114,22995,1,0,0:0:0:0:
204,92,23039,1,0,0:0:0:0:
206,68,23082,1,0,0:0:0:0:
222,49,23126,1,0,0:0:0:0:
285,44,23213,1,0,0:0:0:0:
35,122,23300,5,4,1:0:0:0:
142,118,23475,1,0,0:0:0:0:
32,86,23649,1,0,0:0:0:0:
192,219,23824,2,0,L|28:217,1,160,2|0,0:0|0:0,0:0:0:0:
314,271,24347,2,0,L|307:183,1,80,2|0,0:0|0:0,0:0:0:0:
193,206,24696,1,0,0:0:0:0:
349,195,24870,2,0,P|386:164|340:77,1,160,2|0,0:0|0:0,0:0:0:0:
181,85,25393,2,0,L|277:80,1,80,2|0,0:0|0:0,0:0:0:0:
421,110,25742,2,0,L|327:118,1,80,2|0,0:0|0:0,0:0:0:0:
31,316,26091,5,2,0:0:0:0:
138,317,26266,1,0,0:0:0:0:
245,316,26440,1,0,0:0:0:0:
68,243,26614,2,0,P|28:217|76:127,1,160,2|0,0:0|0:0,0:0:0:0:
393,158,27138,2,0,L|298:157,2,80,2|0|0,0:0|0:0|0:0,0:0:0:0:
226,140,27661,2,0,P|185:161|231:248,1,160,2|0,0:0|0:0,0:0:0:0:
387,253,28184,2,0,L|468:254,1,80,2|0,0:0|0:0,0:0:0:0:
309,222,28533,2,0,L|221:223,1,80,2|0,0:0|0:0,0:0:0:0:
468,264,28882,6,0,L|463:171,1,80,2|0,0:0|0:0,0:0:0:0:
346,176,29231,1,0,0:0:0:0:
178,172,29405,2,0,P|122:225|182:276,1,160,2|0,0:0|0:0,0:0:0:0:
456,172,29928,2,0,L|468:252,1,80,2|0,0:0|0:0,0:0:0:0:
372,304,30277,1,0,0:0:0:0:
214,281,30452,2,0,L|379:272,1,160,2|0,0:0|0:0,0:0:0:0:
213,229,30974,2,0,L|207:141,1,80,2|0,0:0|0:0,0:0:0:0:
363,155,31324,2,0,L|460:155,1,80,2|0,0:0|0:0,0:0:0:0:
200,155,31673,6,0,L|107:152,2,80,2|0|0,0:0|0:0|0:0,0:0:0:0:
365,150,32195,2,0,P|394:170|369:281,1,160,2|0,0:0|0:0,0:0:0:0:
64,322,32719,1,2,0:0:0:0:
169,302,32893,1,0,0:0:0:0:
58,283,33068,1,0,0:0:0:0:
227,273,33242,2,0,P|266:227|223:142,1,160,2|0,0:0|0:0,0:0:0:0:
72,156,33766,2,0,L|80:244,1,80,2|0,0:0|0:0,0:0:0:0:
241,222,34114,2,0,L|151:207,1,80,2|0,0:0|0:0,0:0:0:0:
484,292,34463,5,8,0:0:0:0:
377,293,34638,1,0,0:0:0:0:
493,248,34812,1,8,0:0:0:0:
335,218,34986,2,0,L|121:208,1,200,0|0,0:0|0:0,0:0:0:0:
454,191,35510,2,0,L|460:87,1,100,8|0,0:0|0:0,0:0:0:0:
324,88,35859,1,8,0:0:0:0:
498,88,36033,2,0,L|282:85,1,200,0|0,0:0|0:0,0:0:0:0:
116,132,36556,2,0,L|110:241,1,100,8|0,0:0|0:0,0:0:0:0:
301,232,36905,2,0,L|308:348,1,100,8|0,0:0|0:0,0:0:0:0:
25,289,37254,5,8,0:0:0:0:
132,290,37428,1,0,0:0:0:0:
239,289,37603,1,8,0:0:0:0:
68,243,37777,2,0,P|24:196|101:101,1,200,0|0,0:0|0:0,0:0:0:0:
258,108,38300,2,0,L|360:107,2,100,8|0|8,0:0|0:0|0:0,0:0:0:0:
75,107,38824,2,0,L|306:122,1,200,0|0,0:0|0:0,0:0:0:0:
142,199,39347,2,0,L|147:314,1,100,8|0,0:0|0:0,0:0:0:0:
318,305,39696,2,0,L|439:308,1,100,8|0,0:0|0:0,0:0:0:0:
137,246,40045,6,0,P|120:179|141:137,1,100,8|0,0:0|0:0,0:0:0:0:
271,129,40393,1,8,0:0:0:0:
101,109,40568,2,0,L|80:54,2,50,0|0|8,0:0|0:0|0:0,0:0:0:0:
217,123,40917,1,0,0:0:0:0:
31,198,41091,6,0,P|13:259|28:315,1,100,8|0,0:0|0:0,0:0:0:0:
81,303,41353,1,0,0:0:0:0:
141,306,41440,1,8,0:0:0:0:
312,308,41614,1,0,0:0:0:0:
212,304,41789,1,8,0:0:0:0:
112,300,41963,2,0,L|105:236,1,50,0|0,0:0|0:0,0:0:0:0:
264,242,42138,6,0,L|324:236,2,50,8|0|0,0:0|0:0|0:0,0:0:0:0:
118,165,42486,2,0,L|85:63,1,100,8|0,0:0|0:0,0:0:0:0:
138,71,42748,1,0,0:0:0:0:
311,155,42835,5,8,0:0:0:0:
159,184,43010,1,0,0:0:0:0:
311,155,43184,1,8,0:0:0:0:
57,152,43359,2,0,P|41:213|59:273,1,100,0|8,0:0|0:0,0:0:0:0:
304,267,43707,1,8,0:0:0:0:
51,281,43882,1,8,0:0:0:0:
216,208,44056,2,0,L|221:151,1,50,0|0,0:0|0:0,0:0:0:0:
52,181,44231,6,0,L|41:114,1,50,8|0,0:0|0:0,0:0:0:0:
107,110,44405,1,0,0:0:0:0:
326,116,44492,2,0,L|374:139,2,50,8|0|0,0:0|0:0|0:0,0:0:0:0:
131,67,44754,1,8,0:0:0:0:
189,68,44841,1,0,0:0:0:0:
247,70,44928,1,0,0:0:0:0:
48,137,45016,2,0,P|36:190|42:210,1,50,8|0,0:0|0:0,0:0:0:0:
81,210,45190,1,0,0:0:0:0:
123,215,45234,1,0,0:0:0:0:
302,222,45277,2,0,L|311:163,1,50,8|0,0:0|0:0,0:0:0:0:
257,150,45452,1,0,0:0:0:0:
191,138,45539,1,0,0:0:0:0:
312,157,45626,6,0,P|374:178|302:366,1,329.9999899292
56,356,46673,2,0,L|45:243,1,100,8|4,0:0|0:3,0:0:0:0:
313,253,47021,6,0,P|256:231|310:67,1,250,6|0,0:0|0:0,0:0:0:0:
436,82,47545,2,0,L|69:52,1,350,6|0,0:0|0:0,0:0:0:0:
356,146,48242,2,0,P|432:182|335:359,1,320,6|2,0:0|0:0,0:0:0:0:
86,357,49114,1,8,0:0:0:0:
62,349,49158,1,0,0:0:0:0:
42,334,49202,1,0,0:0:0:0:
30,312,49245,1,0,0:0:0:0:
27,287,49289,1,0,0:0:0:0:
33,263,49332,1,0,0:0:0:0:
47,243,49376,1,0,0:0:0:0:
68,229,49420,1,0,0:0:0:0:
92,224,49463,1,0,0:0:0:0:
328,225,49637,6,0,L|78:201,1,240,6|0,0:0|0:0,0:0:0:0:
326,298,50335,2,0,P|376:257|312:99,1,250,6|0,0:0|0:0,0:0:0:0:
138,122,50859,2,0,L|305:122,1,150,12|0,0:0|0:0,0:0:0:0:
79,149,51207,6,0,P|30:182|142:318,1,300,6|0,0:0|0:0,0:0:0:0:
181,307,51774,1,0,0:0:0:0:
203,296,51818,1,0,0:0:0:0:
222,280,51861,1,0,0:0:0:0:
237,260,51905,1,0,0:0:0:0:
245,236,51949,1,0,0:0:0:0:
247,211,51992,1,0,0:0:0:0:
243,187,52036,1,0,0:0:0:0:
232,164,52080,1,0,0:0:0:0:
216,145,52123,1,0,0:0:0:0:
196,131,52167,1,0,0:0:0:0:
172,123,52210,1,0,0:0:0:0:
148,120,52254,1,0,0:0:0:0:
454,138,52428,6,0,L|263:125,1,179.999994506836,6|0,0:0|0:0,0:0:0:0:
37,127,53126,2,0,P|84:152|27:315,1,250,6|0,0:0|0:0,0:0:0:0:
281,303,53649,2,0,L|454:300,1,150,12|0,0:0|0:0,0:0:0:0:
251,289,53998,6,0,P|219:257|334:93,1,300,6|0,0:0|0:0,0:0:0:0:
369,108,54565,1,0,0:0:0:0:
388,124,54609,1,0,0:0:0:0:
403,143,54652,1,0,0:0:0:0:
413,166,54696,1,0,0:0:0:0:
418,191,54739,1,0,0:0:0:0:
417,216,54783,1,0,0:0:0:0:
411,240,54827,1,0,0:0:0:0:
399,262,54870,1,0,0:0:0:0:
383,281,54914,1,0,0:0:0:0:
363,296,54957,1,0,0:0:0:0:
340,306,55001,1,0,0:0:0:0:
316,311,55045,1,0,0:0:0:0:
46,308,55219,6,0,L|352:296,1,300,6|0,0:0|0:0,0:0:0:0:
99,265,55917,2,0,P|31:236|99:107,1,250,6|0,0:0|0:0,0:0:0:0:
348,114,56440,2,0,P|368:148|349:258,1,150,12|0,0:0|0:0,0:0:0:0:
134,276,56789,6,0,L|296:260,1,150,2|0,0:0|0:0,0:0:0:0:
46,218,57312,2,0,L|31:66,1,150,2|0,0:0|0:0,0:0:0:0:
391,62,57835,1,8,0:0:0:0:
120,61,58010,6,0,P|61:85|91:237,1,244.999992523194,6|0,0:0|0:0,0:0:0:0:
345,303,58707,2,0,L|39:283,1,300,6|0,0:0|0:0,0:0:0:0:
347,261,59405,6,0,P|435:217|320:-2,1,400,6|2,0:0|0:0,0:0:0:0:
55,169,60277,1,12,0:0:0:0:
79,167,60321,1,0,0:0:0:0:
104,165,60364,1,0,0:0:0:0:
129,163,60408,1,0,0:0:0:0:
154,161,60452,1,0,0:0:0:0:
179,160,60495,1,0,0:0:0:0:
204,158,60539,1,0,0:0:0:0:
229,156,60582,1,0,0:0:0:0:
254,154,60626,1,0,0:0:0:0:
15,296,60800,6,0,L|236:292,1,209.999993591309,6|0,0:0|0:0,0:0:0:0:
488,289,61498,2,0,L|219:271,1,250,6|0,0:0|0:0,0:0:0:0:
432,245,62021,2,0,P|480:189|424:139,1,150,12|0,0:0|0:0,0:0:0:0:
185,140,62370,2,0,L|390:133,1,200,8|8,0:0|0:0,0:0:0:0:
148,122,63068,2,0,L|30:115,2,100,8|0|8,0:0|0:0|0:0,0:0:0:0:
339,142,63591,1,0,0:0:0:0:
461,184,63766,2,0,P|499:215|447:332,1,200,8|8,0:0|0:0,0:0:0:0:
254,330,64289,1,0,0:0:0:0:
382,285,64463,2,0,P|402:240|337:113,1,200,8|8,0:0|0:0,0:0:0:0:
73,155,65161,6,0,L|68:261,1,100,8|0,0:0|0:0,0:0:0:0:
209,157,65510,2,0,L|215:40,1,100,8|0,0:0|0:0,0:0:0:0:
41,45,65859,2,0,L|28:98,1,50,8|0,0:0|0:0,0:0:0:0:
107,113,66033,2,0,L|106:173,1,50,0|0,0:0|0:0,0:0:0:0:
20,176,66207,2,0,L|3:234,1,50,8|0,0:0|0:0,0:0:0:0:
223,281,66382,6,0,P|283:252|201:92,1,300,0|0,0:0|0:0,0:0:0:0:
459,94,67080,2,0,L|472:154,1,50,4|0,0:0|0:0,0:0:0:0:
296,169,67254,2,0,L|244:165,1,50,2|0,0:0|0:0,0:0:0:0:
168,207,67428,2,0,L|161:261,1,50,0|0,0:0|0:0,0:0:0:0:
352,281,67603,2,0,L|358:223,1,50,2|0,0:0|0:0,0:0:0:0:
270,229,67777,2,0,L|208:223,1,50,0|0,0:0|0:0,0:0:0:0:
385,159,67952,6,0,P|479:200|363:305,1,300.000011444092,6|8,0:0|0:0,0:0:0:0:
211,311,68475,1,0,0:0:0:0:
255,288,68562,1,0,0:0:0:0:
271,241,68649,1,0,0:0:0:0:
251,197,68736,1,0,0:0:0:0:
206,178,68824,1,2,0:0:0:0:
358,162,68998,1,8,0:0:0:0:
52,200,69173,6,0,L|264:196,1,200,0|2,0:0|0:0,0:0:0:0:
110,144,69696,1,8,0:0:0:0:
254,144,69870,2,0,L|268:75,1,50
110,84,70044,2,0,L|39:84,1,50
60,84,70219,2,0,L|110:84,1,50,2|0,0:0|0:0,0:0:0:0:
156,83,70393,1,8,0:0:0:0:
32,24,70568,1,0,0:0:0:0:
378,156,70742,6,0,P|481:234|377:311,1,300.000011444092,2|8,0:0|0:0,0:0:0:0:
219,304,71266,1,0,0:0:0:0:
269,303,71353,1,0,0:0:0:0:
319,303,71440,1,0,0:0:0:0:
369,303,71527,1,0,0:0:0:0:
419,303,71614,1,2,0:0:0:0:
237,245,71789,2,0,B|217:186|217:186|238:145,1,100,8|0,0:0|0:0,0:0:0:0:
311,144,72050,1,0,0:0:0:0:
480,146,72138,6,0,L|367:139,1,100,0|2,0:0|0:0,0:0:0:0:
209,127,72486,2,0,L|97:126,1,100,8|0,0:0|0:0,0:0:0:0:
155,69,72748,1,0,0:0:0:0:
345,130,72835,2,0,L|347:242,1,100,0|2,0:0|0:0,0:0:0:0:
176,271,73184,2,0,L|309:275,1,100,8|0,0:0|0:0,0:0:0:0:
325,248,73446,1,8,0:0:0:0:
138,222,73533,6,0,L|347:213,1,200,6|8,0:0|0:0,0:0:0:0:
184,156,74056,2,0,L|176:101,1,50,0|0,0:0|0:0,0:0:0:0:
256,104,74231,2,0,L|263:48,1,50,0|0,0:0|0:0,0:0:0:0:
175,22,74405,1,2,0:0:0:0:
335,9,74580,1,8,0:0:0:0:
31,234,74754,6,0,L|251:216,1,200,0|2,0:0|0:0,0:0:0:0:
111,133,75277,1,8,0:0:0:0:
295,73,75452,1,0,0:0:0:0:
340,92,75539,1,0,0:0:0:0:
357,138,75626,1,0,0:0:0:0:
337,182,75713,1,0,0:0:0:0:
292,200,75800,1,2,0:0:0:0:
342,202,75888,2,0,L|401:200,1,50,0|8,0:0|0:0,0:0:0:0:
224,293,76149,1,0,0:0:0:0:
463,312,76324,6,0,L|235:295,1,200,2|8,0:0|0:0,0:0:0:0:
438,244,76847,2,0,L|497:244,1,50,0|0,0:0|0:0,0:0:0:0:
438,244,77021,2,0,L|367:244,1,50,0|0,0:0|0:0,0:0:0:0:
388,244,77196,2,0,L|438:244,1,50,2|0,0:0|0:0,0:0:0:0:
488,244,77370,1,8,0:0:0:0:
344,174,77545,1,0,0:0:0:0:
69,244,77719,6,0,P|46:181|71:158,1,100,4|2,0:0|0:0,0:0:0:0:
303,169,78068,2,0,L|370:169,1,50,12|0,0:0|0:0,0:0:0:0:
303,169,78242,2,0,L|224:170,1,50,0|0,0:0|0:0,0:0:0:0:
412,160,78417,2,0,L|412:92,1,50,4|0,0:0|0:0,0:0:0:0:
352,90,78591,1,2,0:0:0:0:
169,202,78766,2,0,B|134:250|134:250|138:310,1,100,8|0,0:0|0:0,0:0:0:0:
207,298,79027,1,8,0:0:0:0:
376,276,79114,6,0,L|146:272,1,200,6|8,0:0|0:0,0:0:0:0:
325,214,79638,1,0,0:0:0:0:
369,191,79725,1,0,0:0:0:0:
385,144,79812,1,0,0:0:0:0:
365,100,79899,1,0,0:0:0:0:
320,81,79986,1,2,0:0:0:0:
472,65,80161,1,8,0:0:0:0:
123,108,80335,6,0,P|23:169|129:265,1,300.000011444092,0|2,0:0|0:0,0:0:0:0:
264,261,80859,1,8,0:0:0:0:
105,283,81033,2,0,L|99:341,1,50
253,275,81207,2,0,L|265:209,1,50
194,210,81381,2,0,L|144:210,1,50,2|0,0:0|0:0,0:0:0:0:
194,210,81555,1,8,0:0:0:0:
38,212,81731,1,0,0:0:0:0:
286,125,81905,6,0,P|389:203|283:304,1,300.000011444092,2|8,0:0|0:0,0:0:0:0:
124,317,82428,2,0,L|126:250,1,50,0|0,0:0|0:0,0:0:0:0:
181,258,82603,2,0,L|249:258,1,50,0|0,0:0|0:0,0:0:0:0:
292,261,82777,1,2,0:0:0:0:
142,201,82952,2,0,L|35:197,1,100,8|0,0:0|0:0,0:0:0:0:
90,156,83213,1,0,0:0:0:0:
260,173,83300,6,0,L|360:179,1,100,0|2,0:0|0:0,0:0:0:0:
200,212,83649,2,0,L|161:337,1,100,8|0,0:0|0:0,0:0:0:0:
221,321,83911,1,0,0:0:0:0:
374,324,83998,2,0,L|480:324,1,100,0|2,0:0|0:0,0:0:0:0:
310,283,84347,2,0,L|428:284,1,100,8|0,0:0|0:0,0:0:0:0:
472,284,84609,1,8,0:0:0:0:
216,104,84696,6,0,P|152:184|224:240,1,200,6|8,0:0|0:0,0:0:0:0:
362,177,85219,2,0,L|370:122,1,50,0|0,0:0|0:0,0:0:0:0:
290,125,85393,2,0,L|283:69,1,50,0|0,0:0|0:0,0:0:0:0:
371,43,85568,1,2,0:0:0:0:
211,30,85742,1,8,0:0:0:0:
486,226,85917,6,0,L|266:208,1,200,0|2,0:0|0:0,0:0:0:0:
405,146,86440,1,8,0:0:0:0:
255,147,86614,1,0,0:0:0:0:
210,166,86702,1,0,0:0:0:0:
193,212,86789,1,0,0:0:0:0:
213,256,86876,1,0,0:0:0:0:
258,274,86963,1,2,0:0:0:0:
208,276,87050,2,0,L|149:274,1,50,0|8,0:0|0:0,0:0:0:0:
322,338,87312,1,0,0:0:0:0:
50,300,87486,6,0,P|34:240|50:181,1,100,6|0,0:0|0:0,0:0:0:0:
216,202,87835,1,8,0:0:0:0:
93,36,88010,1,0,0:0:0:0:
141,72,88097,1,0,0:0:0:0:
155,121,88184,1,2,0:0:0:0:
139,168,88271,1,0,0:0:0:0:
91,205,88359,1,0,0:0:0:0:
343,267,88533,1,8,0:0:0:0:
495,238,88707,1,2,0:0:0:0:
177,207,88882,5,12,0:0:0:0:
329,178,89056,1,2,0:0:0:0:
21,138,89231,1,8,0:0:0:0:
173,109,89405,1,2,0:0:0:0:
456,258,89580,2,0,L|469:203,1,50,8|0,2:0|2:0,0:0:0:0:
292,245,89754,2,0,L|277:177,1,50,0|0,2:0|2:0,0:0:0:0:
363,182,89928,2,0,L|370:124,1,50,0|0,2:0|2:0,0:0:0:0:
209,156,90103,2,0,L|196:89,1,50,0|0,2:0|2:0,0:0:0:0:
446,138,90277,6,0,L|490:200,1,50,6|0,0:0|0:0,0:0:0:0:
268,194,90452,2,0,L|221:212,1,50,0|0,0:0|0:0,0:0:0:0:
419,254,90626,2,0,L|456:311,1,50,8|0,0:0|0:0,0:0:0:0:
247,318,90800,2,0,L|389:317,1,100,0|0,0:0|0:0,0:0:0:0:
94,259,91149,1,2,0:0:0:0:
364,248,91324,2,0,L|368:184,1,50,8|0,0:0|0:0,0:0:0:0:
209,195,91498,2,0,L|148:196,1,50,0|0,0:0|0:0,0:0:0:0:
209,195,91673,6,0,L|273:195,1,50
65,143,91847,2,0,L|9:136,2,50,2|0|8,0:0|0:0|0:0,0:0:0:0:
209,152,92196,1,0,0:0:0:0:
453,183,92370,2,0,L|464:304,1,100,0|2,0:0|0:0,0:0:0:0:
176,291,92719,2,0,L|171:177,1,100,8|0,0:0|0:0,0:0:0:0:
441,175,93068,6,0,L|463:111,1,50,2|0,0:0|0:0,0:0:0:0:
366,125,93242,2,0,L|347:54,1,50,0|0,0:0|0:0,0:0:0:0:
446,203,93417,2,0,L|505:203,1,50,8|0,0:0|0:0,0:0:0:0:
405,224,93591,2,0,L|275:221,1,100
37,207,93940,1,2,0:0:0:0:
349,232,94114,2,0,L|358:162,1,50,8|0,0:0|0:0,0:0:0:0:
263,171,94289,2,0,L|196:176,1,50,0|0,0:0|0:0,0:0:0:0:
263,171,94463,6,0,L|326:171,1,50,0|0,0:0|0:0,0:0:0:0:
124,145,94638,2,0,L|49:147,1,50,2|0,0:0|0:0,0:0:0:0:
288,144,94812,2,0,L|430:142,2,100,8|0|0,0:0|0:0|0:0,0:0:0:0:
21,139,95335,1,2,0:0:0:0:
347,182,95510,2,0,P|365:237|346:302,1,100,8|0,0:0|0:0,0:0:0:0:
281,290,95771,1,8,0:0:0:0:
47,287,95859,6,0,L|42:216,1,50,2|0,0:0|0:0,0:0:0:0:
135,237,96033,2,0,L|213:232,1,50
93,200,96207,2,0,L|90:135,1,50,8|0,0:0|0:0,0:0:0:0:
185,148,96382,2,0,L|49:139,1,100,0|0,0:0|0:0,0:0:0:0:
381,155,96731,1,2,0:0:0:0:
111,222,96905,2,0,L|103:282,1,50,8|0,0:0|0:0,0:0:0:0:
264,296,97080,2,0,L|320:299,1,50,0|0,0:0|0:0,0:0:0:0:
164,258,97254,6,0,L|96:257,1,50,0|0,0:0|0:0,0:0:0:0:
345,217,97428,2,0,L|490:219,2,100,2|8|0,0:0|0:0|0:0,0:0:0:0:
169,212,97952,2,0,P|150:163|169:104,1,100,0|2,0:0|0:0,0:0:0:0:
328,115,98300,2,0,P|357:168|329:210,1,100,8|0,0:0|0:0,0:0:0:0:
51,237,98649,6,0,L|47:309,1,50,2|0,0:0|0:0,0:0:0:0:
141,298,98824,2,0,L|201:298,1,50
101,237,98998,2,0,L|25:237,1,50,8|0,0:0|0:0,0:0:0:0:
224,166,99173,2,0,L|107:170,1,100,0|0,0:0|0:0,0:0:0:0:
7,172,99521,1,2,0:0:0:0:
341,197,99696,2,0,L|359:261,1,50,8|0,0:0|0:0,0:0:0:0:
196,259,99870,2,0,L|186:202,1,50,0|0,0:0|0:0,0:0:0:0:
370,276,100045,6,0,L|421:271,1,50,0|0,0:0|0:0,0:0:0:0:
221,220,100219,2,0,L|348:217,2,100,2|8|0,0:0|0:0|0:0,0:0:0:0:
406,177,100742,2,0,L|415:116,1,50,0|0,0:0|0:0,0:0:0:0:
322,126,100917,2,0,L|310:70,1,50,2|0,0:0|0:0,0:0:0:0:
475,83,101091,2,0,L|491:148,1,50,8|0,0:0|0:0,0:0:0:0:
341,237,101266,2,0,L|281:246,1,50,0|8,0:0|0:0,0:0:0:0:
37,138,101440,6,0,L|26:66,1,50,6|0,0:0|0:0,0:0:0:0:
264,87,101614,2,0,L|317:92,1,50,0|0,0:0|0:0,0:0:0:0:
119,136,101789,2,0,L|112:72,1,50,8|0,0:0|0:0,0:0:0:0:
353,89,101963,2,0,L|481:98,2,100,0|0|2,0:0|0:0|0:0,0:0:0:0:
51,240,102486,2,0,L|47:176,1,50,8|0,0:0|0:0,0:0:0:0:
210,222,102661,2,0,L|271:223,1,50,0|0,0:0|0:0,0:0:0:0:
167,179,102835,6,0,L|160:124,1,50
323,133,103010,2,0,L|379:126,2,50,2|0|8,0:0|0:0|0:0,0:0:0:0:
460,221,103359,1,0,0:0:0:0:
155,303,103533,2,0,L|48:304,1,100,0|2,0:0|0:0,0:0:0:0:
224,235,103882,2,0,L|122:228,1,100,8|0,0:0|0:0,0:0:0:0:
383,211,104231,6,0,L|401:145,1,50,2|0,0:0|0:0,0:0:0:0:
304,157,104405,2,0,L|239:151,1,50
351,125,104580,2,0,L|418:124,1,50,8|0,0:0|0:0,0:0:0:0:
305,63,104754,2,0,L|435:60,2,100,0|0|2,0:0|0:0|0:0,0:0:0:0:
36,200,105277,2,0,L|27:130,1,50,8|0,0:0|0:0,0:0:0:0:
248,232,105452,2,0,L|259:285,1,50,0|0,0:0|0:0,0:0:0:0:
167,273,105626,6,0,L|161:214,1,50
388,145,105800,2,0,L|463:147,1,50,2|0,0:0|0:0,0:0:0:0:
224,144,105975,1,8,0:0:0:0:
339,143,106149,1,0,0:0:0:0:
455,132,106324,1,0,0:0:0:0:
177,84,106498,1,2,0:0:0:0:
463,81,106673,2,0,L|358:93,1,100,8|0,0:0|0:0,0:0:0:0:
319,98,106934,1,8,0:0:0:0:
465,287,107021,6,0,L|470:216,1,50,2|0,0:0|0:0,0:0:0:0:
377,242,107196,2,0,L|358:172,1,50
455,165,107370,2,0,L|362:163,1,50,8|0,0:0|0:0,0:0:0:0:
313,142,107545,2,0,L|449:133,1,100
131,155,107893,1,2,0:0:0:0:
401,222,108068,2,0,L|467:220,1,50,8|0,0:0|0:0,0:0:0:0:
248,296,108242,2,0,L|237:242,1,50,0|0,0:0|0:0,0:0:0:0:
427,193,108417,6,0,L|433:135,1,50,0|0,0:0|0:0,0:0:0:0:
283,125,108591,2,0,L|138:127,2,100,2|8|0,0:0|0:0|0:0,0:0:0:0:
469,122,109114,2,0,L|467:229,1,100,0|2,0:0|0:0,0:0:0:0:
311,248,109463,2,0,L|429:244,1,100,8|0,0:0|0:0,0:0:0:0:
118,239,109812,6,0,L|108:296,1,50,2|0,0:0|0:0,0:0:0:0:
202,317,109986,2,0,L|261:325,1,50
400,328,110161,2,0,L|350:328,1,50,8|0,0:0|0:0,0:0:0:0:
156,201,110335,1,0,0:0:0:0:
275,204,110510,1,2,0:0:0:0:
395,209,110684,1,0,0:0:0:0:
111,197,110859,2,0,L|93:261,1,50,8|0,0:0|0:0,0:0:0:0:
316,259,111033,2,0,L|326:202,1,50,2|0,0:0|0:0,0:0:0:0:
142,276,111207,6,0,L|133:225,1,50,12|0,0:0|0:0,0:0:0:0:
198,202,111382,1,0,0:0:0:0:
370,188,111469,1,8,0:0:0:0:
320,187,111556,1,0,0:0:0:0:
270,186,111643,1,0,0:0:0:0:
470,227,111731,2,0,L|484:294,1,50,8|0,0:0|0:0,0:0:0:0:
416,300,111905,5,0,0:0:0:0:
244,302,111992,2,0,L|246:236,1,50,8|0,0:0|0:0,0:0:0:0:
319,236,112167,1,0,0:0:0:0:
120,188,112254,2,0,L|211:190,1,50,10|2,0:0|0:0,0:0:0:0:
435,190,112428,2,0,L|503:192,1,50,2|2,0:0|0:0,0:0:0:0:
201,149,112603,6,0,P|147:181|205:275,1,200,6|8,0:0|0:0,0:0:0:0:
344,273,113126,2,0,L|359:217,2,50,0|0|0,0:0|0:0|0:0,0:0:0:0:
192,277,113475,1,2,0:0:0:0:
359,233,113649,1,8,0:0:0:0:
101,177,113824,6,0,L|90:121,2,50,0|0|0,0:0|0:0|0:0,0:0:0:0:
241,244,114173,1,2,0:0:0:0:
102,222,114347,1,8,0:0:0:0:
463,174,114521,2,0,L|466:111,1,50
386,121,114696,2,0,L|327:118,1,50,0|0,0:0|0:0,0:0:0:0:
433,86,114870,2,0,L|436:34,1,50,2|0,0:0|0:0,0:0:0:0:
348,32,115045,2,0,L|247:27,1,100,8|0,0:0|0:0,0:0:0:0:
189,67,115306,1,0,0:0:0:0:
434,137,115393,6,0,P|488:175|432:278,1,200,2|8,0:0|0:0,0:0:0:0:
301,283,115917,1,0,0:0:0:0:
351,279,116004,1,0,0:0:0:0:
401,275,116091,1,0,0:0:0:0:
260,205,116266,1,2,0:0:0:0:
410,217,116440,1,8,0:0:0:0:
124,272,116614,6,0,L|117:215,1,50,0|0,0:0|0:0,0:0:0:0:
112,176,116789,1,0,0:0:0:0:
253,146,116963,1,2,0:0:0:0:
106,118,117138,1,8,0:0:0:0:
378,159,117312,2,0,L|381:217,1,50,0|0,0:0|0:0,0:0:0:0:
302,220,117486,2,0,L|298:275,1,50,0|0,0:0|0:0,0:0:0:0:
381,296,117661,2,0,L|447:299,1,50,2|0,0:0|0:0,0:0:0:0:
339,258,117835,2,0,L|282:253,1,50,8|0,0:0|0:0,0:0:0:0:
378,223,118010,2,0,L|386:168,1,50,0|8,0:0|0:0,0:0:0:0:
120,176,118184,6,0,L|326:167,1,200,6|8,0:0|0:0,0:0:0:0:
216,137,118707,2,0,L|206:77,1,50,0|0,0:0|0:0,0:0:0:0:
199,47,118882,1,0,0:0:0:0:
341,64,119056,1,2,0:0:0:0:
199,125,119231,1,8,0:0:0:0:
463,196,119405,6,0,L|474:140,2,50,0|0|0,0:0|0:0|0:0,0:0:0:0:
317,286,119754,1,2,0:0:0:0:
463,263,119928,1,8,0:0:0:0:
182,242,120103,2,0,L|178:192,1,50,0|0,0:0|0:0,0:0:0:0:
255,193,120277,2,0,L|304:195,1,50,0|0,0:0|0:0,0:0:0:0:
377,172,120452,2,0,L|380:120,1,50,2|0,0:0|0:0,0:0:0:0:
298,104,120626,2,0,L|197:99,1,100,8|0,0:0|0:0,0:0:0:0:
139,139,120888,1,0,0:0:0:0:
322,149,120975,6,0,P|376:187|320:290,1,200,2|8,0:0|0:0,0:0:0:0:
181,292,121498,1,0,0:0:0:0:
185,242,121585,1,0,0:0:0:0:
189,192,121673,1,0,0:0:0:0:
338,195,121847,1,2,0:0:0:0:
487,198,122021,1,8,0:0:0:0:
180,204,122196,6,0,L|173:147,1,50,0|0,0:0|0:0,0:0:0:0:
168,108,122370,1,0,0:0:0:0:
309,94,122545,1,2,0:0:0:0:
162,66,122719,1,8,0:0:0:0:
467,232,122893,2,0,L|470:290,1,50,0|0,0:0|0:0,0:0:0:0:
393,290,123068,2,0,L|389:345,1,50,0|0,0:0|0:0,0:0:0:0:
470,367,123242,2,0,L|402:366,1,50,2|0,0:0|0:0,0:0:0:0:
333,359,123417,2,0,L|276:354,1,50,8|0,0:0|0:0,0:0:0:0:
358,280,123591,2,0,L|366:225,1,50,0|8,0:0|0:0,0:0:0:0:
84,215,123766,6,0,L|292:210,1,200,6|8,0:0|0:0,0:0:0:0:
427,149,124289,2,0,L|374:148,1,50,0|0,0:0|0:0,0:0:0:0:
327,145,124463,1,0,0:0:0:0:
174,90,124638,1,2,0:0:0:0:
330,133,124812,1,8,0:0:0:0:
43,216,124986,6,0,L|29:164,2,50,0|0|0,0:0|0:0|0:0,0:0:0:0:
204,246,125335,1,2,0:0:0:0:
46,240,125510,1,8,0:0:0:0:
375,299,125684,2,0,L|372:236,1,50,0|0,0:0|0:0,0:0:0:0:
296,248,125859,2,0,L|247:250,1,50,0|0,0:0|0:0,0:0:0:0:
326,185,126033,2,0,L|323:133,1,50,2|0,0:0|0:0,0:0:0:0:
241,137,126207,2,0,L|140:132,1,100,8|0,0:0|0:0,0:0:0:0:
180,102,126469,1,0,0:0:0:0:
21,86,126556,6,0,L|220:79,1,200,2|8,0:0|0:0,0:0:0:0:
88,168,127080,1,0,0:0:0:0:
84,218,127167,1,0,0:0:0:0:
80,268,127254,1,0,0:0:0:0:
208,315,127428,1,2,0:0:0:0:
60,307,127603,1,8,0:0:0:0:
334,255,127777,6,0,L|406:255,1,50,0|0,0:0|0:0,0:0:0:0:
430,255,127952,1,0,0:0:0:0:
292,225,128126,1,2,0:0:0:0:
439,197,128300,1,8,0:0:0:0:
91,173,128475,6,0,L|88:231,1,50
167,234,128649,2,0,L|171:289,1,50
88,310,128824,2,0,L|22:313,1,50,2|0,0:0|0:0,0:0:0:0:
130,272,128998,2,0,L|187:267,1,50,8|0,0:0|0:0,0:0:0:0:
91,237,129173,2,0,L|83:182,1,50,0|8,0:0|0:0,0:0:0:0:
311,149,129347,6,0,P|365:181|307:275,1,200,6|8,0:0|0:0,0:0:0:0:
168,273,129870,2,0,L|153:217,2,50,0|0|0,0:0|0:0|0:0,0:0:0:0:
320,277,130219,1,2,0:0:0:0:
153,233,130393,1,8,0:0:0:0:
413,173,130568,6,0,L|424:117,2,50,0|0|0,0:0|0:0|0:0,0:0:0:0:
270,180,130917,1,2,0:0:0:0:
420,192,131091,1,8,0:0:0:0:
49,174,131266,6,0,L|46:111,1,50,0|0,0:0|0:0,0:0:0:0:
126,121,131440,2,0,L|185:118,1,50,0|0,0:0|0:0,0:0:0:0:
79,86,131614,2,0,L|76:34,1,50,2|0,0:0|0:0,0:0:0:0:
164,32,131789,2,0,L|265:27,1,100,8|0,0:0|0:0,0:0:0:0:
323,67,132050,1,0,0:0:0:0:
78,137,132138,6,0,P|24:175|80:278,1,200,2|8,0:0|0:0,0:0:0:0:
211,283,132661,1,0,0:0:0:0:
161,279,132748,1,0,0:0:0:0:
111,275,132835,1,0,0:0:0:0:
260,208,133010,1,2,0:0:0:0:
110,220,133184,1,8,0:0:0:0:
388,272,133359,6,0,L|395:215,1,50,0|0,0:0|0:0,0:0:0:0:
400,176,133533,1,0,0:0:0:0:
263,153,133707,1,2,0:0:0:0:
410,125,133882,1,8,0:0:0:0:
134,159,134056,2,0,L|192:162,1,50,0|0,0:0|0:0,0:0:0:0:
258,217,134231,2,0,L|321:219,1,50,0|0,0:0|0:0,0:0:0:0:
385,241,134405,6,0,L|391:182,1,50,2|0,0:0|0:0,0:0:0:0:
309,172,134580,2,0,L|311:121,1,50,8|0,0:0|0:0,0:0:0:0:
387,129,134754,2,0,L|436:127,1,50,0|8,0:0|0:0,0:0:0:0:
149,261,134927,5,6,0:0:0:0:
256,257,135103,1,0,0:0:0:0:
363,256,135277,1,0,0:0:0:0:
177,218,135452,2,0,L|391:208,1,200,2|0,0:0|0:0,0:0:0:0:
58,191,135974,2,0,L|52:87,1,100,2|0,0:0|0:0,0:0:0:0:
188,88,136324,1,0,0:0:0:0:
14,88,136498,2,0,L|230:85,1,200,2|0,0:0|0:0,0:0:0:0:
396,132,137021,2,0,L|402:241,1,100,2|0,0:0|0:0,0:0:0:0:
211,232,137370,2,0,L|204:348,1,100,2|0,0:0|0:0,0:0:0:0:
487,289,137719,5,2,0:0:0:0:
380,290,137893,1,0,0:0:0:0:
273,289,138068,1,0,0:0:0:0:
444,243,138242,2,0,P|488:196|411:101,1,200,2|0,0:0|0:0,0:0:0:0:
254,108,138766,2,0,L|152:107,2,100,2|0|0,0:0|0:0|0:0,0:0:0:0:
437,107,139289,2,0,L|206:122,1,200,2|0,0:0|0:0,0:0:0:0:
370,199,139812,2,0,L|365:314,1,100,2|0,0:0|0:0,0:0:0:0:
194,305,140161,2,0,L|73:308,1,100,2|0,0:0|0:0,0:0:0:0:
375,246,140510,6,0,P|392:179|371:137,1,100,2|0,0:0|0:0,0:0:0:0:
241,129,140859,1,0,0:0:0:0:
411,109,141033,2,0,L|171:103,1,200,2|0,0:0|0:0,0:0:0:0:
481,198,141556,2,0,P|499:259|484:315,1,100,2|0,0:0|0:0,0:0:0:0:
371,306,141905,1,0,0:0:0:0:
200,308,142080,2,0,L|421:300,1,200,2|0,0:0|0:0,0:0:0:0:
249,263,142603,2,0,L|241:157,1,100,2|0,0:0|0:0,0:0:0:0:
394,165,142952,2,0,L|523:164,1,100,2|0,0:0|0:0,0:0:0:0:
201,155,143300,6,0,L|77:149,2,100,2|0|0,0:0|0:0|0:0,0:0:0:0:
372,158,143824,2,0,P|425:223|353:347,1,200,2|0,0:0|0:0,0:0:0:0:
64,322,144347,1,2,0:0:0:0:
193,319,144521,1,0,0:0:0:0:
322,314,144696,1,0,0:0:0:0:
145,279,144869,2,0,P|93:237|187:148,1,200,2|0,0:0|0:0,0:0:0:0:
352,147,145393,2,0,L|370:258,1,100,2|0,0:0|0:0,0:0:0:0:
186,265,145742,2,0,P|118:210|151:124,1,187.500007152558,2|0,0:0|0:0,0:0:0:0:
187,131,146003,1,0,0:0:0:0:
224,138,146047,1,0,0:0:0:0:
375,246,146091,6,0,P|392:179|371:137,1,100,2|0,0:0|0:0,0:0:0:0:
241,129,146440,1,0,0:0:0:0:
404,107,146614,2,0,P|464:168|401:250,1,200,2|0,0:0|0:0,0:0:0:0:
258,251,147138,2,0,L|394:243,2,100,2|0|0,0:0|0:0|0:0,0:0:0:0:
88,231,147661,2,0,L|309:223,1,200,2|0,0:0|0:0,0:0:0:0:
111,175,148184,2,0,L|-13:179,1,100,2|0,0:0|0:0,0:0:0:0:
187,124,148533,2,0,L|316:123,1,100,2|0,0:0|0:0,0:0:0:0:
20,96,148882,6,0,L|119:100,2,100,2|0|0,0:0|0:0|0:0,0:0:0:0:
189,48,149405,2,0,P|242:113|171:192,1,200,2|0,0:0|0:0,0:0:0:0:
346,264,149928,1,2,0:0:0:0:
217,261,150103,1,0,0:0:0:0:
88,256,150277,1,0,0:0:0:0:
263,221,150452,2,0,L|54:215,1,200,2|0,0:0|0:0,0:0:0:0:
230,144,150975,2,0,L|248:255,1,100,2|0,0:0|0:0,0:0:0:0:
64,262,151324,2,0,L|54:143,1,100,2|0,0:0|0:0,0:0:0:0:
375,246,151673,6,0,P|392:179|371:137,1,100,2|0,0:0|0:0,0:0:0:0:
269,129,152021,1,0,0:0:0:0:
97,110,152196,2,0,L|337:104,1,200,2|0,0:0|0:0,0:0:0:0:
465,198,152719,1,2,0:0:0:0:
335,181,152893,1,0,0:0:0:0:
465,198,153068,1,0,0:0:0:0:
285,312,153242,2,0,L|506:304,1,200,2|0,0:0|0:0,0:0:0:0:
345,265,153766,1,2,0:0:0:0:
295,182,153940,1,0,0:0:0:0:
328,91,154114,1,2,0:0:0:0:
420,61,154289,1,0,0:0:0:0:
155,157,154463,6,0,L|31:151,2,100,2|0|0,0:0|0:0|0:0,0:0:0:0:
326,160,154986,2,0,L|115:162,1,200,2|0,0:0|0:0,0:0:0:0:
463,250,155510,1,2,0:0:0:0:
313,274,155684,1,0,0:0:0:0:
463,250,155859,1,0,0:0:0:0:
285,229,156033,2,0,L|498:216,1,200,2|0,0:0|0:0,0:0:0:0:
167,303,156556,1,2,0:0:0:0:
133,287,156643,1,0,0:0:0:0:
127,242,156731,1,0,0:0:0:0:
152,205,156818,1,0,0:0:0:0:
205,197,156905,1,2,0:0:0:0:
264,176,156992,1,0,0:0:0:0:
270,127,157080,1,0,0:0:0:0:
217,92,157167,1,0,0:0:0:0:
60,92,157254,5,4,0:1:0:0:
365,327,168416,6,0,L|26:324,1,320,8|8,0:0|0:0,0:0:0:0:
161,280,169289,2,0,L|161:178,1,80,0|0,0:0|0:0,0:0:0:0:
46,181,169638,1,0,0:0:0:0:
242,147,169812,6,0,P|303:185|268:328,1,240,8|8,0:0|0:0,0:0:0:0:
136,313,170510,2,0,L|386:293,1,240,8|0,0:0|0:0,0:0:0:0:
177,276,171206,6,0,P|121:256|172:47,1,320,8|8,0:0|0:0,0:0:0:0:
365,49,172254,2,0,L|381:154,1,80,0|0,0:0|0:0,0:0:0:0:
175,203,172603,6,0,L|343:213,1,160,8|0,0:0|0:0,0:0:0:0:
221,234,173126,2,0,L|220:318,1,80,8|8,0:0|0:0,0:0:0:0:
329,326,173475,1,8,0:0:0:0:
198,329,173649,1,0,0:0:0:0:
454,255,173998,6,0,P|493:212|418:93,1,200,0|8,0:0|0:3,0:0:0:0:
264,65,174608,1,0,0:0:0:0:
223,94,174696,2,0,L|190:169,2,50
335,62,175045,1,8,0:3:0:0:
162,67,175219,1,0,0:0:0:0:
63,110,175393,6,0,P|27:166|104:271,1,200,0|8,0:0|0:3,0:0:0:0:
273,253,175917,2,0,L|322:253,1,50,0|0,0:0|0:0,0:0:0:0:
273,253,176091,2,0,L|219:253,1,50,0|0,0:0|0:0,0:0:0:0:
223,253,176266,2,0,L|273:253,1,50,0|0,0:0|0:0,0:0:0:0:
322,253,176440,2,0,L|442:257,1,100,8|0,0:3|0:0,0:0:0:0:
466,209,176702,1,0,0:0:0:0:
230,200,176789,6,0,L|119:194,1,100,2|2,0:0|0:0,0:0:0:0:
374,141,177138,2,0,L|255:132,1,100,10|2,0:0|0:0,0:0:0:0:
313,92,177399,1,2,0:0:0:0:
472,110,177486,2,0,L|479:163,1,50,2|0,0:0|0:0,0:0:0:0:
299,197,177661,2,0,L|236:201,1,50,8|0,0:0|0:0,0:0:0:0:
249,200,177835,2,0,L|299:197,1,50,2|0,0:0|0:0,0:0:0:0:
144,160,178010,2,0,L|89:157,1,50,4|4,0:3|0:3,0:0:0:0:
373,360,178882,6,0,L|362:291,1,50,2|0,0:0|0:0,0:0:0:0:
445,306,179056,2,0,L|449:244,1,50,0|0,0:0|0:0,0:0:0:0:
268,224,179231,2,0,L|190:228,1,50,2|0,0:0|0:0,0:0:0:0:
319,164,179405,2,0,L|390:157,1,50,0|0,0:0|0:0,0:0:0:0:
127,159,179580,6,0,P|33:200|149:305,1,300.000011444092,4|8,0:0|0:0,0:0:0:0:
304,239,180102,1,0,0:0:0:0:
254,238,180189,1,0,0:0:0:0:
204,238,180276,1,0,0:0:0:0:
154,237,180363,1,0,0:0:0:0:
104,237,180450,1,2,0:0:0:0:
277,128,180626,1,8,0:0:0:0:
30,127,180800,6,0,L|229:130,1,200,0|2,0:0|0:0,0:0:0:0:
109,54,181324,1,8,0:0:0:0:
263,132,181498,2,0,L|274:199,1,50
110,176,181673,2,0,L|39:176,1,50
42,173,181846,1,2,0:0:0:0:
60,149,181933,2,0,L|110:149,1,50,0|8,0:0|0:0,0:0:0:0:
16,79,182196,1,0,0:0:0:0:
286,105,182370,6,0,P|389:183|285:260,1,300.000011444092,2|8,0:0|0:0,0:0:0:0:
113,252,182892,2,0,L|111:187,1,50
169,195,183067,2,0,L|228:193,2,50,0|0|2,0:0|0:0|0:0,0:0:0:0:
330,145,183417,2,0,B|440:150,1,100,8|0,0:0|0:0,0:0:0:0:
462,115,183678,1,0,0:0:0:0:
278,107,183766,6,0,L|178:113,1,100,0|2,0:0|0:0,0:0:0:0:
303,127,184114,2,0,L|415:126,1,100,8|0,0:0|0:0,0:0:0:0:
357,69,184376,1,0,0:0:0:0:
167,130,184463,2,0,L|57:125,1,100,0|2,0:0|0:0,0:0:0:0:
211,208,184812,2,0,L|78:212,1,100,8|0,0:0|0:0,0:0:0:0:
144,268,185074,1,8,0:0:0:0:
374,222,185161,6,0,P|443:209|487:91,1,200,6|8,0:0|0:0,0:0:0:0:
318,174,185684,2,0,L|310:119,1,50,0|0,0:0|0:0,0:0:0:0:
390,122,185859,2,0,L|397:66,1,50,0|0,0:0|0:0,0:0:0:0:
309,40,186033,1,2,0:0:0:0:
469,27,186207,1,8,0:0:0:0:
236,148,186382,6,0,L|16:130,1,200,0|2,0:0|0:0,0:0:0:0:
208,75,186905,1,8,0:0:0:0:
36,131,187080,1,0,0:0:0:0:
81,150,187167,1,0,0:0:0:0:
98,196,187254,1,0,0:0:0:0:
78,240,187341,1,0,0:0:0:0:
33,258,187428,1,2,0:0:0:0:
83,260,187516,2,0,L|142:258,1,50,0|8,0:0|0:0,0:0:0:0:
304,252,187777,1,0,0:0:0:0:
58,310,187952,6,0,L|286:293,1,200,2|8,0:0|0:0,0:0:0:0:
87,248,188475,2,0,L|88:182,1,50
155,201,188649,2,0,L|226:201,1,50
126,144,188824,2,0,L|76:144,1,50,2|0,0:0|0:0,0:0:0:0:
170,93,188998,1,8,0:0:0:0:
26,64,189173,1,0,0:0:0:0:
317,114,189347,6,0,L|431:112,1,100,4|2,0:0|0:0,0:0:0:0:
80,248,189696,2,0,L|13:248,1,50,12|0,0:0|0:0,0:0:0:0:
191,231,189870,2,0,L|270:232,1,50
84,186,190045,2,0,L|35:186,1,50,4|0,0:0|0:0,0:0:0:0:
84,186,190219,1,2,0:0:0:0:
334,202,190393,2,0,B|435:203,1,100,8|0,0:0|0:0,0:0:0:0:
391,149,190655,1,8,0:0:0:0:
136,276,190742,6,0,L|343:230,1,200,6|8,0:0|0:0,0:0:0:0:
159,211,191265,2,0,L|154:160,1,50
226,155,191439,2,0,L|229:99,1,50
146,102,191613,2,0,L|78:99,2,50,2|0|8,0:0|0:0|0:0,0:0:0:0:
385,109,191963,6,0,P|485:170|379:266,1,300.000011444092,0|2,0:0|0:0,0:0:0:0:
214,264,192486,1,8,0:0:0:0:
367,252,192661,2,0,L|371:190,1,50
192,201,192835,2,0,L|121:201,1,50
225,140,193010,2,0,L|279:142,1,50,2|0,0:0|0:0,0:0:0:0:
225,140,193184,1,8,0:0:0:0:
370,101,193359,1,0,0:0:0:0:
113,110,193533,6,0,P|10:188|114:265,1,300.000011444092,2|8,0:0|0:0,0:0:0:0:
293,289,194056,2,0,L|291:222,1,50,0|0,0:0|0:0,0:0:0:0:
236,230,194231,2,0,L|168:230,1,50,0|0,0:0|0:0,0:0:0:0:
125,233,194405,1,2,0:0:0:0:
370,201,194580,2,0,L|477:197,1,100,8|0,0:0|0:0,0:0:0:0:
422,156,194841,1,0,0:0:0:0:
252,173,194928,6,0,L|152:179,1,100,0|2,0:0|0:0,0:0:0:0:
312,212,195277,2,0,L|351:337,1,100,8|0,0:0|0:0,0:0:0:0:
291,321,195539,1,0,0:0:0:0:
138,324,195626,2,0,L|32:324,1,100,0|2,0:0|0:0,0:0:0:0:
202,283,195975,2,0,L|335:287,1,100,8|0,0:0|0:0,0:0:0:0:
352,288,196236,1,8,0:0:0:0:
106,216,196324,6,0,L|305:224,1,200,6|8,0:0|0:0,0:0:0:0:
150,177,196847,2,0,L|142:122,1,50,0|0,0:0|0:0,0:0:0:0:
222,125,197021,2,0,L|229:69,1,50,0|0,0:0|0:0,0:0:0:0:
141,43,197196,1,2,0:0:0:0:
301,30,197370,1,8,0:0:0:0:
26,226,197545,6,0,L|246:208,1,200,0|2,0:0|0:0,0:0:0:0:
107,146,198068,1,8,0:0:0:0:
257,147,198242,1,0,0:0:0:0:
302,166,198330,1,0,0:0:0:0:
319,212,198417,1,0,0:0:0:0:
299,256,198504,1,0,0:0:0:0:
254,274,198591,1,2,0:0:0:0:
304,276,198678,2,0,L|363:274,1,50,0|8,0:0|0:0,0:0:0:0:
190,338,198940,1,0,0:0:0:0:
462,300,199114,6,0,P|478:240|462:181,1,100,2|0,0:0|0:0,0:0:0:0:
296,202,199463,1,8,0:0:0:0:
419,36,199638,1,0,0:0:0:0:
371,72,199725,1,0,0:0:0:0:
357,121,199812,1,2,0:0:0:0:
373,168,199899,1,0,0:0:0:0:
421,205,199986,1,0,0:0:0:0:
169,267,200161,1,8,0:0:0:0:
17,238,200335,1,2,0:0:0:0:
335,207,200510,5,12,0:0:0:0:
183,178,200684,1,2,0:0:0:0:
491,138,200859,1,8,0:0:0:0:
339,109,201033,1,2,0:0:0:0:
56,258,201207,2,0,L|43:203,1,50,8|0,2:0|2:0,0:0:0:0:
251,244,201382,2,0,L|311:247,1,50,2|0,2:0|2:0,0:0:0:0:
149,182,201556,2,0,L|142:124,1,50,8|0,2:0|2:0,0:0:0:0:
315,151,201731,2,0,L|374:155,1,50,2|0,2:0|2:0,0:0:0:0:
66,138,201905,6,0,L|125:141,1,50,6|0,0:0|0:0,0:0:0:0:
325,209,202080,2,0,L|260:226,1,50
45,272,202254,2,0,L|92:254,1,50,8|0,0:0|0:0,0:0:0:0:
265,318,202428,2,0,L|374:317,1,100
94,289,202777,1,2,0:0:0:0:
400,263,202952,2,0,L|469:263,1,50,8|0,0:0|0:0,0:0:0:0:
254,251,203126,2,0,L|252:185,1,50
318,195,203300,6,0,L|378:195,1,50
184,133,203475,2,0,L|128:126,2,50,2|0|8,0:0|0:0|0:0,0:0:0:0:
360,128,203824,1,0,0:0:0:0:
59,183,203998,2,0,L|166:181,1,100,0|2,0:0|0:0,0:0:0:0:
486,162,204347,2,0,L|372:167,1,100,8|0,0:0|0:0,0:0:0:0:
109,162,204696,6,0,L|47:166,1,50,2|0,0:0|0:0,0:0:0:0:
145,162,204870,2,0,L|203:161,1,50
89,122,205045,2,0,L|88:62,1,50,8|0,0:0|0:0,0:0:0:0:
170,66,205219,2,0,L|300:63,1,100,0|0,0:0|0:0,0:0:0:0:
32,61,205568,1,2,0:0:0:0:
339,261,205742,2,0,L|408:260,1,50,8|0,0:0|0:0,0:0:0:0:
206,257,205917,2,0,L|136:254,1,50
247,218,206091,6,0,L|253:159,1,50
93,153,206266,2,0,L|18:155,1,50,2|0,0:0|0:0,0:0:0:0:
227,151,206440,2,0,L|326:152,2,100,8|0|0,0:0|0:0|0:0,0:0:0:0:
491,139,206963,1,2,0:0:0:0:
165,182,207138,2,0,P|147:237|166:302,1,100,8|0,0:0|0:0,0:0:0:0:
231,290,207399,1,8,0:0:0:0:
465,287,207486,6,0,L|470:216,1,50,2|0,0:0|0:0,0:0:0:0:
377,238,207661,2,0,L|299:233,1,50
417,203,207835,2,0,L|420:138,1,50,8|0,0:0|0:0,0:0:0:0:
327,148,208010,2,0,L|463:139,1,100,0|0,0:0|0:0,0:0:0:0:
131,155,208359,1,2,0:0:0:0:
401,222,208533,2,0,L|409:282,1,50,8|0,0:0|0:0,0:0:0:0:
248,296,208707,2,0,L|192:299,1,50,0|0,0:0|0:0,0:0:0:0:
348,258,208882,6,0,L|416:257,1,50,0|0,0:0|0:0,0:0:0:0:
167,217,209056,2,0,L|22:219,2,100,2|8|0,0:0|0:0|0:0,0:0:0:0:
343,212,209580,2,0,P|362:163|343:104,1,100,0|2,0:0|0:0,0:0:0:0:
184,115,209928,2,0,P|155:168|183:210,1,100,8|0,0:0|0:0,0:0:0:0:
461,237,210277,6,0,L|465:309,1,50,2|0,0:0|0:0,0:0:0:0:
365,298,210452,2,0,L|305:298,1,50,0|0,0:0|0:0,0:0:0:0:
400,244,210626,2,0,L|476:244,1,50,8|0,0:0|0:0,0:0:0:0:
288,166,210800,2,0,L|405:170,1,100,0|0,0:0|0:0,0:0:0:0:
505,172,211149,1,2,0:0:0:0:
171,197,211324,2,0,L|153:261,1,50,8|0,0:0|0:0,0:0:0:0:
316,259,211498,2,0,L|326:202,1,50,0|0,0:0|0:0,0:0:0:0:
142,276,211673,6,0,L|91:271,1,50,0|0,0:0|0:0,0:0:0:0:
291,220,211847,2,0,L|164:217,2,100,2|8|0,0:0|0:0|0:0,0:0:0:0:
119,178,212370,2,0,L|110:117,1,50
206,129,212545,2,0,L|263:130,1,50,2|0,0:0|0:0,0:0:0:0:
70,82,212719,2,0,L|120:83,1,50,8|0,0:0|0:0,0:0:0:0:
301,82,212893,2,0,L|362:81,1,50,0|8,0:0|0:0,0:0:0:0:
34,257,213068,6,0,L|26:192,1,50,6|0,0:0|0:0,0:0:0:0:
201,208,213242,2,0,L|250:203,1,50
38,158,213417,2,0,L|32:97,1,50,8|0,0:0|0:0,0:0:0:0:
218,80,213591,2,0,L|90:89,2,100,0|0|2,0:0|0:0|0:0,0:0:0:0:
461,240,214114,2,0,L|465:176,1,50,8|0,0:0|0:0,0:0:0:0:
302,221,214289,2,0,L|294:167,1,50
385,166,214463,6,0,L|394:108,1,50
189,133,214637,1,2,0:0:0:0:
239,129,214724,1,0,0:0:0:0:
289,122,214811,1,8,0:0:0:0:
127,71,214986,1,0,0:0:0:0:
419,134,215161,2,0,L|312:130,1,100,0|2,0:0|0:0,0:0:0:0:
491,55,215510,2,0,L|389:48,1,100,8|0,0:0|0:0,0:0:0:0:
129,211,215859,6,0,L|126:153,1,50,2|0,0:0|0:0,0:0:0:0:
216,165,216033,2,0,L|224:112,1,50
132,111,216207,2,0,L|65:110,1,50,8|0,0:0|0:0,0:0:0:0:
175,55,216382,2,0,L|274:57,2,100,0|0|2,0:0|0:0|0:0,0:0:0:0:
476,200,216905,2,0,L|485:130,1,50,8|0,0:0|0:0,0:0:0:0:
264,232,217080,2,0,L|253:285,1,50,0|0,0:0|0:0,0:0:0:0:
331,305,217254,6,0,L|394:305,1,50,0|0,0:0|0:0,0:0:0:0:
225,326,217428,2,0,L|209:388,1,50,2|0,0:0|0:0,0:0:0:0:
287,384,217603,1,8,0:0:0:0:
124,368,217776,2,0,P|105:331|116:273,1,100
285,243,218125,1,2,0:0:0:0:
127,232,218299,1,8,0:0:0:0:
289,169,218474,2,0,L|305:224,1,50,0|8,0:0|0:0,0:0:0:0:
47,287,218649,6,0,L|42:216,1,50,2|0,0:0|0:0,0:0:0:0:
135,242,218824,2,0,L|154:172,1,50
58,168,218998,2,0,L|151:166,1,50,8|0,0:0|0:0,0:0:0:0:
200,141,219173,2,0,L|64:132,1,100,0|0,0:0|0:0,0:0:0:0:
381,155,219521,1,2,0:0:0:0:
111,222,219696,2,0,L|163:226,1,50,8|0,0:0|0:0,0:0:0:0:
341,236,219870,2,0,L|277:233,1,50
85,193,220045,6,0,L|156:198,1,50
321,192,220219,2,0,L|218:189,2,100,2|8|0,0:0|0:0|0:0,0:0:0:0:
484,128,220742,2,0,L|366:130,1,100,0|2,0:0|0:0,0:0:0:0:
210,143,221091,2,0,L|110:142,1,100,8|0,0:0|0:0,0:0:0:0:
418,238,221440,6,0,L|420:298,1,50,2|0,0:0|0:0,0:0:0:0:
331,303,221614,2,0,L|322:362,1,50
415,361,221789,2,0,L|465:361,1,50,8|0,0:0|0:0,0:0:0:0:
229,362,221963,1,0,0:0:0:0:
331,303,222138,1,2,0:0:0:0:
211,308,222312,1,0,0:0:0:0:
458,223,222486,2,0,L|476:287,1,50,8|0,0:0|0:0,0:0:0:0:
196,259,222661,2,0,L|186:202,1,50,2|0,0:0|0:0,0:0:0:0:
370,276,222835,6,0,L|379:225,1,50,8|0,0:0|0:0,0:0:0:0:
314,202,223010,1,0,0:0:0:0:
142,188,223097,1,8,0:0:0:0:
192,187,223184,1,0,0:0:0:0:
242,186,223271,1,0,0:0:0:0:
42,227,223359,2,0,L|28:294,1,50,8|0,0:0|0:0,0:0:0:0:
96,300,223533,1,0,0:0:0:0:
268,302,223620,2,0,L|266:236,1,50,8|0,0:0|0:0,0:0:0:0:
193,236,223795,1,8,0:0:0:0:
392,188,223882,2,0,L|301:190,1,50,10|2,0:0|0:0,0:0:0:0:
77,190,224056,2,0,L|9:192,1,50,2|2,0:0|0:0,0:0:0:0:
329,104,224231,6,0,L|451:103,1,100,6|0,0:0|0:0,0:0:0:0:
116,222,224580,1,8,0:0:0:0:
390,237,224754,1,0,0:0:0:0:
340,235,224841,1,0,0:0:0:0:
290,234,224928,1,0,0:0:0:0:
240,233,225016,1,0,0:0:0:0:
190,232,225103,1,2,0:0:0:0:
470,183,225277,2,0,L|467:80,1,100,8|0,0:0|0:0,0:0:0:0:
169,73,225626,5,0,0:0:0:0:
446,118,225800,2,0,L|453:247,1,100,2|8,0:0|0:0,0:0:0:0:
256,255,226149,2,0,L|176:255,1,50,0|0,0:0|0:0,0:0:0:0:
299,226,226324,2,0,L|307:160,1,50,0|0,0:0|0:0,0:0:0:0:
217,175,226498,2,0,L|197:112,1,50,2|0,0:0|0:0,0:0:0:0:
288,126,226673,1,8,0:0:0:0:
139,76,226847,1,0,0:0:0:0:
454,155,227021,6,0,L|461:298,1,100,2|0,0:0|0:0,0:0:0:0:
152,295,227370,1,8,0:0:0:0:
284,296,227545,1,0,0:0:0:0:
344,292,227632,1,0,0:0:0:0:
384,268,227719,1,0,0:0:0:0:
392,224,227806,1,0,0:0:0:0:
372,176,227893,1,2,0:0:0:0:
108,158,228068,2,0,L|225:158,1,100,8|0,0:0|0:0,0:0:0:0:
475,154,228417,5,0,0:0:0:0:
195,162,228591,2,0,L|53:162,1,100,2|8,0:0|0:0,0:0:0:0:
389,309,228940,2,0,L|400:240,1,50
320,260,229114,2,0,L|260:256,1,50
420,216,229289,2,0,L|431:143,1,50,2|0,0:0|0:0,0:0:0:0:
260,144,229463,1,8,0:0:0:0:
352,136,229638,2,0,L|408:136,1,50,0|8,0:0|0:0,0:0:0:0:
183,104,229812,6,0,L|61:103,1,100,6|0,0:0|0:0,0:0:0:0:
396,222,230161,1,8,0:0:0:0:
122,237,230335,1,0,0:0:0:0:
172,235,230423,1,0,0:0:0:0:
222,234,230510,1,0,0:0:0:0:
272,233,230597,1,0,0:0:0:0:
322,232,230684,1,2,0:0:0:0:
84,182,230859,2,0,L|87:79,1,100,8|0,0:0|0:0,0:0:0:0:
407,62,231207,5,0,0:0:0:0:
103,120,231382,2,0,L|96:249,1,100,2|8,0:0|0:0,0:0:0:0:
256,255,231731,2,0,L|336:255,1,50,0|0,0:0|0:0,0:0:0:0:
213,226,231905,2,0,L|205:160,1,50,0|0,0:0|0:0,0:0:0:0:
295,175,232080,2,0,L|315:112,1,50,2|0,0:0|0:0,0:0:0:0:
224,126,232254,1,8,0:0:0:0:
373,76,232428,1,0,0:0:0:0:
58,155,232603,6,0,L|51:298,1,100,2|0,0:0|0:0,0:0:0:0:
360,295,232952,1,8,0:0:0:0:
224,296,233126,1,0,0:0:0:0:
164,288,233213,1,0,0:0:0:0:
116,256,233300,1,0,0:0:0:0:
104,208,233388,1,0,0:0:0:0:
134,161,233475,1,2,0:0:0:0:
404,158,233649,2,0,L|287:158,1,100,8|0,0:0|0:0,0:0:0:0:
37,154,233998,5,0,0:0:0:0:
317,162,234173,2,0,L|459:162,1,100,2|8,0:0|0:0,0:0:0:0:
121,283,234521,2,0,L|120:201,1,50,0|0,0:0|0:0,0:0:0:0:
211,203,234696,2,0,L|261:200,1,50,0|0,0:0|0:0,0:0:0:0:
88,164,234870,2,0,L|84:111,1,50,2|0,0:0|0:0,0:0:0:0:
242,127,235045,1,8,0:0:0:0:
378,131,235219,2,0,L|395:72,1,50,0|8,0:0|0:0,0:0:0:0:
183,104,235393,6,0,L|300:111,1,100,6|0,0:0|0:0,0:0:0:0:
27,154,235742,1,8,0:0:0:0:
345,272,235917,1,0,0:0:0:0:
394,269,236004,1,0,0:0:0:0:
437,245,236091,1,0,0:0:0:0:
466,204,236178,1,0,0:0:0:0:
473,155,236266,1,2,0:0:0:0:
155,175,236440,2,0,L|39:172,1,100,8|0,0:0|0:0,0:0:0:0:
342,87,236789,5,0,0:0:0:0:
43,142,236963,2,0,L|36:271,1,100,2|8,0:0|0:0,0:0:0:0:
286,263,237312,2,0,L|297:203,1,50,0|0,0:0|0:0,0:0:0:0:
208,212,237486,2,0,L|143:205,1,50,0|0,0:0|0:0,0:0:0:0:
82,186,237661,2,0,L|102:123,1,50,2|0,0:0|0:0,0:0:0:0:
184,107,237835,1,8,0:0:0:0:
373,76,238010,1,0,0:0:0:0:
136,96,238184,6,0,B|16:104,1,100,2|0,0:0|0:0,0:0:0:0:
296,300,238533,1,8,0:0:0:0:
136,294,238707,2,0,L|128:224,1,50
192,236,238882,2,0,L|247:235,2,50,0|0|2,0:0|0:0|0:0,0:0:0:0:
448,168,239231,2,0,L|403:282,1,100,8|0,0:0|0:0,0:0:0:0:
37,154,239580,5,0,0:0:0:0:
329,154,239754,2,0,L|471:154,1,100,2|8,0:0|0:0,0:0:0:0:
123,309,240103,2,0,L|121:242,1,50,0|0,0:0|0:0,0:0:0:0:
203,256,240277,2,0,L|264:256,1,50
396,216,240452,2,0,L|320:209,1,50,2|0,0:0|0:0,0:0:0:0:
160,168,240625,1,8,0:0:0:0:
35,133,240800,2,0,L|18:74,1,50,0|8,0:0|0:0,0:0:0:0:
292,101,240975,6,0,L|416:103,1,100,6|0,0:0|0:0,0:0:0:0:
101,80,241324,1,8,0:0:0:0:
375,266,241498,2,0,L|390:185,1,50,0|0,0:0|0:0,0:0:0:0:
313,210,241673,2,0,L|261:206,2,50,0|0|2,0:0|0:0|0:0,0:0:0:0:
66,188,242021,2,0,L|171:186,1,100,8|0,0:0|0:0,0:0:0:0:
410,186,242370,5,0,0:0:0:0:
139,234,242545,2,0,L|8:234,1,100,2|8,0:0|0:0,0:0:0:0:
346,283,242893,2,0,L|347:202,1,50,0|0,0:0|0:0,0:0:0:0:
251,234,243068,2,0,L|185:232,1,50,0|0,0:0|0:0,0:0:0:0:
279,170,243242,2,0,L|284:101,1,50,2|0,0:0|0:0,0:0:0:0:
203,127,243417,1,8,0:0:0:0:
352,64,243591,1,0,0:0:0:0:
107,118,243766,6,0,B|24:208,1,100,2|0,0:0|0:0,0:0:0:0:
380,212,244114,1,8,0:0:0:0:
220,216,244289,1,0,0:0:0:0:
170,212,244376,1,0,0:0:0:0:
124,220,244463,1,0,0:0:0:0:
72,216,244550,1,0,0:0:0:0:
24,208,244638,1,2,0:0:0:0:
295,170,244812,2,0,L|159:172,1,100,8|0,0:0|0:0,0:0:0:0:
476,139,245161,5,0,0:0:0:0:
137,135,245335,2,0,L|-5:135,1,100,2|8,0:0|0:0,0:0:0:0:
271,205,245684,2,0,L|282:132,1,50,0|0,0:0|0:0,0:0:0:0:
198,154,245859,2,0,L|148:151,1,50,0|0,0:0|0:0,0:0:0:0:
324,108,246033,2,0,L|377:113,1,50,2|0,0:0|0:0,0:0:0:0:
211,32,246207,1,8,0:0:0:0:
66,138,246382,2,0,L|52:72,1,50,0|8,0:0|0:0,0:0:0:0:
311,149,246556,6,0,P|365:181|307:275,1,200,6|8,0:0|0:0,0:0:0:0:
168,273,247080,2,0,L|153:217,2,50,0|0|0,0:0|0:0|0:0,0:0:0:0:
320,277,247428,1,2,0:0:0:0:
153,233,247603,1,8,0:0:0:0:
435,177,247777,6,0,L|446:121,2,50,0|0|0,0:0|0:0|0:0,0:0:0:0:
309,201,248126,1,2,0:0:0:0:
448,179,248300,1,8,0:0:0:0:
49,174,248475,2,0,L|46:111,1,50,0|0,0:0|0:0,0:0:0:0:
126,121,248649,2,0,L|185:118,1,50,0|0,0:0|0:0,0:0:0:0:
79,86,248824,2,0,L|76:34,1,50,2|0,0:0|0:0,0:0:0:0:
164,32,248998,2,0,L|265:27,1,100,8|0,0:0|0:0,0:0:0:0:
323,67,249260,1,0,0:0:0:0:
78,137,249347,6,0,P|24:175|80:278,1,200,2|8,0:0|0:0,0:0:0:0:
211,283,249870,1,0,0:0:0:0:
161,279,249957,1,0,0:0:0:0:
111,275,250045,1,0,0:0:0:0:
245,213,250219,1,2,0:0:0:0:
114,222,250393,1,8,0:0:0:0:
388,272,250568,6,0,L|395:215,1,50,0|0,0:0|0:0,0:0:0:0:
400,176,250742,1,0,0:0:0:0:
267,169,250917,1,2,0:0:0:0:
414,141,251091,1,8,0:0:0:0:
134,159,251266,2,0,L|131:217,1,50,0|0,0:0|0:0,0:0:0:0:
210,220,251440,2,0,L|214:275,1,50,0|0,0:0|0:0,0:0:0:0:
131,296,251614,2,0,L|65:299,1,50,2|0,0:0|0:0,0:0:0:0:
173,258,251789,2,0,L|230:253,1,50,8|0,0:0|0:0,0:0:0:0:
134,223,251963,2,0,L|126:168,1,50,0|8,0:0|0:0,0:0:0:0:
392,176,252138,6,0,L|186:167,1,200,2|8,0:0|0:0,0:0:0:0:
296,137,252661,2,0,L|306:77,1,50,0|0,0:0|0:0,0:0:0:0:
313,47,252835,1,0,0:0:0:0:
173,81,253010,1,2,0:0:0:0:
315,142,253184,1,8,0:0:0:0:
49,196,253359,6,0,L|38:140,2,50,0|0|0,0:0|0:0|0:0,0:0:0:0:
186,252,253707,1,2,0:0:0:0:
40,229,253882,1,8,0:0:0:0:
330,242,254056,2,0,L|334:192,1,50,0|0,0:0|0:0,0:0:0:0:
257,193,254231,2,0,L|208:195,1,50,0|0,0:0|0:0,0:0:0:0:
135,172,254405,2,0,L|132:120,1,50,2|0,0:0|0:0,0:0:0:0:
214,104,254580,2,0,L|315:99,1,100,8|0,0:0|0:0,0:0:0:0:
373,139,254841,1,0,0:0:0:0:
190,149,254928,6,0,P|136:187|192:290,1,200,2|8,0:0|0:0,0:0:0:0:
331,292,255452,1,0,0:0:0:0:
327,242,255539,1,0,0:0:0:0:
323,192,255626,1,0,0:0:0:0:
174,187,255800,1,2,0:0:0:0:
26,187,255975,1,8,0:0:0:0:
332,204,256149,6,0,L|339:147,1,50,0|0,0:0|0:0,0:0:0:0:
344,108,256324,1,0,0:0:0:0:
213,90,256498,1,2,0:0:0:0:
360,62,256673,1,8,0:0:0:0:
45,232,256847,2,0,L|42:290,1,50,0|0,0:0|0:0,0:0:0:0:
119,290,257021,2,0,L|123:345,1,50,0|0,0:0|0:0,0:0:0:0:
42,367,257196,2,0,L|110:366,1,50,2|0,0:0|0:0,0:0:0:0:
179,359,257370,2,0,L|236:354,1,50,8|0,0:0|0:0,0:0:0:0:
154,280,257545,2,0,L|146:225,1,50,0|8,0:0|0:0,0:0:0:0:
428,215,257719,6,0,L|220:210,1,200,2|8,0:0|0:0,0:0:0:0:
85,149,258242,2,0,L|138:148,1,50,0|0,0:0|0:0,0:0:0:0:
185,145,258417,1,0,0:0:0:0:
333,140,258591,1,2,0:0:0:0:
478,138,258766,1,8,0:0:0:0:
189,222,258940,6,0,L|175:170,2,50,0|0|0,0:0|0:0|0:0,0:0:0:0:
337,267,259289,1,2,0:0:0:0:
179,261,259463,1,8,0:0:0:0:
498,274,259638,2,0,L|495:211,1,50,0|0,0:0|0:0,0:0:0:0:
419,223,259812,2,0,L|370:225,1,50,0|0,0:0|0:0,0:0:0:0:
449,160,259986,2,0,L|446:108,1,50,2|0,0:0|0:0,0:0:0:0:
364,112,260161,2,0,L|263:107,1,100,8|0,0:0|0:0,0:0:0:0:
312,88,260423,1,0,0:0:0:0:
491,86,260510,6,0,L|292:79,1,200,2|8,0:0|0:0,0:0:0:0:
424,168,261033,1,0,0:0:0:0:
428,218,261120,1,0,0:0:0:0:
432,268,261207,1,0,0:0:0:0:
327,295,261382,1,2,0:0:0:0:
436,328,261556,1,8,0:0:0:0:
208,272,261731,6,0,L|136:272,1,50,0|0,0:0|0:0,0:0:0:0:
112,272,261905,1,0,0:0:0:0:
232,183,262080,1,2,0:0:0:0:
126,157,262254,1,8,0:0:0:0:
421,173,262428,6,0,L|424:231,1,50
345,234,262603,2,0,L|341:289,1,50
424,310,262777,2,0,L|490:313,1,50,2|0,0:0|0:0,0:0:0:0:
382,272,262952,2,0,L|325:267,1,50,8|0,0:0|0:0,0:0:0:0:
421,237,263126,2,0,L|429:182,1,50,0|8,0:0|0:0,0:0:0:0:
201,149,263300,6,0,P|147:181|205:275,1,200,2|8,0:0|0:0,0:0:0:0:
318,288,263824,2,0,L|333:232,2,50,0|0|2,0:0|0:0|0:0,0:0:0:0:
192,277,264173,1,0,0:0:0:0:
314,236,264347,1,8,0:0:0:0:
172,189,264521,6,0,L|161:133,2,50,0|0|2,0:0|0:0|0:0,0:0:0:0:
286,253,264870,1,0,0:0:0:0:
166,217,265045,1,8,0:0:0:0:
324,232,265219,6,0,L|381:229,1,50
306,197,265393,2,0,L|247:194,1,50,2|0,0:0|0:0,0:0:0:0:
347,155,265568,2,0,L|350:103,1,50
267,80,265742,2,0,L|167:120,1,100,8|0,0:0|0:0,0:0:0:0:
202,159,266004,1,0,0:0:0:0:
379,173,266091,5,2,0:0:0:0:
236,195,266266,1,2,0:0:0:0:
377,165,266440,1,8,0:0:0:0:
266,151,266614,2,0,L|256:96,1,50,0|2,0:0|0:0,0:0:0:0:
343,100,266789,2,0,L|453:100,1,100,0|2,0:0|0:0,0:0:0:0:
186,303,267138,1,8,0:0:0:0:
61,273,267312,2,0,L|54:216,1,50,0|2,0:0|0:0,0:0:0:0:
86,205,267443,1,2,0:0:0:0:
305,213,267486,6,0,L|304:157,1,50,8|0,0:0|0:0,0:0:0:0:
231,150,267661,1,0,0:0:0:0:
467,167,267748,2,0,L|472:111,1,50,8|0,0:0|0:0,0:0:0:0:
410,99,267923,1,0,0:0:0:0:
227,111,268010,1,8,0:0:0:0:
277,109,268097,1,0,0:0:0:0:
327,107,268184,1,0,0:0:0:0:
86,142,268271,6,0,L|72:195,2,50,8|0|0,0:0|0:0|0:0,0:0:0:0:
111,111,268489,1,0,0:0:0:0:
342,201,268533,2,0,L|400:203,1,50,8|8,0:0|0:0,0:0:0:0:
101,182,268706,2,0,L|52:180,1,50,8|8,0:0|0:0,0:0:0:0:
