osu file format v14

[General]
AudioFilename: audioo9.mp3
AudioLeadIn: 0
PreviewTime: 89581
Countdown: 0
SampleSet: Soft
StackLeniency: 0.5
Mode: 2
LetterboxInBreaks: 0
WidescreenStoryboard: 1

[Editor]
Bookmarks: 12139,23301,34464,47022,67953,90278,112604,134929,146092,157255,168418,179581,201906,224232,246557,268796
DistanceSpacing: 1
BeatDivisor: 8
GridSize: 4
TimelineZoom: 3.299999

[Metadata]
Title:Searchlight
TitleUnicode:Searchlight
Artist:kamome sano
ArtistUnicode:kamome sano
Creator:Benita
Version:IDu5t & Benny's Rain
Source:
Tags:Lilium X3 DnB drum and bass BennyBananas Benny- Idu5t idust Meg
BeatmapID:1902776
BeatmapSetID:911331

[Difficulty]
HPDrainRate:5
CircleSize:4
OverallDifficulty:9
ApproachRate:9
SliderMultiplier:1.8
SliderTickRate:1

[Events]
//Background and Video events
0,0,"rojgbreoph.jpg",0,0
//Break Periods
2,157453,167816
//Storyboard Layer 0 (Background)
//Storyboard Layer 1 (Fail)
//Storyboard Layer 2 (Pass)
//Storyboard Layer 3 (Foreground)
//Storyboard Sound Samples

[TimingPoints]
-421,348.837209302326,4,2,3,40,1,0
974,-125,4,2,3,40,0,0
12137,-100,4,2,3,40,0,0
12138,-100,4,2,5,50,0,0
23299,-100,4,2,5,50,0,0
23300,-100,4,2,3,50,0,0
34463,-100,4,2,2,60,0,0
43707,-100,4,2,1,60,0,0
43882,-100,4,2,2,60,0,0
44231,-100,4,2,1,60,0,0
45625,-166.666666666667,4,2,1,50,0,0
46585,-100,4,2,1,20,0,0
46673,-100,4,2,1,60,0,0
46847,-100,4,2,2,60,0,0
47021,-100,4,2,1,60,0,0
47545,-100,4,2,1,60,0,0
48241,-100,4,2,1,60,0,0
49114,-100,4,2,1,60,0,0
49638,-100,4,2,1,60,0,0
50334,-100,4,2,1,60,0,0
50859,-100,4,2,1,60,0,0
51207,-100,4,2,1,60,0,0
52427,-100,4,2,1,60,0,0
53125,-100,4,2,1,60,0,0
53648,-100,4,2,1,60,0,0
53998,-100,4,2,1,60,0,0
55219,-100,4,2,1,60,0,0
56440,-100,4,2,1,60,0,0
56789,-100,4,2,1,60,0,0
58009,-100,4,2,1,60,0,0
58706,-100,4,2,1,60,0,0
59405,-100,4,2,1,60,0,0
60277,-100,4,2,1,60,0,0
60799,-100,4,2,1,60,0,0
61497,-100,4,2,1,60,0,0
62021,-100,4,2,1,60,0,0
62370,-100,4,2,2,60,0,0
64812,-100,4,2,1,60,0,0
65161,-100,4,2,2,60,0,0
66382,-100,4,2,2,50,0,0
67080,-100,4,2,1,60,0,0
67951,-66.6666666666667,4,2,1,60,0,0
67952,-66.6666666666667,4,3,1,60,0,0
68300,-100,4,3,1,60,0,0
70742,-100,4,3,1,60,0,0
71091,-100,4,3,1,60,0,0
80335,-100,4,3,1,60,0,0
80684,-100,4,3,1,60,0,0
81905,-100,4,3,1,60,0,0
82254,-100,4,3,1,60,0,0
90276,-100,4,3,1,70,0,1
98126,-100,4,3,1,70,0,1
98300,-100,4,3,1,70,0,1
98475,-100,4,3,1,70,0,1
98824,-100,4,3,1,70,0,1
98998,-100,4,3,1,70,0,1
99173,-100,4,3,1,70,0,1
109289,-100,4,3,1,70,0,1
109463,-100,4,3,1,70,0,1
109638,-100,4,3,1,70,0,1
109986,-100,4,3,1,70,0,1
110161,-100,4,3,1,70,0,1
110335,-100,4,3,1,70,0,1
112602,-66.6666666666667,4,3,1,50,0,0
112951,-100,4,3,1,50,0,0
134927,-100,4,2,3,40,0,0
146091,-100,4,2,7,40,0,0
168416,-125,4,3,4,70,0,0
169288,-125,4,2,0,70,0,0
169811,-125,4,3,4,70,0,0
171032,-125,4,2,0,70,0,0
171206,-125,4,3,4,70,0,0
172253,-125,4,2,0,70,0,0
172602,-125,4,3,4,70,0,0
172951,-125,4,2,0,70,0,0
173125,-125,4,3,4,70,0,0
173648,-125,4,2,0,70,0,0
173998,-100,4,3,4,70,0,0
176788,-100,4,2,6,100,0,0
178882,-100,4,2,3,70,0,0
179579,-66.6666666666667,4,2,3,70,0,0
179580,-66.6666666666667,4,3,1,60,0,0
179928,-100,4,3,1,60,0,0
182369,-66.6666666666667,4,3,1,60,0,0
182719,-100,4,3,1,60,0,0
191962,-66.6666666666667,4,3,1,60,0,0
192312,-100,4,3,1,60,0,0
193532,-66.6666666666667,4,3,1,60,0,0
193881,-100,4,3,1,60,0,0
201904,-100,5,3,1,70,0,1
209754,-100,5,3,1,70,0,1
209928,-100,5,3,1,70,0,1
210103,-100,5,3,1,70,0,1
210452,-100,5,3,1,70,0,1
210626,-100,5,3,1,70,0,1
210800,-100,5,3,1,70,0,1
220917,-100,5,3,1,70,0,1
221091,-100,5,3,1,70,0,1
221266,-100,5,3,1,70,0,1
221614,-100,5,3,1,70,0,1
221789,-100,5,3,1,70,0,1
221963,-100,5,3,1,70,0,1
222834,-62.5,5,3,1,70,0,1
223706,-100,5,3,1,70,0,1
224230,-100,5,3,1,60,0,0
246556,-100,5,3,1,50,0,0
260510,-100,5,3,1,50,0,0
266091,-100,5,3,1,50,0,0
267485,-66.6666666666667,5,3,1,50,0,0
267748,-66.6666666666667,5,3,1,50,0,0
268004,-100,5,3,1,50,0,0
268271,-100,5,3,1,50,0,0
268533,-100,5,3,1,50,0,0

[Colours]
Combo1 : 255,255,128
Combo2 : 200,255,255
Combo3 : 128,255,128
Combo4 : 123,123,255

[HitObjects]
396,277,974,6,0,P|442:279|390:195,1,216,2|0,0:0|0:0,0:0:0:0:
171,78,2020,2,0,P|410:80|410:80,1,216,2|0,0:0|0:0,0:0:0:0:
170,249,3067,1,2,0:0:0:0:
311,258,3416,1,2,0:0:0:0:
35,208,3765,6,0,P|19:147|145:71,1,216,2|0,0:0|0:0,0:0:0:0:
349,312,4811,2,0,P|372:257|247:178,1,216,2|0,0:0|0:0,0:0:0:0:
492,122,5858,1,2,0:0:0:0:
347,126,6206,1,2,0:0:0:0:
76,326,6555,6,0,P|42:292|141:194,1,216,2|0,0:0|0:0,0:0:0:0:
340,226,7602,2,0,P|317:172|167:139,1,216,2|0,0:0|0:0,0:0:0:0:
392,58,8648,1,2,0:0:0:0:
234,59,8997,1,2,0:0:0:0:
496,303,9346,6,0,P|496:246|366:160,1,216,2|0,0:0|0:0,0:0:0:0:
169,155,10392,2,0,P|406:133|406:133,1,216,2|0,0:0|0:0,0:0:0:0:
159,73,11439,1,2,0:0:0:0:
445,80,11788,1,2,0:0:0:0:
22,316,12137,5,8,3:0:0:0:
32,272,12224,1,0,0:0:0:0:
65,241,12311,1,0,0:0:0:0:
108,230,12398,1,0,0:0:0:0:
168,195,12485,1,0,0:0:0:0:
186,181,12529,1,0,0:0:0:0:
194,159,12573,1,0,0:0:0:0:
187,137,12616,1,0,0:0:0:0:
155,123,12660,1,0,0:0:0:0:
100,117,12747,1,0,0:0:0:0:
266,292,12834,6,0,P|319:291|321:171,1,180,4|0,0:0|0:0,0:0:0:0:
295,180,13270,1,0,0:0:0:0:
208,126,13358,1,0,0:0:0:0:
229,121,13401,1,0,0:0:0:0:
251,116,13445,1,0,0:0:0:0:
272,112,13488,1,0,0:0:0:0:
294,108,13532,1,0,0:0:0:0:
138,212,13706,6,0,B|26:206,2,90,0|8|0,0:0|3:0|0:0,0:0:0:0:
182,218,14142,1,0,0:0:0:0:
344,217,14230,2,0,B|446:222|446:222|445:222,1,90,4|0,0:0|0:0,0:0:0:0:
389,218,14491,1,0,0:0:0:0:
229,127,14579,1,0,0:0:0:0:
171,116,14666,1,0,0:0:0:0:
113,103,14753,2,0,L|77:100,2,22.5,0|0|0,0:0|0:0|0:0,0:0:0:0:
347,297,14927,5,8,3:0:0:0:
391,290,15015,1,0,0:0:0:0:
343,244,15102,1,0,0:0:0:0:
320,241,15145,1,0,0:0:0:0:
297,238,15189,1,0,0:0:0:0:
274,234,15233,1,0,0:0:0:0:
252,230,15276,1,0,0:0:0:0:
416,145,15451,2,0,L|361:138,1,45,0|0,0:0|0:0,0:0:0:0:
202,173,15625,6,0,P|144:160|193:84,1,180,0|0,0:0|0:0,0:0:0:0:
236,84,16061,1,0,0:0:0:0:
324,283,16148,1,0,0:0:0:0:
301,280,16192,1,0,0:0:0:0:
278,277,16235,1,0,0:0:0:0:
255,273,16279,1,0,0:0:0:0:
232,270,16323,1,0,0:0:0:0:
391,176,16497,6,0,P|486:182|486:182,2,90,0|8|0,0:0|3:0|0:0,0:0:0:0:
345,173,16933,1,0,0:0:0:0:
188,167,17020,2,0,P|83:156|83:156,1,90,4|8,0:0|3:0,0:0:0:0:
143,157,17282,1,0,0:0:0:0:
306,305,17369,1,0,0:0:0:0:
323,290,17413,1,0,0:0:0:0:
326,268,17456,1,0,0:0:0:0:
313,249,17500,1,0,0:0:0:0:
291,240,17544,1,0,0:0:0:0:
233,236,17631,1,0,0:0:0:0:
410,189,17718,5,8,3:0:0:0:
457,161,17805,1,0,0:0:0:0:
455,113,17892,1,0,0:0:0:0:
411,86,17980,1,0,0:0:0:0:
355,323,18067,1,0,0:0:0:0:
376,318,18110,1,0,0:0:0:0:
398,313,18154,1,0,0:0:0:0:
420,308,18198,1,0,0:0:0:0:
441,303,18241,1,0,0:0:0:0:
485,295,18329,1,0,0:0:0:0:
296,242,18416,6,0,P|229:232|274:158,1,180,4|0,0:0|0:0,0:0:0:0:
315,157,18852,1,0,0:0:0:0:
230,79,18939,1,0,0:0:0:0:
208,81,18983,1,0,0:0:0:0:
186,83,19026,1,0,0:0:0:0:
164,86,19070,1,0,0:0:0:0:
142,88,19113,1,0,0:0:0:0:
309,271,19288,6,0,P|419:275|419:275,2,90,0|8|0,0:0|3:0|0:0,0:0:0:0:
263,266,19724,1,0,0:0:0:0:
96,140,19811,2,0,P|192:144|192:144,1,90,4|0,0:0|0:0,0:0:0:0:
235,146,20073,1,0,0:0:0:0:
399,195,20160,1,0,0:0:0:0:
449,183,20247,1,0,0:0:0:0:
478,129,20334,1,0,0:0:0:0:
471,107,20378,1,0,0:0:0:0:
459,87,20422,1,0,0:0:0:0:
271,289,20509,5,8,3:0:0:0:
226,282,20596,1,0,0:0:0:0:
298,234,20683,1,0,0:0:0:0:
320,231,20727,1,0,0:0:0:0:
342,228,20770,1,0,0:0:0:0:
364,225,20814,1,0,0:0:0:0:
386,222,20858,1,0,0:0:0:0:
213,128,21032,2,0,L|159:126,1,45,0|0,0:0|0:0,0:0:0:0:
350,134,21206,6,0,P|397:116|325:50,1,180,4|8,0:0|3:0,0:0:0:0:
295,41,21642,1,0,0:0:0:0:
377,288,21730,1,0,0:0:0:0:
398,283,21773,1,0,0:0:0:0:
420,279,21817,1,0,0:0:0:0:
441,274,21860,1,0,0:0:0:0:
463,268,21904,1,0,0:0:0:0:
303,178,22079,6,0,L|494:167,1,180,0|8,0:0|3:0,0:0:0:0:
229,317,22602,2,0,L|130:310,1,90,4|0,0:0|0:0,0:0:0:0:
188,313,22863,1,0,0:0:0:0:
368,224,22951,1,0,0:0:0:0:
392,221,22994,1,0,0:0:0:0:
416,217,23038,1,0,0:0:0:0:
440,214,23081,1,0,0:0:0:0:
464,211,23125,1,0,0:0:0:0:
419,150,23212,1,0,0:0:0:0:
203,191,23299,6,0,L|86:187,2,90,2|0|0,0:0|0:0|0:0,0:0:0:0:
371,102,23823,2,0,P|163:93|163:93,1,180,2|0,0:0|0:0,0:0:0:0:
354,250,24346,6,0,L|262:246,2,90,2|0|0,0:0|0:0|0:0,0:0:0:0:
191,125,24869,2,0,P|390:132|390:132,1,180,2|0,0:0|0:0,0:0:0:0:
209,297,25392,6,0,L|195:195,1,90,2|0,0:0|0:0,0:0:0:0:
361,207,25741,2,0,L|367:111,1,90,2|0,0:0|0:0,0:0:0:0:
125,165,26090,5,2,0:0:0:0:
18,167,26265,2,0,P|27:75|27:75,1,90,0|0,0:0|0:0,0:0:0:0:
190,321,26613,2,0,P|237:311|175:236,1,180,2|0,0:0|0:0,0:0:0:0:
361,175,27137,5,2,0:0:0:0:
470,179,27311,2,0,P|467:85|467:85,1,90,0|0,0:0|0:0,0:0:0:0:
308,328,27660,2,0,P|295:274|394:236,1,180,2|0,0:0|0:0,0:0:0:0:
233,59,28183,2,0,P|248:159|248:159,1,90,2|0,0:0|0:0,0:0:0:0:
417,105,28532,2,0,L|435:210,1,90,2|0,0:0|0:0,0:0:0:0:
199,290,28881,5,2,0:0:0:0:
109,286,29055,1,0,0:0:0:0:
18,281,29230,1,0,0:0:0:0:
176,212,29404,2,0,P|171:156|56:108,1,180,2|0,0:0|0:0,0:0:0:0:
236,304,29927,5,2,0:0:0:0:
344,223,30102,1,0,0:0:0:0:
182,164,30276,1,0,0:0:0:0:
346,145,30451,6,0,P|411:106|325:61,1,180,0|0,0:0|0:0,0:0:0:0:
195,301,30974,2,0,L|209:204,1,90,0|0,0:0|0:0,0:0:0:0:
374,212,31323,2,0,P|362:118|362:118,1,90,0|0,0:0|0:0,0:0:0:0:
129,96,31672,5,2,0:0:0:0:
238,199,31846,1,0,0:0:0:0:
94,231,32020,1,0,0:0:0:0:
258,305,32195,2,0,P|470:288|470:288,1,180,2|0,0:0|0:0,0:0:0:0:
200,61,32718,5,2,0:0:0:0:
326,175,32892,1,0,0:0:0:0:
163,221,33067,1,0,0:0:0:0:
316,317,33241,2,0,P|508:301|508:301,1,180,2|0,0:0|0:0,0:0:0:0:
339,231,33765,6,0,P|443:222|443:222,1,90,2|0,0:0|0:0,0:0:0:0:
258,133,34113,2,0,P|375:125|375:125,1,90,2|0,0:0|0:0,0:0:0:0:
111,303,34462,6,0,L|110:196|110:196,1,90,8|0,0:0|0:0,0:0:0:0:
274,218,34811,1,8,0:0:0:0:
114,157,34985,2,0,P|65:140|144:84,1,180,0|0,0:0|0:0,0:0:0:0:
366,138,35509,6,0,P|262:131|262:131,1,90,8|0,0:0|0:0,0:0:0:0:
440,39,35858,1,8,0:0:0:0:
276,297,36032,2,0,P|230:274|293:203,1,180,0|0,0:0|0:0,0:0:0:0:
455,125,36555,6,0,P|347:115|347:115,1,90,8|0,0:0|0:0,0:0:0:0:
203,104,36904,2,0,P|87:94|87:94,1,90,8|0,0:0|0:0,0:0:0:0:
349,279,37253,6,0,P|449:286|449:286,2,90,8|0|8,0:0|0:0|0:0,0:0:0:0:
184,228,37776,2,0,P|191:169|320:137,1,180,0|0,0:0|0:0,0:0:0:0:
129,310,38299,6,0,P|36:302|36:302,2,90,8|0|8,0:0|0:0|0:0,0:0:0:0:
292,260,38823,2,0,P|277:208|158:172,1,180,0|0,0:0|0:0,0:0:0:0:
331,100,39346,2,0,P|442:110|442:110,1,90,8|0,0:0|0:0,0:0:0:0:
258,188,39695,2,0,P|150:177|150:177,1,90,8|0,0:0|0:0,0:0:0:0:
404,326,40044,6,0,L|400:231,1,90,8|0,0:0|0:0,0:0:0:0:
241,251,40392,2,0,L|353:239,1,90,8|0,0:0|0:0,0:0:0:0:
167,195,40741,2,0,P|164:97|164:97,1,90,8|0,0:0|0:0,0:0:0:0:
324,68,41090,2,0,B|221:58|221:58|223:58,1,90,8|0,0:0|0:0,0:0:0:0:
398,312,41439,6,0,L|507:318,1,90,8|0,0:0|0:0,0:0:0:0:
306,218,41788,1,8,0:0:0:0:
467,171,41962,5,0,0:0:0:0:
485,119,42049,1,0,0:0:0:0:
459,77,42137,1,8,0:0:0:0:
370,64,42311,1,0,0:0:0:0:
206,298,42485,1,8,0:0:0:0:
298,282,42660,1,0,0:0:0:0:
136,53,42834,5,8,0:0:0:0:
45,113,43009,1,0,0:0:0:0:
137,164,43183,1,8,0:0:0:0:
320,303,43358,1,0,0:0:0:0:
364,283,43445,1,0,0:0:0:0:
390,235,43532,1,0,0:0:0:0:
378,182,43619,1,0,0:0:0:0:
331,154,43706,1,8,0:0:0:0:
84,275,43881,1,8,0:0:0:0:
83,179,44055,2,0,L|137:178,1,45,0|0,0:0|0:0,0:0:0:0:
357,181,44230,6,0,L|412:182,2,45,8|0|0,0:0|0:0|0:0,0:0:0:0:
265,84,44491,2,0,P|209:83|209:83,2,45,8|0|0,0:0|0:0|0:0,0:0:0:0:
416,49,44753,2,0,P|470:50|470:50,2,45,8|0|0,0:0|0:0|0:0,0:0:0:0:
232,255,45015,6,0,B|170:254|170:254|171:253,2,45,8|0|0,0:0|0:0|0:0,0:0:0:0:
409,177,45276,2,0,L|451:147,1,45,8|0,0:0|0:0,0:0:0:0:
273,70,45451,2,0,L|222:104,1,45,0|0,0:0|0:0,0:0:0:0:
465,351,45625,6,0,B|488:295|488:295|271:292,1,269.999991760254
382,205,46672,1,8,0:0:0:0:
211,201,46846,1,0,0:0:0:0:
476,183,47020,6,0,P|486:132|391:44,1,180,6|0,0:0|0:0,0:0:0:0:
151,324,47544,2,0,P|101:307|208:210,1,270,6|0,0:0|0:0,0:0:0:0:
423,72,48241,6,0,L|131:62,1,270,6|0,0:0|0:0,0:0:0:0:
319,180,48939,1,2,0:0:0:0:
69,273,49113,2,0,L|59:227,4,45,8|0|0|0|0,0:0|0:0|0:0|0:0|0:0,0:0:0:0:
323,285,49637,6,0,P|374:260|297:196,1,180,6|0,0:0|0:0,0:0:0:0:
404,107,50160,1,0,0:0:0:0:
168,55,50334,2,0,P|118:95|190:168,1,180,6|0,0:0|0:0,0:0:0:0:
413,194,50858,2,0,L|423:289,1,90,12|0,0:0|0:0,0:0:0:0:
177,270,51206,6,0,P|121:253|228:148,1,270,6|0,0:0|0:0,0:0:0:0:
239,128,51817,1,0,0:0:0:0:
290,143,51904,1,0,0:0:0:0:
321,186,51991,1,0,0:0:0:0:
327,240,52079,1,0,0:0:0:0:
316,264,52122,1,0,0:0:0:0:
294,280,52166,1,0,0:0:0:0:
268,286,52209,1,0,0:0:0:0:
241,282,52253,1,0,0:0:0:0:
189,265,52340,1,0,0:0:0:0:
366,194,52427,6,0,P|429:191|344:100,1,270,6|0,0:0|0:0,0:0:0:0:
116,210,53125,2,0,P|62:192|123:131,1,180,6|0,0:0|0:0,0:0:0:0:
363,112,53648,2,0,P|368:211|368:211,1,90,12|0,0:0|0:0,0:0:0:0:
126,313,53997,6,0,P|80:294|149:223,1,180,6|0,0:0|0:0,0:0:0:0:
291,219,54520,1,0,0:0:0:0:
317,211,54564,1,0,0:0:0:0:
331,187,54608,1,0,0:0:0:0:
332,160,54651,1,0,0:0:0:0:
311,141,54695,2,0,L|121:132,1,180,0|0,0:0|0:0,0:0:0:0:
104,125,55087,1,0,0:0:0:0:
132,86,55131,1,0,0:0:0:0:
335,309,55218,6,0,B|126:297|127:297,1,180,6|0,0:0|0:0,0:0:0:0:
254,225,55741,1,0,0:0:0:0:
21,124,55916,2,0,P|232:123|232:123,1,180,6|0,0:0|0:0,0:0:0:0:
435,58,56439,2,0,P|329:52|329:52,1,90,12|0,0:0|0:0,0:0:0:0:
107,320,56788,6,0,P|103:174|103:174,1,135,2|0,0:0|0:0,0:0:0:0:
248,88,57311,2,0,L|88:71,1,135,2|0,0:0|0:0,0:0:0:0:
358,269,57834,1,8,0:0:0:0:
114,247,58009,6,0,P|44:230|137:130,1,270,6|0,0:0|0:0,0:0:0:0:
364,252,58706,2,0,P|421:225|306:134,1,270,6|0,0:0|0:0,0:0:0:0:
86,63,59404,2,0,L|359:61,1,270,6|0,0:0|0:0,0:0:0:0:
190,185,60102,1,2,0:0:0:0:
425,297,60276,6,0,L|434:239,4,45,12|0|0|0|0,0:0|0:0|0:0|0:0|0:0,0:0:0:0:
187,243,60799,2,0,P|199:180|324:144,1,180,6|0,0:0|0:0,0:0:0:0:
203,58,61323,1,0,0:0:0:0:
445,304,61497,6,0,P|482:263|396:197,1,180,6|0,0:0|0:0,0:0:0:0:
170,200,62020,2,0,P|64:191|64:191,1,90,12|0,0:0|0:0,0:0:0:0:
316,291,62369,6,0,L|313:181|313:181,1,90,8|0,0:0|0:0,0:0:0:0:
149,186,62718,2,0,L|143:83,1,90,8|0,0:0|0:0,0:0:0:0:
308,54,63067,2,0,L|211:47,2,90,8|0|8,0:0|0:0|0:0,0:0:0:0:
68,302,63590,6,0,L|74:211,1,90,0|8,0:0|0:0,0:0:0:0:
182,208,63939,1,0,0:0:0:0:
22,114,64113,1,8,0:0:0:0:
186,99,64288,2,0,L|301:106,2,90,0|8|0,0:0|0:0|0:0,0:0:0:0:
425,309,64811,6,0,L|431:205,1,90,8|0,0:0|0:0,0:0:0:0:
187,282,65160,5,8,0:0:0:0:
150,188,65334,1,0,0:0:0:0:
322,180,65509,1,8,0:0:0:0:
358,84,65683,1,0,0:0:0:0:
116,78,65858,2,0,L|55:76,1,45,8|0,0:0|0:0,0:0:0:0:
116,78,66032,2,0,L|165:81,1,45,0|0,0:0|0:0,0:0:0:0:
353,259,66206,2,0,L|394:234,1,45,8|0,0:0|0:0,0:0:0:0:
187,282,66381,6,0,P|106:262|167:207,1,180,0|0,0:0|0:0,0:0:0:0:
312,121,66904,1,0,0:0:0:0:
148,90,67079,1,4,0:0:0:0:
382,302,67253,6,0,L|372:247,1,45,2|0,0:0|0:0,0:0:0:0:
331,232,67427,2,0,P|270:220|270:220,1,45
130,128,67602,2,0,P|187:129|187:129,1,45,2|0,0:0|0:0,0:0:0:0:
368,67,67776,2,0,L|433:69,1,45,0|0,0:0|0:0,0:0:0:0:
148,297,67951,6,0,P|77:265|171:158,1,270.000010299683,6|8,0:0|0:0,0:0:0:0:
336,274,68474,1,0,0:0:0:0:
382,258,68561,1,0,0:0:0:0:
403,216,68648,1,0,0:0:0:0:
385,169,68735,1,0,0:0:0:0:
339,148,68823,1,2,0:0:0:0:
242,143,68997,1,8,0:0:0:0:
480,311,69172,6,0,P|490:253|410:148,1,180,0|2,0:0|0:0,0:0:0:0:
262,305,69695,1,8,0:0:0:0:
261,254,69782,1,0,0:0:0:0:
317,226,69869,1,0,0:0:0:0:
151,192,70044,1,0,0:0:0:0:
106,160,70131,1,0,0:0:0:0:
107,110,70218,1,2,0:0:0:0:
152,89,70305,1,0,0:0:0:0:
201,86,70392,2,0,L|310:80,1,90,8|0,0:0|0:0,0:0:0:0:
51,306,70741,6,0,P|30:251|122:182,1,180,2|8,0:0|0:0,0:0:0:0:
274,193,71265,5,0,0:0:0:0:
322,185,71352,1,0,0:0:0:0:
357,150,71439,1,0,0:0:0:0:
365,101,71526,1,0,0:0:0:0:
337,60,71613,1,2,0:0:0:0:
234,54,71788,1,8,0:0:0:0:
468,292,71962,2,0,L|495:243,1,45
313,287,72137,6,0,P|238:271|244:166,1,180,0|8,0:0|0:0,0:0:0:0:
394,110,72660,2,0,L|450:106,1,45,0|0,0:0|0:0,0:0:0:0:
261,187,72834,1,0,0:0:0:0:
214,170,72922,1,0,0:0:0:0:
212,120,73009,1,2,0:0:0:0:
260,95,73096,1,0,0:0:0:0:
309,92,73183,2,0,L|407:87,1,90,8|0,0:0|0:0,0:0:0:0:
353,88,73445,1,8,0:0:0:0:
169,307,73532,6,0,P|104:279|175:220,1,180,6|8,0:0|0:0,0:0:0:0:
321,147,74055,1,0,0:0:0:0:
276,142,74142,1,0,0:0:0:0:
231,135,74230,1,0,0:0:0:0:
186,129,74317,1,0,0:0:0:0:
141,122,74404,1,2,0:0:0:0:
306,47,74579,1,8,0:0:0:0:
70,314,74753,6,0,P|45:268|139:204,1,180,0|2,0:0|0:0,0:0:0:0:
293,210,75276,1,8,0:0:0:0:
328,169,75363,1,0,0:0:0:0:
300,122,75451,1,0,0:0:0:0:
246,112,75538,1,0,0:0:0:0:
390,309,75625,1,0,0:0:0:0:
438,285,75712,1,0,0:0:0:0:
438,231,75799,1,2,0:0:0:0:
392,200,75887,1,0,0:0:0:0:
343,204,75974,2,0,L|449:192,1,90,8|0,0:0|0:0,0:0:0:0:
192,286,76323,6,0,P|110:263|99:172,1,180,2|8,0:0|0:0,0:0:0:0:
259,247,76846,1,0,0:0:0:0:
262,160,77020,1,0,0:0:0:0:
135,158,77195,1,2,0:0:0:0:
279,79,77369,1,8,0:0:0:0:
107,10,77544,1,0,0:0:0:0:
343,299,77718,6,0,L|329:198,1,90,4|2,0:0|0:0,0:0:0:0:
163,187,78067,1,12,0:0:0:0:
397,140,78241,2,0,L|386:240,1,90,0|4,0:0|0:0,0:0:0:0:
223,279,78590,1,2,0:0:0:0:
386,291,78765,1,8,0:0:0:0:
137,143,78939,2,0,L|83:137,1,45,0|8,0:0|0:0,0:0:0:0:
290,295,79113,6,0,P|334:275|261:212,1,180,6|8,0:0|0:0,0:0:0:0:
107,119,79637,1,0,0:0:0:0:
151,117,79724,1,0,0:0:0:0:
195,114,79811,1,0,0:0:0:0:
239,111,79898,1,0,0:0:0:0:
283,107,79985,1,2,0:0:0:0:
192,225,80160,1,8,0:0:0:0:
427,287,80334,6,0,P|466:257|391:177,1,180,0|2,0:0|0:0,0:0:0:0:
231,197,80858,1,8,0:0:0:0:
219,149,80945,1,0,0:0:0:0:
260,115,81032,1,0,0:0:0:0:
96,291,81206,1,0,0:0:0:0:
47,265,81294,1,0,0:0:0:0:
49,211,81381,1,2,0:0:0:0:
99,192,81468,1,0,0:0:0:0:
152,188,81555,2,0,B|56:167|57:167,1,90,8|0,0:0|0:0,0:0:0:0:
301,303,81904,6,0,P|351:288|280:218,1,180,2|8,0:0|0:0,0:0:0:0:
140,187,82427,1,0,0:0:0:0:
115,138,82515,1,0,0:0:0:0:
139,90,82602,1,0,0:0:0:0:
186,79,82689,1,0,0:0:0:0:
243,89,82776,1,2,0:0:0:0:
348,113,82951,1,8,0:0:0:0:
111,279,83125,2,0,L|76:230,1,45,0|0,0:0|0:0,0:0:0:0:
265,231,83299,6,0,P|331:229|298:139,1,180,0|8,0:0|0:0,0:0:0:0:
147,114,83823,2,0,L|93:112,1,45
264,302,83997,1,0,0:0:0:0:
311,277,84084,1,0,0:0:0:0:
304,222,84172,1,2,0:0:0:0:
253,203,84259,1,0,0:0:0:0:
199,195,84346,2,0,L|102:188,1,90,8|0,0:0|0:0,0:0:0:0:
154,187,84608,1,8,0:0:0:0:
333,153,84695,6,0,P|390:139|321:83,1,180,6|8,0:0|0:0,0:0:0:0:
172,282,85218,1,0,0:0:0:0:
216,279,85305,1,0,0:0:0:0:
260,274,85392,1,0,0:0:0:0:
305,270,85480,1,0,0:0:0:0:
349,265,85567,1,2,0:0:0:0:
256,165,85741,1,8,0:0:0:0:
419,141,85916,2,0,L|458:98,1,45,0|0,0:0|0:0,0:0:0:0:
277,331,86090,6,0,P|219:302|279:231,1,180,0|8,0:0|0:0,0:0:0:0:
434,199,86613,1,0,0:0:0:0:
442,149,86701,1,0,0:0:0:0:
415,107,86788,1,0,0:0:0:0:
368,90,86875,1,0,0:0:0:0:
318,90,86962,1,2,0:0:0:0:
472,321,87137,2,0,L|481:222,1,90,8|0,0:0|0:0,0:0:0:0:
242,265,87485,6,0,P|175:235|210:142,1,180,6|8,0:0|0:0,0:0:0:0:
363,56,88009,1,0,0:0:0:0:
318,56,88096,1,0,0:0:0:0:
273,55,88183,1,2,0:0:0:0:
228,53,88270,1,0,0:0:0:0:
182,51,88358,1,0,0:0:0:0:
318,207,88532,1,8,0:0:0:0:
150,192,88706,1,2,0:0:0:0:
388,318,88881,6,0,L|380:217,1,90,12|2,0:0|0:0,0:0:0:0:
139,262,89230,2,0,L|150:156,1,90,8|2,0:0|0:0,0:0:0:0:
382,138,89579,6,0,L|435:138,1,45,8|0,2:0|2:0,0:0:0:0:
432,87,89753,2,0,P|379:88|379:88,1,45,0|0,2:0|2:0,0:0:0:0:
216,180,89927,2,0,P|167:143|167:143,1,45,0|0,2:0|2:0,0:0:0:0:
361,230,90102,2,0,L|406:255,1,45,0|0,2:0|2:0,0:0:0:0:
202,290,90276,5,6,0:0:0:0:
58,226,90451,1,0,0:0:0:0:
204,157,90625,1,8,0:0:0:0:
439,63,90799,1,0,0:0:0:0:
460,103,90887,1,0,0:0:0:0:
446,145,90974,1,0,0:0:0:0:
402,154,91061,1,0,0:0:0:0:
323,139,91148,1,2,0:0:0:0:
86,256,91323,5,8,0:0:0:0:
231,200,91497,1,0,0:0:0:0:
85,128,91672,1,0,0:0:0:0:
326,321,91846,2,0,P|333:226|333:226,1,90,2|8,0:0|0:0,0:0:0:0:
224,224,92195,1,0,0:0:0:0:
390,163,92369,6,0,B|301:149,1,90,0|2,0:0|0:0,0:0:0:0:
61,85,92718,2,0,L|161:77,1,90,8|0,0:0|0:0,0:0:0:0:
386,306,93067,5,2,0:0:0:0:
483,293,93241,1,0,0:0:0:0:
465,187,93416,1,8,0:0:0:0:
226,224,93590,1,0,0:0:0:0:
180,204,93677,1,0,0:0:0:0:
161,157,93765,1,0,0:0:0:0:
176,110,93852,1,0,0:0:0:0:
254,86,93939,1,2,0:0:0:0:
20,307,94113,5,8,0:0:0:0:
166,299,94288,1,0,0:0:0:0:
308,292,94462,1,0,0:0:0:0:
73,231,94637,2,0,L|81:132,1,90,2|8,0:0|0:0,0:0:0:0:
187,142,94985,1,0,0:0:0:0:
349,127,95160,6,0,L|248:122,1,90,0|2,0:0|0:0,0:0:0:0:
426,229,95509,2,0,L|413:330,1,90,8|0,0:0|0:0,0:0:0:0:
369,316,95770,1,8,0:0:0:0:
164,269,95858,5,2,0:0:0:0:
38,200,96032,1,0,0:0:0:0:
166,122,96206,1,8,0:0:0:0:
400,192,96381,1,0,0:0:0:0:
357,181,96468,1,0,0:0:0:0:
330,146,96555,1,0,0:0:0:0:
345,102,96642,1,0,0:0:0:0:
390,92,96730,1,2,0:0:0:0:
150,272,96904,5,8,0:0:0:0:
296,217,97079,1,0,0:0:0:0:
146,140,97253,1,0,0:0:0:0:
383,286,97427,1,2,0:0:0:0:
400,243,97515,1,0,0:0:0:0:
385,200,97602,1,8,0:0:0:0:
344,180,97689,1,0,0:0:0:0:
299,178,97776,1,0,0:0:0:0:
467,92,97951,6,0,L|359:85,1,90,0|2,0:0|0:0,0:0:0:0:
268,243,98299,2,0,L|369:252,1,90,8|0,0:0|0:0,0:0:0:0:
96,210,98648,1,2,0:0:0:0:
26,142,98823,1,0,0:0:0:0:
102,80,98997,1,8,0:0:0:0:
341,216,99172,1,0,0:0:0:0:
387,188,99259,1,0,0:0:0:0:
385,134,99346,1,0,0:0:0:0:
340,103,99433,1,0,0:0:0:0:
254,96,99520,1,2,0:0:0:0:
490,324,99695,5,8,0:0:0:0:
346,313,99869,1,0,0:0:0:0:
202,298,100044,1,0,0:0:0:0:
436,223,100218,2,0,L|442:128,1,90,2|8,0:0|0:0,0:0:0:0:
333,131,100567,1,0,0:0:0:0:
179,214,100741,6,0,L|273:206,1,90,0|2,0:0|0:0,0:0:0:0:
102,121,101090,2,0,P|206:112|206:112,1,90,8|0,0:0|0:0,0:0:0:0:
236,110,101352,1,0,0:0:0:0:
441,291,101439,5,6,0:0:0:0:
301,222,101613,1,0,0:0:0:0:
438,156,101788,1,8,0:0:0:0:
202,288,101962,1,0,0:0:0:0:
165,242,102049,1,0,0:0:0:0:
186,189,102137,1,0,0:0:0:0:
240,175,102224,1,0,0:0:0:0:
319,170,102311,1,2,0:0:0:0:
80,78,102485,5,8,0:0:0:0:
224,73,102660,1,0,0:0:0:0:
367,68,102834,1,0,0:0:0:0:
117,333,103009,2,0,L|111:224,1,90,2|8,0:0|0:0,0:0:0:0:
220,243,103358,1,0,0:0:0:0:
64,134,103532,6,0,L|173:122,1,90,0|2,0:0|0:0,0:0:0:0:
391,108,103881,2,0,P|488:101|488:101,1,90,8|0,0:0|0:0,0:0:0:0:
245,277,104230,5,2,0:0:0:0:
137,270,104404,1,0,0:0:0:0:
113,156,104579,1,8,0:0:0:0:
362,209,104753,1,0,0:0:0:0:
397,168,104840,1,0,0:0:0:0:
376,118,104927,1,0,0:0:0:0:
333,105,105015,1,0,0:0:0:0:
249,118,105102,1,2,0:0:0:0:
484,318,105276,5,8,0:0:0:0:
345,270,105451,1,0,0:0:0:0:
476,217,105625,1,0,0:0:0:0:
241,164,105799,2,0,B|346:155,1,90,2|8,0:0|0:0,0:0:0:0:
235,62,106148,1,0,0:0:0:0:
399,326,106323,6,0,L|386:228,1,90,0|2,0:0|0:0,0:0:0:0:
224,219,106672,2,0,L|330:210,1,90,8|0,0:0|0:0,0:0:0:0:
358,208,106933,1,8,0:0:0:0:
154,147,107020,5,2,0:0:0:0:
18,94,107195,1,0,0:0:0:0:
153,49,107369,1,8,0:0:0:0:
390,307,107544,1,0,0:0:0:0:
439,286,107631,1,0,0:0:0:0:
468,240,107718,1,0,0:0:0:0:
450,189,107805,1,0,0:0:0:0:
374,153,107892,1,2,0:0:0:0:
139,120,108067,5,8,0:0:0:0:
282,116,108241,1,0,0:0:0:0:
426,110,108416,1,0,0:0:0:0:
193,289,108590,2,0,L|190:186,1,90,2|8,0:0|0:0,0:0:0:0:
298,200,108939,1,0,0:0:0:0:
147,108,109113,6,0,L|249:102,1,90,0|2,0:0|0:0,0:0:0:0:
420,100,109462,2,0,L|430:190,1,90,8|0,0:0|0:0,0:0:0:0:
185,288,109811,5,2,0:0:0:0:
68,224,109985,1,0,0:0:0:0:
186,171,110160,1,8,0:0:0:0:
420,179,110334,1,0,0:0:0:0:
410,125,110422,1,0,0:0:0:0:
368,99,110509,1,2,0:0:0:0:
315,87,110596,1,0,0:0:0:0:
231,95,110683,1,0,0:0:0:0:
468,335,110858,6,0,L|458:234,1,90,8|2,0:0|0:0,0:0:0:0:
220,239,111206,2,0,L|123:232,1,90,12|0,0:0|0:0,0:0:0:0:
239,171,111468,1,8,0:0:0:0:
239,124,111555,1,0,0:0:0:0:
94,100,111730,1,8,0:0:0:0:
271,79,111904,2,0,L|322:53,1,45,0|8,0:0|0:0,0:0:0:0:
147,266,112079,6,0,P|43:253|43:253,1,90,0|10,0:0|0:0,0:0:0:0:
102,256,112340,1,0,0:0:0:0:
303,190,112427,2,0,P|358:186|358:186,1,45,2|2,0:0|0:0,0:0:0:0:
144,182,112602,6,0,P|82:174|169:81,1,270.000010299683,6|8,0:0|0:0,0:0:0:0:
325,292,113125,1,0,0:0:0:0:
280,286,113212,1,0,0:0:0:0:
235,278,113299,1,0,0:0:0:0:
190,269,113387,1,0,0:0:0:0:
145,260,113474,1,2,0:0:0:0:
308,187,113648,1,8,0:0:0:0:
69,182,113823,6,0,P|72:133|193:83,1,180,0|2,0:0|0:0,0:0:0:0:
267,81,114346,1,8,0:0:0:0:
107,292,114520,1,0,0:0:0:0:
65,256,114608,1,0,0:0:0:0:
78,203,114695,1,0,0:0:0:0:
119,176,114782,1,0,0:0:0:0:
172,165,114869,1,2,0:0:0:0:
269,267,115044,2,0,L|158:257,1,90,8|0,0:0|0:0,0:0:0:0:
417,182,115392,6,0,P|464:159|389:110,1,180,2|8,0:0|0:0,0:0:0:0:
236,287,115916,1,0,0:0:0:0:
251,244,116003,1,0,0:0:0:0:
283,212,116090,1,0,0:0:0:0:
322,191,116177,1,0,0:0:0:0:
374,187,116265,1,2,0:0:0:0:
469,197,116439,1,8,0:0:0:0:
226,303,116613,6,0,P|163:283|226:209,1,180,0|2,0:0|0:0,0:0:0:0:
314,207,117137,1,8,0:0:0:0:
151,175,117311,1,0,0:0:0:0:
101,153,117398,1,0,0:0:0:0:
97,99,117485,1,0,0:0:0:0:
139,64,117573,1,0,0:0:0:0:
192,55,117660,1,2,0:0:0:0:
289,58,117834,1,8,0:0:0:0:
131,272,118009,2,0,L|74:259,1,45,0|8,0:0|0:0,0:0:0:0:
280,271,118183,6,0,P|329:257|262:187,1,180,6|8,0:0|0:0,0:0:0:0:
112,94,118706,1,0,0:0:0:0:
157,93,118794,1,0,0:0:0:0:
201,89,118881,1,0,0:0:0:0:
245,86,118968,1,0,0:0:0:0:
289,85,119055,1,2,0:0:0:0:
189,200,119230,1,8,0:0:0:0:
426,313,119404,6,0,P|471:290|407:208,1,180,0|2,0:0|0:0,0:0:0:0:
309,204,119927,1,8,0:0:0:0:
147,186,120102,1,0,0:0:0:0:
96,167,120189,1,0,0:0:0:0:
69,120,120276,1,0,0:0:0:0:
79,67,120363,1,0,0:0:0:0:
128,43,120451,1,2,0:0:0:0:
217,287,120625,2,0,L|123:281,1,90,8|0,0:0|0:0,0:0:0:0:
368,225,120974,6,0,P|362:169|250:115,1,180,2|8,0:0|0:0,0:0:0:0:
426,316,121497,1,0,0:0:0:0:
469,284,121584,1,0,0:0:0:0:
457,230,121672,1,0,0:0:0:0:
415,195,121759,1,0,0:0:0:0:
362,184,121846,1,2,0:0:0:0:
458,106,122020,1,8,0:0:0:0:
218,294,122195,6,0,P|154:276|122:158,1,180,0|0,0:0|0:0,0:0:0:0:
224,173,122718,1,8,0:0:0:0:
60,163,122892,1,0,0:0:0:0:
28,118,122980,1,0,0:0:0:0:
52,70,123067,1,0,0:0:0:0:
92,53,123154,1,0,0:0:0:0:
145,58,123241,1,2,0:0:0:0:
250,82,123416,1,8,0:0:0:0:
89,263,123590,2,0,L|55:226,1,45,0|8,0:0|0:0,0:0:0:0:
251,259,123765,6,0,P|303:246|321:120,1,180,6|8,0:0|0:0,0:0:0:0:
168,156,124288,1,0,0:0:0:0:
208,154,124375,1,0,0:0:0:0:
248,150,124462,1,0,0:0:0:0:
288,146,124549,1,0,0:0:0:0:
328,142,124637,1,2,0:0:0:0:
435,137,124811,1,8,0:0:0:0:
197,298,124985,6,0,P|146:276|215:203,1,180,0|2,0:0|0:0,0:0:0:0:
307,202,125509,1,8,0:0:0:0:
144,172,125683,1,0,0:0:0:0:
92,156,125770,1,0,0:0:0:0:
62,110,125858,1,0,0:0:0:0:
65,56,125945,1,0,0:0:0:0:
110,27,126032,1,2,0:0:0:0:
213,302,126206,2,0,L|107:291,1,90,8|0,0:0|0:0,0:0:0:0:
363,245,126555,6,0,P|390:202|290:147,1,180,2|8,0:0|0:0,0:0:0:0:
140,200,127079,1,0,0:0:0:0:
151,147,127166,1,0,0:0:0:0:
178,117,127253,1,0,0:0:0:0:
221,101,127340,1,0,0:0:0:0:
274,105,127427,1,2,0:0:0:0:
386,126,127602,1,8,0:0:0:0:
145,314,127776,6,0,P|106:278|192:223,1,180,0|2,0:0|0:0,0:0:0:0:
289,222,128299,1,8,0:0:0:0:
452,104,128474,1,0,0:0:0:0:
407,100,128561,1,0,0:0:0:0:
362,97,128648,1,0,0:0:0:0:
317,93,128735,1,0,0:0:0:0:
271,89,128823,1,2,0:0:0:0:
367,223,128997,1,8,0:0:0:0:
209,214,129172,2,0,L|150:187,1,45,0|8,0:0|0:0,0:0:0:0:
356,310,129346,6,0,P|405:300|343:226,1,180,6|8,0:0|0:0,0:0:0:0:
195,171,129869,1,0,0:0:0:0:
147,146,129956,1,0,0:0:0:0:
156,92,130044,1,0,0:0:0:0:
193,77,130131,1,0,0:0:0:0:
246,78,130218,1,2,0:0:0:0:
148,260,130392,1,8,0:0:0:0:
390,265,130567,6,0,P|387:202|278:165,1,180,0|2,0:0|0:0,0:0:0:0:
181,160,131090,1,8,0:0:0:0:
344,306,131265,1,0,0:0:0:0:
299,300,131352,1,0,0:0:0:0:
254,292,131439,1,0,0:0:0:0:
209,284,131526,1,0,0:0:0:0:
164,275,131613,1,2,0:0:0:0:
261,175,131788,2,0,L|368:186,1,90,8|0,0:0|0:0,0:0:0:0:
116,187,132137,6,0,P|52:165|125:110,1,180,2|8,0:0|0:0,0:0:0:0:
270,302,132660,1,0,0:0:0:0:
313,291,132747,1,0,0:0:0:0:
335,252,132834,1,0,0:0:0:0:
322,208,132922,1,0,0:0:0:0:
274,182,133009,1,2,0:0:0:0:
163,176,133183,1,8,0:0:0:0:
408,56,133358,6,0,P|457:73|397:156,1,180,0|2,0:0|0:0,0:0:0:0:
303,156,133881,1,8,0:0:0:0:
139,253,134055,1,0,0:0:0:0:
183,256,134142,1,0,0:0:0:0:
228,258,134230,1,0,0:0:0:0:
272,259,134317,1,0,0:0:0:0:
316,261,134404,1,2,0:0:0:0:
221,147,134579,1,8,0:0:0:0:
377,151,134753,2,0,P|440:149|440:149,1,45,0|8,0:0|0:0,0:0:0:0:
129,144,134927,6,0,L|119:249,1,90,4|0,0:0|0:0,0:0:0:0:
247,243,135276,1,0,0:0:0:0:
126,246,135451,2,0,L|314:232,1,180,2|0,0:0|0:0,0:0:0:0:
163,202,135974,2,0,L|56:208,2,90,2|0|0,0:0|0:0|0:0,0:0:0:0:
311,201,136497,2,0,P|352:163|295:61,1,180,2|0,0:0|0:0,0:0:0:0:
146,69,137020,2,0,L|142:167,1,90,2|0,0:0|0:0,0:0:0:0:
297,162,137369,2,0,L|398:186,1,90,2|0,0:0|0:0,0:0:0:0:
134,290,137718,5,2,0:0:0:0:
14,292,137892,2,0,L|15:165,1,90,0|0,0:0|0:0,0:0:0:0:
172,199,138241,2,0,L|366:196,1,180,2|0,0:0|0:0,0:0:0:0:
202,153,138765,2,0,L|203:262,1,90,2|0,0:0|0:0,0:0:0:0:
304,259,139113,1,0,0:0:0:0:
469,244,139288,2,0,L|278:237,1,180,2|0,0:0|0:0,0:0:0:0:
405,188,139811,2,0,L|409:98,1,90,2|0,0:0|0:0,0:0:0:0:
252,90,140160,2,0,L|385:89,1,90,2|0,0:0|0:0,0:0:0:0:
92,111,140509,6,0,L|-8:106,2,90,2|0|0,0:0|0:0|0:0,0:0:0:0:
247,176,141032,2,0,L|65:177,1,180,2|0,0:0|0:0,0:0:0:0:
369,269,141555,1,2,0:0:0:0:
233,245,141730,1,0,0:0:0:0:
373,210,141904,1,0,0:0:0:0:
253,227,142079,2,0,P|198:184|260:110,1,180,2|0,0:0|0:0,0:0:0:0:
409,110,142602,2,0,L|413:220,1,90,2|0,0:0|0:0,0:0:0:0:
268,219,142951,2,0,L|232:317,1,90,2|0,0:0|0:0,0:0:0:0:
483,306,143299,5,2,0:0:0:0:
381,307,143474,1,0,0:0:0:0:
279,307,143648,1,0,0:0:0:0:
415,243,143823,2,0,L|216:231,1,180,2|0,0:0|0:0,0:0:0:0:
487,149,144346,1,2,0:0:0:0:
349,137,144520,1,0,0:0:0:0:
477,117,144695,1,0,0:0:0:0:
363,114,144869,2,0,L|153:108,1,180,2|0,0:0|0:0,0:0:0:0:
292,188,145392,2,0,L|304:292,1,90,2|0,0:0|0:0,0:0:0:0:
184,292,145741,2,0,L|79:290,1,90,2|0,0:0|0:0,0:0:0:0:
71,289,145959,1,0,0:0:0:0:
48,287,146003,1,0,0:0:0:0:
267,241,146090,5,2,0:0:0:0:
390,259,146265,2,0,L|394:159,1,90,0|0,0:0|0:0,0:0:0:0:
231,144,146613,2,0,L|23:139,1,180,2|0,0:0|0:0,0:0:0:0:
231,227,147137,1,2,0:0:0:0:
325,241,147311,1,0,0:0:0:0:
418,256,147485,1,0,0:0:0:0:
256,292,147660,2,0,P|219:257|252:128,1,180,2|0,0:0|0:0,0:0:0:0:
396,156,148183,2,0,L|500:166,1,90,2|0,0:0|0:0,0:0:0:0:
324,115,148532,2,0,L|231:108,1,90,2|0,0:0|0:0,0:0:0:0:
475,174,148881,6,0,L|481:296,1,90,2|0,0:0|0:0,0:0:0:0:
365,273,149230,1,0,0:0:0:0:
206,280,149404,2,0,P|165:246|228:136,1,180,2|0,0:0|0:0,0:0:0:0:
364,149,149927,1,2,0:0:0:0:
265,157,150102,1,0,0:0:0:0:
166,172,150276,1,0,0:0:0:0:
326,263,150451,2,0,P|358:222|308:97,1,180,2|0,0:0|0:0,0:0:0:0:
164,108,150974,2,0,L|175:212,1,90,2|0,0:0|0:0,0:0:0:0:
305,220,151323,2,0,L|429:227,1,90,2|0,0:0|0:0,0:0:0:0:
138,265,151672,6,0,L|29:270,2,90,2|0|0,0:0|0:0|0:0,0:0:0:0:
306,263,152195,2,0,L|117:258,1,180,2|0,0:0|0:0,0:0:0:0:
289,168,152718,2,0,L|179:160,2,90,2|0|0,0:0|0:0|0:0,0:0:0:0:
122,220,153241,2,0,P|76:179|142:66,1,180,2|0,0:0|0:0,0:0:0:0:
264,82,153765,2,0,L|377:97,1,90,2|0,0:0|0:0,0:0:0:0:
215,169,154113,2,0,L|119:161,1,90,2|0,0:0|0:0,0:0:0:0:
370,200,154462,5,2,0:0:0:0:
250,261,154637,2,0,L|242:167,1,90,0|0,0:0|0:0,0:0:0:0:
385,134,154985,2,0,L|184:114,1,180,2|0,0:0|0:0,0:0:0:0:
479,89,155509,1,2,0:0:0:0:
337,164,155683,1,0,0:0:0:0:
479,68,155858,1,0,0:0:0:0:
353,137,156032,2,0,L|133:136,1,180,2|0,0:0|0:0,0:0:0:0:
338,277,156555,5,2,0:0:0:0:
368,248,156642,1,0,0:0:0:0:
368,204,156729,1,0,0:0:0:0:
336,176,156816,1,0,0:0:0:0:
288,164,156904,1,2,0:0:0:0:
236,144,156991,1,0,0:0:0:0:
225,102,157078,1,0,0:0:0:0:
260,62,157165,1,0,0:0:0:0:
438,65,157253,5,4,0:1:0:0:
160,312,168416,6,0,L|463:301,1,288,8|8,0:0|0:0,0:0:0:0:
330,264,169288,2,0,L|324:163,1,72,0|0,0:0|0:0,0:0:0:0:
416,180,169637,1,0,0:0:0:0:
237,189,169811,2,0,L|19:183,1,216,8|8,0:0|0:0,0:0:0:0:
130,137,170509,2,0,L|309:8,1,216,8|0,0:0|0:0,0:0:0:0:
125,150,171206,6,0,L|128:395,1,216,8|0,0:0|0:0,0:0:0:0:
254,361,171904,2,0,P|284:329|238:236,1,144,8|0,0:0|0:0,0:0:0:0:
157,230,172427,1,0,0:0:0:0:
338,227,172602,2,0,L|495:225,1,144,8|0,0:0|0:0,0:0:0:0:
378,150,173125,1,8,0:0:0:0:
200,182,173299,2,0,L|199:274,1,72,0|8,0:0|0:0,0:0:0:0:
378,150,173648,1,0,0:0:0:0:
108,193,173997,6,0,L|266:183,1,144,0|8,0:0|0:3,0:0:0:0:
79,154,174695,2,0,L|61:95,2,45,0|0|0,0:0|0:0|0:0,0:0:0:0:
214,164,175044,2,0,L|225:277,1,90,8|0,0:3|0:0,0:0:0:0:
81,280,175392,6,0,L|287:273,1,180,0|8,0:0|0:3,0:0:0:0:
409,273,175916,1,0,0:0:0:0:
381,251,176003,1,0,0:0:0:0:
365,203,176090,1,0,0:0:0:0:
385,162,176177,1,0,0:0:0:0:
426,131,176265,1,0,0:0:0:0:
244,137,176439,2,0,L|192:231,1,90,8|0,0:3|0:0,0:0:0:0:
482,242,176788,6,0,L|491:144,1,90,2|2,0:0|0:0,0:0:0:0:
258,152,177137,2,0,L|160:120,2,90,10|2|2,0:0|0:0|0:0,0:0:0:0:
25,195,177660,2,0,L|26:303,1,90,10|2,0:0|0:0,0:0:0:0:
336,296,178009,2,0,L|339:232,1,45,4|4,0:3|0:3,0:0:0:0:
221,332,178881,5,2,0:0:0:0:
179,303,178968,1,0,0:0:0:0:
175,259,179055,1,0,0:0:0:0:
210,224,179142,1,0,0:0:0:0:
260,218,179230,1,2,0:0:0:0:
307,196,179317,1,0,0:0:0:0:
318,154,179404,1,0,0:0:0:0:
288,116,179491,1,0,0:0:0:0:
103,122,179579,6,0,P|33:155|115:295,1,270.000010299683,4|8,0:0|0:0,0:0:0:0:
241,298,180102,2,0,L|246:243,1,45,0|0,0:0|0:0,0:0:0:0:
198,243,180276,2,0,L|147:239,2,45,0|0|2,0:0|0:0|0:0,0:0:0:0:
343,250,180625,1,8,0:0:0:0:
96,175,180799,2,0,L|308:180,1,180,0|2,0:0|0:0,0:0:0:0:
167,96,181323,1,8,0:0:0:0:
274,155,181497,2,0,L|283:213,2,45,0|0|0,0:0|0:0|0:0,0:0:0:0:
131,107,181846,1,2,0:0:0:0:
371,129,182020,2,0,L|394:237,1,90,8|0,0:0|0:0,0:0:0:0:
105,310,182369,6,0,P|26:217|120:140,1,270.000010299683,2|8,0:0|0:0,0:0:0:0:
275,156,182892,2,0,L|301:105,2,45,0|0|0,0:0|0:0|0:0,0:0:0:0:
226,173,183154,2,0,L|156:172,1,45,0|2,0:0|0:0,0:0:0:0:
33,169,183416,1,8,0:0:0:0:
185,190,183590,2,0,L|195:260,1,45,0|0,0:0|0:0,0:0:0:0:
33,239,183765,6,0,L|22:348,1,90,0|2,0:0|0:0,0:0:0:0:
144,353,184113,1,8,0:0:0:0:
272,347,184288,2,0,L|279:285,1,45,0|0,0:0|0:0,0:0:0:0:
115,291,184462,2,0,L|65:190,1,90,0|2,0:0|0:0,0:0:0:0:
344,205,184811,2,0,P|386:176|362:76,1,135,8|8,0:0|0:0,0:0:0:0:
205,98,185160,6,0,L|22:101,1,180,6|8,0:0|0:0,0:0:0:0:
165,171,185683,1,0,0:0:0:0:
204,191,185770,1,0,0:0:0:0:
220,232,185857,1,0,0:0:0:0:
207,274,185944,1,0,0:0:0:0:
170,297,186031,1,2,0:0:0:0:
21,302,186206,1,8,0:0:0:0:
293,302,186381,6,0,L|503:302,1,180,0|2,0:0|0:0,0:0:0:0:
344,210,186904,1,8,0:0:0:0:
216,166,187079,1,0,0:0:0:0:
235,124,187166,1,0,0:0:0:0:
257,83,187253,1,0,0:0:0:0:
402,75,187427,1,2,0:0:0:0:
99,136,187602,2,0,P|76:193|98:232,1,90,8|0,0:0|0:0,0:0:0:0:
331,253,187951,6,0,L|133:259,1,180,2|8,0:0|0:0,0:0:0:0:
274,226,188474,2,0,L|278:161,1,45,0|0,0:0|0:0,0:0:0:0:
260,154,188648,2,0,L|210:151,1,45,0|0,0:0|0:0,0:0:0:0:
165,146,188823,1,2,0:0:0:0:
313,123,188997,2,0,L|405:132,1,90,8|0,0:0|0:0,0:0:0:0:
141,194,189346,6,0,L|133:297,1,90,4|2,0:0|0:0,0:0:0:0:
234,312,189695,1,12,0:0:0:0:
395,286,189869,2,0,L|282:273,2,90,0|4|2,0:0|0:0|0:0,0:0:0:0:
274,196,190392,1,12,0:0:0:0:
417,186,190567,2,0,L|446:138,1,45,0|8,0:0|0:0,0:0:0:0:
291,148,190741,6,0,L|98:152,1,180,6|8,0:0|0:0,0:0:0:0:
234,217,191265,2,0,L|305:215,1,45,0|0,0:0|0:0,0:0:0:0:
278,173,191439,2,0,L|233:174,1,45,0|0,0:0|0:0,0:0:0:0:
167,177,191613,1,2,0:0:0:0:
21,167,191788,1,8,0:0:0:0:
290,315,191962,6,0,P|372:225|283:142,1,270.000010299683,0|2,0:0|0:0,0:0:0:0:
134,151,192485,1,8,0:0:0:0:
277,152,192660,1,0,0:0:0:0:
256,108,192747,1,0,0:0:0:0:
235,69,192834,1,0,0:0:0:0:
375,46,193009,1,2,0:0:0:0:
123,114,193183,2,0,P|106:163|126:212,1,90,8|0,0:0|0:0,0:0:0:0:
362,194,193532,6,0,P|438:239|352:366,1,270.000010299683,2|8,0:0|0:0,0:0:0:0:
208,371,194055,2,0,L|201:306,1,45,0|0,0:0|0:0,0:0:0:0:
253,317,194230,2,0,L|320:315,2,45,0|0|2,0:0|0:0|0:0,0:0:0:0:
105,318,194579,1,8,0:0:0:0:
228,281,194753,2,0,L|237:212,1,45,0|0,0:0|0:0,0:0:0:0:
76,237,194927,6,0,P|58:185|58:132,1,90,0|2,0:0|0:0,0:0:0:0:
180,129,195276,1,8,0:0:0:0:
32,124,195451,2,0,L|24:67,1,45,0|0,0:0|0:0,0:0:0:0:
222,75,195625,2,0,L|327:79,1,90,0|2,0:0|0:0,0:0:0:0:
40,193,195974,2,0,P|50:262|131:285,1,135,8|8,0:0|0:0,0:0:0:0:
294,297,196323,6,0,L|481:292,1,180,6|8,0:0|0:0,0:0:0:0:
307,236,196846,1,0,0:0:0:0:
262,234,196933,1,0,0:0:0:0:
217,233,197020,1,0,0:0:0:0:
172,231,197107,1,0,0:0:0:0:
127,230,197194,1,2,0:0:0:0:
280,155,197369,1,8,0:0:0:0:
41,158,197544,6,0,L|220:152,1,180,0|2,0:0|0:0,0:0:0:0:
365,148,198067,1,8,0:0:0:0:
233,152,198241,2,0,L|163:143,2,45,0|0|0,0:0|0:0|0:0,0:0:0:0:
356,133,198590,1,2,0:0:0:0:
86,207,198765,2,0,L|189:205,1,90,8|0,0:0|0:0,0:0:0:0:
474,338,199113,6,0,L|281:337,1,180,2|8,0:0|0:0,0:0:0:0:
120,320,199637,2,0,L|116:256,1,45
192,272,199811,2,0,L|264:272,2,45,2|0|0,0:0|0:0|0:0,0:0:0:0:
424,208,200160,2,0,P|447:161|420:121,1,90,8|2,0:0|0:0,0:0:0:0:
143,113,200509,6,0,L|14:102,1,90,12|2,0:0|0:0,0:0:0:0:
384,103,200858,2,0,L|485:94,1,90,8|2,0:0|0:0,0:0:0:0:
222,218,201206,2,0,L|150:217,1,45,8|0,2:0|2:0,0:0:0:0:
222,218,201381,2,0,L|297:221,1,45,2|0,2:0|2:0,0:0:0:0:
96,187,201555,2,0,L|43:186,1,45,8|0,2:0|2:0,0:0:0:0:
265,138,201730,2,0,L|327:138,1,45,2|0,2:0|2:0,0:0:0:0:
65,139,201904,5,6,0:0:0:0:
193,174,202079,1,0,0:0:0:0:
65,139,202253,1,8,0:0:0:0:
392,304,202427,1,0,0:0:0:0:
428,278,202514,1,0,0:0:0:0:
441,236,202601,1,0,0:0:0:0:
423,195,202688,1,0,0:0:0:0:
385,174,202775,1,2,0:0:0:0:
109,167,202951,5,8,0:0:0:0:
235,165,203125,1,0,0:0:0:0:
361,162,203299,1,0,0:0:0:0:
120,225,203474,2,0,L|111:300,2,45,2|0|8,0:0|0:0|0:0,0:0:0:0:
267,204,203823,1,0,0:0:0:0:
26,291,203997,2,0,L|21:199,1,90,0|2,0:0|0:0,0:0:0:0:
327,182,204346,2,0,L|446:184,1,90,8|0,0:0|0:0,0:0:0:0:
171,183,204695,6,0,L|67:190,2,90,2|0|8,0:0|0:0|0:0,0:0:0:0:
18,124,205218,1,0,0:0:0:0:
62,124,205305,1,0,0:0:0:0:
107,124,205392,1,0,0:0:0:0:
152,124,205479,1,0,0:0:0:0:
197,124,205567,1,2,0:0:0:0:
435,202,205741,6,0,L|347:179,2,90,8|0|0,0:0|0:0|0:0,0:0:0:0:
157,230,206265,1,2,0:0:0:0:
118,249,206352,1,0,0:0:0:0:
102,290,206439,1,8,0:0:0:0:
246,341,206613,1,0,0:0:0:0:
118,249,206788,2,0,L|131:144,1,90,0|2,0:0|0:0,0:0:0:0:
406,190,207137,2,0,P|448:145|411:84,1,135,8|8,0:0|0:0,0:0:0:0:
178,75,207485,6,0,L|81:79,2,90,2|0|8,0:0|0:0|0:0,0:0:0:0:
430,137,208009,2,0,L|445:210,1,45,0|0,0:0|0:0,0:0:0:0:
393,208,208183,2,0,L|335:208,2,45,0|0|2,0:0|0:0|0:0,0:0:0:0:
121,272,208532,5,8,0:0:0:0:
255,268,208706,1,0,0:0:0:0:
389,259,208881,1,0,0:0:0:0:
97,235,209055,1,2,0:0:0:0:
76,195,209142,1,0,0:0:0:0:
79,151,209229,1,8,0:0:0:0:
240,96,209403,1,0,0:0:0:0:
120,92,209579,1,0,0:0:0:0:
260,152,209753,2,0,L|360:156,2,90,2|8|0,0:0|0:0|0:0,0:0:0:0:
26,320,210276,6,0,L|17:210,1,90,2|0,0:0|0:0,0:0:0:0:
127,216,210625,1,8,0:0:0:0:
361,212,210799,1,0,0:0:0:0:
341,171,210886,1,0,0:0:0:0:
307,142,210973,1,0,0:0:0:0:
265,129,211060,1,0,0:0:0:0:
220,133,211148,1,2,0:0:0:0:
483,101,211323,5,8,0:0:0:0:
328,173,211497,1,0,0:0:0:0:
483,101,211672,1,0,0:0:0:0:
163,305,211846,1,2,0:0:0:0:
129,276,211933,1,0,0:0:0:0:
120,233,212020,1,8,0:0:0:0:
232,176,212194,1,0,0:0:0:0:
376,184,212369,2,0,L|394:294,1,90,0|2,0:0|0:0,0:0:0:0:
72,292,212718,2,0,P|48:244|112:188,1,135,8|8,0:0|0:0,0:0:0:0:
291,192,213067,5,6,0:0:0:0:
147,155,213241,1,0,0:0:0:0:
291,192,213416,1,8,0:0:0:0:
31,200,213590,1,0,0:0:0:0:
32,155,213677,1,0,0:0:0:0:
54,116,213764,1,0,0:0:0:0:
91,92,213851,1,0,0:0:0:0:
136,89,213938,1,2,0:0:0:0:
403,172,214113,5,8,0:0:0:0:
277,201,214288,1,0,0:0:0:0:
151,229,214462,1,0,0:0:0:0:
414,271,214637,2,0,L|431:222,2,45,2|0|8,0:0|0:0|0:0,0:0:0:0:
272,291,214985,1,0,0:0:0:0:
405,166,215160,2,0,L|421:68,1,90,0|2,0:0|0:0,0:0:0:0:
169,78,215509,2,0,L|42:72,1,90,8|0,0:0|0:0,0:0:0:0:
367,213,215858,6,0,L|478:222,2,90,2|0|8,0:0|0:0|0:0,0:0:0:0:
128,229,216381,1,0,0:0:0:0:
85,219,216468,1,0,0:0:0:0:
62,181,216555,1,0,0:0:0:0:
74,139,216642,1,0,0:0:0:0:
113,118,216729,1,2,0:0:0:0:
358,160,216904,5,8,0:0:0:0:
227,202,217079,2,0,L|223:299,1,90,0|0,0:0|0:0,0:0:0:0:
472,299,217427,2,0,L|462:243,1,45,2|0,0:0|0:0,0:0:0:0:
408,237,217602,1,8,0:0:0:0:
243,240,217776,1,0,0:0:0:0:
390,205,217951,2,0,L|293:196,1,90,0|2,0:0|0:0,0:0:0:0:
150,187,218299,2,0,L|312:175,1,135,8|8,0:0|0:0,0:0:0:0:
52,188,218648,6,0,L|43:306,1,90,2|0,0:0|0:0,0:0:0:0:
160,312,218997,1,8,0:0:0:0:
428,328,219172,1,0,0:0:0:0:
464,302,219259,1,0,0:0:0:0:
475,260,219346,1,0,0:0:0:0:
457,219,219433,1,0,0:0:0:0:
418,200,219520,1,2,0:0:0:0:
149,212,219695,5,8,0:0:0:0:
305,186,219869,1,0,0:0:0:0:
149,212,220044,1,0,0:0:0:0:
451,259,220218,2,0,L|472:209,2,45,2|0|8,0:0|0:0|0:0,0:0:0:0:
320,272,220567,1,0,0:0:0:0:
171,276,220741,2,0,L|178:173,1,90,0|2,0:0|0:0,0:0:0:0:
295,172,221090,2,0,L|274:77,1,90,8|0,0:0|0:0,0:0:0:0:
33,119,221439,5,2,0:0:0:0:
134,122,221613,1,0,0:0:0:0:
234,125,221788,1,8,0:0:0:0:
479,216,221962,1,0,0:0:0:0:
434,213,222049,1,0,0:0:0:0:
389,211,222136,1,0,0:0:0:0:
344,208,222223,1,0,0:0:0:0:
299,206,222310,1,2,0:0:0:0:
37,207,222485,6,0,L|43:331,1,90,8|2,0:0|0:0,0:0:0:0:
346,317,222834,2,0,P|451:289|420:180,1,216,8|8,0:0|0:0,0:0:0:0:
401,191,223183,1,0,0:0:0:0:
96,209,223358,2,0,P|58:144|188:63,1,216,8|8,0:0|0:0,0:0:0:0:
217,93,223706,1,0,0:0:0:0:
461,118,223881,2,0,L|477:197,1,45,10|2,0:0|0:0,0:0:0:0:
293,214,224055,2,0,L|233:215,1,45,2|2,0:0|0:0,0:0:0:0:
448,295,224230,6,0,L|454:190,1,90,6|0,0:0|0:0,0:0:0:0:
335,196,224579,1,8,0:0:0:0:
94,215,224753,1,0,0:0:0:0:
108,168,224840,1,0,0:0:0:0:
122,124,224927,1,0,0:0:0:0:
251,101,225102,1,2,0:0:0:0:
16,106,225276,6,0,L|122:93,2,90,8|0|0,0:0|0:0|0:0,0:0:0:0:
256,177,225799,2,0,L|258:244,1,45,2|0,0:0|0:0,0:0:0:0:
198,246,225974,1,8,0:0:0:0:
341,285,226148,1,0,0:0:0:0:
191,294,226323,2,0,L|91:288,1,90,0|2,0:0|0:0,0:0:0:0:
245,235,226672,2,0,L|350:230,1,90,8|0,0:0|0:0,0:0:0:0:
90,197,227020,5,2,0:0:0:0:
183,186,227195,1,0,0:0:0:0:
276,174,227369,1,8,0:0:0:0:
127,204,227544,2,0,L|117:267,2,45,0|0|0,0:0|0:0|0:0,0:0:0:0:
264,188,227892,1,2,0:0:0:0:
24,322,228067,6,0,L|131:320,2,90,8|0|0,0:0|0:0|0:0,0:0:0:0:
272,320,228590,2,0,L|280:272,2,45,2|0|8,0:0|0:0|0:0,0:0:0:0:
148,332,228939,1,0,0:0:0:0:
284,336,229113,2,0,L|296:228,1,90,0|2,0:0|0:0,0:0:0:0:
144,244,229462,2,0,P|112:204|124:160,1,90,8|0,0:0|0:0,0:0:0:0:
176,152,229724,1,0,0:0:0:0:
346,162,229811,6,0,L|446:161,2,90,6|0|8,0:0|0:0|0:0,0:0:0:0:
105,226,230334,2,0,L|95:177,1,45,0|0,0:0|0:0,0:0:0:0:
160,156,230509,1,0,0:0:0:0:
33,125,230683,1,2,0:0:0:0:
280,159,230858,6,0,P|301:199|288:252,1,90,8|0,0:0|0:0,0:0:0:0:
167,256,231206,1,0,0:0:0:0:
404,307,231381,2,0,L|466:295,2,45,2|0|8,0:0|0:0|0:0,0:0:0:0:
278,318,231730,1,0,0:0:0:0:
115,301,231904,2,0,L|221:295,1,90,0|2,0:0|0:0,0:0:0:0:
458,266,232253,2,0,L|352:263,1,90,8|0,0:0|0:0,0:0:0:0:
131,259,232602,5,2,0:0:0:0:
29,241,232776,2,0,L|26:138,1,90,0|8,0:0|0:0,0:0:0:0:
263,147,233125,1,0,0:0:0:0:
221,130,233212,1,0,0:0:0:0:
177,113,233299,1,0,0:0:0:0:
299,57,233474,1,2,0:0:0:0:
46,194,233648,6,0,P|36:263|49:310,1,90,8|0,0:0|0:0,0:0:0:0:
149,303,233997,1,0,0:0:0:0:
411,314,234172,2,0,L|416:263,1,45,2|0,0:0|0:0,0:0:0:0:
351,255,234346,1,8,0:0:0:0:
461,190,234520,1,0,0:0:0:0:
292,188,234695,2,0,L|192:180,1,90,0|2,0:0|0:0,0:0:0:0:
356,140,235044,2,0,P|385:92|381:47,1,90,8|0,0:0|0:0,0:0:0:0:
316,34,235305,1,0,0:0:0:0:
135,53,235392,5,6,0:0:0:0:
285,114,235567,1,0,0:0:0:0:
136,58,235741,1,8,0:0:0:0:
387,162,235916,2,0,L|440:165,1,45,0|0,0:0|0:0,0:0:0:0:
480,167,236090,1,0,0:0:0:0:
358,262,236265,1,2,0:0:0:0:
120,270,236439,5,8,0:0:0:0:
214,274,236613,1,0,0:0:0:0:
310,278,236788,1,0,0:0:0:0:
75,222,236962,2,0,L|76:157,1,45,2|0,0:0|0:0,0:0:0:0:
136,159,237137,1,8,0:0:0:0:
20,132,237311,1,0,0:0:0:0:
162,143,237485,2,0,P|175:202|160:266,1,90,0|2,0:0|0:0,0:0:0:0:
20,271,237834,2,0,P|11:326|23:372,1,90,8|0,0:0|0:0,0:0:0:0:
254,363,238183,5,2,0:0:0:0:
361,363,238358,1,0,0:0:0:0:
465,365,238532,1,8,0:0:0:0:
222,296,238706,2,0,L|229:241,1,45,0|0,0:0|0:0,0:0:0:0:
288,238,238881,1,0,0:0:0:0:
159,196,239055,1,2,0:0:0:0:
411,198,239230,6,0,L|429:77,1,90,8|0,0:0|0:0,0:0:0:0:
295,95,239579,1,0,0:0:0:0:
56,173,239753,2,0,L|49:233,1,45,2|0,0:0|0:0,0:0:0:0:
104,248,239927,1,8,0:0:0:0:
217,263,240102,1,0,0:0:0:0:
61,318,240276,2,0,P|51:241|57:197,1,90,0|2,0:0|0:0,0:0:0:0:
321,228,240625,2,0,L|441:229,1,90,8|0,0:0|0:0,0:0:0:0:
433,285,240887,1,8,0:0:0:0:
199,289,240974,5,6,0:0:0:0:
46,290,241148,1,0,0:0:0:0:
181,247,241323,1,8,0:0:0:0:
417,222,241497,2,0,L|490:218,2,45,0|0|0,0:0|0:0|0:0,0:0:0:0:
291,226,241846,1,2,0:0:0:0:
49,232,242020,5,8,0:0:0:0:
156,225,242195,1,0,0:0:0:0:
261,217,242369,1,0,0:0:0:0:
22,174,242544,2,0,L|19:120,1,45,2|0,0:0|0:0,0:0:0:0:
76,117,242718,1,8,0:0:0:0:
181,119,242892,1,0,0:0:0:0:
335,165,243067,2,0,L|343:276,1,90,0|2,0:0|0:0,0:0:0:0:
195,288,243416,2,0,L|302:301,1,90,8|0,0:0|0:0,0:0:0:0:
36,309,243765,6,0,L|40:209,1,90,2|0,0:0|0:0,0:0:0:0:
148,205,244113,1,8,0:0:0:0:
392,210,244288,1,0,0:0:0:0:
353,191,244375,1,0,0:0:0:0:
311,168,244462,1,0,0:0:0:0:
433,119,244637,1,2,0:0:0:0:
193,154,244811,6,0,P|167:209|171:256,1,90,8|0,0:0|0:0,0:0:0:0:
289,278,245160,1,0,0:0:0:0:
51,275,245334,2,0,L|46:222,2,45,2|0|8,0:0|0:0|0:0,0:0:0:0:
159,298,245683,1,0,0:0:0:0:
309,250,245858,2,0,L|213:242,1,90,0|2,0:0|0:0,0:0:0:0:
473,236,246206,2,0,P|486:161|477:132,1,90,8|0,0:0|0:0,0:0:0:0:
418,128,246468,1,0,0:0:0:0:
188,127,246555,6,0,P|140:157|216:243,1,180,6|8,0:0|0:0,0:0:0:0:
284,248,247079,1,0,0:0:0:0:
287,203,247166,1,0,0:0:0:0:
290,158,247253,1,0,0:0:0:0:
133,159,247427,2,0,L|125:70,1,90,2|8,0:0|0:0,0:0:0:0:
365,61,247776,6,0,L|156:59,1,180,0|2,0:0|0:0,0:0:0:0:
262,125,248299,1,8,0:0:0:0:
107,137,248474,1,0,0:0:0:0:
71,158,248561,1,0,0:0:0:0:
49,195,248648,1,0,0:0:0:0:
145,238,248823,1,2,0:0:0:0:
222,296,248997,1,8,0:0:0:0:
133,354,249172,1,0,0:0:0:0:
380,355,249346,6,0,P|426:314|351:219,1,180,2|8,0:0|0:0,0:0:0:0:
242,222,249869,1,0,0:0:0:0:
235,177,249956,1,0,0:0:0:0:
228,133,250043,1,0,0:0:0:0:
370,129,250218,2,0,L|480:129,1,90,2|8,0:0|0:0,0:0:0:0:
214,323,250567,6,0,P|158:270|222:199,1,180,0|2,0:0|0:0,0:0:0:0:
310,196,251090,1,8,0:0:0:0:
154,198,251265,1,0,0:0:0:0:
118,172,251352,1,0,0:0:0:0:
115,128,251439,1,0,0:0:0:0:
203,65,251613,1,2,0:0:0:0:
318,67,251788,1,8,0:0:0:0:
419,138,251962,2,0,L|431:200,1,45,0|8,0:0|0:0,0:0:0:0:
228,221,252137,6,0,L|42:214,1,180,2|8,0:0|0:0,0:0:0:0:
174,176,252660,1,0,0:0:0:0:
218,170,252747,1,0,0:0:0:0:
263,164,252834,1,0,0:0:0:0:
115,125,253009,2,0,L|18:122,1,90,2|8,0:0|0:0,0:0:0:0:
283,108,253358,6,0,L|463:102,1,180,0|2,0:0|0:0,0:0:0:0:
375,39,253881,1,8,0:0:0:0:
207,120,254055,2,0,L|201:184,1,45,0|0,0:0|0:0,0:0:0:0:
258,193,254230,1,0,0:0:0:0:
140,209,254404,1,2,0:0:0:0:
107,287,254579,1,8,0:0:0:0:
164,354,254753,1,0,0:0:0:0:
409,345,254927,6,0,L|210:329,1,180,2|8,0:0|0:0,0:0:0:0:
370,298,255451,1,0,0:0:0:0:
377,253,255538,1,0,0:0:0:0:
385,209,255625,1,0,0:0:0:0:
240,198,255799,2,0,L|119:188,1,90,2|8,0:0|0:0,0:0:0:0:
396,167,256148,6,0,P|452:118|383:42,1,180,0|2,0:0|0:0,0:0:0:0:
305,45,256672,1,8,0:0:0:0:
157,54,256846,2,0,L|94:52,2,45,0|0|0,0:0|0:0|0:0,0:0:0:0:
273,106,257195,1,2,0:0:0:0:
291,215,257369,1,8,0:0:0:0:
190,284,257544,2,0,L|116:276,1,45,0|8,0:0|0:0,0:0:0:0:
302,271,257718,6,0,P|349:229|302:131,1,180,2|8,0:0|0:0,0:0:0:0:
160,138,258241,1,0,0:0:0:0:
131,162,258328,1,0,0:0:0:0:
103,185,258415,1,0,0:0:0:0:
253,226,258590,2,0,L|264:334,1,90,2|8,0:0|0:0,0:0:0:0:
16,335,258939,6,0,L|195:321,1,180,0|2,0:0|0:0,0:0:0:0:
120,260,259462,1,8,0:0:0:0:
238,239,259637,1,0,0:0:0:0:
272,209,259724,1,0,0:0:0:0:
282,164,259811,1,0,0:0:0:0:
244,74,259985,1,2,0:0:0:0:
153,46,260160,1,8,0:0:0:0:
71,94,260334,1,0,0:0:0:0:
309,227,260509,6,0,L|495:213,1,180,2|8,0:0|0:0,0:0:0:0:
331,173,261032,1,0,0:0:0:0:
323,128,261119,1,0,0:0:0:0:
315,84,261206,1,0,0:0:0:0:
453,112,261381,2,0,L|463:5,1,90,2|8,0:0|0:0,0:0:0:0:
197,59,261730,6,0,P|158:90|212:187,1,180,0|2,0:0|0:0,0:0:0:0:
311,189,262253,1,8,0:0:0:0:
160,202,262427,2,0,L|157:149,1,45,0|0,0:0|0:0,0:0:0:0:
211,133,262602,1,0,0:0:0:0:
328,151,262776,1,2,0:0:0:0:
399,240,262951,1,8,0:0:0:0:
373,347,263125,2,0,L|307:354,1,45,0|8,0:0|0:0,0:0:0:0:
142,363,263299,6,0,P|104:324|168:236,1,180,2|8,0:0|0:0,0:0:0:0:
301,240,263823,2,0,L|316:303,1,45,0|0,0:0|0:0,0:0:0:0:
258,310,263997,2,0,L|194:322,2,45,2|0|0,0:0|0:0|0:0,0:0:0:0:
389,289,264346,1,8,0:0:0:0:
156,323,264520,6,0,L|56:304,2,90,0|2|0,0:0|0:0|0:0,0:0:0:0:
253,342,265044,1,8,0:0:0:0:
101,290,265218,2,0,L|93:185,1,90,0|2,0:0|0:0,0:0:0:0:
190,181,265567,1,0,0:0:0:0:
351,179,265741,2,0,P|376:237|363:292,1,90,8|0,0:0|0:0,0:0:0:0:
132,287,266090,5,2,0:0:0:0:
276,251,266265,1,2,0:0:0:0:
41,233,266439,2,0,P|12:193|54:115,1,135,8|2,0:0|0:0,0:0:0:0:
102,108,266788,2,0,L|201:106,1,90,0|2,0:0|0:0,0:0:0:0:
438,230,267137,2,0,P|467:190|438:130,1,90,8|0,0:0|0:0,0:0:0:0:
392,133,267398,1,0,0:0:0:0:
224,142,267486,6,0,P|179:185|221:235,1,135.000005149842,8|0,0:0|0:0,0:0:0:0:
383,231,267747,2,0,P|428:274|386:324,1,135.000005149842,8|0,0:0|0:0,0:0:0:0:
215,320,268009,2,0,L|112:314,1,90,8|0,0:0|0:0,0:0:0:0:
281,278,268270,2,0,L|395:284,1,90,8|0,0:0|0:0,0:0:0:0:
215,116,268532,2,0,L|214:193,1,45,8|8,0:0|0:0,0:0:0:0:
377,198,268706,2,0,L|375:257,1,45,8|8,0:0|0:0,0:0:0:0:
