osu file format v14

[General]
AudioFilename: Ganymede kamome mix.mp3
AudioLeadIn: 0
PreviewTime: 65850
Countdown: 0
SampleSet: None
StackLeniency: 0.7
Mode: 3
LetterboxInBreaks: 0
EpilepsyWarning: 1
SpecialStyle: 0
WidescreenStoryboard: 1

[Editor]
DistanceSpacing: 0.5
BeatDivisor: 4
GridSize: 32
TimelineZoom: 3.299999

[Metadata]
Title:Ganymede kamome mix
TitleUnicode:Ganymede kamome mix
Artist:kamome sano
ArtistUnicode:kamome sano
Creator:[Shana Lesus]
Version:GRAVITY Lv.18
Source:SOUND VOLTEX BOOTH
Tags:de-cade exusagi takane6 ichigaki ryu_sei danielslz9 genbu sdvx gabba
BeatmapID:2078350
BeatmapSetID:993943

[Difficulty]
HPDrainRate:8.5
CircleSize:4
OverallDifficulty:8.5
ApproachRate:5
SliderMultiplier:1.4
SliderTickRate:1

[Events]
//Background and Video events
0,0,"BG.jpg",0,0
//Break Periods
//Storyboard Layer 0 (Background)
//Storyboard Layer 1 (Fail)
//Storyboard Layer 2 (Pass)
//Storyboard Layer 3 (Foreground)
//Storyboard Sound Samples

[TimingPoints]
1200,300,4,2,1,40,1,0
56250,300,4,2,1,40,1,0
65850,-100,4,2,1,40,0,1
75450,-100,4,2,1,40,0,0
79050,-100,4,2,1,40,0,1
98400,-100,4,2,1,40,0,0

[HitObjects]
64,192,1200,5,0,0:0:0:0:
448,192,1200,1,0,0:0:0:0:
192,192,1200,1,2,0:0:0:0:
448,192,1350,1,0,0:0:0:0:
192,192,1350,1,2,0:0:0:0:
64,192,1350,1,0,0:0:0:0:
448,192,3600,1,0,0:0:0:0:
320,192,3600,1,2,0:0:0:0:
64,192,3600,1,0,0:0:0:0:
64,192,3750,1,0,0:0:0:0:
320,192,3750,1,2,0:0:0:0:
448,192,3750,1,0,0:0:0:0:
192,192,6000,1,2,0:0:0:0:
64,192,6000,1,0,0:0:0:0:
320,192,6000,1,2,0:0:0:0:
64,192,6150,1,0,0:0:0:0:
192,192,6150,1,2,0:0:0:0:
320,192,6150,1,2,0:0:0:0:
192,192,6300,1,4,0:0:0:0:
448,192,6300,1,0,0:0:0:0:
64,192,6450,1,0,0:0:0:0:
320,192,6525,1,0,0:0:0:0:
192,192,6525,1,0,0:0:0:0:
448,192,6600,1,0,0:0:0:0:
320,192,6675,1,0,0:0:0:0:
192,192,6675,1,0,0:0:0:0:
64,192,6750,1,0,0:0:0:0:
448,192,6750,1,0,0:0:0:0:
64,192,6900,1,0,0:0:0:0:
192,192,6900,1,4,0:0:0:0:
320,192,7050,1,0,0:0:0:0:
192,192,7125,1,0,0:0:0:0:
448,192,7200,1,0,0:0:0:0:
64,192,7200,1,0,0:0:0:0:
448,192,7350,1,0,0:0:0:0:
192,192,7350,1,0,0:0:0:0:
192,192,7500,1,4,0:0:0:0:
64,192,7500,1,0,0:0:0:0:
448,192,7650,1,0,0:0:0:0:
320,192,7725,1,0,0:0:0:0:
64,192,7725,1,0,0:0:0:0:
192,192,7800,1,0,0:0:0:0:
320,192,7875,1,0,0:0:0:0:
448,192,7875,1,0,0:0:0:0:
64,192,7950,1,0,0:0:0:0:
192,192,7950,1,0,0:0:0:0:
448,192,8100,1,4,0:0:0:0:
64,192,8100,1,0,0:0:0:0:
192,192,8250,1,0,0:0:0:0:
192,192,8400,1,2,0:0:0:0:
320,192,8400,1,2,0:0:0:0:
448,192,8400,1,0,0:0:0:0:
320,192,8550,1,2,0:0:0:0:
192,192,8550,1,2,0:0:0:0:
64,192,8550,1,0,0:0:0:0:
64,192,8700,1,0,0:0:0:0:
320,192,8700,1,4,0:0:0:0:
192,192,8850,1,0,0:0:0:0:
448,192,8925,1,0,0:0:0:0:
64,192,8925,1,0,0:0:0:0:
320,192,9000,1,0,0:0:0:0:
64,192,9075,1,0,0:0:0:0:
192,192,9075,1,4,0:0:0:0:
448,192,9150,1,0,0:0:0:0:
320,192,9150,1,0,0:0:0:0:
64,192,9300,1,0,0:0:0:0:
192,192,9300,1,0,0:0:0:0:
448,192,9450,1,0,0:0:0:0:
192,192,9450,1,4,0:0:0:0:
320,192,9450,1,0,0:0:0:0:
320,192,9600,1,0,0:0:0:0:
64,192,9600,1,0,0:0:0:0:
448,192,9600,1,0,0:0:0:0:
192,192,9750,1,0,0:0:0:0:
448,192,9825,1,0,0:0:0:0:
64,192,9825,1,0,0:0:0:0:
192,192,9900,1,0,0:0:0:0:
320,192,9900,1,4,0:0:0:0:
448,192,10050,1,0,0:0:0:0:
64,192,10125,1,0,0:0:0:0:
320,192,10125,1,0,0:0:0:0:
448,192,10200,1,0,0:0:0:0:
64,192,10275,1,0,0:0:0:0:
192,192,10275,1,0,0:0:0:0:
320,192,10350,1,0,0:0:0:0:
192,192,10425,1,0,0:0:0:0:
448,192,10425,1,0,0:0:0:0:
64,192,10500,1,0,0:0:0:0:
320,192,10575,1,0,0:0:0:0:
448,192,10575,1,0,0:0:0:0:
64,192,10650,1,0,0:0:0:0:
192,192,10800,1,2,0:0:0:0:
320,192,10800,1,2,0:0:0:0:
448,192,10800,1,0,0:0:0:0:
320,192,10950,1,2,0:0:0:0:
192,192,10950,1,2,0:0:0:0:
64,192,10950,1,0,0:0:0:0:
64,192,11100,1,0,0:0:0:0:
448,192,11100,1,4,0:0:0:0:
192,192,11250,1,0,0:0:0:0:
64,192,11325,1,0,0:0:0:0:
448,192,11325,1,0,0:0:0:0:
320,192,11400,1,0,0:0:0:0:
448,192,11475,1,0,0:0:0:0:
64,192,11475,1,0,0:0:0:0:
320,192,11550,1,0,0:0:0:0:
192,192,11550,1,0,0:0:0:0:
448,192,11700,1,4,0:0:0:0:
192,192,11700,1,0,0:0:0:0:
64,192,11850,1,0,0:0:0:0:
448,192,12000,1,0,0:0:0:0:
320,192,12000,1,2,0:0:0:0:
192,192,12000,1,2,0:0:0:0:
64,192,12150,1,2,0:0:0:0:
320,192,12150,1,2,0:0:0:0:
448,192,12150,1,0,0:0:0:0:
192,192,12300,1,4,0:0:0:0:
448,192,12300,1,0,0:0:0:0:
64,192,12450,1,0,0:0:0:0:
448,192,12525,1,0,0:0:0:0:
320,192,12525,1,0,0:0:0:0:
64,192,12600,1,0,0:0:0:0:
448,192,12675,1,0,0:0:0:0:
192,192,12675,1,0,0:0:0:0:
64,192,12750,1,0,0:0:0:0:
320,192,12750,1,0,0:0:0:0:
64,192,12900,1,0,0:0:0:0:
192,192,12900,1,4,0:0:0:0:
320,192,13050,1,0,0:0:0:0:
64,192,13200,1,0,0:0:0:0:
192,192,13200,1,2,0:0:0:0:
448,192,13200,1,2,0:0:0:0:
320,192,13350,1,2,0:0:0:0:
192,192,13350,1,2,0:0:0:0:
448,192,13350,1,0,0:0:0:0:
192,192,13500,1,4,0:0:0:0:
64,192,13500,1,0,0:0:0:0:
320,192,13575,1,0,0:0:0:0:
448,192,13650,1,0,0:0:0:0:
64,192,13650,1,0,0:0:0:0:
448,192,13800,5,0,0:0:0:0:
320,192,13800,1,2,0:0:0:0:
192,192,13800,1,2,0:0:0:0:
64,192,13950,1,0,0:0:0:0:
320,192,13950,1,2,0:0:0:0:
192,192,13950,1,2,0:0:0:0:
448,192,14100,1,0,0:0:0:0:
320,192,14100,1,4,0:0:0:0:
192,192,14175,1,0,0:0:0:0:
64,192,14250,1,0,0:0:0:0:
320,192,14250,1,0,0:0:0:0:
64,192,14400,1,0,0:0:0:0:
192,192,14400,1,2,0:0:0:0:
448,192,14400,1,2,0:0:0:0:
448,192,14550,1,2,0:0:0:0:
320,192,14550,1,2,0:0:0:0:
192,192,14550,1,0,0:0:0:0:
64,192,14700,1,0,0:0:0:0:
320,192,14700,1,4,0:0:0:0:
448,192,14775,1,0,0:0:0:0:
192,192,14850,1,0,0:0:0:0:
64,192,14850,1,0,0:0:0:0:
192,192,15000,1,0,0:0:0:0:
320,192,15000,1,2,0:0:0:0:
448,192,15000,1,2,0:0:0:0:
448,192,15150,1,2,0:0:0:0:
320,192,15150,1,2,0:0:0:0:
64,192,15150,1,0,0:0:0:0:
192,192,15300,1,4,0:0:0:0:
64,192,15300,1,0,0:0:0:0:
448,192,15375,1,0,0:0:0:0:
192,192,15450,1,0,0:0:0:0:
320,192,15450,1,0,0:0:0:0:
64,192,15600,1,0,0:0:0:0:
448,192,15600,1,2,0:0:0:0:
192,192,15600,1,0,0:0:0:0:
192,192,15750,1,0,0:0:0:0:
320,192,15750,1,2,0:0:0:0:
448,192,15750,1,2,0:0:0:0:
64,192,15900,1,0,0:0:0:0:
192,192,15900,1,0,0:0:0:0:
320,192,15900,1,2,0:0:0:0:
448,192,16050,1,2,0:0:0:0:
192,192,16050,1,0,0:0:0:0:
64,192,16050,1,0,0:0:0:0:
64,192,16200,1,0,0:0:0:0:
448,192,16200,1,2,0:0:0:0:
320,192,16200,1,2,0:0:0:0:
192,192,16350,1,0,0:0:0:0:
320,192,16350,1,2,0:0:0:0:
448,192,16350,1,2,0:0:0:0:
192,192,16500,1,0,0:0:0:0:
320,192,16500,1,2,0:0:0:0:
64,192,16500,1,0,0:0:0:0:
448,192,16650,1,2,0:0:0:0:
64,192,16650,1,0,0:0:0:0:
192,192,16650,1,0,0:0:0:0:
192,192,16800,5,0,0:0:0:0:
320,192,16800,1,2,0:0:0:0:
448,192,16875,1,2,0:0:0:0:
192,192,16875,1,0,0:0:0:0:
448,192,16950,1,2,0:0:0:0:
64,192,16950,1,0,0:0:0:0:
64,192,17025,1,2,0:0:0:0:
320,192,17025,1,0,0:0:0:0:
320,192,17100,1,2,0:0:0:0:
192,192,17100,1,0,0:0:0:0:
192,192,17175,1,0,0:0:0:0:
448,192,17175,1,2,0:0:0:0:
64,192,17250,1,0,0:0:0:0:
448,192,17250,1,2,0:0:0:0:
320,192,17325,1,2,0:0:0:0:
64,192,17325,1,0,0:0:0:0:
320,192,17400,1,2,0:0:0:0:
192,192,17400,1,0,0:0:0:0:
448,192,17475,1,2,0:0:0:0:
192,192,17475,1,0,0:0:0:0:
64,192,17550,1,0,0:0:0:0:
448,192,17550,1,2,0:0:0:0:
192,192,17625,1,0,0:0:0:0:
64,192,17625,1,2,0:0:0:0:
320,192,17700,1,2,0:0:0:0:
448,192,17700,1,0,0:0:0:0:
64,192,17775,1,0,0:0:0:0:
448,192,17775,1,2,0:0:0:0:
64,192,17850,1,0,0:0:0:0:
320,192,17850,1,2,0:0:0:0:
192,192,17925,1,0,0:0:0:0:
320,192,17925,1,2,0:0:0:0:
192,192,18000,1,2,0:0:0:0:
64,192,18000,128,0,19800:0:0:0:0:
448,192,19050,128,0,19800:0:0:0:0:
64,192,20400,1,0,0:0:0:0:
448,192,20400,1,8,0:0:0:0:
320,192,20400,1,8,0:0:0:0:
192,192,20400,1,0,0:0:0:0:
320,192,20700,128,0,21000:0:0:0:0:
192,192,21000,128,0,21600:0:0:0:0:
448,192,21000,1,0,0:0:0:0:
64,192,21300,1,0,0:0:0:0:
448,192,21600,128,0,22200:0:0:0:0:
320,192,21600,1,0,0:0:0:0:
64,192,21900,1,0,0:0:0:0:
64,192,22200,128,0,22800:0:0:0:0:
192,192,22200,1,0,0:0:0:0:
192,192,22500,128,0,23400:0:0:0:0:
320,192,22500,1,0,0:0:0:0:
320,192,22800,128,0,24000:0:0:0:0:
448,192,22800,1,0,0:0:0:0:
64,192,23100,1,0,0:0:0:0:
448,192,23400,1,0,0:0:0:0:
64,192,23400,1,0,0:0:0:0:
192,192,23700,1,0,0:0:0:0:
192,192,24000,128,0,24600:0:0:0:0:
64,192,24000,128,0,24900:0:0:0:0:
448,192,24000,1,0,0:0:0:0:
320,192,24300,1,0,0:0:0:0:
448,192,24600,128,0,25200:0:0:0:0:
320,192,24600,1,0,0:0:0:0:
192,192,24900,1,0,0:0:0:0:
64,192,25200,128,0,26400:0:0:0:0:
320,192,25200,128,0,25800:0:0:0:0:
192,192,25200,1,0,0:0:0:0:
448,192,25500,1,0,0:0:0:0:
192,192,25800,1,0,0:0:0:0:
448,192,25800,1,0,0:0:0:0:
320,192,26100,1,0,0:0:0:0:
320,192,26400,128,0,27600:0:0:0:0:
192,192,26400,1,0,0:0:0:0:
448,192,26700,1,0,0:0:0:0:
64,192,27000,1,0,0:0:0:0:
448,192,27000,1,0,0:0:0:0:
192,192,27300,1,0,0:0:0:0:
64,192,27300,128,0,28500:0:0:0:0:
192,192,27600,128,0,28800:0:0:0:0:
448,192,27600,1,0,0:0:0:0:
320,192,27900,1,0,0:0:0:0:
448,192,28200,1,0,0:0:0:0:
320,192,28200,1,0,0:0:0:0:
320,192,28500,1,0,0:0:0:0:
448,192,28800,128,0,30000:0:0:0:0:
320,192,28800,128,0,29700:0:0:0:0:
64,192,28800,1,0,0:0:0:0:
192,192,29100,1,0,0:0:0:0:
64,192,29400,1,0,0:0:0:0:
192,192,29400,1,0,0:0:0:0:
192,192,29700,1,0,0:0:0:0:
320,192,30000,1,4,0:0:0:0:
64,192,30000,1,0,0:0:0:0:
192,192,30150,1,0,0:0:0:0:
320,192,30300,1,0,0:0:0:0:
448,192,30300,1,0,0:0:0:0:
64,192,30450,1,0,0:0:0:0:
320,192,30600,1,4,0:0:0:0:
192,192,30600,1,0,0:0:0:0:
448,192,30750,1,0,0:0:0:0:
320,192,30900,1,0,0:0:0:0:
64,192,30900,1,0,0:0:0:0:
192,192,31050,1,0,0:0:0:0:
448,192,31125,1,0,0:0:0:0:
320,192,31200,1,4,0:0:0:0:
64,192,31200,1,0,0:0:0:0:
448,192,31350,1,0,0:0:0:0:
320,192,31500,1,0,0:0:0:0:
192,192,31500,1,0,0:0:0:0:
64,192,31650,1,0,0:0:0:0:
320,192,31725,1,0,0:0:0:0:
448,192,31800,1,4,0:0:0:0:
192,192,31800,1,0,0:0:0:0:
64,192,31875,1,0,0:0:0:0:
320,192,31950,1,0,0:0:0:0:
64,192,32100,1,0,0:0:0:0:
448,192,32100,1,0,0:0:0:0:
192,192,32250,1,0,0:0:0:0:
320,192,32325,1,0,0:0:0:0:
64,192,32400,1,0,0:0:0:0:
448,192,32400,1,0,0:0:0:0:
192,192,32400,1,0,0:0:0:0:
320,192,32550,1,0,0:0:0:0:
64,192,32700,1,0,0:0:0:0:
192,192,32700,1,0,0:0:0:0:
448,192,32850,1,0,0:0:0:0:
192,192,32925,1,0,0:0:0:0:
320,192,33000,1,4,0:0:0:0:
64,192,33000,1,0,0:0:0:0:
448,192,33075,1,0,0:0:0:0:
192,192,33150,1,0,0:0:0:0:
320,192,33300,1,0,0:0:0:0:
448,192,33300,1,0,0:0:0:0:
64,192,33450,1,0,0:0:0:0:
192,192,33450,1,0,0:0:0:0:
320,192,33600,1,4,0:0:0:0:
192,192,33600,1,0,0:0:0:0:
448,192,33750,1,0,0:0:0:0:
64,192,33900,1,0,0:0:0:0:
320,192,33900,1,0,0:0:0:0:
192,192,34050,1,0,0:0:0:0:
64,192,34125,1,0,0:0:0:0:
320,192,34200,1,4,0:0:0:0:
448,192,34200,1,0,0:0:0:0:
192,192,34350,1,0,0:0:0:0:
64,192,34500,1,0,0:0:0:0:
320,192,34500,1,0,0:0:0:0:
448,192,34575,1,0,0:0:0:0:
192,192,34650,1,0,0:0:0:0:
320,192,34650,1,0,0:0:0:0:
448,192,34800,1,4,0:0:0:0:
64,192,34800,1,0,0:0:0:0:
320,192,34950,1,0,0:0:0:0:
64,192,35100,1,0,0:0:0:0:
192,192,35100,1,0,0:0:0:0:
320,192,35250,1,0,0:0:0:0:
448,192,35400,1,4,0:0:0:0:
64,192,35400,1,0,0:0:0:0:
192,192,35475,1,0,0:0:0:0:
320,192,35550,1,0,0:0:0:0:
64,192,35625,1,0,0:0:0:0:
448,192,35700,1,0,0:0:0:0:
192,192,35700,1,0,0:0:0:0:
448,192,35850,1,0,0:0:0:0:
192,192,35925,1,0,0:0:0:0:
320,192,36000,1,4,0:0:0:0:
64,192,36000,1,0,0:0:0:0:
192,192,36150,1,0,0:0:0:0:
448,192,36150,1,0,0:0:0:0:
448,192,36300,1,0,0:0:0:0:
320,192,36300,1,0,0:0:0:0:
192,192,36450,1,0,0:0:0:0:
320,192,36525,1,0,0:0:0:0:
448,192,36600,1,4,0:0:0:0:
64,192,36600,1,0,0:0:0:0:
320,192,36675,1,0,0:0:0:0:
192,192,36750,1,0,0:0:0:0:
64,192,36750,1,0,0:0:0:0:
448,192,36900,1,0,0:0:0:0:
320,192,36900,1,0,0:0:0:0:
64,192,37050,1,0,0:0:0:0:
192,192,37087,1,0,0:0:0:0:
448,192,37125,1,0,0:0:0:0:
320,192,37162,1,0,0:0:0:0:
192,192,37200,1,4,0:0:0:0:
64,192,37200,1,0,0:0:0:0:
448,192,37350,1,0,0:0:0:0:
320,192,37350,1,0,0:0:0:0:
192,192,37425,1,0,0:0:0:0:
448,192,37425,1,0,0:0:0:0:
320,192,37500,1,0,0:0:0:0:
64,192,37500,1,0,0:0:0:0:
64,192,37650,1,0,0:0:0:0:
192,192,37650,1,0,0:0:0:0:
192,192,37800,1,0,0:0:0:0:
448,192,37800,1,4,0:0:0:0:
320,192,37875,1,0,0:0:0:0:
64,192,37950,1,0,0:0:0:0:
448,192,37950,1,0,0:0:0:0:
448,192,38100,1,0,0:0:0:0:
320,192,38100,1,0,0:0:0:0:
64,192,38175,1,0,0:0:0:0:
192,192,38250,1,0,0:0:0:0:
320,192,38250,1,0,0:0:0:0:
448,192,38400,1,4,0:0:0:0:
64,192,38400,1,0,0:0:0:0:
192,192,38400,1,0,0:0:0:0:
320,192,38550,1,0,0:0:0:0:
448,192,38625,1,0,0:0:0:0:
192,192,38700,1,0,0:0:0:0:
64,192,38700,1,0,0:0:0:0:
448,192,38850,1,0,0:0:0:0:
192,192,38850,1,0,0:0:0:0:
64,192,39000,1,0,0:0:0:0:
320,192,39000,1,4,0:0:0:0:
448,192,39075,1,0,0:0:0:0:
192,192,39150,1,0,0:0:0:0:
320,192,39150,1,0,0:0:0:0:
64,192,39300,1,0,0:0:0:0:
448,192,39300,1,0,0:0:0:0:
320,192,39450,1,0,0:0:0:0:
192,192,39525,1,0,0:0:0:0:
64,192,39600,5,0,0:0:0:0:
448,192,39600,1,8,0:0:0:0:
320,192,39600,1,0,0:0:0:0:
320,192,39750,1,8,0:0:0:0:
448,192,39750,1,0,0:0:0:0:
64,192,39750,1,0,0:0:0:0:
192,192,39825,1,0,0:0:0:0:
320,192,39900,1,0,0:0:0:0:
64,192,39900,128,0,40050:0:0:0:0:
448,192,40050,1,0,0:0:0:0:
192,192,40050,1,0,0:0:0:0:
320,192,40125,1,0,0:0:0:0:
192,192,40200,128,0,40350:0:0:0:0:
64,192,40200,1,0,0:0:0:0:
320,192,40350,1,0,0:0:0:0:
448,192,40425,1,0,0:0:0:0:
192,192,40500,1,0,0:0:0:0:
64,192,40500,1,0,0:0:0:0:
448,192,40650,1,0,0:0:0:0:
64,192,40800,1,0,0:0:0:0:
320,192,40800,1,0,0:0:0:0:
320,192,40950,1,0,0:0:0:0:
448,192,40950,1,0,0:0:0:0:
192,192,41025,1,0,0:0:0:0:
448,192,41100,1,0,0:0:0:0:
64,192,41100,128,0,41250:0:0:0:0:
192,192,41250,1,0,0:0:0:0:
320,192,41250,1,0,0:0:0:0:
448,192,41325,1,0,0:0:0:0:
320,192,41400,128,0,41550:0:0:0:0:
64,192,41400,1,0,0:0:0:0:
192,192,41550,1,0,0:0:0:0:
64,192,41550,1,0,0:0:0:0:
320,192,41625,1,0,0:0:0:0:
448,192,41700,1,0,0:0:0:0:
64,192,41700,1,0,0:0:0:0:
192,192,41850,1,0,0:0:0:0:
448,192,42000,1,0,0:0:0:0:
64,192,42000,1,8,0:0:0:0:
192,192,42000,1,8,0:0:0:0:
448,192,42150,1,8,0:0:0:0:
64,192,42150,1,0,0:0:0:0:
320,192,42150,1,8,0:0:0:0:
192,192,42225,1,0,0:0:0:0:
64,192,42300,1,0,0:0:0:0:
448,192,42300,128,0,42450:0:0:0:0:
192,192,42450,1,0,0:0:0:0:
64,192,42450,1,0,0:0:0:0:
320,192,42525,1,0,0:0:0:0:
64,192,42600,128,0,42750:0:0:0:0:
192,192,42600,1,0,0:0:0:0:
448,192,42600,1,0,0:0:0:0:
448,192,42750,1,0,0:0:0:0:
320,192,42750,1,0,0:0:0:0:
192,192,42825,1,0,0:0:0:0:
320,192,42900,1,0,0:0:0:0:
64,192,42900,1,0,0:0:0:0:
448,192,43050,1,0,0:0:0:0:
192,192,43050,1,0,0:0:0:0:
64,192,43200,1,0,0:0:0:0:
192,192,43200,1,0,0:0:0:0:
320,192,43275,1,0,0:0:0:0:
192,192,43350,1,0,0:0:0:0:
448,192,43350,1,0,0:0:0:0:
64,192,43425,1,0,0:0:0:0:
192,192,43500,128,0,43650:0:0:0:0:
320,192,43500,1,0,0:0:0:0:
448,192,43575,1,0,0:0:0:0:
320,192,43650,1,0,0:0:0:0:
64,192,43650,1,0,0:0:0:0:
192,192,43725,1,0,0:0:0:0:
448,192,43800,1,0,0:0:0:0:
64,192,43800,1,0,0:0:0:0:
192,192,43875,1,0,0:0:0:0:
320,192,43875,1,0,0:0:0:0:
448,192,43950,1,0,0:0:0:0:
64,192,43950,1,0,0:0:0:0:
320,192,44025,1,0,0:0:0:0:
192,192,44025,1,0,0:0:0:0:
448,192,44100,1,0,0:0:0:0:
64,192,44100,1,0,0:0:0:0:
320,192,44100,1,0,0:0:0:0:
320,192,44250,1,0,0:0:0:0:
448,192,44325,1,0,0:0:0:0:
64,192,44400,1,0,0:0:0:0:
192,192,44400,1,8,0:0:0:0:
320,192,44400,1,0,0:0:0:0:
320,192,44550,1,8,0:0:0:0:
448,192,44550,1,0,0:0:0:0:
64,192,44550,1,0,0:0:0:0:
192,192,44625,1,0,0:0:0:0:
320,192,44700,1,0,0:0:0:0:
64,192,44700,128,0,44850:0:0:0:0:
192,192,44850,1,0,0:0:0:0:
448,192,44850,1,0,0:0:0:0:
320,192,44925,1,0,0:0:0:0:
448,192,45000,1,0,0:0:0:0:
64,192,45000,1,0,0:0:0:0:
320,192,45075,1,0,0:0:0:0:
192,192,45150,1,0,0:0:0:0:
64,192,45150,1,0,0:0:0:0:
448,192,45225,1,0,0:0:0:0:
320,192,45300,1,0,0:0:0:0:
192,192,45300,1,0,0:0:0:0:
64,192,45375,1,0,0:0:0:0:
448,192,45450,1,0,0:0:0:0:
192,192,45450,1,0,0:0:0:0:
320,192,45525,1,0,0:0:0:0:
64,192,45525,1,0,0:0:0:0:
192,192,45600,1,8,0:0:0:0:
448,192,45600,128,0,45750:0:0:0:0:
192,192,45750,1,8,0:0:0:0:
64,192,45750,1,0,0:0:0:0:
320,192,45825,1,0,0:0:0:0:
64,192,45900,128,0,46050:0:0:0:0:
448,192,45900,1,0,0:0:0:0:
192,192,46050,1,0,0:0:0:0:
320,192,46125,1,0,0:0:0:0:
192,192,46200,1,0,0:0:0:0:
64,192,46200,1,0,0:0:0:0:
192,192,46275,1,0,0:0:0:0:
64,192,46275,1,0,0:0:0:0:
448,192,46350,1,0,0:0:0:0:
320,192,46350,1,0,0:0:0:0:
448,192,46425,1,0,0:0:0:0:
320,192,46425,1,0,0:0:0:0:
448,192,46500,1,0,0:0:0:0:
64,192,46500,1,0,0:0:0:0:
192,192,46500,1,0,0:0:0:0:
320,192,46650,1,0,0:0:0:0:
192,192,46725,1,0,0:0:0:0:
320,192,46800,1,8,0:0:0:0:
64,192,46800,1,0,0:0:0:0:
448,192,46800,1,0,0:0:0:0:
320,192,46950,1,8,0:0:0:0:
448,192,46950,1,0,0:0:0:0:
64,192,46950,1,0,0:0:0:0:
192,192,47025,1,0,0:0:0:0:
320,192,47100,1,0,0:0:0:0:
192,192,47175,1,0,0:0:0:0:
448,192,47175,1,0,0:0:0:0:
64,192,47250,1,0,0:0:0:0:
192,192,47325,1,0,0:0:0:0:
448,192,47325,1,0,0:0:0:0:
448,192,47400,1,0,0:0:0:0:
64,192,47400,1,0,0:0:0:0:
320,192,47475,1,0,0:0:0:0:
64,192,47475,1,0,0:0:0:0:
320,192,47550,1,0,0:0:0:0:
192,192,47550,1,0,0:0:0:0:
448,192,47625,1,0,0:0:0:0:
192,192,47625,1,0,0:0:0:0:
448,192,47700,1,0,0:0:0:0:
64,192,47700,1,0,0:0:0:0:
64,192,47850,1,0,0:0:0:0:
320,192,47850,1,0,0:0:0:0:
192,192,47925,1,0,0:0:0:0:
448,192,47925,1,0,0:0:0:0:
64,192,48000,1,0,0:0:0:0:
192,192,48037,1,0,0:0:0:0:
320,192,48075,1,0,0:0:0:0:
448,192,48112,1,0,0:0:0:0:
192,192,48150,1,0,0:0:0:0:
64,192,48150,1,0,0:0:0:0:
320,192,48300,1,0,0:0:0:0:
192,192,48300,1,0,0:0:0:0:
192,192,48375,1,0,0:0:0:0:
320,192,48375,1,0,0:0:0:0:
448,192,48450,1,0,0:0:0:0:
64,192,48450,1,0,0:0:0:0:
64,192,48525,1,0,0:0:0:0:
448,192,48525,1,0,0:0:0:0:
192,192,48600,128,0,48750:0:0:0:0:
64,192,48750,1,0,0:0:0:0:
448,192,48750,1,0,0:0:0:0:
320,192,48825,1,0,0:0:0:0:
448,192,48900,1,0,0:0:0:0:
192,192,48900,128,0,48975:0:0:0:0:
64,192,48975,128,0,49050:0:0:0:0:
448,192,49050,128,0,49125:0:0:0:0:
320,192,49125,128,0,49200:0:0:0:0:
64,192,49200,128,0,49350:0:0:0:0:
192,192,49312,1,0,0:0:0:0:
320,192,49350,1,0,0:0:0:0:
448,192,49350,1,0,0:0:0:0:
192,192,49500,128,0,49575:0:0:0:0:
448,192,49575,128,0,49650:0:0:0:0:
64,192,49650,1,0,0:0:0:0:
64,192,49800,1,0,0:0:0:0:
192,192,49825,1,0,0:0:0:0:
320,192,49850,1,0,0:0:0:0:
448,192,49875,1,0,0:0:0:0:
64,192,49900,1,0,0:0:0:0:
320,192,49950,1,0,0:0:0:0:
192,192,49950,1,0,0:0:0:0:
448,192,50050,1,0,0:0:0:0:
192,192,50050,1,0,0:0:0:0:
64,192,50137,1,0,0:0:0:0:
320,192,50137,1,0,0:0:0:0:
64,192,50250,128,0,51150:0:0:0:0:
448,192,50250,1,0,0:0:0:0:
192,192,50400,1,0,0:0:0:0:
320,192,50550,1,0,0:0:0:0:
448,192,50700,1,0,0:0:0:0:
192,192,50700,1,0,0:0:0:0:
320,192,50850,1,0,0:0:0:0:
448,192,50850,1,0,0:0:0:0:
192,192,51000,1,0,0:0:0:0:
320,192,51150,128,0,52050:0:0:0:0:
448,192,51150,1,0,0:0:0:0:
192,192,51150,1,0,0:0:0:0:
448,192,51300,1,0,0:0:0:0:
64,192,51450,1,0,0:0:0:0:
192,192,51600,1,0,0:0:0:0:
448,192,51750,1,0,0:0:0:0:
64,192,51900,1,0,0:0:0:0:
448,192,52050,128,0,52500:0:0:0:0:
64,192,52050,1,0,0:0:0:0:
192,192,52050,1,0,0:0:0:0:
64,192,52500,128,0,52550:0:0:0:0:
64,192,52600,128,0,52650:0:0:0:0:
192,192,52762,128,0,52912:0:0:0:0:
192,192,52950,128,0,53250:0:0:0:0:
448,192,53250,128,0,53550:0:0:0:0:
64,192,53550,1,0,0:0:0:0:
192,192,53600,1,0,0:0:0:0:
320,192,53650,1,0,0:0:0:0:
448,192,53700,1,0,0:0:0:0:
320,192,53850,128,0,54000:0:0:0:0:
192,192,54000,128,0,54150:0:0:0:0:
448,192,54150,128,0,54300:0:0:0:0:
64,192,54150,1,0,0:0:0:0:
64,192,54300,128,0,54450:0:0:0:0:
320,192,54300,1,0,0:0:0:0:
192,192,54425,1,0,0:0:0:0:
320,192,54450,1,0,0:0:0:0:
448,192,54468,1,0,0:0:0:0:
192,192,54600,1,0,0:0:0:0:
320,192,54600,1,0,0:0:0:0:
448,192,54750,1,0,0:0:0:0:
320,192,54750,1,0,0:0:0:0:
64,192,54900,1,0,0:0:0:0:
192,192,55050,1,0,0:0:0:0:
448,192,55050,1,0,0:0:0:0:
64,192,55200,128,0,55350:0:0:0:0:
448,192,55300,1,0,0:0:0:0:
320,192,55325,1,0,0:0:0:0:
192,192,55350,1,0,0:0:0:0:
320,192,55450,1,0,0:0:0:0:
448,192,55450,1,0,0:0:0:0:
64,192,55575,1,0,0:0:0:0:
448,192,55675,1,0,0:0:0:0:
192,192,55675,1,0,0:0:0:0:
320,192,55800,1,0,0:0:0:0:
64,192,55875,1,0,0:0:0:0:
320,192,55950,1,0,0:0:0:0:
448,192,56050,1,0,0:0:0:0:
64,192,56050,1,0,0:0:0:0:
192,192,56150,1,0,0:0:0:0:
448,192,56250,1,0,0:0:0:0:
64,192,56250,1,0,0:0:0:0:
320,192,56250,1,8,0:0:0:0:
192,192,56350,1,0,0:0:0:0:
448,192,56450,1,0,0:0:0:0:
320,192,56550,1,4,0:0:0:0:
64,192,56550,1,0,0:0:0:0:
192,192,56650,1,0,0:0:0:0:
320,192,56750,1,0,0:0:0:0:
64,192,56850,1,0,0:0:0:0:
192,192,56950,1,0,0:0:0:0:
320,192,57050,1,0,0:0:0:0:
192,192,57150,1,4,0:0:0:0:
448,192,57150,1,0,0:0:0:0:
64,192,57250,1,0,0:0:0:0:
192,192,57350,1,0,0:0:0:0:
320,192,57450,1,0,0:0:0:0:
448,192,57550,1,0,0:0:0:0:
192,192,57650,1,0,0:0:0:0:
64,192,57750,1,4,0:0:0:0:
448,192,57750,1,0,0:0:0:0:
320,192,57850,1,0,0:0:0:0:
192,192,57950,1,0,0:0:0:0:
64,192,58050,1,0,0:0:0:0:
448,192,58050,1,0,0:0:0:0:
192,192,58150,1,0,0:0:0:0:
320,192,58250,1,0,0:0:0:0:
448,192,58350,1,4,0:0:0:0:
64,192,58350,1,0,0:0:0:0:
192,192,58450,1,0,0:0:0:0:
320,192,58550,1,0,0:0:0:0:
64,192,58550,1,0,0:0:0:0:
448,192,58650,1,0,0:0:0:0:
192,192,58650,1,0,0:0:0:0:
320,192,58750,1,0,0:0:0:0:
192,192,58850,1,0,0:0:0:0:
448,192,58950,1,4,0:0:0:0:
64,192,58950,1,0,0:0:0:0:
320,192,59050,1,0,0:0:0:0:
64,192,59150,1,0,0:0:0:0:
320,192,59250,1,0,0:0:0:0:
448,192,59350,1,0,0:0:0:0:
320,192,59450,1,0,0:0:0:0:
64,192,59550,1,0,0:0:0:0:
192,192,59550,1,4,0:0:0:0:
320,192,59650,1,0,0:0:0:0:
448,192,59650,1,0,0:0:0:0:
64,192,59750,1,0,0:0:0:0:
192,192,59850,1,0,0:0:0:0:
448,192,59950,1,0,0:0:0:0:
320,192,60050,1,0,0:0:0:0:
448,192,60150,1,0,0:0:0:0:
64,192,60150,1,4,0:0:0:0:
192,192,60250,1,0,0:0:0:0:
320,192,60350,1,0,0:0:0:0:
448,192,60350,1,0,0:0:0:0:
192,192,60450,1,0,0:0:0:0:
64,192,60450,1,0,0:0:0:0:
320,192,60550,1,0,0:0:0:0:
448,192,60550,1,0,0:0:0:0:
320,192,60650,1,0,0:0:0:0:
192,192,60650,1,0,0:0:0:0:
192,192,60750,1,0,0:0:0:0:
64,192,60750,1,0,0:0:0:0:
320,192,60850,1,0,0:0:0:0:
448,192,60850,1,0,0:0:0:0:
192,192,60950,1,0,0:0:0:0:
64,192,60950,1,0,0:0:0:0:
192,192,61050,1,0,0:0:0:0:
320,192,61050,1,0,0:0:0:0:
448,192,61150,1,0,0:0:0:0:
320,192,61250,1,0,0:0:0:0:
448,192,61350,1,0,0:0:0:0:
192,192,61350,1,4,0:0:0:0:
64,192,61350,1,0,0:0:0:0:
320,192,61450,1,0,0:0:0:0:
64,192,61550,1,0,0:0:0:0:
192,192,61650,1,0,0:0:0:0:
320,192,61650,1,0,0:0:0:0:
448,192,61750,1,0,0:0:0:0:
320,192,61850,1,0,0:0:0:0:
192,192,61950,1,4,0:0:0:0:
64,192,61950,1,0,0:0:0:0:
448,192,61950,1,0,0:0:0:0:
320,192,62050,1,0,0:0:0:0:
448,192,62050,1,0,0:0:0:0:
64,192,62150,1,0,0:0:0:0:
192,192,62250,1,0,0:0:0:0:
320,192,62250,1,0,0:0:0:0:
448,192,62350,1,0,0:0:0:0:
320,192,62450,1,2,0:0:0:0:
64,192,62450,1,0,0:0:0:0:
192,192,62550,5,2,0:0:0:0:
448,192,62550,1,4,0:0:0:0:
64,192,62550,1,0,0:0:0:0:
320,192,62650,1,0,0:0:0:0:
192,192,62750,1,0,0:0:0:0:
448,192,62750,1,2,0:0:0:0:
320,192,62850,1,2,0:0:0:0:
64,192,62850,1,0,0:0:0:0:
192,192,62850,1,0,0:0:0:0:
448,192,62950,1,0,0:0:0:0:
64,192,62950,1,0,0:0:0:0:
320,192,63050,1,2,0:0:0:0:
192,192,63050,1,0,0:0:0:0:
64,192,63150,1,0,0:0:0:0:
448,192,63150,1,2,0:0:0:0:
320,192,63150,1,0,0:0:0:0:
448,192,63250,1,0,0:0:0:0:
64,192,63250,1,0,0:0:0:0:
192,192,63350,1,0,0:0:0:0:
320,192,63350,1,2,0:0:0:0:
64,192,63450,1,0,0:0:0:0:
320,192,63450,1,2,0:0:0:0:
448,192,63450,1,0,0:0:0:0:
192,192,63550,1,0,0:0:0:0:
320,192,63650,5,2,0:0:0:0:
448,192,63650,1,0,0:0:0:0:
192,192,63750,1,0,0:0:0:0:
64,192,63750,1,2,0:0:0:0:
448,192,63750,1,0,0:0:0:0:
320,192,63850,1,0,0:0:0:0:
192,192,63950,1,0,0:0:0:0:
448,192,63950,1,2,0:0:0:0:
320,192,64050,1,2,0:0:0:0:
64,192,64050,1,0,0:0:0:0:
192,192,64050,1,0,0:0:0:0:
448,192,64150,1,0,0:0:0:0:
320,192,64250,1,2,0:0:0:0:
64,192,64250,1,0,0:0:0:0:
448,192,64350,1,0,0:0:0:0:
192,192,64350,1,2,0:0:0:0:
64,192,64350,1,0,0:0:0:0:
448,192,64450,1,0,0:0:0:0:
320,192,64550,1,2,0:0:0:0:
64,192,64550,1,0,0:0:0:0:
448,192,64650,1,2,0:0:0:0:
192,192,64650,1,0,0:0:0:0:
64,192,64650,1,0,0:0:0:0:
320,192,64750,1,0,0:0:0:0:
448,192,64850,1,2,0:0:0:0:
192,192,64850,1,0,0:0:0:0:
64,192,64950,1,0,0:0:0:0:
320,192,64950,1,2,0:0:0:0:
192,192,64950,1,0,0:0:0:0:
448,192,65050,1,0,0:0:0:0:
192,192,65150,1,2,0:0:0:0:
64,192,65150,1,0,0:0:0:0:
320,192,65250,1,0,0:0:0:0:
448,192,65250,1,2,0:0:0:0:
64,192,65250,1,0,0:0:0:0:
192,192,65350,1,0,0:0:0:0:
64,192,65450,1,2,0:0:0:0:
448,192,65450,1,2,0:0:0:0:
320,192,65450,1,0,0:0:0:0:
192,192,65550,1,0,0:0:0:0:
448,192,65550,1,0,0:0:0:0:
320,192,65650,1,0,0:0:0:0:
64,192,65650,1,0,0:0:0:0:
448,192,65750,1,0,0:0:0:0:
192,192,65750,1,0,0:0:0:0:
320,192,65850,5,0,0:0:0:0:
192,192,65850,1,8,0:0:0:0:
64,192,65850,1,0,0:0:0:0:
448,192,65950,1,0,0:0:0:0:
192,192,66050,1,0,0:0:0:0:
448,192,66150,1,0,0:0:0:0:
320,192,66150,1,2,0:0:0:0:
64,192,66150,1,2,0:0:0:0:
192,192,66250,1,0,0:0:0:0:
320,192,66350,1,0,0:0:0:0:
448,192,66450,1,2,0:0:0:0:
192,192,66450,1,2,0:0:0:0:
64,192,66450,1,0,0:0:0:0:
320,192,66550,1,0,0:0:0:0:
64,192,66650,1,0,0:0:0:0:
448,192,66750,1,0,0:0:0:0:
320,192,66750,1,2,0:0:0:0:
192,192,66750,1,2,0:0:0:0:
64,192,66850,1,0,0:0:0:0:
192,192,66950,1,0,0:0:0:0:
448,192,67050,1,0,0:0:0:0:
320,192,67050,1,2,0:0:0:0:
64,192,67050,1,2,0:0:0:0:
192,192,67150,1,0,0:0:0:0:
448,192,67250,1,0,0:0:0:0:
320,192,67350,1,2,0:0:0:0:
192,192,67350,1,2,0:0:0:0:
64,192,67350,1,0,0:0:0:0:
448,192,67450,1,0,0:0:0:0:
64,192,67550,1,0,0:0:0:0:
448,192,67650,1,0,0:0:0:0:
320,192,67650,1,2,0:0:0:0:
192,192,67650,1,2,0:0:0:0:
64,192,67750,1,0,0:0:0:0:
320,192,67850,1,0,0:0:0:0:
192,192,67950,1,2,0:0:0:0:
448,192,67950,1,2,0:0:0:0:
64,192,67950,1,0,0:0:0:0:
320,192,68050,1,0,0:0:0:0:
192,192,68150,1,0,0:0:0:0:
64,192,68250,1,2,0:0:0:0:
320,192,68250,1,2,0:0:0:0:
448,192,68250,1,0,0:0:0:0:
192,192,68350,1,0,0:0:0:0:
448,192,68450,1,0,0:0:0:0:
64,192,68550,1,0,0:0:0:0:
192,192,68550,1,2,0:0:0:0:
320,192,68550,1,2,0:0:0:0:
448,192,68650,1,0,0:0:0:0:
192,192,68750,1,0,0:0:0:0:
64,192,68850,1,2,0:0:0:0:
320,192,68850,1,2,0:0:0:0:
448,192,68850,1,0,0:0:0:0:
192,192,68950,1,0,0:0:0:0:
320,192,69050,1,0,0:0:0:0:
448,192,69150,1,2,0:0:0:0:
192,192,69150,1,2,0:0:0:0:
64,192,69150,1,0,0:0:0:0:
320,192,69250,1,0,0:0:0:0:
64,192,69350,1,0,0:0:0:0:
192,192,69450,1,2,0:0:0:0:
320,192,69450,1,2,0:0:0:0:
448,192,69450,1,0,0:0:0:0:
64,192,69550,1,0,0:0:0:0:
320,192,69650,1,0,0:0:0:0:
448,192,69750,1,2,0:0:0:0:
64,192,69750,1,0,0:0:0:0:
192,192,69750,1,2,0:0:0:0:
320,192,69850,1,0,0:0:0:0:
192,192,69950,1,0,0:0:0:0:
320,192,70050,1,2,0:0:0:0:
448,192,70050,1,0,0:0:0:0:
64,192,70050,1,2,0:0:0:0:
192,192,70150,1,0,0:0:0:0:
448,192,70250,1,0,0:0:0:0:
192,192,70350,1,2,0:0:0:0:
320,192,70350,1,2,0:0:0:0:
64,192,70350,1,0,0:0:0:0:
448,192,70450,1,0,0:0:0:0:
192,192,70550,1,0,0:0:0:0:
64,192,70650,1,2,0:0:0:0:
320,192,70650,1,2,0:0:0:0:
448,192,70650,1,0,0:0:0:0:
192,192,70750,1,0,0:0:0:0:
448,192,70850,1,2,0:0:0:0:
320,192,70850,1,2,0:0:0:0:
448,192,70950,1,2,0:0:0:0:
192,192,70950,1,0,0:0:0:0:
64,192,70950,1,2,0:0:0:0:
320,192,71050,1,0,0:0:0:0:
192,192,71150,1,0,0:0:0:0:
320,192,71250,1,2,0:0:0:0:
448,192,71250,1,2,0:0:0:0:
64,192,71250,1,0,0:0:0:0:
192,192,71350,1,0,0:0:0:0:
448,192,71450,1,0,0:0:0:0:
448,192,71550,1,2,0:0:0:0:
320,192,71550,1,2,0:0:0:0:
64,192,71550,1,0,0:0:0:0:
192,192,71550,1,0,0:0:0:0:
64,192,71650,1,2,0:0:0:0:
192,192,71650,1,2,0:0:0:0:
448,192,71750,1,2,0:0:0:0:
320,192,71750,1,2,0:0:0:0:
192,192,71750,1,0,0:0:0:0:
64,192,71750,1,0,0:0:0:0:
320,192,71850,1,2,0:0:0:0:
448,192,71850,1,2,0:0:0:0:
64,192,71950,1,0,0:0:0:0:
64,192,72050,1,0,0:0:0:0:
192,192,72050,1,0,0:0:0:0:
320,192,72050,1,2,0:0:0:0:
448,192,72050,1,2,0:0:0:0:
320,192,72150,1,2,0:0:0:0:
448,192,72150,1,2,0:0:0:0:
448,192,72250,1,0,0:0:0:0:
320,192,72250,1,0,0:0:0:0:
192,192,72250,1,2,0:0:0:0:
64,192,72250,1,2,0:0:0:0:
192,192,72350,1,2,0:0:0:0:
64,192,72350,1,2,0:0:0:0:
64,192,72450,1,0,0:0:0:0:
192,192,72450,1,0,0:0:0:0:
320,192,72450,1,2,0:0:0:0:
448,192,72450,1,2,0:0:0:0:
320,192,72550,1,0,0:0:0:0:
64,192,72650,1,0,0:0:0:0:
320,192,72750,1,2,0:0:0:0:
448,192,72750,1,0,0:0:0:0:
192,192,72750,1,2,0:0:0:0:
64,192,72850,1,0,0:0:0:0:
192,192,72950,1,0,0:0:0:0:
448,192,73050,1,0,0:0:0:0:
64,192,73050,1,2,0:0:0:0:
320,192,73050,1,2,0:0:0:0:
192,192,73150,1,0,0:0:0:0:
448,192,73250,1,2,0:0:0:0:
320,192,73250,1,2,0:0:0:0:
64,192,73350,1,2,0:0:0:0:
448,192,73350,1,0,0:0:0:0:
320,192,73350,1,2,0:0:0:0:
192,192,73450,1,0,0:0:0:0:
320,192,73550,1,2,0:0:0:0:
448,192,73550,1,2,0:0:0:0:
448,192,73650,1,0,0:0:0:0:
320,192,73650,1,2,0:0:0:0:
64,192,73650,1,2,0:0:0:0:
192,192,73750,1,0,0:0:0:0:
448,192,73850,1,0,0:0:0:0:
448,192,73950,1,0,0:0:0:0:
320,192,73950,1,2,0:0:0:0:
192,192,73950,1,2,0:0:0:0:
64,192,73950,1,0,0:0:0:0:
64,192,74050,1,0,0:0:0:0:
192,192,74150,1,2,0:0:0:0:
320,192,74150,1,2,0:0:0:0:
64,192,74250,1,0,0:0:0:0:
192,192,74250,1,2,0:0:0:0:
320,192,74250,1,2,0:0:0:0:
448,192,74250,1,0,0:0:0:0:
448,192,74350,1,0,0:0:0:0:
320,192,74450,1,2,0:0:0:0:
448,192,74450,1,2,0:0:0:0:
64,192,74450,1,0,0:0:0:0:
192,192,74450,1,0,0:0:0:0:
64,192,74550,1,2,0:0:0:0:
192,192,74550,1,2,0:0:0:0:
192,192,74650,1,0,0:0:0:0:
64,192,74650,1,0,0:0:0:0:
448,192,74650,1,2,0:0:0:0:
320,192,74650,1,2,0:0:0:0:
320,192,74750,1,2,0:0:0:0:
192,192,74750,1,2,0:0:0:0:
64,192,74850,1,0,0:0:0:0:
192,192,74850,1,0,0:0:0:0:
320,192,74850,1,2,0:0:0:0:
448,192,74850,1,2,0:0:0:0:
448,192,74950,1,2,0:0:0:0:
320,192,74950,1,2,0:0:0:0:
320,192,75050,1,2,0:0:0:0:
192,192,75050,1,0,0:0:0:0:
448,192,75050,1,2,0:0:0:0:
64,192,75050,1,0,0:0:0:0:
320,192,75150,1,2,0:0:0:0:
192,192,75150,1,2,0:0:0:0:
320,192,75250,1,2,0:0:0:0:
192,192,75250,1,0,0:0:0:0:
64,192,75250,1,0,0:0:0:0:
448,192,75250,1,2,0:0:0:0:
64,192,75350,1,2,0:0:0:0:
192,192,75350,1,2,0:0:0:0:
448,192,75450,1,8,0:0:0:0:
64,192,75450,128,0,75750:0:0:0:0:
192,192,75450,1,0,0:0:0:0:
320,192,75750,128,0,76050:0:0:0:0:
192,192,76050,128,0,76350:0:0:0:0:
448,192,76350,128,0,76800:0:0:0:0:
64,192,76800,128,0,77250:0:0:0:0:
320,192,77250,128,0,77850:0:0:0:0:
64,192,77850,128,0,78450:0:0:0:0:
192,192,77850,1,0,0:0:0:0:
448,192,78000,128,0,78450:0:0:0:0:
448,192,79050,1,0,0:0:0:0:
192,192,79050,1,8,0:0:0:0:
64,192,79050,1,0,0:0:0:0:
320,192,79150,1,0,0:0:0:0:
64,192,79200,1,0,0:0:0:0:
192,192,79200,1,0,0:0:0:0:
448,192,79250,1,0,0:0:0:0:
64,192,79350,1,4,0:0:0:0:
320,192,79350,1,4,0:0:0:0:
192,192,79450,1,0,0:0:0:0:
320,192,79550,1,0,0:0:0:0:
448,192,79650,1,0,0:0:0:0:
192,192,79750,1,0,0:0:0:0:
64,192,79800,1,0,0:0:0:0:
448,192,79800,1,0,0:0:0:0:
320,192,79850,1,0,0:0:0:0:
448,192,79950,1,4,0:0:0:0:
192,192,79950,1,4,0:0:0:0:
320,192,80050,1,0,0:0:0:0:
64,192,80100,1,0,0:0:0:0:
448,192,80100,1,0,0:0:0:0:
192,192,80150,1,0,0:0:0:0:
448,192,80250,1,0,0:0:0:0:
320,192,80250,1,0,0:0:0:0:
64,192,80350,1,0,0:0:0:0:
192,192,80400,1,0,0:0:0:0:
320,192,80400,1,0,0:0:0:0:
448,192,80450,1,0,0:0:0:0:
64,192,80550,1,4,0:0:0:0:
320,192,80550,1,4,0:0:0:0:
192,192,80650,1,0,0:0:0:0:
320,192,80750,1,0,0:0:0:0:
192,192,80850,1,0,0:0:0:0:
448,192,80850,1,0,0:0:0:0:
64,192,80950,1,0,0:0:0:0:
320,192,81000,1,0,0:0:0:0:
448,192,81000,1,0,0:0:0:0:
192,192,81050,1,0,0:0:0:0:
64,192,81150,1,0,0:0:0:0:
320,192,81150,1,0,0:0:0:0:
448,192,81250,1,0,0:0:0:0:
320,192,81300,1,0,0:0:0:0:
192,192,81300,1,0,0:0:0:0:
64,192,81350,1,0,0:0:0:0:
448,192,81450,1,0,0:0:0:0:
320,192,81450,1,0,0:0:0:0:
192,192,81550,1,0,0:0:0:0:
320,192,81600,1,0,0:0:0:0:
64,192,81600,1,0,0:0:0:0:
448,192,81650,1,0,0:0:0:0:
320,192,81750,1,4,0:0:0:0:
192,192,81750,1,4,0:0:0:0:
64,192,81850,1,0,0:0:0:0:
448,192,81950,1,0,0:0:0:0:
192,192,82050,1,0,0:0:0:0:
320,192,82050,1,0,0:0:0:0:
64,192,82150,1,0,0:0:0:0:
320,192,82200,1,0,0:0:0:0:
448,192,82200,1,0,0:0:0:0:
192,192,82250,1,0,0:0:0:0:
320,192,82350,1,4,0:0:0:0:
64,192,82350,1,4,0:0:0:0:
448,192,82450,1,0,0:0:0:0:
192,192,82500,1,0,0:0:0:0:
320,192,82500,1,0,0:0:0:0:
64,192,82550,1,0,0:0:0:0:
192,192,82650,1,0,0:0:0:0:
448,192,82650,1,0,0:0:0:0:
320,192,82750,1,0,0:0:0:0:
64,192,82800,1,0,0:0:0:0:
192,192,82800,1,0,0:0:0:0:
448,192,82850,1,0,0:0:0:0:
320,192,82950,1,4,0:0:0:0:
64,192,82950,1,4,0:0:0:0:
192,192,83050,1,0,0:0:0:0:
448,192,83150,1,0,0:0:0:0:
320,192,83150,1,0,0:0:0:0:
320,192,83250,1,0,0:0:0:0:
192,192,83250,1,0,0:0:0:0:
64,192,83350,1,0,0:0:0:0:
192,192,83350,1,0,0:0:0:0:
448,192,83450,1,0,0:0:0:0:
64,192,83450,1,0,0:0:0:0:
192,192,83550,1,0,0:0:0:0:
448,192,83550,1,0,0:0:0:0:
320,192,83650,1,0,0:0:0:0:
192,192,83650,1,0,0:0:0:0:
64,192,83750,1,0,0:0:0:0:
320,192,83750,1,0,0:0:0:0:
64,192,83850,1,0,0:0:0:0:
448,192,83850,1,0,0:0:0:0:
320,192,83950,1,0,0:0:0:0:
64,192,84000,1,0,0:0:0:0:
448,192,84000,1,0,0:0:0:0:
192,192,84050,1,0,0:0:0:0:
448,192,84150,1,4,0:0:0:0:
320,192,84150,1,4,0:0:0:0:
64,192,84250,1,0,0:0:0:0:
320,192,84350,1,0,0:0:0:0:
448,192,84450,1,0,0:0:0:0:
192,192,84450,1,0,0:0:0:0:
64,192,84550,1,0,0:0:0:0:
192,192,84600,1,0,0:0:0:0:
320,192,84600,1,0,0:0:0:0:
448,192,84650,1,0,0:0:0:0:
320,192,84750,1,4,0:0:0:0:
64,192,84750,1,4,0:0:0:0:
192,192,84850,1,0,0:0:0:0:
448,192,84900,1,0,0:0:0:0:
64,192,84900,1,0,0:0:0:0:
320,192,84950,1,0,0:0:0:0:
64,192,85050,1,0,0:0:0:0:
192,192,85050,1,0,0:0:0:0:
320,192,85150,1,0,0:0:0:0:
192,192,85250,1,0,0:0:0:0:
448,192,85350,1,4,0:0:0:0:
64,192,85350,1,4,0:0:0:0:
192,192,85450,1,0,0:0:0:0:
448,192,85550,1,0,0:0:0:0:
320,192,85550,1,0,0:0:0:0:
320,192,85650,1,0,0:0:0:0:
192,192,85650,1,0,0:0:0:0:
64,192,85750,1,0,0:0:0:0:
192,192,85750,1,0,0:0:0:0:
64,192,85850,1,0,0:0:0:0:
320,192,85850,1,0,0:0:0:0:
320,192,85950,1,0,0:0:0:0:
448,192,85950,1,0,0:0:0:0:
192,192,86050,1,0,0:0:0:0:
448,192,86050,1,0,0:0:0:0:
320,192,86150,1,0,0:0:0:0:
192,192,86150,1,0,0:0:0:0:
64,192,86250,1,0,0:0:0:0:
320,192,86250,1,0,0:0:0:0:
448,192,86350,1,0,0:0:0:0:
320,192,86400,1,0,0:0:0:0:
192,192,86400,1,0,0:0:0:0:
64,192,86450,1,0,0:0:0:0:
448,192,86550,1,4,0:0:0:0:
320,192,86550,1,4,0:0:0:0:
64,192,86650,1,0,0:0:0:0:
192,192,86750,1,0,0:0:0:0:
320,192,86850,1,0,0:0:0:0:
64,192,86850,1,0,0:0:0:0:
448,192,86950,1,0,0:0:0:0:
192,192,87000,1,0,0:0:0:0:
320,192,87000,1,0,0:0:0:0:
64,192,87050,1,0,0:0:0:0:
448,192,87150,1,0,0:0:0:0:
320,192,87150,1,0,0:0:0:0:
64,192,87250,1,0,0:0:0:0:
192,192,87250,1,0,0:0:0:0:
320,192,87350,1,0,0:0:0:0:
192,192,87350,1,0,0:0:0:0:
320,192,87450,1,0,0:0:0:0:
64,192,87450,1,0,0:0:0:0:
64,192,87550,1,0,0:0:0:0:
448,192,87550,1,0,0:0:0:0:
448,192,87650,1,0,0:0:0:0:
192,192,87650,1,0,0:0:0:0:
192,192,87750,1,0,0:0:0:0:
320,192,87750,1,0,0:0:0:0:
64,192,87850,1,0,0:0:0:0:
320,192,87850,1,0,0:0:0:0:
64,192,87950,1,0,0:0:0:0:
448,192,87950,1,0,0:0:0:0:
448,192,88050,1,0,0:0:0:0:
192,192,88050,1,0,0:0:0:0:
192,192,88150,1,0,0:0:0:0:
320,192,88150,1,0,0:0:0:0:
320,192,88250,1,0,0:0:0:0:
64,192,88250,1,0,0:0:0:0:
64,192,88350,1,0,0:0:0:0:
448,192,88350,1,0,0:0:0:0:
320,192,88450,1,0,0:0:0:0:
448,192,88450,1,0,0:0:0:0:
192,192,88550,1,0,0:0:0:0:
320,192,88550,1,0,0:0:0:0:
448,192,88650,1,0,0:0:0:0:
64,192,88650,1,0,0:0:0:0:
320,192,88750,1,0,0:0:0:0:
192,192,88800,1,0,0:0:0:0:
448,192,88800,1,0,0:0:0:0:
64,192,88850,1,0,0:0:0:0:
192,192,88950,1,4,0:0:0:0:
448,192,88950,1,4,0:0:0:0:
64,192,89050,1,0,0:0:0:0:
320,192,89150,1,0,0:0:0:0:
192,192,89250,1,0,0:0:0:0:
64,192,89250,1,0,0:0:0:0:
320,192,89350,1,0,0:0:0:0:
64,192,89400,1,0,0:0:0:0:
448,192,89400,1,0,0:0:0:0:
192,192,89450,1,0,0:0:0:0:
448,192,89550,1,4,0:0:0:0:
320,192,89550,1,4,0:0:0:0:
64,192,89650,1,0,0:0:0:0:
192,192,89700,1,0,0:0:0:0:
320,192,89700,1,0,0:0:0:0:
448,192,89750,1,0,0:0:0:0:
64,192,89850,1,0,0:0:0:0:
192,192,89850,1,0,0:0:0:0:
448,192,89950,1,0,0:0:0:0:
320,192,90000,1,0,0:0:0:0:
64,192,90000,1,0,0:0:0:0:
192,192,90050,1,0,0:0:0:0:
320,192,90150,1,4,0:0:0:0:
448,192,90150,1,4,0:0:0:0:
192,192,90250,1,0,0:0:0:0:
64,192,90350,1,0,0:0:0:0:
192,192,90450,1,0,0:0:0:0:
448,192,90450,1,0,0:0:0:0:
320,192,90550,1,0,0:0:0:0:
192,192,90600,1,0,0:0:0:0:
64,192,90600,1,0,0:0:0:0:
448,192,90650,1,0,0:0:0:0:
64,192,90750,1,0,0:0:0:0:
192,192,90750,1,0,0:0:0:0:
320,192,90850,1,0,0:0:0:0:
64,192,90900,1,0,0:0:0:0:
448,192,90900,1,0,0:0:0:0:
192,192,90950,1,0,0:0:0:0:
448,192,91050,1,0,0:0:0:0:
320,192,91050,1,0,0:0:0:0:
64,192,91150,1,0,0:0:0:0:
320,192,91250,1,0,0:0:0:0:
448,192,91350,1,4,0:0:0:0:
192,192,91350,1,4,0:0:0:0:
64,192,91450,1,0,0:0:0:0:
192,192,91550,1,0,0:0:0:0:
320,192,91650,1,0,0:0:0:0:
448,192,91650,1,0,0:0:0:0:
192,192,91750,1,0,0:0:0:0:
320,192,91800,1,0,0:0:0:0:
64,192,91800,1,0,0:0:0:0:
448,192,91850,1,0,0:0:0:0:
320,192,91950,1,4,0:0:0:0:
192,192,91950,1,4,0:0:0:0:
448,192,92050,1,0,0:0:0:0:
320,192,92100,1,0,0:0:0:0:
64,192,92100,1,0,0:0:0:0:
192,192,92150,1,0,0:0:0:0:
448,192,92250,1,0,0:0:0:0:
320,192,92250,1,0,0:0:0:0:
64,192,92350,1,0,0:0:0:0:
192,192,92400,1,0,0:0:0:0:
320,192,92400,1,0,0:0:0:0:
448,192,92450,1,0,0:0:0:0:
320,192,92550,1,4,0:0:0:0:
64,192,92550,1,4,0:0:0:0:
64,192,92650,1,0,0:0:0:0:
448,192,92750,1,0,0:0:0:0:
192,192,92750,1,0,0:0:0:0:
320,192,92850,1,0,0:0:0:0:
448,192,92850,1,0,0:0:0:0:
192,192,92950,1,0,0:0:0:0:
320,192,92950,1,0,0:0:0:0:
64,192,93050,1,0,0:0:0:0:
192,192,93050,1,0,0:0:0:0:
64,192,93150,1,0,0:0:0:0:
320,192,93150,1,0,0:0:0:0:
320,192,93250,1,0,0:0:0:0:
192,192,93250,1,0,0:0:0:0:
448,192,93350,1,0,0:0:0:0:
192,192,93350,1,0,0:0:0:0:
448,192,93450,1,0,0:0:0:0:
64,192,93450,1,0,0:0:0:0:
192,192,93550,1,0,0:0:0:0:
320,192,93600,1,0,0:0:0:0:
64,192,93600,1,0,0:0:0:0:
448,192,93650,1,0,0:0:0:0:
64,192,93750,1,4,0:0:0:0:
448,192,93750,1,4,0:0:0:0:
320,192,93850,1,0,0:0:0:0:
192,192,93950,1,0,0:0:0:0:
448,192,94050,1,0,0:0:0:0:
64,192,94050,1,0,0:0:0:0:
320,192,94150,1,0,0:0:0:0:
192,192,94200,1,0,0:0:0:0:
448,192,94200,1,0,0:0:0:0:
64,192,94250,1,0,0:0:0:0:
192,192,94350,1,4,0:0:0:0:
320,192,94350,1,4,0:0:0:0:
448,192,94450,1,0,0:0:0:0:
192,192,94500,1,0,0:0:0:0:
64,192,94500,1,0,0:0:0:0:
320,192,94550,1,0,0:0:0:0:
64,192,94650,1,0,0:0:0:0:
448,192,94650,1,0,0:0:0:0:
320,192,94750,1,0,0:0:0:0:
192,192,94800,1,0,0:0:0:0:
64,192,94800,1,0,0:0:0:0:
448,192,94850,1,0,0:0:0:0:
320,192,94950,1,4,0:0:0:0:
64,192,94950,1,4,0:0:0:0:
192,192,95050,1,0,0:0:0:0:
448,192,95150,1,0,0:0:0:0:
64,192,95150,1,0,0:0:0:0:
320,192,95250,1,0,0:0:0:0:
192,192,95250,1,0,0:0:0:0:
64,192,95350,1,0,0:0:0:0:
320,192,95350,1,0,0:0:0:0:
448,192,95450,1,0,0:0:0:0:
64,192,95450,1,0,0:0:0:0:
192,192,95550,1,0,0:0:0:0:
448,192,95550,1,0,0:0:0:0:
320,192,95650,1,0,0:0:0:0:
192,192,95650,1,0,0:0:0:0:
448,192,95750,1,0,0:0:0:0:
320,192,95750,1,0,0:0:0:0:
448,192,95850,1,0,0:0:0:0:
192,192,95850,1,0,0:0:0:0:
192,192,95950,1,0,0:0:0:0:
320,192,95950,1,0,0:0:0:0:
64,192,96050,1,0,0:0:0:0:
320,192,96050,1,0,0:0:0:0:
64,192,96150,1,4,0:0:0:0:
448,192,96150,1,4,0:0:0:0:
192,192,96250,1,0,0:0:0:0:
320,192,96350,1,0,0:0:0:0:
448,192,96450,1,0,0:0:0:0:
320,192,96550,1,0,0:0:0:0:
64,192,96600,1,0,0:0:0:0:
192,192,96600,1,0,0:0:0:0:
448,192,96650,1,0,0:0:0:0:
64,192,96750,1,0,0:0:0:0:
192,192,96850,1,0,0:0:0:0:
320,192,96900,1,0,0:0:0:0:
448,192,96900,1,0,0:0:0:0:
64,192,96950,1,4,0:0:0:0:
448,192,97050,1,0,0:0:0:0:
192,192,97050,1,0,0:0:0:0:
64,192,97150,5,0,0:0:0:0:
448,192,97150,1,0,0:0:0:0:
320,192,97250,1,0,0:0:0:0:
64,192,97250,1,0,0:0:0:0:
448,192,97350,1,4,0:0:0:0:
192,192,97350,1,4,0:0:0:0:
64,192,97450,1,0,0:0:0:0:
448,192,97450,1,0,0:0:0:0:
320,192,97550,1,0,0:0:0:0:
64,192,97550,1,0,0:0:0:0:
192,192,97650,1,0,0:0:0:0:
320,192,97650,1,0,0:0:0:0:
448,192,97750,1,0,0:0:0:0:
192,192,97750,1,0,0:0:0:0:
320,192,97850,1,0,0:0:0:0:
448,192,97850,1,0,0:0:0:0:
64,192,97950,1,0,0:0:0:0:
320,192,97950,1,0,0:0:0:0:
448,192,98050,1,0,0:0:0:0:
64,192,98050,1,0,0:0:0:0:
320,192,98150,1,0,0:0:0:0:
192,192,98250,5,0,0:0:0:0:
64,192,98250,1,0,0:0:0:0:
192,192,98350,1,0,0:0:0:0:
64,192,98350,1,0,0:0:0:0:
320,192,98450,1,0,0:0:0:0:
64,192,98450,1,0,0:0:0:0:
320,192,98550,1,0,0:0:0:0:
64,192,98550,1,0,0:0:0:0:
448,192,98650,1,0,0:0:0:0:
64,192,98650,1,0,0:0:0:0:
320,192,98850,1,0,0:0:0:0:
448,192,98850,1,0,0:0:0:0:
320,192,98950,1,0,0:0:0:0:
448,192,98950,1,0,0:0:0:0:
448,192,99050,1,0,0:0:0:0:
192,192,99050,1,0,0:0:0:0:
448,192,99150,1,0,0:0:0:0:
192,192,99150,1,0,0:0:0:0:
448,192,99250,1,0,0:0:0:0:
64,192,99250,1,0,0:0:0:0:
192,192,99450,1,0,0:0:0:0:
320,192,99450,1,0,0:0:0:0:
320,192,99550,1,0,0:0:0:0:
448,192,99550,1,0,0:0:0:0:
192,192,99650,1,0,0:0:0:0:
64,192,99650,1,0,0:0:0:0:
320,192,99750,1,0,0:0:0:0:
192,192,99750,1,0,0:0:0:0:
64,192,99850,1,0,0:0:0:0:
448,192,99850,1,0,0:0:0:0:
192,192,99950,1,0,0:0:0:0:
320,192,99950,1,0,0:0:0:0:
192,192,100050,1,0,0:0:0:0:
64,192,100050,1,0,0:0:0:0:
320,192,100150,1,0,0:0:0:0:
448,192,100150,1,0,0:0:0:0:
192,192,100250,1,0,0:0:0:0:
320,192,100250,1,0,0:0:0:0:
448,192,100350,1,0,0:0:0:0:
64,192,100350,1,0,0:0:0:0:
192,192,100450,1,0,0:0:0:0:
320,192,100450,1,0,0:0:0:0:
320,192,100550,1,0,0:0:0:0:
448,192,100550,1,0,0:0:0:0:
192,192,100650,1,0,0:0:0:0:
64,192,100650,1,0,0:0:0:0:
448,192,100750,1,0,0:0:0:0:
64,192,100750,1,0,0:0:0:0:
448,192,100850,1,0,0:0:0:0:
320,192,100850,1,0,0:0:0:0:
448,192,100950,1,0,0:0:0:0:
192,192,100950,1,0,0:0:0:0:
448,192,101050,1,0,0:0:0:0:
64,192,101050,1,0,0:0:0:0:
64,192,101250,1,0,0:0:0:0:
192,192,101250,1,0,0:0:0:0:
64,192,101350,1,0,0:0:0:0:
320,192,101350,1,0,0:0:0:0:
64,192,101450,1,0,0:0:0:0:
448,192,101450,1,0,0:0:0:0:
448,192,101550,1,0,0:0:0:0:
192,192,101550,1,0,0:0:0:0:
192,192,101650,1,0,0:0:0:0:
320,192,101650,1,0,0:0:0:0:
64,192,101850,1,0,0:0:0:0:
320,192,101850,1,0,0:0:0:0:
448,192,101950,1,0,0:0:0:0:
64,192,101950,1,0,0:0:0:0:
192,192,102050,1,0,0:0:0:0:
448,192,102050,1,0,0:0:0:0:
320,192,102150,1,0,0:0:0:0:
192,192,102150,1,0,0:0:0:0:
320,192,102250,1,0,0:0:0:0:
64,192,102250,1,0,0:0:0:0:
64,192,102350,1,0,0:0:0:0:
448,192,102350,1,0,0:0:0:0:
320,192,102450,1,0,0:0:0:0:
448,192,102475,1,0,0:0:0:0:
64,192,102500,1,0,0:0:0:0:
192,192,102525,1,0,0:0:0:0:
320,192,102550,1,0,0:0:0:0:
448,192,102575,1,0,0:0:0:0:
192,192,102600,1,0,0:0:0:0:
64,192,102625,1,0,0:0:0:0:
448,192,102650,1,0,0:0:0:0:
320,192,102675,1,0,0:0:0:0:
192,192,102700,1,0,0:0:0:0:
64,192,102725,1,0,0:0:0:0:
448,192,102750,1,0,0:0:0:0:
320,192,102750,1,0,0:0:0:0:
64,192,102850,1,0,0:0:0:0:
192,192,102850,1,0,0:0:0:0:
320,192,102950,1,0,0:0:0:0:
448,192,102950,1,0,0:0:0:0:
320,192,103050,1,8,0:0:0:0:
64,192,103050,1,0,0:0:0:0:
448,192,103050,1,8,0:0:0:0:
192,192,103150,1,0,0:0:0:0:
64,192,103250,1,0,0:0:0:0:
320,192,103350,1,0,0:0:0:0:
192,192,103350,1,0,0:0:0:0:
448,192,103450,1,0,0:0:0:0:
192,192,103550,1,0,0:0:0:0:
64,192,103650,1,0,0:0:0:0:
320,192,103750,1,0,0:0:0:0:
448,192,103750,1,0,0:0:0:0:
192,192,103850,1,0,0:0:0:0:
320,192,103950,1,0,0:0:0:0:
64,192,104050,1,0,0:0:0:0:
192,192,104150,1,0,0:0:0:0:
448,192,104150,1,0,0:0:0:0:
320,192,104250,1,8,0:0:0:0:
64,192,104250,1,8,0:0:0:0:
448,192,104250,1,0,0:0:0:0:
192,192,104350,1,0,0:0:0:0:
64,192,104400,1,0,0:0:0:0:
448,192,104400,1,0,0:0:0:0:
320,192,104450,1,0,0:0:0:0:
192,192,104550,1,0,0:0:0:0:
64,192,104550,1,0,0:0:0:0:
448,192,104650,1,0,0:0:0:0:
64,192,104700,1,0,0:0:0:0:
320,192,104700,1,0,0:0:0:0:
192,192,104750,1,0,0:0:0:0:
192,192,104850,1,0,0:0:0:0:
64,192,104850,1,0,0:0:0:0:
320,192,104950,1,0,0:0:0:0:
64,192,105000,1,0,0:0:0:0:
448,192,105000,1,0,0:0:0:0:
192,192,105050,1,0,0:0:0:0:
448,192,105150,1,0,0:0:0:0:
320,192,105150,1,0,0:0:0:0:
64,192,105250,1,0,0:0:0:0:
320,192,105350,1,0,0:0:0:0:
64,192,105450,1,8,0:0:0:0:
448,192,105450,1,8,0:0:0:0:
320,192,105450,1,0,0:0:0:0:
192,192,105550,1,0,0:0:0:0:
320,192,105600,1,0,0:0:0:0:
448,192,105600,1,0,0:0:0:0:
64,192,105650,1,0,0:0:0:0:
448,192,105750,1,0,0:0:0:0:
192,192,105750,1,0,0:0:0:0:
320,192,105850,1,0,0:0:0:0:
64,192,105900,1,0,0:0:0:0:
192,192,105900,1,0,0:0:0:0:
448,192,105950,1,0,0:0:0:0:
192,192,106050,1,0,0:0:0:0:
64,192,106050,1,0,0:0:0:0:
320,192,106150,1,0,0:0:0:0:
64,192,106200,1,0,0:0:0:0:
448,192,106200,1,0,0:0:0:0:
192,192,106250,1,0,0:0:0:0:
448,192,106350,1,0,0:0:0:0:
320,192,106350,1,0,0:0:0:0:
64,192,106450,1,0,0:0:0:0:
192,192,106500,1,0,0:0:0:0:
320,192,106525,1,0,0:0:0:0:
448,192,106550,1,0,0:0:0:0:
64,192,106575,1,0,0:0:0:0:
192,192,106600,1,0,0:0:0:0:
320,192,106625,1,0,0:0:0:0:
448,192,106650,1,0,0:0:0:0:
64,192,106650,1,0,0:0:0:0:
192,192,106750,1,0,0:0:0:0:
320,192,106750,1,0,0:0:0:0:
448,192,106850,1,0,0:0:0:0:
192,192,106850,1,0,0:0:0:0:
320,192,106950,1,0,0:0:0:0:
448,192,106950,1,0,0:0:0:0:
192,192,107050,1,0,0:0:0:0:
64,192,107050,1,0,0:0:0:0:
320,192,107150,1,0,0:0:0:0:
192,192,107150,1,0,0:0:0:0:
64,192,107250,1,0,0:0:0:0:
320,192,107250,1,0,0:0:0:0:
192,192,107350,1,0,0:0:0:0:
448,192,107350,1,0,0:0:0:0:
448,192,107450,1,0,0:0:0:0:
64,192,107450,1,0,0:0:0:0:
64,192,107550,1,0,0:0:0:0:
192,192,107550,1,0,0:0:0:0:
320,192,107650,1,0,0:0:0:0:
192,192,107650,1,0,0:0:0:0:
448,192,107750,1,0,0:0:0:0:
320,192,107750,1,0,0:0:0:0:
448,192,107850,128,0,108150:0:0:0:0:
64,192,107850,1,0,0:0:0:0:
192,192,108150,128,0,108450:0:0:0:0:
448,192,108300,1,0,0:0:0:0:
320,192,108450,128,0,108750:0:0:0:0:
64,192,108750,128,0,109050:0:0:0:0:
448,192,108750,1,0,0:0:0:0:
192,192,109050,128,0,109350:0:0:0:0:
448,192,109350,128,0,109650:0:0:0:0:
192,192,109650,128,0,109950:0:0:0:0:
448,192,109950,128,0,110250:0:0:0:0:
64,192,110250,128,0,110550:0:0:0:0:
320,192,110550,128,0,110850:0:0:0:0:
64,192,110850,128,0,111150:0:0:0:0:
320,192,111150,128,0,111450:0:0:0:0:
448,192,111450,128,0,111750:0:0:0:0:
192,192,111750,128,0,112050:0:0:0:0:
64,192,112050,128,0,112350:0:0:0:0:
448,192,112350,128,0,112650:0:0:0:0:
192,192,112650,128,0,112950:0:0:0:0:
320,192,112950,128,0,113250:0:0:0:0:
64,192,113250,128,0,113550:0:0:0:0:
448,192,113550,128,0,113850:0:0:0:0:
320,192,113850,128,0,114150:0:0:0:0:
64,192,114150,128,0,114450:0:0:0:0:
448,192,114450,128,0,114750:0:0:0:0:
320,192,114750,128,0,115050:0:0:0:0:
192,192,115050,128,0,115350:0:0:0:0:
448,192,115350,128,0,115650:0:0:0:0:
64,192,115650,128,0,115950:0:0:0:0:
320,192,115950,128,0,116250:0:0:0:0:
192,192,116250,128,0,116550:0:0:0:0:
448,192,116550,128,0,116850:0:0:0:0:
64,192,116850,128,0,117300:0:0:0:0:
