osu file format v14

[General]
AudioFilename: audio.mp3
AudioLeadIn: 0
PreviewTime: 8386
Countdown: 0
SampleSet: Soft
StackLeniency: 0.4
Mode: 0
LetterboxInBreaks: 0
WidescreenStoryboard: 1

[Editor]
DistanceSpacing: 0.9
BeatDivisor: 4
GridSize: 8
TimelineZoom: 2.3

[Metadata]
Title:Elemental Creation (kamome sano Remix)
TitleUnicode:Elemental Creation (kamome sano Remix)
Artist:kamome sano
ArtistUnicode:kamome sano
Creator:UberFazz
Version:MAXIMUM
Source:SOUND VOLTEX VIVID WAVE
Tags:corsace open 2021 co2021 semifinals sf hd2 SDVX electronic jazz swing instrumental video game dj TAKA meets DJ YOSHITAKA
BeatmapID:3205646
BeatmapSetID:1569809

[Difficulty]
HPDrainRate:5
CircleSize:3.3
OverallDifficulty:8.5
ApproachRate:9.6
SliderMultiplier:2.8
SliderTickRate:1

[Events]
//Background and Video events
0,0,"cute bg.jpg",0,0
//Break Periods
//Storyboard Layer 0 (Background)
//Storyboard Layer 1 (Fail)
//Storyboard Layer 2 (Pass)
//Storyboard Layer 3 (Foreground)
//Storyboard Layer 4 (Overlay)
//Storyboard Sound Samples

[TimingPoints]
1902,468.75,4,2,1,40,1,0
1902,-100,4,2,1,40,0,0
9402,-58.8235294117647,4,2,1,60,0,0
15964,-50,4,2,1,60,0,0
16589,-150.00015000015,4,2,1,60,0,0
16902,-50,4,2,1,60,0,0
17058,-58.8235294117647,4,2,1,60,0,0
30964,-50,4,2,1,60,0,0
31589,-150.00015000015,4,2,1,60,0,0
31902,-66.6666666666667,4,2,1,60,0,0
38464,-50,4,2,1,60,0,0
39089,-150.00015000015,4,2,1,60,0,0
39402,-58.8235294117647,4,2,1,60,0,0
48073,-250,4,2,1,50,0,0
58152,-125,4,2,1,60,0,0
62370,-111.111111111111,4,2,1,60,0,0
62839,468.75,4,2,1,60,1,0
62839,-83.3333333333333,4,2,1,60,0,0
67057,-71.4285714285714,4,2,1,60,0,0
67527,-66.6666666666667,4,2,1,60,0,0
76120,-41.6666666666667,4,2,1,70,0,0
77058,-45.4545454545455,4,2,1,70,0,0
77839,-125,4,2,1,60,0,0
79479,-71.4285714285714,4,2,1,60,0,0
79714,234.375,4,2,1,80,1,1
79714,-83.3333333333333,4,2,1,80,0,1
82995,-125,4,2,1,80,0,0
83464,468.75,4,2,1,60,1,0
83464,-83.3333333333333,4,2,1,60,0,0
85339,-71.4285714285714,4,2,1,60,0,0
86276,-66.6666666666667,4,2,1,60,0,0
87214,-250,4,2,1,60,0,0
88855,-83.3333333333333,4,2,1,60,0,0
89089,-250,4,2,1,60,0,0
90495,-83.3333333333333,4,2,1,60,0,0
92839,-71.4285714285714,4,2,1,70,0,0
94714,234.375,4,2,1,80,1,1
94714,-90.9090909090909,4,2,1,80,0,1
97526,-166.666666666667,4,2,1,60,0,0
98464,468.75,4,2,1,70,1,0
98464,-71.4285714285714,4,2,1,70,0,0
101277,-45.4545454545455,4,2,1,70,0,0
102214,-38.4615384615385,4,2,1,70,0,0

[Colours]
Combo1 : 255,157,111
Combo2 : 0,242,242
Combo3 : 60,157,255
Combo4 : 255,64,64

[HitObjects]
92,31,1902,6,0,L|114:158,1,93.3333333333333,4|2,1:0|0:0,0:0:0:0:
128,144,2136,1,2,0:0:0:0:
189,63,2292,1,2,0:0:0:0:
203,49,2370,2,0,L|322:61,1,93.3333333333333,2|0,0:0|0:0,0:0:0:0:
318,80,2605,2,0,L|285:132,1,46.6666666666667,2|0,0:0|0:0,0:0:0:0:
347,217,2761,1,2,0:0:0:0:
367,194,2839,6,0,P|384:156|419:111,1,93.3333333333333,2|0,0:0|0:0,0:0:0:0:
507,163,3073,2,0,P|490:201|455:246,1,93.3333333333333,2|0,0:0|0:0,0:0:0:0:
385,292,3308,1,2,0:0:0:0:
225,377,3464,1,2,0:0:0:0:
208,362,3542,1,2,0:0:0:0:
206,352,3620,1,2,0:0:0:0:
226,339,3698,1,2,0:0:0:0:
228,329,3777,6,0,L|132:302,1,93.3333333333333,2|2,1:2|0:0,0:0:0:0:
6,134,4167,1,2,0:0:0:0:
91,96,4245,2,0,P|137:96|203:124,1,93.3333333333333,2|0,0:0|0:0,0:0:0:0:
379,177,4636,1,2,0:0:0:0:
362,184,4714,6,0,L|343:77,1,93.3333333333333,0|0,1:0|0:0,0:0:0:0:
458,240,4948,2,0,L|477:133,1,93.3333333333333,0|0,1:0|0:0,0:0:0:0:
289,261,5183,2,0,L|270:154,1,93.3333333333333,0|0,1:0|0:0,0:0:0:0:
466,349,5417,2,0,L|485:242,1,93.3333333333333,0|0,1:0|0:0,0:0:0:0:
438,45,5652,6,0,L|425:-1,1,46.6666666666667,2|0,1:2|0:0,0:0:0:0:
167,170,6120,6,0,L|180:124,1,46.6666666666667,2|0,1:2|0:0,0:0:0:0:
438,45,6589,6,0,L|425:-1,1,46.6666666666667,2|0,1:2|0:0,0:0:0:0:
167,170,6823,6,0,L|180:124,1,46.6666666666667,2|0,1:2|0:0,0:0:0:0:
438,45,7058,6,0,L|425:-1,1,46.6666666666667,2|0,1:2|0:0,0:0:0:0:
167,170,7292,6,0,L|180:124,1,46.6666666666667,2|0,1:2|0:0,0:0:0:0:
438,45,7448,1,0,1:0:0:0:
30,216,8464,5,2,0:0:0:0:
65,248,8542,1,0,0:0:0:0:
112,241,8620,1,0,0:0:0:0:
80,203,8698,5,2,0:0:0:0:
87,181,8777,1,0,0:0:0:0:
92,157,8855,1,0,0:0:0:0:
58,116,8933,5,2,0:0:0:0:
105,106,9011,1,0,0:0:0:0:
145,133,9089,1,0,0:0:0:0:
180,187,9167,5,2,0:0:0:0:
159,125,9245,1,2,0:0:0:0:
198,67,9323,1,2,0:0:0:0:
278,56,9402,6,0,B|353:67|353:67|447:30,1,158.666669692993,6|0,1:0|0:0,0:0:0:0:
510,6,9636,1,0,0:0:0:0:
512,280,9792,2,0,P|480:212|305:164,1,238.00000453949,2|0,0:1|0:0,0:0:0:0:
281,373,10105,2,0,L|414:229,1,158.666669692993,2|0,0:1|0:0,0:0:0:0:
416,227,10339,1,0,0:0:0:0:
234,168,10495,2,0,L|-3:89,1,238.00000453949,2|0,0:1|0:0,0:0:0:0:
138,277,10808,2,0,L|113:85,1,158.666669692993,10|0,0:1|0:0,0:0:0:0:
115,36,11042,1,2,0:1:0:0:
115,36,11159,1,2,0:1:0:0:
320,140,11277,6,0,B|333:289|333:289|392:362,1,238.00000453949,2|0,1:0|0:0,0:0:0:0:
508,21,11667,2,0,P|456:59|298:-11,1,238.00000453949,2|0,0:1|0:0,0:0:0:0:
421,160,11980,1,2,0:1:0:0:
421,211,12058,1,2,0:0:0:0:
469,193,12136,1,2,0:0:0:0:
469,145,12214,1,0,1:0:0:0:
223,46,12370,2,2,B|207:36|197:11|197:11|175:59|128:111|7:115,1,238.00000453949,2|0,0:1|0:0,0:1:0:0:
50,205,12683,5,10,0:0:0:0:
130,222,12761,1,0,0:0:0:0:
201,182,12839,1,0,0:0:0:0:
123,227,12917,5,2,0:0:0:0:
153,269,12995,1,0,0:0:0:0:
205,280,13073,1,0,0:0:0:0:
280,227,13152,6,0,P|346:214|359:121,1,158.666669692993,2|0,1:2|0:0,0:0:0:0:
340,58,13386,1,2,0:0:0:0:
506,189,13542,1,2,0:0:0:0:
485,222,13620,2,0,L|378:353,1,158.666669692993,10|0,0:0|0:0,0:0:0:0:
281,341,13855,1,2,0:0:0:0:
201,363,13933,1,2,0:0:0:0:
121,349,14011,1,2,0:0:0:0:
41,368,14089,6,0,L|18:212,1,158.666669692993,2|0,1:2|0:0,0:0:0:0:
5,129,14323,1,2,0:0:0:0:
125,28,14480,2,0,L|156:269,1,238.00000453949,2|2,0:0|0:0,0:0:0:0:
173,361,14792,1,2,0:0:0:0:
387,45,14948,1,2,0:0:0:0:
444,106,15027,5,2,1:2:0:0:
453,114,15105,5,0,0:0:0:0:
456,142,15183,5,2,0:0:0:0:
465,150,15261,5,0,0:0:0:0:
468,178,15339,5,2,0:0:0:0:
477,186,15417,5,0,0:0:0:0:
470,215,15495,5,10,0:0:0:0:
461,223,15573,5,0,0:0:0:0:
458,251,15651,5,2,0:0:0:0:
449,259,15730,6,2,P|384:239|333:158,1,158.666669692993,2|0,0:0|0:0,0:1:0:0:
302,10,15964,6,0,L|203:-5,1,93.3333333333333,12|0,0:2|0:0,0:0:0:0:
7,133,16120,6,0,L|106:118,1,93.3333333333333,12|0,0:2|0:0,0:0:0:0:
302,10,16355,6,0,L|203:-5,1,93.3333333333333,12|0,0:2|0:0,0:0:0:0:
7,133,16589,6,0,L|106:118,1,93.3333333333333,12|0,0:0|0:0,0:0:0:0:
302,10,16902,6,0,L|203:-5,1,93.3333333333333,6|0,1:0|0:0,0:0:0:0:
240,143,17136,1,0,0:0:0:0:
12,326,17292,2,0,P|83:320|221:230,1,238.00000453949,2|0,0:1|0:0,0:0:0:0:
325,100,17605,2,0,L|372:268,1,158.666669692993,2|0,0:1|0:0,0:0:0:0:
283,326,17839,1,0,1:0:0:0:
503,261,17995,2,0,P|503:189|463:99,1,158.666669692993,2|0,0:1|0:0,0:0:0:0:
397,44,18230,1,0,0:0:0:0:
307,7,18308,2,0,L|198:7,1,79.3333348464966,10|0,0:1|0:0,0:0:0:0:
367,252,18542,1,2,0:1:0:0:
367,252,18659,1,2,0:1:0:0:
226,183,18777,6,0,P|157:169|141:85,1,158.666669692993,2|0,1:0|0:0,0:0:0:0:
200,17,19011,1,0,0:0:0:0:
38,19,19167,2,0,P|45:137|6:271,1,238.00000453949,2|0,0:1|0:0,0:0:0:0:
139,365,19480,2,0,P|76:347|38:249,1,158.666669692993,2|0,0:1|0:0,0:0:0:0:
51,174,19714,1,0,1:0:0:0:
246,375,19870,2,0,B|220:248|220:248|231:305|303:340,1,238.00000453949,2|0,0:1|0:0,0:0:0:0:
321,235,20183,5,10,0:0:0:0:
385,287,20261,1,0,0:0:0:0:
381,370,20339,1,0,0:0:0:0:
393,365,20417,5,2,0:0:0:0:
443,355,20495,1,0,0:3:0:0:
487,384,20573,1,0,0:3:0:0:
473,384,20652,6,0,L|489:187,1,158.666669692993,2|2,1:0|0:0,0:0:0:0:
490,135,20886,1,2,0:0:0:0:
260,32,21042,1,2,0:0:0:0:
334,89,21120,2,0,P|406:81|465:17,1,158.666669692993,10|0,0:1|0:0,0:0:0:0:
248,119,21355,5,2,0:0:0:0:
160,126,21433,1,2,0:0:0:0:
80,98,21511,1,2,0:0:0:0:
8,45,21589,2,0,P|45:92|61:202,1,158.666669692993,2|0,1:0|0:0,0:0:0:0:
46,272,21823,1,2,0:1:0:0:
238,334,21980,2,0,L|-11:380,1,238.00000453949,2|2,0:1|0:1,0:0:0:0:
207,201,22292,2,0,P|269:245|358:224,1,158.666669692993,2|2,0:1|0:0,0:0:0:0:
441,166,22527,5,2,1:0:0:0:
474,219,22605,1,2,0:0:0:0:
470,280,22683,1,2,0:0:0:0:
406,337,22761,5,2,0:0:0:0:
373,284,22839,1,2,0:0:0:0:
376,223,22917,1,2,0:0:0:0:
341,146,22995,5,10,0:0:0:0:
262,105,23073,1,2,0:0:0:0:
181,106,23152,1,2,0:0:0:0:
150,125,23230,5,2,0:0:0:0:
162,148,23308,1,0,0:0:0:0:
189,142,23386,1,0,0:0:0:0:
175,127,23464,6,0,L|144:208,1,79.3333348464966,0|0,1:0|0:0,0:0:0:0:
247,293,23620,1,8,0:0:0:0:
247,293,23698,2,0,L|278:212,1,79.3333348464966,0|0,1:0|0:0,0:0:0:0:
368,373,23855,1,8,0:0:0:0:
454,347,23933,5,8,1:0:0:0:
492,269,24011,1,0,1:0:0:0:
467,194,24089,1,0,1:0:0:0:
492,142,24167,1,0,1:0:0:0:
474,109,24245,1,0,1:0:0:0:
482,86,24323,1,0,1:0:0:0:
470,33,24402,6,0,P|396:34|314:-4,1,158.666669692993,6|0,1:0|0:0,0:0:0:0:
365,119,24636,1,2,0:0:0:0:
240,103,24792,2,0,L|-9:64,1,238.00000453949,2|0,0:1|0:0,0:1:0:0:
1,192,25105,1,2,0:0:0:0:
213,224,25261,1,2,0:0:0:0:
255,200,25339,5,2,1:2:0:0:
239,277,25417,1,0,0:0:0:0:
173,321,25495,1,0,0:0:0:0:
192,322,25573,5,2,0:0:0:0:
239,334,25651,1,0,0:0:0:0:
266,382,25729,1,0,0:0:0:0:
281,364,25808,5,10,0:0:0:0:
306,334,25886,1,0,0:0:0:0:
349,332,25964,1,0,0:0:0:0:
341,322,26042,5,2,0:0:0:0:
333,300,26120,1,0,0:0:0:0:
348,278,26198,1,0,0:0:0:0:
368,280,26277,6,0,P|369:214|304:57,1,238.00000453949,2|0,1:0|0:0,0:0:0:0:
463,0,26667,1,2,0:0:0:0:
451,29,26745,2,0,P|450:95|513:254,1,238.00000453949,10|0,0:1|0:0,0:0:0:0:
254,192,27136,1,2,0:0:0:0:
166,146,27214,5,2,1:0:0:0:
179,230,27292,1,0,0:0:0:0:
245,176,27370,1,0,0:0:0:0:
169,180,27448,5,2,0:1:0:0:
206,207,27526,1,0,0:0:0:0:
211,160,27604,1,0,0:0:0:0:
190,197,27683,5,2,0:0:0:0:
212,193,27761,1,0,0:0:0:0:
197,175,27839,1,0,0:0:0:0:
199,194,27917,5,2,0:0:0:0:
205,184,27995,1,0,0:0:0:0:
193,183,28073,1,0,0:0:0:0:
199,183,28152,6,0,P|135:143|42:121,1,158.666669692993,2|0,1:0|0:0,0:0:0:0:
168,59,28386,1,2,0:0:0:0:
25,237,28542,1,2,0:0:0:0:
6,264,28620,2,0,P|64:300|162:317,1,158.666669692993,10|0,0:0|0:0,0:0:0:0:
51,379,28855,2,0,L|112:222,1,158.666669692993,2|2,0:0|0:0,0:0:0:0:
234,271,29089,5,2,1:2:0:0:
318,265,29167,1,0,0:0:0:0:
390,303,29245,1,0,0:0:0:0:
357,337,29323,5,2,0:0:0:0:
309,311,29401,1,0,0:0:0:0:
253,315,29479,1,0,0:0:0:0:
264,349,29558,5,10,0:0:0:0:
303,346,29636,1,0,0:0:0:0:
336,364,29714,1,0,0:0:0:0:
320,384,29792,5,2,0:0:0:0:
300,373,29870,1,0,0:0:0:0:
276,375,29948,1,0,0:0:0:0:
298,383,30027,6,0,L|328:146,1,238.00000453949,2|0,1:0|0:0,0:0:0:0:
451,19,30417,1,2,0:0:0:0:
472,41,30495,2,0,L|500:278,1,238.00000453949,10|2,0:1|0:0,0:0:0:0:
452,266,30808,1,2,0:0:0:0:
428,239,30886,1,2,0:0:0:0:
406,214,30964,6,0,L|328:140,1,93.3333333333333,12|0,0:0|0:0,0:0:0:0:
160,64,31120,6,0,L|238:-10,1,93.3333333333333,12|0,0:0|0:0,0:0:0:0:
406,214,31355,6,0,L|328:140,1,93.3333333333333,12|0,0:0|0:0,0:0:0:0:
160,64,31589,6,0,L|238:-10,1,93.3333333333333,12|0,0:0|0:0,0:0:0:0:
228,154,31902,5,4,1:0:0:0:
49,265,32292,1,2,0:0:0:0:
56,298,32370,1,0,1:0:0:0:
240,379,32527,1,0,0:0:0:0:
247,346,32605,1,2,0:0:0:0:
406,214,32995,1,2,0:0:0:0:
406,214,33308,1,2,1:2:0:0:
228,154,33541,1,2,0:2:0:0:
228,154,33659,1,2,0:2:0:0:
406,214,33777,5,2,1:2:0:0:
247,346,34167,1,2,0:0:0:0:
240,379,34245,1,0,1:0:0:0:
56,298,34402,1,0,0:0:0:0:
49,265,34480,1,2,0:0:0:0:
228,154,34870,2,0,P|254:195|131:238,1,210.000008010865,2|0,0:1|0:0,0:0:0:0:
140,168,35183,5,2,1:2:0:0:
169,88,35261,1,0,0:0:0:0:
257,74,35339,1,0,0:0:0:0:
266,59,35417,5,2,0:0:0:0:
253,29,35495,1,0,0:0:0:0:
222,17,35573,1,0,0:0:0:0:
232,4,35652,5,2,1:2:0:0:
368,11,35808,1,0,0:0:0:0:
401,0,35886,1,2,0:0:0:0:
498,97,36042,2,0,L|505:46,2,35.0000013351441,2|2|0,0:0|0:0|1:0,0:0:0:0:
488,232,36277,1,2,0:2:0:0:
476,243,36355,1,2,0:2:0:0:
447,229,36433,1,2,0:2:0:0:
408,260,36511,1,2,0:2:0:0:
355,235,36589,5,2,1:2:0:0:
201,259,36745,1,2,0:0:0:0:
171,241,36823,1,2,0:0:0:0:
2,268,36980,1,2,0:0:0:0:
263,373,37214,5,2,0:0:0:0:
293,355,37292,1,2,0:0:0:0:
95,299,37448,1,2,0:0:0:0:
77,207,37527,5,2,1:2:0:0:
68,198,37605,5,0,0:0:0:0:
68,170,37683,5,2,0:0:0:0:
59,161,37761,5,0,0:0:0:0:
59,133,37839,5,2,0:0:0:0:
51,124,37917,5,0,0:0:0:0:
60,96,37995,5,2,1:2:0:0:
70,88,38073,5,0,0:0:0:0:
75,61,38151,5,2,0:0:0:0:
85,54,38230,6,2,P|148:79|187:155,1,140.000005340576,2|0,0:0|0:0,0:1:0:0:
199,278,38464,6,0,L|291:234,1,93.3333333333333,12|0,0:0|0:0,0:0:0:0:
492,135,38620,6,0,L|400:91,1,93.3333333333333,12|0,0:0|0:0,0:0:0:0:
199,278,38855,6,0,L|291:234,1,93.3333333333333,12|0,0:0|0:0,0:0:0:0:
492,135,39089,6,0,L|400:91,1,93.3333333333333,12|0,0:0|0:0,0:0:0:0:
373,193,39402,5,8,0:0:0:0:
373,193,39558,5,8,0:0:0:0:
373,193,39636,5,8,0:0:0:0:
373,193,39714,5,8,0:0:0:0:
373,193,39792,6,0,P|288:105|151:57,1,238.00000453949,6|0,1:0|0:0,0:0:0:0:
112,168,40105,2,0,P|171:229|259:277,1,158.666669692993,2|0,1:0|0:0,0:0:0:0:
331,281,40339,1,0,1:0:0:0:
81,60,40495,2,0,L|87:315,1,238.00000453949,2|0,0:1|0:0,0:0:0:0:
88,384,40808,1,10,0:1:0:0:
372,384,41042,1,2,0:1:0:0:
372,384,41159,1,2,0:1:0:0:
493,312,41277,6,0,P|434:223|444:94,1,238.00000453949,2|0,1:0|0:0,0:0:0:0:
213,47,41667,2,0,P|323:95|365:7,1,238.00000453949,2|0,0:1|0:0,0:0:0:0:
122,47,41980,1,2,0:1:0:0:
135,92,42058,1,2,0:0:0:0:
103,118,42136,1,2,0:0:0:0:
90,78,42214,1,0,1:0:0:0:
1,231,42370,2,2,B|70:272|70:272|91:327|44:385|-20:367,1,238.00000453949,2|0,0:0|0:0,0:1:0:0:
158,325,42683,5,10,0:0:0:0:
244,303,42761,1,0,0:0:0:0:
330,319,42839,1,0,0:0:0:0:
321,329,42917,5,2,0:0:0:0:
372,338,42995,1,0,0:0:0:0:
424,325,43073,1,0,0:0:0:0:
411,330,43152,6,0,L|435:165,1,158.666669692993,2|0,1:0|0:0,0:0:0:0:
448,86,43386,1,2,0:0:0:0:
288,9,43542,1,2,0:0:0:0:
199,16,43620,2,0,P|117:46|60:94,1,158.666669692993,10|0,0:1|0:0,0:0:0:0:
10,164,43855,1,2,0:0:0:0:
98,178,43933,1,2,0:0:0:0:
181,143,44011,1,2,0:0:0:0:
275,153,44089,6,0,L|257:324,1,158.666669692993,2|0,1:0|0:0,0:0:0:0:
307,384,44323,1,2,0:1:0:0:
393,170,44480,2,2,P|366:256|430:388,1,238.00000453949,2|0,0:1|0:0,0:1:0:0:
511,337,44792,2,0,P|514:246|481:173,1,158.666669692993,2|0,0:1|0:0,0:0:0:0:
465,28,45027,5,2,1:0:0:0:
404,51,45105,1,2,0:0:0:0:
344,41,45183,1,2,0:0:0:0:
266,14,45261,5,2,0:0:0:0:
205,0,45339,1,2,0:0:0:0:
145,27,45417,1,2,0:0:0:0:
89,92,45495,5,10,0:0:0:0:
121,169,45573,1,2,0:0:0:0:
108,251,45652,1,2,0:0:0:0:
85,276,45730,5,2,0:0:0:0:
71,260,45808,1,0,0:0:0:0:
86,248,45886,1,0,0:0:0:0:
92,261,45964,6,0,L|180:303,1,79.3333348464966,0|0,1:0|0:0,0:0:0:0:
283,212,46120,1,8,0:0:0:0:
283,212,46198,2,0,L|371:254,1,79.3333348464966,0|0,1:0|0:0,0:0:0:0:
507,256,46355,1,8,0:0:0:0:
465,339,46433,5,8,1:0:0:0:
381,370,46511,1,0,1:0:0:0:
304,353,46589,1,0,1:0:0:0:
255,374,46667,1,0,1:0:0:0:
226,357,46745,1,0,1:0:0:0:
203,366,46823,1,0,1:0:0:0:
190,358,46902,5,4,1:2:0:0:
174,362,48073,6,0,L|170:317,1,37.3333333333333,2|0,0:0|0:0,0:0:0:0:
164,209,48308,1,2,0:0:0:0:
160,215,48386,1,0,0:0:0:0:
156,221,48464,1,2,0:0:0:0:
152,227,48542,1,0,0:0:0:0:
148,233,48620,1,2,0:0:0:0:
144,239,48698,1,0,0:0:0:0:
140,245,48777,5,4,0:1:0:0:
252,108,49089,1,2,0:0:0:0:
256,114,49167,1,0,0:0:0:0:
260,120,49245,1,2,0:0:0:0:
264,126,49323,1,0,0:0:0:0:
268,132,49401,1,2,0:0:0:0:
272,138,49480,1,0,0:0:0:0:
445,18,49714,6,0,L|439:69,1,37.3333333333333,2|2,0:0|0:0,0:0:0:0:
401,382,50027,2,0,L|413:276,1,93.3333333333333,2|2,0:0|0:0,0:0:0:0:
72,68,50652,6,0,L|78:116,1,37.3333333333333,2|2,0:0|0:0,0:0:0:0:
103,332,50964,2,0,L|91:225,1,93.3333333333333,2|2,0:0|0:0,0:0:0:0:
256,95,51589,6,0,L|256:143,1,37.3333333333333,2|2,0:0|0:0,0:0:0:0:
256,296,51902,2,0,L|256:213,1,74.6666666666667,2|0,0:0|0:0,0:0:0:0:
256,192,52292,1,2,0:0:0:0:
256,200,52370,1,0,0:0:0:0:
256,208,52448,1,2,0:0:0:0:
256,216,52527,1,0,0:0:0:0:
256,224,52605,1,2,0:0:0:0:
256,232,52682,1,0,0:0:0:0:
256,240,52760,1,2,0:0:0:0:
256,248,52839,1,0,0:0:0:0:
256,256,52917,1,2,0:0:0:0:
262,273,52995,5,2,0:0:0:0:
279,295,53073,1,2,0:0:0:0:
324,298,53152,1,2,0:0:0:0:
368,326,53230,1,2,0:0:0:0:
426,311,53308,1,2,0:0:0:0:
480,344,53386,1,2,0:0:0:0:
483,103,53542,5,2,0:0:0:0:
426,111,53620,1,0,0:0:0:0:
378,79,53698,1,2,0:0:0:0:
318,92,53777,1,0,0:0:0:0:
270,69,53855,1,2,0:0:0:0:
73,24,54011,5,2,0:0:0:0:
80,83,54089,1,2,0:0:0:0:
31,313,54245,5,2,0:0:0:0:
25,361,54323,1,2,0:0:0:0:
205,369,54480,5,2,0:0:0:0:
253,334,54558,1,0,0:0:0:0:
297,357,54636,1,2,0:0:0:0:
338,337,54714,1,0,0:0:0:0:
381,358,54792,1,2,0:0:0:0:
427,329,54870,1,0,0:0:0:0:
478,352,54948,2,0,L|507:349,1,18.6666666666667,2|0,0:0|0:0,0:0:0:0:
502,206,55105,5,2,0:0:0:0:
483,173,55183,1,0,0:0:0:0:
481,123,55261,1,2,0:0:0:0:
494,69,55339,1,2,0:0:0:0:
440,94,55417,1,2,0:0:0:0:
389,70,55495,1,2,0:0:0:0:
339,88,55573,1,2,0:0:0:0:
294,78,55652,1,2,0:0:0:0:
256,98,55730,1,2,0:0:0:0:
217,86,55808,1,2,0:0:0:0:
502,206,55964,1,2,0:0:0:0:
61,37,56198,5,2,0:0:0:0:
50,140,56277,1,2,0:0:0:0:
208,384,56511,5,2,0:0:0:0:
228,176,56667,1,2,0:0:0:0:
393,266,56902,5,2,0:0:0:0:
401,130,56980,1,2,0:0:0:0:
20,17,57214,5,2,0:0:0:0:
43,360,57448,5,2,0:0:0:0:
68,351,57527,1,2,0:0:0:0:
105,325,57605,1,2,0:0:0:0:
133,283,57683,1,2,0:0:0:0:
156,72,57839,5,2,0:0:0:0:
205,83,57917,1,2,0:0:0:0:
318,269,58073,5,2,0:0:0:0:
330,176,58152,2,2,P|447:207|382:337,1,298.666666666667,2|0,0:0|0:0,0:1:0:0:
302,276,58855,2,2,L|120:340,1,186.666666666667,2|0,0:0|0:0,0:1:0:0:
97,220,59323,2,2,P|178:210|255:164,1,149.333333333333,2|0,0:0|0:0,0:1:0:0:
135,63,59714,2,2,L|164:170,1,112,2|0,0:0|0:0,0:1:0:0:
277,49,60027,6,2,P|342:77|301:125,1,149.333333333333,2|2,0:0|0:0,0:1:0:0:
433,48,60417,1,2,0:0:0:0:
465,41,60495,2,2,B|451:88|451:88|495:154|481:255|481:255|474:215|451:175,1,298.666666666667,2|0,0:0|0:0,0:1:0:0:
398,347,61198,2,2,P|396:280|323:166,1,186.666666666667,2|0,0:0|0:0,0:1:0:0:
199,315,61667,2,2,L|490:209,1,298.666666666667,2|0,0:0|0:0,0:1:0:0:
243,213,62370,2,2,P|275:258|283:390,1,167.999994873047,2|0,0:0|0:0,0:1:0:0:
102,381,62761,5,2,0:0:0:0:
116,350,62839,1,2,0:1:0:0:
29,237,62995,5,2,0:0:0:0:
15,206,63073,1,2,0:1:0:0:
148,135,63230,5,2,0:0:0:0:
162,104,63308,1,2,0:1:0:0:
42,21,63464,1,2,0:1:0:0:
281,5,63698,5,2,0:0:0:0:
295,57,63777,1,2,0:1:0:0:
475,72,63933,5,2,0:0:0:0:
461,124,64011,1,2,0:1:0:0:
350,296,64167,2,0,L|369:115,1,167.999994873047,2|0,0:1|0:0,0:0:0:0:
247,188,64480,5,2,1:0:0:0:
240,183,64558,1,0,1:0:0:0:
233,178,64636,1,0,1:0:0:0:
226,173,64714,1,2,1:0:0:0:
211,170,64792,1,0,1:0:0:0:
196,166,64870,1,2,1:0:0:0:
179,161,64949,1,0,1:0:0:0:
158,159,65027,1,0,1:0:0:0:
127,160,65105,1,2,1:0:0:0:
97,162,65183,1,0,1:0:0:0:
66,172,65261,1,0,1:0:0:0:
39,188,65339,1,2,1:0:0:0:
50,149,65417,1,2,1:0:0:0:
80,133,65496,1,0,1:0:0:0:
103,103,65574,1,0,1:0:0:0:
136,100,65652,1,2,1:0:0:0:
164,78,65730,1,0,1:0:0:0:
197,80,65808,1,0,1:0:0:0:
223,59,65886,1,2,1:0:0:0:
269,64,65965,1,0,1:0:0:0:
310,46,66043,1,0,1:0:0:0:
352,71,66121,1,2,1:0:0:0:
405,64,66199,1,0,1:0:0:0:
437,115,66276,1,2,1:0:0:0:
484,147,66354,1,0,1:0:0:0:
471,201,66432,1,0,1:0:0:0:
486,256,66511,1,0,1:0:0:0:
452,303,66589,1,2,1:0:0:0:
396,306,66667,1,0,1:0:0:0:
361,343,66745,1,0,1:0:0:0:
310,326,66823,1,2,1:0:0:0:
263,356,66901,1,0,1:0:0:0:
206,347,66980,1,0,1:0:0:0:
157,368,67058,6,0,L|140:300,1,65.3333313395183,8|0,0:0|0:0,0:0:0:0:
224,163,67214,1,0,1:0:0:0:
224,163,67292,2,0,L|241:95,1,65.3333313395183,8|0,0:0|0:0,0:0:0:0:
31,89,67448,1,8,0:0:0:0:
51,139,67527,1,8,0:0:0:0:
13,186,67605,1,8,0:0:0:0:
34,240,67683,2,0,L|117:230,1,70.0000026702882,8|0,0:0|0:0,0:0:0:0:
372,320,67839,5,8,0:0:0:0:
361,299,67917,1,8,0:0:0:0:
359,262,67995,1,8,0:0:0:0:
368,226,68073,1,8,0:0:0:0:
393,190,68152,1,8,0:0:0:0:
414,143,68230,1,8,0:0:0:0:
396,61,68308,1,8,0:0:0:0:
328,13,68386,1,8,0:0:0:0:
238,14,68464,6,0,L|235:87,1,70.0000026702882,12|0,0:0|0:0,0:0:0:0:
228,182,68620,1,0,0:0:0:0:
229,187,68698,1,2,0:0:0:0:
230,192,68777,1,0,0:0:0:0:
231,197,68855,1,0,0:0:0:0:
232,202,68932,1,0,0:0:0:0:
233,207,69011,1,0,0:0:0:0:
234,212,69089,1,0,0:0:0:0:
235,217,69167,1,2,0:0:0:0:
236,222,69245,1,0,0:0:0:0:
211,318,69323,6,0,B|152:283|152:283|-6:298,1,210.000008010865,12|0,0:0|0:0,0:0:0:0:
95,384,69636,6,0,L|86:294,1,70.0000026702882,12|0,0:0|0:0,0:0:0:0:
79,200,69793,1,0,0:0:0:0:
78,195,69871,1,8,0:0:0:0:
77,190,69948,1,0,0:0:0:0:
76,185,70027,1,0,1:0:0:0:
75,180,70105,1,2,0:0:0:0:
74,175,70183,1,0,0:0:0:0:
110,77,70261,6,0,L|30:71,1,70.0000026702882,12|0,0:0|0:0,0:0:0:0:
203,33,70417,1,0,0:0:0:0:
208,32,70495,1,0,0:0:0:0:
213,31,70574,1,2,0:0:0:0:
218,30,70652,1,0,0:0:0:0:
223,29,70729,1,0,0:0:0:0:
228,28,70808,1,0,0:0:0:0:
233,27,70885,1,0,0:0:0:0:
238,26,70963,1,0,0:0:0:0:
243,25,71042,1,2,0:0:0:0:
248,24,71120,1,0,0:0:0:0:
340,46,71198,6,0,B|317:85|317:85|321:191,1,140.000005340576,12|0,0:0|0:0,0:0:0:0:
367,271,71433,1,2,0:0:0:0:
380,324,71511,1,2,0:0:0:0:
327,337,71589,1,2,0:0:0:0:
313,284,71667,1,2,0:0:0:0:
370,283,71745,1,2,0:0:0:0:
368,337,71823,1,2,0:0:0:0:
314,336,71902,6,0,B|240:283|179:382|92:339,1,210.000008010865,6|0,0:0|0:0,0:0:0:0:
16,242,72214,6,0,L|98:212,1,70.0000026702882,12|0,0:0|0:0,0:0:0:0:
188,182,72370,1,2,0:0:0:0:
189,177,72448,1,2,0:0:0:0:
190,172,72527,1,2,0:0:0:0:
191,167,72605,1,2,0:0:0:0:
286,90,72683,6,0,L|223:43,1,70.0000026702882,12|0,0:0|0:0,0:0:0:0:
136,4,72839,1,2,0:0:0:0:
135,9,72917,1,2,0:0:0:0:
134,14,72996,1,2,0:0:0:0:
109,104,73073,6,0,L|20:139,1,70.0000026702882,12|0,0:0|0:0,0:0:0:0:
292,189,73230,1,2,0:0:0:0:
293,194,73308,1,2,0:0:0:0:
294,199,73385,1,2,0:0:0:0:
295,204,73465,1,2,0:0:0:0:
296,209,73542,1,2,0:0:0:0:
394,279,73620,6,0,L|402:122,1,140.000005340576,12|8,0:0|0:0,0:0:0:0:
486,108,73855,1,8,0:0:0:0:
299,301,74011,5,4,1:0:0:0:
256,192,74089,12,2,75730,0:0:0:0:
112,60,76120,6,0,P|148:103|177:168,1,111.999996582031,12|0,0:0|0:0,0:0:0:0:
336,14,76277,2,0,P|305:61|254:109,1,111.999996582031,12|0,0:0|0:0,0:0:0:0:
448,213,76433,2,0,P|394:199|332:164,1,111.999996582031,12|0,0:0|0:0,0:0:0:0:
294,382,76589,2,0,P|291:326|304:256,1,111.999996582031,12|0,0:0|0:0,0:0:0:0:
86,287,76745,2,0,P|138:266|208:258,1,111.999996582031,12|0,0:0|0:0,0:0:0:0:
193,258,77058,6,0,P|139:266|88:286,1,102.666669799805,12|0,0:0|0:0,0:0:0:0:
300,271,77214,2,0,P|291:324|294:379,1,102.666669799805,12|0,0:0|0:0,0:0:0:0:
344,173,77371,2,0,P|392:198|444:212,1,102.666669799805,12|0,0:0|0:0,0:0:0:0:
266,100,77527,2,0,P|305:60|334:14,1,102.666669799805,12|0,0:0|0:0,0:0:0:0:
172,154,77683,2,0,P|147:105|113:62,1,102.666669799805,12|0,0:0|0:0,0:0:0:0:
256,192,77839,5,2,0:0:0:0:
256,192,78308,1,2,0:0:0:0:
256,192,78542,1,2,0:0:0:0:
256,192,78777,2,0,L|261:135,2,37.3333333333333,2|0|0,0:0|0:0|0:0,0:0:0:0:
314,306,79011,2,0,L|309:249,2,37.3333333333333,2|0|0,0:0|0:0|0:0,0:0:0:0:
415,239,79245,5,2,0:0:0:0:
437,234,79323,1,0,0:0:0:0:
466,259,79402,1,0,0:0:0:0:
475,312,79479,6,0,P|471:345|459:383,2,65.3333313395183,2|0|0,0:0|0:0|0:0,0:0:0:0:
453,139,79714,5,2,1:2:0:0:
314,134,79831,1,2,1:2:0:0:
464,124,79948,1,8,0:0:0:0:
234,220,80065,5,2,1:2:0:0:
198,65,80182,1,2,1:2:0:0:
219,231,80299,1,8,0:0:0:0:
359,41,80417,5,2,1:2:0:0:
385,229,80534,1,2,1:2:0:0:
380,32,80651,1,8,0:0:0:0:
224,44,80768,6,0,L|119:33,1,83.9999974365235,8|0,0:0|0:0,0:0:0:0:
50,57,80885,5,8,0:0:0:0:
50,57,80944,1,8,0:0:0:0:
50,57,81003,2,0,L|71:150,1,83.9999974365235,8|0,0:0|0:0,0:0:0:0:
112,252,81120,1,0,1:0:0:0:
112,252,81178,1,0,1:0:0:0:
112,252,81237,1,0,1:0:0:0:
112,252,81296,1,0,1:0:0:0:
112,252,81354,1,12,0:0:0:0:
451,384,81589,6,0,L|461:294,2,83.9999974365235,2|0|0,1:2|1:0|1:0,0:0:0:0:
296,384,81823,1,8,0:0:0:0:
274,242,81940,2,0,L|264:152,2,83.9999974365235,2|0|0,1:2|1:0|1:0,0:0:0:0:
455,162,82174,1,8,0:0:0:0:
338,40,82292,2,0,L|244:47,4,83.9999974365235,2|8|0|0|8,1:2|0:0|1:0|1:0|0:0,0:0:0:0:
433,75,82643,1,10,0:2:0:0:
356,174,82760,1,8,0:0:0:0:
189,112,82878,1,8,0:0:0:0:
189,112,82936,1,8,0:0:0:0:
189,112,82995,6,2,B|150:75|150:75|141:76|141:76|110:51|110:51|55:144|55:144|63:144|63:144|-4:261,1,336,12|0,0:0|0:0,0:1:0:0:
12,366,83464,5,2,1:2:0:0:
126,335,83581,1,2,0:0:0:0:
239,366,83698,1,2,0:0:0:0:
356,325,83816,2,0,L|361:371,5,41.9999987182618,2|2|10|2|2|2,0:0|0:0|0:0|0:0|0:0|0:0,0:0:0:0:
479,333,84167,5,2,0:0:0:0:
475,325,84225,1,2,0:0:0:0:
471,317,84284,1,2,0:0:0:0:
467,309,84342,1,2,0:0:0:0:
463,301,84401,1,2,1:2:0:0:
458,172,84518,2,0,L|519:179,2,41.9999987182618,2|0|0,0:0|0:0|0:0,0:0:0:0:
498,40,84753,1,2,0:0:0:0:
488,36,84811,1,2,0:0:0:0:
478,32,84870,6,0,L|421:36,3,41.9999987182618,10|0|0|0,0:0|0:0|0:0|0:0,0:0:0:0:
361,131,85104,2,0,L|304:135,1,41.9999987182618,2|0,0:0|0:0,0:0:0:0:
283,17,85221,2,0,L|325:20,1,41.9999987182618,2|0,0:0|0:0,0:0:0:0:
192,76,85339,6,0,L|200:129,3,48.9999985046387,2|0|0|0,1:2|1:0|1:0|1:0,0:0:0:0:
94,163,85573,2,0,L|86:216,1,48.9999985046387,10|0,0:2|1:0,0:0:0:0:
273,265,85690,2,0,L|280:216,1,48.9999985046387,2|0,1:2|1:0,0:0:0:0:
185,219,85808,2,0,L|169:334,1,97.9999970092774,8|0,0:0|1:0,0:0:0:0:
77,372,86042,1,0,1:0:0:0:
261,359,86159,1,8,0:0:0:0:
261,359,86217,1,8,0:0:0:0:
261,359,86276,6,0,B|288:366|288:366|332:341,3,52.5000020027161,8|0|0|0,0:0|1:0|1:0|1:0,0:0:0:0:
373,226,86511,1,2,1:2:0:0:
457,328,86628,1,10,0:2:0:0:
457,328,86686,1,10,0:2:0:0:
457,328,86745,6,0,B|430:335|430:335|386:310,3,52.5000020027161,8|8|0|0,0:0|0:0|1:0|1:0,0:0:0:0:
498,242,86980,2,0,B|504:212|504:212|493:175,1,52.5000020027161,10|2,0:0|0:0,0:0:0:0:
421,87,87096,2,0,B|415:117|415:117|426:154,1,52.5000020027161,10|2,0:0|0:0,0:0:0:0:
256,192,87214,12,0,88737,0:0:0:0:
256,192,88855,5,12,0:0:0:0:
256,192,89089,12,0,90378,0:0:0:0:
81,89,90495,6,0,B|99:134|99:134|95:185,1,83.9999974365235,2|2,0:0|0:0,0:0:0:0:
98,203,90671,1,2,0:0:0:0:
98,203,90730,2,0,L|45:214,1,41.9999987182618,2|0,0:0|0:0,0:0:0:0:
58,295,90847,2,0,L|111:306,1,41.9999987182618,2|0,0:0|0:0,0:0:0:0:
206,169,90964,6,0,P|199:116|201:64,2,83.9999974365235,2|2|2,1:2|0:0|0:0,0:0:0:0:
225,276,91316,1,10,0:2:0:0:
199,377,91433,2,0,L|130:371,3,41.9999987182618,2|0|0|0,1:2|0:0|0:0|0:0,0:0:0:0:
302,343,91667,2,0,L|371:337,3,41.9999987182618,10|0|0|0,0:0|0:0|0:0|0:0,0:0:0:0:
326,239,91902,5,2,1:2:0:0:
294,118,92018,2,0,L|281:59,2,41.9999987182618,2|2|2,0:0|0:0|0:0,0:0:0:0:
400,153,92253,1,10,0:2:0:0:
397,16,92370,2,0,L|451:0,1,41.9999987182618,2|0,1:2|0:0,0:0:0:0:
510,100,92487,2,0,L|470:89,1,41.9999987182618,2|0,0:0|0:0,0:0:0:0:
450,232,92604,2,0,L|504:216,1,41.9999987182618,10|0,0:0|0:0,0:0:0:0:
496,376,92722,2,0,L|456:365,1,41.9999987182618,2|0,0:0|0:0,0:0:0:0:
315,301,92839,6,0,L|310:242,3,48.9999985046387,2|0|0|0,1:2|0:0|0:0|0:0,0:0:0:0:
178,384,93073,1,8,0:0:0:0:
176,219,93191,1,8,0:0:0:0:
39,337,93308,2,0,P|26:293|30:208,1,97.9999970092774,0|8,1:0|0:0,0:0:0:0:
37,91,93542,1,8,0:0:0:0:
32,101,93601,1,8,0:0:0:0:
206,26,93777,6,0,L|215:62,4,24.4999992523194,2|0|0|0|0,0:0|0:0|0:0|0:0|0:0,0:0:0:0:
321,159,94011,1,2,0:0:0:0:
334,147,94128,2,0,L|325:183,4,24.4999992523194,2|0|0|0|0,0:0|0:0|0:0|0:0|0:0,0:0:0:0:
232,312,94362,1,2,0:0:0:0:
219,300,94479,2,0,L|228:336,4,24.4999992523194,2|0|0|0|0,0:0|0:0|0:0|0:0|0:0,0:0:0:0:
396,290,94714,5,2,1:2:0:0:
222,195,94831,1,2,0:0:0:0:
400,78,94948,1,10,0:0:0:0:
282,0,95066,2,0,L|114:18,1,154.000004699707,2|0,1:2|0:0,0:0:0:0:
25,124,95300,1,8,0:0:0:0:
25,124,95359,1,8,0:0:0:0:
25,124,95417,2,0,B|53:163|53:163|37:286,1,154.000004699707,2|0,1:2|0:0,0:0:0:0:
257,362,95652,6,0,P|247:273|211:197,1,154.000004699707,10|2,0:0|1:2,0:0:0:0:
148,141,95827,1,2,1:2:0:0:
148,141,95886,2,0,L|313:95,1,154.000004699707,10|2,0:0|1:2,0:0:0:0:
320,134,96062,1,2,1:2:0:0:
320,134,96120,2,0,P|334:222|387:280,1,154.000004699707,0|8,1:2|0:0,0:0:0:0:
389,283,96296,1,8,0:0:0:0:
389,283,96355,2,0,L|397:197,1,77.0000023498536,8|0,0:0|0:0,0:0:0:0:
475,137,96472,2,0,L|466:49,1,77.0000023498536,8|0,0:0|0:0,0:0:0:0:
385,0,96589,6,0,B|233:27|233:27|237:19|237:19|93:48,1,308.000009399414,2|8,1:2|0:0,0:0:0:0:
21,368,96941,1,2,0:0:0:0:
83,222,97058,2,0,P|126:162|206:114,1,154.000004699707,2|8,1:2|0:0,0:0:0:0:
226,119,97234,1,8,0:0:0:0:
226,119,97292,1,8,0:0:0:0:
297,372,97527,6,0,L|279:294,2,55.9999982910157,2|0|0,0:0|0:0|0:0,0:0:0:0:
392,307,97761,2,0,L|374:229,2,55.9999982910157,2|0|0,0:0|0:0|0:0,0:0:0:0:
485,237,97995,5,2,0:0:0:0:
471,185,98073,1,0,0:0:0:0:
457,133,98152,1,0,0:0:0:0:
427,115,98230,1,2,0:0:0:0:
420,89,98308,1,0,0:0:0:0:
413,63,98385,1,0,0:0:0:0:
425,31,98464,6,0,L|310:20,2,97.9999970092774,2|0|2,0:1|0:0|0:1,0:0:0:0:
261,113,98816,2,0,L|459:133,1,195.999994018555,2|2,0:1|0:0,0:0:0:0:
234,26,99167,1,2,0:0:0:0:
198,183,99284,1,2,0:0:0:0:
156,89,99402,6,0,L|53:69,1,97.9999970092774,2|2,0:1|0:0,0:0:0:0:
50,73,99577,1,2,0:0:0:0:
41,80,99636,1,2,0:0:0:0:
66,247,99753,2,0,L|78:190,2,48.9999985046387,2|2|2,0:0|0:0|0:0,0:0:0:0:
173,321,99987,2,0,L|161:264,2,48.9999985046387,2|2|2,0:0|0:0|0:0,0:0:0:0:
283,274,100222,1,2,0:0:0:0:
283,274,100280,1,2,0:0:0:0:
283,274,100339,6,0,P|361:294|427:209,1,195.999994018555,2|0,0:0|0:0,0:0:0:0:
323,156,100691,1,2,0:0:0:0:
323,156,100808,2,0,L|396:376,1,195.999994018555,2|0,0:0|0:0,0:0:0:0:
70,53,101277,6,0,L|161:70,1,77.0000023498536,12|0,0:0|0:0,0:0:0:0:
374,28,101394,6,0,L|283:45,1,77.0000023498536,12|0,0:0|0:0,0:0:0:0:
70,53,101628,6,0,L|161:70,1,77.0000023498536,12|0,0:0|0:0,0:0:0:0:
374,28,101862,6,0,L|283:45,1,77.0000023498536,12|0,0:0|0:0,0:0:0:0:
70,53,101980,6,0,L|161:70,1,77.0000023498536,12|0,0:0|0:0,0:0:0:0:
178,373,102214,6,0,L|197:276,1,90.9999958343508,12|0,0:0|0:0,0:0:0:0:
231,99,102331,6,0,L|248:189,1,90.9999958343508,12|0,0:0|0:0,0:0:0:0:
178,373,102566,6,0,L|197:276,1,90.9999958343508,12|0,0:0|0:0,0:0:0:0:
231,99,102800,6,0,L|248:189,1,90.9999958343508,12|0,0:0|0:0,0:0:0:0:
178,373,102917,6,0,L|197:276,1,90.9999958343508,12|0,0:0|0:0,0:0:0:0:
0,384,103855,5,2,0:0:0:0:
256,192,103913,12,2,106902,0:0:0:0:
512,0,107136,5,2,0:0:0:0:
