osu file format v14

[General]
AudioFilename: audio.mp3
AudioLeadIn: 0
PreviewTime: 8386
Countdown: 0
SampleSet: Soft
StackLeniency: 0.4
Mode: 0
LetterboxInBreaks: 0
WidescreenStoryboard: 1

[Editor]
DistanceSpacing: 0.9
BeatDivisor: 6
GridSize: 8
TimelineZoom: 2.3

[Metadata]
Title:Elemental Creation (kamome sano Remix)
TitleUnicode:Elemental Creation (kamome sano Remix)
Artist:kamome sano
ArtistUnicode:kamome sano
Creator:UberFazz
Version:EXHAUST
Source:SOUND VOLTEX VIVID WAVE
Tags:corsace open 2021 co2021 semifinals sf hd2 SDVX electronic jazz swing instrumental video game dj TAKA meets DJ YOSHITAKA
BeatmapID:3205645
BeatmapSetID:1569809

[Difficulty]
HPDrainRate:5
CircleSize:3
OverallDifficulty:7
ApproachRate:9
SliderMultiplier:2.3
SliderTickRate:1

[Events]
//Background and Video events
0,0,"cute bg.jpg",0,0
//Break Periods
//Storyboard Layer 0 (Background)
//Storyboard Layer 1 (Fail)
//Storyboard Layer 2 (Pass)
//Storyboard Layer 3 (Foreground)
//Storyboard Layer 4 (Overlay)
//Storyboard Sound Samples

[TimingPoints]
1902,468.75,4,2,1,40,1,0
1902,-100,4,2,1,40,0,0
9402,-58.8235294117647,4,2,1,60,0,0
15964,-50,4,2,1,60,0,0
16355,-76.9230769230769,4,2,1,60,0,0
16902,-58.8235294117647,4,2,1,60,0,0
30964,-50,4,2,1,60,0,0
31355,-76.9230769230769,4,2,1,60,0,0
31902,-83.3333333333333,4,2,1,60,0,0
38464,-50,4,2,1,60,0,0
38855,-76.9230769230769,4,2,1,60,0,0
39402,-58.8235294117647,4,2,1,60,0,0
48073,-142.857142857143,4,2,1,50,0,0
58152,-125,4,2,1,60,0,0
62370,-111.111111111111,4,2,1,60,0,0
62839,468.75,4,2,1,60,1,0
62839,-83.3333333333333,4,2,1,60,0,0
65651,-71.4285714285714,4,2,1,60,0,0
67057,-71.4285714285714,4,2,1,60,0,0
67527,-66.6666666666667,4,2,1,60,0,0
76120,-41.6666666666667,4,2,1,70,0,0
77057,-45.4545454545455,4,2,1,70,0,0
77839,-125,4,2,1,60,0,0
79245,-90.9090909090909,4,2,1,60,0,0
79479,-71.4285714285714,4,2,1,60,0,0
79714,234.375,4,2,1,80,1,1
79714,-83.3333333333333,4,2,1,80,0,1
82995,-125,4,2,1,80,0,0
83464,468.75,4,2,1,60,1,0
83464,-83.3333333333333,4,2,1,60,0,0
85339,-71.4285714285714,4,2,1,60,0,0
86276,-66.6666666666667,4,2,1,60,0,0
87214,-250,4,2,1,60,0,0
88855,-83.3333333333333,4,2,1,60,0,0
89089,-250,4,2,1,60,0,0
90495,-83.3333333333333,4,2,1,60,0,0
92839,-71.4285714285714,4,2,1,70,0,0
94714,234.375,4,2,1,80,1,1
94714,-90.9090909090909,4,2,1,80,0,1
97526,-166.666666666667,4,2,1,60,0,0
98464,468.75,4,2,1,70,1,0
98464,-71.4285714285714,4,2,1,70,0,0
101276,-45.4545454545455,4,2,1,70,0,0
102214,-38.4615384615385,4,2,1,70,0,0

[Colours]
Combo1 : 255,157,111
Combo2 : 0,242,242
Combo3 : 60,157,255
Combo4 : 255,64,64

[HitObjects]
26,63,9402,6,0,B|7:124|7:124|43:268,1,195.500003728867,6|0,1:0|0:0,0:0:0:0:
185,271,9792,2,0,P|196:192|86:138,1,195.500003728867,2|0,0:1|0:0,0:0:0:0:
108,133,10105,1,2,0:1:0:0:
253,12,10339,1,0,1:0:0:0:
375,55,10495,2,0,P|350:136|257:99,1,195.500003728867,2|0,0:1|0:0,0:0:0:0:
261,110,10808,1,10,0:1:0:0:
496,13,11042,1,2,0:1:0:0:
496,13,11159,1,2,0:1:0:0:
496,126,11277,6,0,P|480:220|424:342,1,195.500003728867,2|0,1:0|0:0,0:0:0:0:
284,384,11667,2,0,P|268:290|212:168,1,195.500003728867,2|0,0:1|0:0,0:0:0:0:
193,196,11980,2,0,P|181:261|142:347,1,130.333335819244,2|2,0:1|0:0,0:0:0:0:
139,350,12214,1,0,1:0:0:0:
5,227,12370,2,2,B|24:144|8:73|8:73|30:97|41:127,1,195.500003728867,2|0,0:1|0:0,0:1:0:0:
105,40,12683,5,10,0:0:0:0:
134,40,12761,1,0,0:0:0:0:
158,53,12839,1,0,0:0:0:0:
189,72,12917,5,2,0:0:0:0:
203,72,12995,1,0,0:0:0:0:
215,65,13073,1,0,0:0:0:0:
234,34,13152,6,0,L|384:48,1,130.333335819244,2|0,1:2|0:0,0:0:0:0:
398,50,13386,1,2,0:0:0:0:
497,148,13542,1,2,0:0:0:0:
507,183,13620,2,0,P|490:252|448:310,1,130.333335819244,10|0,0:0|0:0,0:0:0:0:
389,359,13855,1,2,0:0:0:0:
357,349,13933,1,2,0:0:0:0:
324,358,14011,1,2,0:0:0:0:
287,352,14089,6,0,L|268:214,1,130.333335819244,2|0,1:2|0:0,0:0:0:0:
281,183,14323,1,2,0:0:0:0:
398,50,14480,2,0,P|403:140|372:255,1,195.500003728867,2|2,0:0|0:0,0:0:0:0:
332,265,14792,1,2,0:0:0:0:
136,281,14948,1,2,0:0:0:0:
122,248,15027,5,2,1:2:0:0:
120,239,15105,5,0,0:0:0:0:
118,230,15183,5,2,0:0:0:0:
116,221,15261,5,0,0:0:0:0:
114,212,15339,5,2,0:0:0:0:
112,203,15417,5,0,0:0:0:0:
110,194,15495,6,0,L|180:182,3,65.1666679096222,10|0|2|2,0:0|0:0|0:0|0:0,0:0:0:0:
33,358,15964,6,0,L|13:174,1,153.333333333333,12|12,0:2|0:2,0:0:0:0:
0,56,16355,6,0,L|16:208,1,149.499993156433,12|12,0:2|0:0,0:0:0:0:
238,6,16902,6,0,P|307:36|429:22,1,195.500003728867,6|0,1:0|0:0,0:0:0:0:
499,137,17292,2,0,P|467:219|488:321,1,195.500003728867,2|0,0:1|0:0,0:0:0:0:
512,360,17605,1,2,0:1:0:0:
274,379,17839,1,0,1:0:0:0:
309,234,17995,2,0,L|361:21,1,195.500003728867,2|0,0:1|0:0,0:0:0:0:
389,19,18308,1,10,0:1:0:0:
367,323,18542,1,2,0:1:0:0:
367,323,18659,1,2,0:1:0:0:
228,291,18777,6,0,P|126:264|140:196,1,195.500003728867,2|0,1:0|0:0,0:0:0:0:
31,151,19167,2,0,P|70:204|48:348,1,195.500003728867,2|0,0:1|0:0,0:0:0:0:
36,356,19480,1,2,0:1:0:0:
121,114,19714,1,0,1:0:0:0:
6,50,19870,2,0,B|56:38|86:1|86:1|144:-7|210:40,1,195.500003728867,2|0,0:1|0:0,0:0:0:0:
264,64,20183,5,10,0:0:0:0:
280,52,20261,1,0,0:0:0:0:
289,31,20339,1,0,0:0:0:0:
322,40,20417,5,2,0:0:0:0:
326,28,20495,1,0,0:3:0:0:
325,14,20573,1,0,0:3:0:0:
359,12,20652,6,0,L|508:25,1,130.333335819244,2|2,1:0|0:0,0:0:0:0:
505,56,20886,1,2,0:0:0:0:
501,233,21042,1,2,0:0:0:0:
497,287,21120,2,0,P|435:310|344:303,1,130.333335819244,10|0,0:1|0:0,0:0:0:0:
325,295,21355,1,2,0:0:0:0:
292,308,21433,1,2,0:0:0:0:
259,295,21511,1,2,0:0:0:0:
221,313,21589,6,0,B|207:286|207:286|74:309,1,130.333335819244,2|0,1:0|0:0,0:0:0:0:
73,313,21823,1,2,0:1:0:0:
0,107,21980,2,0,P|53:52|172:79,1,195.500003728867,2|2,0:1|0:1,0:0:0:0:
201,150,22292,1,2,0:1:0:0:
324,16,22448,1,2,0:0:0:0:
353,36,22527,6,0,L|424:29,2,65.1666679096222,2|2|2,1:0|0:0|0:0,0:0:0:0:
477,132,22761,2,0,L|406:125,2,65.1666679096222,2|2|2,0:0|0:0|0:0,0:0:0:0:
319,130,22995,5,10,0:0:0:0:
303,165,23073,1,2,0:0:0:0:
317,208,23152,1,2,0:0:0:0:
350,230,23230,5,2,0:0:0:0:
351,250,23308,1,0,0:0:0:0:
368,264,23387,1,0,0:0:0:0:
403,256,23464,6,0,B|436:243|436:243|457:271,1,65.1666679096222,0|0,1:0|0:0,0:0:0:0:
442,363,23620,1,8,0:0:0:0:
442,363,23698,2,0,B|409:376|409:376|388:348,1,65.1666679096222,0|0,1:0|0:0,0:0:0:0:
298,329,23855,1,8,0:0:0:0:
298,329,23933,2,0,L|208:340,2,65.1666679096222,8|0|0,1:0|1:0|1:0,0:0:0:0:
148,374,24167,2,0,L|58:363,2,65.1666679096222,0|0|0,1:0|1:0|1:0,0:0:0:0:
1,285,24402,6,0,P|38:244|33:159,1,130.333335819244,6|0,1:0|0:0,0:0:0:0:
20,138,24636,1,2,0:0:0:0:
117,16,24792,2,0,L|339:37,1,195.500003728867,2|0,0:1|0:0,0:1:0:0:
351,38,25105,1,2,0:0:0:0:
461,194,25261,1,2,0:0:0:0:
426,186,25339,5,2,1:2:0:0:
418,151,25417,1,0,0:0:0:0:
422,114,25495,1,0,0:0:0:0:
387,126,25573,5,2,0:0:0:0:
389,151,25651,1,0,0:0:0:0:
384,176,25729,1,0,0:0:0:0:
355,162,25808,5,10,0:0:0:0:
352,149,25886,1,0,0:0:0:0:
353,137,25964,1,0,0:0:0:0:
316,142,26042,6,0,B|280:138|280:138|291:169,2,65.1666679096222,2|0|0,0:0|0:0|0:0,0:0:0:0:
288,266,26277,2,0,P|257:345|144:378,1,195.500003728867,2|0,1:0|0:0,0:0:0:0:
52,284,26667,1,2,0:0:0:0:
50,254,26745,2,0,P|81:175|194:142,1,195.500003728867,10|0,0:1|0:0,0:0:0:0:
19,39,27136,1,2,0:0:0:0:
32,58,27214,5,2,1:0:0:0:
90,57,27292,1,0,0:0:0:0:
139,26,27370,1,0,0:0:0:0:
185,2,27448,5,2,0:1:0:0:
231,2,27526,1,0,0:0:0:0:
270,27,27604,1,0,0:0:0:0:
271,45,27683,6,0,L|279:120,1,65.1666679096222,2|0,0:0|0:0,0:0:0:0:
369,69,27839,1,0,0:0:0:0:
369,69,27917,2,0,L|375:4,2,65.1666679096222,2|0|0,0:0|0:0|0:0,0:0:0:0:
501,8,28152,6,0,B|481:172|481:172|488:158|501:148,1,195.500003728867,2|2,1:0|0:0,0:0:0:0:
496,384,28542,1,2,0:0:0:0:
461,384,28620,2,0,L|448:250,1,130.333335819244,10|0,0:0|0:0,0:0:0:0:
412,223,28855,1,2,0:0:0:0:
305,324,29011,1,2,0:0:0:0:
299,309,29089,5,2,1:2:0:0:
317,272,29167,1,0,0:0:0:0:
313,236,29245,1,0,0:0:0:0:
316,210,29323,5,2,0:0:0:0:
304,192,29401,1,0,0:0:0:0:
287,185,29479,1,0,0:0:0:0:
296,155,29558,6,0,P|264:150|230:150,1,65.1666679096222,10|0,0:0|0:0,0:0:0:0:
158,244,29714,1,0,0:0:0:0:
158,244,29792,2,0,P|190:249|224:249,2,65.1666679096222,2|0|0,0:0|0:0|0:0,0:0:0:0:
39,359,30027,6,0,L|57:145,1,195.500003728867,2|0,1:0|0:0,0:0:0:0:
129,32,30417,1,2,0:0:0:0:
141,49,30495,2,0,L|157:243,1,195.500003728867,10|2,0:1|0:0,0:0:0:0:
161,258,30808,1,2,0:0:0:0:
170,270,30886,1,2,0:0:0:0:
179,282,30964,6,0,L|363:259,1,153.333333333333,12|12,0:0|0:0,0:0:0:0:
479,244,31355,6,0,L|326:263,1,149.499993156433,12|12,0:0|0:0,0:0:0:0:
330,262,31902,5,4,1:0:0:0:
330,262,32370,1,0,1:0:0:0:
330,262,32839,1,0,1:0:0:0:
330,262,33308,1,2,1:2:0:0:
182,122,33777,5,2,1:2:0:0:
182,122,34245,1,0,1:0:0:0:
182,122,34714,1,0,1:0:0:0:
182,122,35183,1,2,1:2:0:0:
460,69,35652,6,0,L|432:365,1,275.999991577149,2|0,1:2|1:0,0:0:0:0:
77,343,36589,2,0,L|52:69,1,275.999991577149,2|0,1:2|1:0,0:0:0:0:
150,22,37292,1,2,0:0:0:0:
287,69,37527,2,0,L|277:140,9,45.9999985961914,2|0|2|0|2|0|2|0|2|2,1:2|0:0|0:0|0:0|0:0|0:0|1:2|0:0|0:0|0:0,0:0:0:0:
350,349,38464,6,0,L|377:176,1,153.333333333333,12|12,0:0|0:0,0:0:0:0:
397,49,38855,6,0,L|373:200,1,149.499993156433,12|12,0:0|0:0,0:0:0:0:
150,36,39402,1,8,0:0:0:0:
159,153,39558,2,0,L|166:233,2,65.1666679096222,8|8|8,0:0|0:0|0:0,0:0:0:0:
17,157,39792,6,0,B|-6:210|-6:210|11:312|11:312|28:297|37:278,1,195.500003728867,6|0,1:0|0:0,0:0:0:0:
56,252,40105,1,2,1:0:0:0:
224,357,40339,1,0,1:0:0:0:
275,218,40495,2,0,P|284:154|268:16,1,195.500003728867,2|0,0:1|0:0,0:0:0:0:
244,0,40808,1,10,0:1:0:0:
460,3,41042,1,2,0:1:0:0:
460,3,41159,1,2,0:1:0:0:
426,103,41277,6,0,L|355:314,1,195.500003728867,2|0,1:0|0:0,0:0:0:0:
429,383,41667,2,0,P|351:332|218:312,1,195.500003728867,2|0,0:1|0:0,0:0:0:0:
220,323,41980,1,2,0:1:0:0:
0,318,42214,1,0,1:0:0:0:
18,160,42370,2,2,B|34:73|20:4|20:4|32:26|62:48,1,195.500003728867,2|0,0:0|0:0,0:1:0:0:
116,86,42683,5,10,0:0:0:0:
146,107,42761,1,0,0:0:0:0:
186,105,42839,1,0,0:0:0:0:
202,71,42917,5,2,0:0:0:0:
223,56,42995,1,0,0:0:0:0:
251,57,43073,1,0,0:0:0:0:
281,74,43152,6,0,P|281:135|307:212,1,130.333335819244,2|0,1:0|0:0,0:0:0:0:
324,228,43386,1,2,0:0:0:0:
477,209,43542,1,2,0:0:0:0:
486,184,43620,2,0,P|486:123|460:46,1,130.333335819244,10|0,0:1|0:0,0:0:0:0:
451,38,43855,1,2,0:0:0:0:
439,27,43933,1,2,0:0:0:0:
417,14,44011,1,2,0:0:0:0:
381,5,44089,6,0,L|394:152,1,130.333335819244,2|0,1:0|0:0,0:0:0:0:
394,169,44323,1,2,0:1:0:0:
512,306,44480,2,2,P|439:347|311:368,1,195.500003728867,2|0,0:1|0:0,0:1:0:0:
242,358,44792,1,2,0:1:0:0:
16,323,44948,1,0,0:0:0:0:
38,294,45027,6,0,P|44:264|25:271,2,65.1666679096222,2|2|2,1:0|0:0|0:0,0:0:0:0:
106,151,45261,2,0,P|100:181|119:174,2,65.1666679096222,2|2|2,0:0|0:0|0:0,0:0:0:0:
157,259,45495,5,10,0:0:0:0:
189,236,45573,1,2,0:0:0:0:
205,197,45652,1,2,0:0:0:0:
235,170,45730,5,2,0:0:0:0:
244,146,45809,1,0,0:0:0:0:
263,132,45887,1,0,0:0:0:0:
253,99,45964,6,0,L|241:22,1,65.1666679096222,0|0,1:0|0:0,0:0:0:0:
349,19,46120,1,8,0:0:0:0:
349,19,46198,2,0,L|360:84,1,65.1666679096222,0|0,1:0|0:0,0:0:0:0:
468,52,46355,1,8,0:0:0:0:
468,52,46433,2,0,B|454:88|454:88|486:122,2,65.1666679096222,8|0|0,1:0|1:0|1:0,0:0:0:0:
399,169,46667,2,0,B|413:205|413:205|381:239,2,65.1666679096222,0|0|0,1:0|1:0|1:0,0:0:0:0:
499,191,46902,1,4,1:2:0:0:
496,369,48073,6,0,L|430:362,1,53.66666502889,2|0,0:0|0:0,0:0:0:0:
356,337,48308,1,2,0:0:0:0:
356,337,48386,2,0,L|366:292,5,26.833332514445,0|2|0|2|0|4,0:0|0:0|0:0|0:0|0:0|0:1,0:0:0:0:
234,353,49089,2,0,L|230:303,1,26.833332514445,2|0,0:0|0:0,0:0:0:0:
247,313,49245,2,0,L|243:263,1,26.833332514445,2|0,0:0|0:0,0:0:0:0:
260,273,49402,2,0,L|256:223,1,26.833332514445,2|0,0:0|0:0,0:0:0:0:
439,79,49714,6,0,L|432:135,1,53.66666502889,2|2,0:0|0:0,0:0:0:0:
407,327,50027,2,0,L|423:187,1,134.166662572225,2|2,0:0|0:0,0:0:0:0:
78,120,50652,6,0,L|84:173,1,53.66666502889,2|2,0:0|0:0,0:0:0:0:
96,280,50964,2,0,L|79:133,1,134.166662572225,2|2,0:0|0:0,0:0:0:0:
256,137,51589,6,0,L|256:193,1,53.66666502889,2|2,0:0|0:0,0:0:0:0:
256,244,51902,2,0,L|256:128,1,107.33333005778,2|0,0:0|0:0,0:0:0:0:
269,102,52292,2,0,L|305:107,7,26.833332514445,2|0|2|0|2|0|2|0,0:0|0:0|0:0|0:0|0:0|0:0|0:0|0:0,0:0:0:0:
395,215,52995,1,2,0:0:0:0:
403,231,53073,2,0,L|357:239,4,26.833332514445,2|2|2|0|2,0:0|0:0|0:0|0:0|0:0,0:0:0:0:
166,373,53542,6,0,L|163:331,1,26.833332514445,2|0,0:0|0:0,0:0:0:0:
131,295,53698,2,0,L|132:321,2,26.833332514445,2|0|2,0:0|0:0|0:0,0:0:0:0:
15,163,54011,5,2,0:0:0:0:
15,163,54089,1,2,0:0:0:0:
148,34,54245,6,0,L|174:33,1,26.833332514445,2|2,0:0|0:0,0:0:0:0:
340,23,54480,1,2,0:0:0:0:
351,38,54558,2,0,L|346:85,5,26.833332514445,0|2|0|0|0|0,0:0|0:0|0:0|0:0|0:0|0:0,0:0:0:0:
311,175,55026,2,0,L|306:128,2,26.833332514445,2|2|0,0:0|0:0|0:0,0:0:0:0:
219,102,55261,1,2,0:0:0:0:
210,121,55339,6,0,L|213:160,2,26.833332514445,2|2|2,0:0|0:0|0:0,0:0:0:0:
104,154,55573,2,0,L|101:115,2,26.833332514445,2|2|2,0:0|0:0|0:0,0:0:0:0:
165,237,55808,5,2,0:0:0:0:
148,34,55964,1,2,0:0:0:0:
341,150,56198,5,2,0:0:0:0:
341,150,56277,1,2,0:0:0:0:
503,44,56511,5,2,0:0:0:0:
489,254,56667,1,2,0:0:0:0:
339,208,56902,5,2,0:0:0:0:
341,150,56980,1,2,0:0:0:0:
88,226,57214,1,2,0:0:0:0:
321,335,57448,2,0,L|326:286,2,26.833332514445,2|2|2,0:0|0:0|0:0,0:0:0:0:
230,308,57683,1,2,0:0:0:0:
23,304,57839,1,2,0:0:0:0:
23,304,57917,1,2,0:0:0:0:
162,159,58073,1,2,0:0:0:0:
162,159,58152,6,2,B|258:131|345:217|440:176,1,276,2|2,0:0|0:0,0:1:0:0:
432,178,59323,2,2,P|443:98|411:14,1,153.333333333333,2|2,0:0|0:0,0:1:0:0:
279,31,60027,6,2,B|248:52|211:50|211:50|175:21|117:21,1,153.333333333333,2|2,0:0|0:0,0:1:0:0:
122,35,60495,2,2,B|137:89|137:89|121:193|8:277,1,276,2|2,0:0|0:0,0:1:0:0:
70,367,61667,6,2,L|42:89,1,276,2|2,0:0|0:0,0:1:0:0:
169,38,62761,2,0,L|178:94,1,34.4999989471436,2|2,0:0|0:1,0:0:0:0:
328,45,62995,1,2,0:0:0:0:
324,33,63073,2,0,L|451:23,1,91.9999971923829,2|2,0:1|0:0,0:0:0:0:
503,21,63307,1,2,0:1:0:0:
502,149,63464,1,2,0:1:0:0:
264,130,63698,1,2,0:0:0:0:
253,140,63776,6,0,P|238:181|237:250,1,91.9999971923829,2|2,0:1|0:0,0:0:0:0:
249,316,64010,1,2,0:1:0:0:
407,314,64167,2,0,L|383:121,1,183.999994384766,2|2,0:1|1:0,0:0:0:0:
195,23,64714,5,2,1:0:0:0:
16,101,64870,1,2,1:0:0:0:
20,115,64948,1,0,1:0:0:0:
24,129,65026,1,0,1:0:0:0:
52,152,65104,6,0,P|74:205|0:215,1,137.999995788574,2|2,1:0|1:0,0:0:0:0:
0,320,65417,1,2,1:0:0:0:
16,322,65495,1,0,1:0:0:0:
33,324,65573,1,0,1:0:0:0:
63,341,65651,6,0,L|176:311,1,107.33333005778,2|0,1:0|1:0,0:0:0:0:
157,229,65885,1,2,1:0:0:0:
248,360,66042,1,0,1:0:0:0:
260,337,66120,2,0,L|254:269,1,53.66666502889,2|0,1:0|1:0,0:0:0:0:
249,195,66276,1,2,1:0:0:0:
211,68,66510,1,0,1:0:0:0:
228,84,66589,2,0,L|351:96,1,107.33333005778,2|0,1:0|1:0,0:0:0:0:
429,74,66823,2,0,L|436:14,2,53.66666502889,2|0|0,1:0|1:0|1:0,1:0:0:0:
474,157,67057,6,0,L|464:229,1,53.66666502889,8|0,0:0|0:0,0:0:0:0:
389,276,67214,1,0,1:0:0:0:
377,256,67292,1,8,0:0:0:0:
471,345,67448,1,8,0:0:0:0:
451,363,67526,1,8,0:0:0:0:
428,375,67604,1,8,0:0:0:0:
401,383,67682,1,8,0:0:0:0:
258,384,67839,1,8,0:0:0:0:
224,371,67917,1,8,0:0:0:0:
191,348,67995,1,8,0:0:0:0:
171,314,68073,1,8,0:0:0:0:
144,199,68229,1,8,0:0:0:0:
132,160,68307,1,8,0:0:0:0:
153,131,68385,1,8,0:0:0:0:
140,96,68464,5,12,0:0:0:0:
256,192,68542,12,12,69323,0:0:0:0:
357,79,69635,5,12,0:0:0:0:
256,192,69714,12,12,70260,0:0:0:0:
256,192,70339,12,2,71042,0:0:0:0:
168,347,71198,6,0,L|184:208,1,115.000004386902,12|0,0:0|0:0,0:0:0:0:
200,138,71432,2,0,L|263:148,5,57.500002193451,2|2|2|2|2|2,0:0|0:0|0:0|0:0|0:0|0:0,0:0:0:0:
111,167,71901,2,0,P|32:124|24:35,1,172.500006580353,6|0,0:0|0:0,0:0:0:0:
386,78,72214,6,0,B|358:74|358:74|329:97,5,57.500002193451,12|0|2|2|2|2,0:0|0:0|0:0|0:0|0:0|0:0,0:0:0:0:
298,248,72682,2,0,B|308:273|308:273|343:287,4,57.500002193451,12|0|2|2|2,0:0|0:0|0:0|0:0|0:0,0:0:0:0:
489,237,73073,2,0,B|505:214|505:214|500:177,6,57.500002193451,12|0|2|2|2|2|2,0:0|0:0|0:0|0:0|0:0|0:0|0:0,0:0:0:0:
388,189,73620,6,0,L|384:303,1,115.000004386902,12|8,0:0|0:0,0:0:0:0:
319,374,73854,1,8,0:0:0:0:
277,162,74010,1,4,1:0:0:0:
256,192,74089,12,2,75729,0:0:0:0:
85,122,76120,6,0,L|105:329,1,183.999994384766,12|12,0:0|0:0,0:0:0:0:
253,97,76432,6,0,L|273:304,1,183.999994384766,12|12,0:0|0:0,0:0:0:0:
421,72,76745,5,12,0:0:0:0:
438,255,77057,6,0,L|418:48,1,168.666671813965,12|12,0:0|0:0,0:0:0:0:
270,280,77369,6,0,L|250:73,1,168.666671813965,12|12,0:0|0:0,0:0:0:0:
102,305,77682,5,12,0:0:0:0:
0,192,77839,5,2,0:0:0:0:
512,192,78776,2,0,L|504:247,2,30.6666666666667,2|0|0,0:0|0:0|0:0,0:0:0:0:
400,192,79010,2,0,L|392:137,2,30.6666666666667,2|0|0,0:0|0:0|0:0,0:0:0:0:
264,192,79245,2,0,L|256:247,2,42.1666679534912,2|0|0,0:0|0:0|0:0,0:0:0:0:
104,192,79479,2,0,L|96:137,2,53.66666502889,2|0|0,0:0|0:0|0:0,0:0:0:0:
196,70,79714,6,0,B|268:45|268:45|354:65,1,137.999995788574,2|2,1:2|1:2,0:0:0:0:
471,98,79948,1,8,0:0:0:0:
470,80,80065,6,0,B|412:33|412:33|333:46,1,137.999995788574,2|2,1:2|1:2,0:0:0:0:
184,89,80299,1,8,0:0:0:0:
184,69,80417,6,0,B|228:18|228:18|296:45,1,137.999995788574,2|2,1:2|1:2,0:0:0:0:
489,98,80651,1,8,0:0:0:0:
488,80,80768,5,8,0:0:0:0:
398,10,80885,2,0,L|380:83,2,68.9999978942872,8|8|8,0:0|0:0|0:0,0:0:0:0:
478,234,81120,2,0,L|483:383,1,137.999995788574,0|0,1:0|1:0,0:0:0:0:
401,170,81354,1,12,0:0:0:0:
186,355,81589,6,0,L|178:273,2,68.9999978942872,2|0|0,1:2|1:0|1:0,0:0:0:0:
49,368,81823,1,8,0:0:0:0:
4,212,81940,6,0,L|12:294,2,68.9999978942872,2|0|0,1:2|1:0|1:0,0:0:0:0:
141,199,82174,1,8,0:0:0:0:
69,117,82292,2,0,L|65:35,4,68.9999978942872,0|8|0|0|8,1:0|0:0|1:0|1:0|0:0,0:0:0:0:
188,34,82643,1,10,0:2:0:0:
216,125,82760,1,8,0:0:0:0:
287,56,82878,1,8,0:0:0:0:
287,56,82936,1,8,0:0:0:0:
287,56,82995,6,2,B|336:61|336:61|341:54|341:54|376:61|376:61|359:107|359:107|364:126|364:126|332:162|332:162|317:174|317:174|333:224|333:224|326:239|326:239|323:283|323:283|334:332,1,368,12|2,0:0|1:2,0:1:0:0:
427,326,83581,1,2,0:0:0:0:
320,341,83698,2,0,P|273:347|187:376,1,137.999995788574,2|10,0:0|0:0,0:0:0:0:
91,374,84049,2,0,L|100:324,2,34.4999989471436,2|2|2,0:0|0:0|0:0,0:0:0:0:
0,330,84284,1,2,0:0:0:0:
6,233,84401,2,0,P|24:155|56:98,1,137.999995788574,2|0,1:2|0:0,0:0:0:0:
123,31,84753,1,2,0:0:0:0:
230,24,84870,2,0,L|222:84,3,34.4999989471436,10|0|0|0,0:0|0:0|0:0|0:0,0:0:0:0:
329,59,85104,2,0,L|324:24,3,34.4999989471436,2|0|2|0,0:0|0:0|0:0|0:0,0:0:0:0:
428,40,85339,6,0,P|456:148|498:221,1,160.99999508667,2|10,1:2|0:2,0:0:0:0:
512,294,85690,1,2,1:2:0:0:
512,294,85749,1,0,1:0:0:0:
512,294,85807,2,0,L|413:286,1,80.499997543335,8|0,0:0|1:0,0:0:0:0:
342,346,86042,1,0,1:0:0:0:
274,272,86159,1,8,0:0:0:0:
274,272,86217,1,8,0:0:0:0:
274,272,86276,6,0,B|270:243|270:243|284:211,3,43.1250016450883,8|0|0|0,0:0|1:0|1:0|1:0,0:0:0:0:
368,177,86510,2,0,B|372:206|372:206|358:238,3,43.1250016450883,10|8|2|2,1:2|0:0|1:2|1:2,0:0:0:0:
279,136,86745,2,0,L|210:144,3,43.1250016450883,8|8|0|0,0:0|0:0|1:0|1:0,0:0:0:0:
137,208,86979,2,0,L|206:216,3,43.1250016450883,10|2|10|2,0:0|0:0|0:0|0:0,0:0:0:0:
256,192,87214,12,2,88620,0:0:0:0:
256,192,88854,5,12,0:0:0:0:
256,192,89089,12,2,90260,0:0:0:0:
500,274,90495,5,0,0:0:0:0:
432,175,90612,2,0,L|429:229,6,34.4999989471436,2|2|2|0|2|0|2,0:0|0:0|0:0|0:0|0:0|0:0|1:2,0:0:0:0:
495,38,91315,1,10,0:2:0:0:
495,38,91432,2,0,P|433:18|359:11,1,137.999995788574,2|10,1:2|0:0,0:0:0:0:
250,64,91901,2,0,P|188:84|114:91,1,137.999995788574,2|2,1:2|0:0,0:0:0:0:
26,141,92253,1,10,0:2:0:0:
26,141,92311,1,0,0:0:0:0:
26,141,92370,2,0,L|38:292,1,137.999995788574,2|10,1:2|0:0,0:0:0:0:
233,356,92839,6,0,L|323:342,1,80.499997543335,2|0,1:2|0:0,0:0:0:0:
352,252,93073,2,0,L|431:264,1,80.499997543335,8|8,0:0|0:0,0:0:0:0:
403,350,93307,1,0,1:0:0:0:
251,253,93424,1,8,0:0:0:0:
251,253,93483,1,8,0:0:0:0:
251,253,93542,2,0,L|234:86,1,160.99999508667,8|0,0:0|1:0,0:0:0:0:
454,20,94714,5,2,1:2:0:0:
371,70,94831,1,2,0:0:0:0:
296,16,94948,1,10,0:0:0:0:
212,59,95065,2,0,P|235:122|286:98,1,126.500003860474,2|0,1:2|0:0,0:0:0:0:
111,10,95299,1,8,0:0:0:0:
111,10,95358,1,8,0:0:0:0:
111,10,95417,2,0,P|106:79|119:143,1,126.500003860474,2|0,1:2|0:0,0:0:0:0:
26,330,95651,6,0,L|40:184,1,126.500003860474,10|2,0:0|1:2,0:0:0:0:
38,204,95827,1,2,1:2:0:0:
38,204,95885,1,10,0:0:0:0:
202,253,96003,2,0,L|195:172,2,63.2500019302369,2|2|0,1:2|1:2|1:2,0:0:0:0:
338,229,96237,1,8,0:0:0:0:
338,229,96296,1,8,0:0:0:0:
338,229,96354,2,0,L|359:94,1,126.500003860474,8|8,0:0|0:0,0:0:0:0:
492,9,96589,6,0,P|458:82|507:251,1,253.000007720947,2|8,1:2|0:0,0:0:0:0:
499,242,96940,1,2,0:0:0:0:
406,336,97057,2,0,P|333:370|164:321,1,253.000007720947,2|8,1:2|0:0,0:0:0:0:
8,192,97526,6,0,L|17:126,2,45.9999985961914,2|0|0,0:0|0:0|0:0,0:0:0:0:
157,132,97760,2,0,L|148:66,2,45.9999985961914,2|0|0,0:0|0:0|0:0,0:0:0:0:
271,185,97995,2,0,L|280:119,2,45.9999985961914,2|0|0,0:0|0:0|0:0,0:0:0:0:
373,138,98229,2,0,L|364:72,2,45.9999985961914,2|0|0,0:0|0:0|0:0,0:0:0:0:
484,136,98464,6,0,L|467:247,2,80.499997543335,2|0|2,0:1|0:0|0:1,0:0:0:0:
504,34,98815,2,0,P|412:6|345:5,1,160.99999508667,2|2,0:1|0:0,0:0:0:0:
263,26,99167,1,2,0:0:0:0:
178,10,99284,1,2,0:0:0:0:
100,50,99401,1,2,0:1:0:0:
15,25,99518,2,0,L|8:75,2,40.2499987716675,2|2|2,0:0|0:0|0:0,0:0:0:0:
68,142,99753,2,0,L|61:192,2,40.2499987716675,2|2|2,0:0|0:0|0:0,0:0:0:0:
106,263,99987,2,0,L|99:313,2,40.2499987716675,2|2|2,0:0|0:0|0:0,0:0:0:0:
200,238,100221,1,2,0:0:0:0:
200,238,100280,1,2,0:0:0:0:
200,238,100339,6,0,L|358:206,1,160.99999508667,2|0,0:0|0:0,0:0:0:0:
432,284,100690,1,2,0:0:0:0:
432,284,100807,2,0,L|274:316,1,160.99999508667,2|0,0:0|0:0,0:0:0:0:
161,34,101276,6,0,L|300:43,1,126.500003860474,12|12,0:0|0:0,0:0:0:0:
413,50,101628,5,12,0:0:0:0:
413,50,101862,6,0,L|286:41,1,126.500003860474,12|12,0:0|0:0,0:0:0:0:
19,183,102214,6,0,L|169:173,1,149.499993156433,12|12,0:0|0:0,0:0:0:0:
317,163,102566,5,12,0:0:0:0:
317,163,102800,6,0,L|165:172,1,149.499993156433,12|12,0:0|0:0,0:0:0:0:
167,172,103854,5,2,0:0:0:0:
256,192,103971,12,2,107135,0:0:0:0:
