osu file format v14

[General]
AudioFilename: audio.mp3
AudioLeadIn: 0
PreviewTime: 8386
Countdown: 0
SampleSet: Soft
StackLeniency: 0.4
Mode: 0
LetterboxInBreaks: 0
WidescreenStoryboard: 1

[Editor]
DistanceSpacing: 1
BeatDivisor: 6
GridSize: 8
TimelineZoom: 2.3

[Metadata]
Title:Elemental Creation (kamome sano Remix)
TitleUnicode:Elemental Creation (kamome sano Remix)
Artist:kamome sano
ArtistUnicode:kamome sano
Creator:UberFazz
Version:ADVANCED
Source:SOUND VOLTEX VIVID WAVE
Tags:corsace open 2021 co2021 semifinals sf hd2 SDVX electronic jazz swing instrumental video game dj TAKA meets DJ YOSHITAKA
BeatmapID:3205644
BeatmapSetID:1569809

[Difficulty]
HPDrainRate:5
CircleSize:2.5
OverallDifficulty:5
ApproachRate:8
SliderMultiplier:2.1
SliderTickRate:1

[Events]
//Background and Video events
0,0,"cute bg.jpg",0,0
//Break Periods
2,48977,62089
//Storyboard Layer 0 (Background)
//Storyboard Layer 1 (Fail)
//Storyboard Layer 2 (Pass)
//Storyboard Layer 3 (Foreground)
//Storyboard Layer 4 (Overlay)
//Storyboard Sound Samples

[TimingPoints]
1902,468.75,4,2,1,40,1,0
9402,-83.3333333333333,4,2,1,60,0,0
15964,-62.5,4,2,1,60,0,0
16589,-83.3333333333333,4,2,1,60,0,0
30964,-62.5,4,2,1,60,0,0
31589,-83.3333333333333,4,2,1,60,0,0
32370,-166.666666666667,4,2,1,60,0,0
35652,-125,4,2,1,60,0,0
38464,-62.5,4,2,1,60,0,0
39089,-83.3333333333333,4,2,1,60,0,0
48073,-83.3333333333333,4,2,1,50,0,0
58152,-83.3333333333333,4,2,1,60,0,0
62839,468.75,4,2,1,60,1,0
68464,-71.4285714285714,4,2,1,60,0,0
76120,-71.4285714285714,4,2,1,70,0,0
77839,-142.857142857143,4,2,1,60,0,0
79714,234.375,4,2,1,80,1,1
79714,-133.333333333333,4,2,1,80,0,1
83464,468.75,4,2,1,60,1,0
83464,-83.3333333333333,4,2,1,60,0,0
92839,-83.3333333333333,4,2,1,70,0,0
94714,234.375,4,2,1,80,1,1
94714,-133.333333333333,4,2,1,80,0,1
97526,-166.666666666667,4,2,1,60,0,0
98464,468.75,4,2,1,70,1,0
98464,-83.3333333333333,4,2,1,70,0,0
101276,-62.5,4,2,1,70,0,0
102214,-58.8235294117647,4,2,1,70,0,0

[Colours]
Combo1 : 255,157,111
Combo2 : 0,242,242
Combo3 : 60,157,255
Combo4 : 255,64,64

[HitObjects]
0,31,9402,6,0,P|89:22|209:52,1,209.999993591309,6|2,1:0|0:1,0:0:0:0:
322,105,10105,2,0,L|297:318,1,209.999993591309,2|2,0:1|0:1,0:0:0:0:
418,328,10730,1,0,0:0:0:0:
418,328,10808,1,10,0:1:0:0:
482,225,11042,2,0,L|486:154,1,62.9999980773926,2|2,0:1|0:1,0:0:0:0:
498,47,11277,6,0,P|426:74|337:-17,1,209.999993591309,2|2,1:0|0:1,0:0:0:0:
204,56,11980,2,0,P|196:126|108:250,1,209.999993591309,2|2,0:1|0:1,0:0:0:0:
43,338,12683,2,0,L|49:288,2,41.9999987182618,10|0|0,0:0|0:0|0:0,0:0:0:0:
139,342,12917,2,0,L|143:382,2,41.9999987182618,2|0|0,0:0|0:0|0:0,0:0:0:0:
221,299,13152,6,0,L|366:289,1,125.999996154785,2|2,1:2|0:0,0:0:0:0:
409,362,13542,1,2,0:0:0:0:
409,362,13620,2,0,P|412:295|417:225,1,125.999996154785,10|2,0:0|0:0,0:0:0:0:
507,87,14089,2,0,L|512:170,1,83.9999974365235,2|0,1:2|0:0,0:0:0:0:
495,178,14323,1,2,0:0:0:0:
391,133,14480,2,0,L|219:127,1,167.999994873047,2|2,0:0|0:0,0:0:0:0:
127,25,15027,6,0,L|131:82,9,41.9999987182618,2|0|2|0|2|0|10|0|2|2,1:2|0:0|0:0|0:0|0:0|0:0|0:0|0:0|0:0|0:0,0:0:0:0:
29,141,15964,6,0,L|42:270,1,112,12|12,0:2|0:2,0:0:0:0:
156,332,16355,1,12,0:2:0:0:
156,332,16589,2,0,L|136:147,1,167.999994873047,12|6,0:0|1:0,0:0:0:0:
170,38,17292,6,0,P|248:24|341:35,1,167.999994873047,2|2,0:1|0:1,0:0:0:0:
431,78,17761,1,0,0:0:0:0:
431,78,17839,1,0,1:0:0:0:
483,162,17995,2,0,P|498:224|491:295,1,125.999996154785,2|0,0:1|0:0,0:0:0:0:
485,304,18308,1,10,0:1:0:0:
375,384,18542,2,0,L|365:305,1,62.9999980773926,2|2,0:1|0:1,0:0:0:0:
395,234,18777,6,0,P|341:158|226:116,1,209.999993591309,2|2,1:0|0:1,0:0:0:0:
170,262,19480,2,0,L|39:274,1,125.999996154785,2|0,0:1|1:0,0:0:0:0:
76,373,19870,2,0,L|60:182,1,167.999994873047,2|10,0:1|0:0,0:0:0:0:
54,181,20261,1,0,0:0:0:0:
43,162,20339,2,0,L|38:96,3,41.9999987182618,2|2|0|0,0:0|0:0|0:3|0:3,0:0:0:0:
11,31,20652,6,0,L|115:21,1,83.9999974365235,2|2,1:0|0:0,0:0:0:0:
125,5,20886,2,0,L|256:13,1,125.999996154785,2|10,0:0|0:1,0:0:0:0:
389,2,21355,2,0,L|325:11,2,41.9999987182618,2|2|2,0:0|0:0|0:0,0:0:0:0:
477,36,21589,2,0,P|486:115|477:183,1,125.999996154785,2|2,1:0|0:1,0:0:0:0:
414,216,21980,2,0,P|414:273|444:365,1,125.999996154785,2|2,0:1|0:1,0:0:0:0:
457,350,22292,1,2,0:1:0:0:
319,374,22527,6,0,L|312:305,2,41.9999987182618,2|2|2,1:0|0:0|0:0,0:0:0:0:
222,343,22761,2,0,L|229:274,2,41.9999987182618,2|2|2,0:0|0:0|0:0,0:0:0:0:
133,367,22995,2,0,P|67:365|1:336,1,125.999996154785,10|2,0:0|0:0,0:0:0:0:
5,330,23308,1,2,0:0:0:0:
6,317,23386,2,0,L|4:262,1,41.9999987182618,2|0,0:0|1:0,0:0:0:0:
23,14,24402,6,0,L|38:160,1,125.999996154785,6|2,1:0|0:0,0:0:0:0:
137,127,24792,2,0,L|124:1,1,125.999996154785,2|0,0:1|0:0,0:1:0:0:
145,0,25105,1,2,0:0:0:0:
287,0,25339,2,0,L|280:62,2,41.9999987182618,2|0|0,1:2|0:0|0:0,0:0:0:0:
373,45,25573,2,0,L|366:107,2,41.9999987182618,2|0|0,0:0|0:0|0:0,0:0:0:0:
462,15,25808,2,0,P|467:82|446:163,1,125.999996154785,10|2,0:0|0:0,0:0:0:0:
375,304,26277,6,0,L|366:159,1,125.999996154785,2|0,1:0|0:0,0:0:0:0:
247,190,26667,1,2,0:0:0:0:
247,190,26745,2,0,L|254:315,1,125.999996154785,10|0,0:1|0:0,0:0:0:0:
5,369,28152,6,0,L|15:229,1,125.999996154785,2|2,1:0|0:0,0:0:0:0:
8,138,28542,1,2,0:0:0:0:
8,138,28620,2,0,L|148:147,1,125.999996154785,10|2,0:0|0:0,0:0:0:0:
106,293,29089,2,0,L|101:348,2,41.9999987182618,2|0|0,1:2|0:0|0:0,0:0:0:0:
195,254,29323,2,0,L|191:212,2,41.9999987182618,2|0|0,0:0|0:0|0:0,0:0:0:0:
196,343,29558,2,0,P|272:368|347:368,1,125.999996154785,10|2,0:0|0:0,0:0:0:0:
331,361,29870,1,0,0:0:0:0:
338,348,29948,2,0,L|339:298,1,41.9999987182618,0|2,0:0|1:0,0:0:0:0:
449,207,30417,5,2,0:0:0:0:
449,207,30495,2,0,L|318:197,1,125.999996154785,10|2,0:1|0:0,0:0:0:0:
299,39,30964,6,0,L|442:35,1,112,12|12,0:0|0:0,0:0:0:0:
222,98,31355,1,12,0:0:0:0:
222,98,31589,2,0,L|36:103,1,167.999994873047,12|4,0:0|1:0,0:0:0:0:
54,102,32370,5,0,1:0:0:0:
54,102,32839,2,0,L|64:239,1,125.999996154785,0|2,1:0|1:2,0:0:0:0:
27,313,33542,1,2,0:2:0:0:
111,353,33777,6,0,P|180:346|231:319,1,125.999996154785,2|0,1:2|1:0,0:0:0:0:
380,260,34714,2,0,L|378:184,2,62.9999980773926,0|0|2,1:0|0:0|1:2,0:0:0:0:
390,355,35417,1,2,0:0:0:0:
474,304,35652,6,0,P|483:250|481:114,1,168,2|0,1:2|1:0,0:0:0:0:
294,0,36589,2,0,P|285:54|287:190,1,168,2|0,1:2|1:0,0:0:0:0:
317,254,37292,1,2,0:0:0:0:
223,241,37527,2,0,L|177:233,9,28,2|0|2|0|2|0|2|0|2|2,1:2|0:0|0:0|0:0|0:0|0:0|1:2|0:0|0:0|0:0,0:0:0:0:
105,275,38464,6,0,L|95:138,1,112,12|12,0:0|0:0,0:0:0:0:
0,105,38855,1,12,0:0:0:0:
0,105,39089,2,0,L|12:280,1,167.999994873047,12|8,0:0|0:0,0:0:0:0:
210,377,39792,6,0,L|214:217,1,125.999996154785,6|0,1:0|0:0,0:0:0:0:
178,207,40105,1,2,1:0:0:0:
171,43,40339,1,0,1:0:0:0:
263,4,40495,2,0,P|326:1|434:26,1,167.999994873047,2|10,0:1|0:1,0:0:0:0:
485,193,41042,2,0,L|483:269,1,62.9999980773926,2|2,0:1|0:1,0:0:0:0:
477,347,41277,6,0,P|367:331|266:285,1,209.999993591309,2|2,1:0|0:1,0:0:0:0:
402,129,41902,1,0,0:0:0:0:
402,129,41980,2,0,L|263:113,1,125.999996154785,2|0,0:1|1:0,1:0:0:0:
208,183,42370,2,2,P|126:233|58:253,1,167.999994873047,2|10,0:0|0:0,0:1:0:0:
46,263,42761,1,0,0:0:0:0:
29,270,42839,2,0,L|32:333,3,41.9999987182618,0|2|0|0,0:0|0:0|0:0|0:0,0:0:0:0:
7,170,43152,6,0,L|1:35,1,125.999996154785,2|2,1:0|0:0,0:0:0:0:
125,9,43542,1,2,0:0:0:0:
125,9,43620,2,0,L|211:16,1,83.9999974365235,10|0,0:1|0:0,0:0:0:0:
301,52,43855,2,0,L|306:6,2,41.9999987182618,2|2|2,0:0|0:0|0:0,0:0:0:0:
217,107,44089,6,0,L|199:239,1,125.999996154785,2|2,1:0|0:0,0:0:0:0:
313,162,44480,2,2,P|378:177|453:247,1,167.999994873047,2|2,0:1|0:1,0:1:0:0:
488,345,44948,1,0,0:0:0:0:
488,345,45027,2,0,L|430:363,2,41.9999987182618,2|2|2,1:0|0:0|0:0,0:0:0:0:
351,359,45261,2,0,L|310:346,2,41.9999987182618,2|2|2,0:0|0:0|0:0,0:0:0:0:
221,328,45495,2,0,P|149:327|80:346,1,125.999996154785,10|2,0:0|0:0,0:0:0:0:
83,343,45808,1,0,0:0:0:0:
69,349,45886,2,0,L|60:288,1,41.9999987182618,0|0,0:0|1:0,0:0:0:0:
0,192,46902,5,4,1:2:0:0:
512,192,48777,1,4,0:1:0:0:
256,192,62839,12,2,67995,0:0:0:0:
0,192,68464,5,12,0:0:0:0:
512,192,69323,2,0,L|296:192,1,195.999994018555,12|12,0:0|0:0,0:0:0:0:
0,192,70260,5,12,0:0:0:0:
512,192,71198,1,12,0:0:0:0:
256,144,72214,5,12,0:0:0:0:
256,336,72682,1,12,0:0:0:0:
256,240,73073,1,12,0:0:0:0:
256,48,73620,1,12,0:0:0:0:
256,144,74010,1,4,1:0:0:0:
256,192,74089,12,2,75729,0:0:0:0:
31,112,76120,6,0,L|42:232,1,97.9999970092774,12|12,0:0|0:0,0:0:0:0:
157,97,76432,6,0,L|168:217,2,97.9999970092774,12|12|12,0:0|0:0|0:0,0:0:0:0:
355,287,77057,6,0,L|346:189,1,97.9999970092774,12|12,0:0|0:0,0:0:0:0:
481,272,77369,6,0,L|472:174,2,97.9999970092774,12|12|12,0:0|0:0|0:0,0:0:0:0:
430,360,77839,5,2,0:0:0:0:
103,13,78776,2,0,L|18:19,2,73.4999977569581,2|2|2,0:0|0:0|0:0,0:0:0:0:
103,13,79479,1,2,0:0:0:0:
26,110,79714,6,0,B|7:148|7:148|18:209,1,78.7500030040742,2|2,1:2|1:2,0:0:0:0:
72,256,79948,1,8,0:0:0:0:
167,248,80065,2,0,B|186:210|186:210|155:81,1,157.500006008148,2|8,1:2|0:0,0:0:0:0:
272,29,80417,6,0,B|253:67|253:67|284:196,1,157.500006008148,2|8,1:2|0:0,0:0:0:0:
413,167,80768,2,0,B|432:129|432:129|401:0,1,157.500006008148,8|8,0:0|0:0,0:0:0:0:
405,17,81120,2,0,L|455:8,2,39.3750015020371,0|0|0,1:0|1:0|1:0,0:0:0:0:
512,72,81354,1,12,0:0:0:0:
501,258,81589,6,0,L|309:273,1,157.500006008148,2|8,1:2|0:0,0:0:0:0:
312,363,81940,2,0,L|154:350,1,157.500006008148,2|8,1:2|0:0,0:0:0:0:
59,334,82292,2,0,P|58:247|138:239,1,157.500006008148,2|8,1:2|0:0,0:0:0:0:
209,265,82643,2,0,L|271:260,2,39.3750015020371,10|8|8,0:2|0:0|0:0,0:0:0:0:
341,224,82878,1,8,0:0:0:0:
341,224,82995,6,2,B|350:187|350:187|368:163|368:163|364:130|364:130|351:97|351:97|343:92|343:92|321:31|321:31|311:23|311:23|262:10|262:10|240:17|240:17|244:61,1,315.000012016297,12|2,0:0|1:2,0:1:0:0:
251,134,83581,1,2,0:0:0:0:
251,134,83698,2,0,P|191:168|122:182,1,125.999996154785,2|10,0:0|0:0,0:0:0:0:
51,145,84049,2,0,L|58:93,2,31.4999990386963,2|2|2,0:0|0:0|0:0,0:0:0:0:
137,6,84401,2,0,L|268:13,1,125.999996154785,2|0,1:2|0:0,0:0:0:0:
369,22,84753,1,2,0:0:0:0:
369,22,84870,1,10,0:0:0:0:
494,128,85104,2,0,L|490:173,2,31.4999990386963,2|0|2,0:0|0:0|0:0,0:0:0:0:
391,144,85339,6,0,L|399:292,1,125.999996154785,2|10,1:2|0:2,0:0:0:0:
491,338,85690,2,0,L|496:279,2,31.4999990386963,2|0|8,1:2|1:0|0:0,0:0:0:0:
395,369,85924,2,0,L|190:357,1,188.999994232178,0|8,1:0|0:0,0:0:0:0:
256,192,87214,12,12,88854,0:0:0:0:
256,192,89089,12,2,90495,0:0:0:0:
478,51,90964,6,0,P|479:120|443:196,1,125.999996154785,2|2,1:2|0:0,0:0:0:0:
377,225,91315,1,10,0:2:0:0:
377,225,91432,2,0,P|356:284|358:346,1,125.999996154785,2|10,1:2|0:0,0:0:0:0:
153,346,91901,2,0,P|155:284|135:224,1,125.999996154785,2|2,1:2|0:0,0:0:0:0:
52,172,92252,1,10,0:2:0:0:
52,172,92369,2,0,P|31:112|33:50,1,125.999996154785,2|10,1:2|0:0,0:0:0:0:
123,30,92721,1,2,1:2:0:0:
123,30,92839,1,2,1:2:0:0:
288,31,93073,1,8,0:0:0:0:
385,44,93190,1,8,0:0:0:0:
385,44,93307,2,0,L|394:194,1,125.999996154785,0|8,1:0|0:0,0:0:0:0:
484,365,94714,6,0,L|402:345,1,78.7500030040742,2|2,1:2|1:2,0:0:0:0:
316,347,94948,1,10,0:0:0:0:
235,302,95065,2,0,L|68:334,1,157.500006008148,2|8,1:2|0:0,0:0:0:0:
17,260,95417,1,2,1:2:0:0:
45,173,95534,1,0,0:0:0:0:
13,80,95651,2,0,P|55:63|188:47,2,157.500006008148,10|10|0,0:0|0:0|1:2,0:0:0:0:
56,166,96237,2,0,L|-5:171,2,39.3750015020371,8|8|8,0:0|0:0|0:0,0:0:0:0:
158,160,96471,1,8,0:0:0:0:
246,107,96589,6,0,B|298:104|298:104|381:23,1,157.500006008148,2|8,1:2|0:0,0:0:0:0:
465,25,96940,1,2,0:0:0:0:
490,113,97057,2,0,B|438:116|438:116|362:189,1,157.500006008148,2|8,1:2|0:0,0:0:0:0:
481,370,98464,6,0,L|345:354,1,125.999996154785,2|2,0:1|0:1,0:0:0:0:
318,318,98815,2,0,L|192:332,1,125.999996154785,2|2,0:1|0:0,0:0:0:0:
96,340,99167,1,2,0:0:0:0:
137,250,99284,1,2,0:0:0:0:
137,250,99401,2,0,L|126:112,2,125.999996154785,2|2|2,0:1|0:0|0:0,0:0:0:0:
37,261,99987,2,0,L|-7:265,2,31.4999990386963,2|2|2,0:0|0:0|0:0,0:0:0:0:
26,163,100221,1,2,0:0:0:0:
26,163,100339,6,0,P|17:95|23:33,1,125.999996154785,2|0,0:0|0:0,0:0:0:0:
124,28,100690,1,2,0:0:0:0:
124,28,100807,2,0,P|192:19|254:25,1,125.999996154785,2|0,0:0|0:0,0:0:0:0:
394,50,101276,6,0,L|387:160,1,84,12|12,0:0|0:0,0:0:0:0:
375,313,101628,1,12,0:0:0:0:
375,313,101862,2,0,L|380:229,1,84,12|12,0:0|0:0,0:0:0:0:
191,109,102214,6,0,L|198:219,1,89.2500017023087,12|12,0:0|0:0,0:0:0:0:
207,378,102566,1,12,0:0:0:0:
207,378,102800,2,0,L|201:288,1,89.2500017023087,12|12,0:0|0:0,0:0:0:0:
256,192,103854,5,2,0:0:0:0:
256,192,103971,12,2,107135,0:0:0:0:
