osu file format v14

[General]
AudioFilename: audio.mp3
AudioLeadIn: 0
PreviewTime: 7495
Countdown: 0
SampleSet: Normal
StackLeniency: 0.7
Mode: 3
LetterboxInBreaks: 0
SpecialStyle: 0
WidescreenStoryboard: 1

[Editor]
Bookmarks: 310,22810,45310,61247,78122,89372,102262
DistanceSpacing: 1
BeatDivisor: 4
GridSize: 4
TimelineZoom: 2.500001

[Metadata]
Title:Elemental Creation (kamome sano Remix)
TitleUnicode:Elemental Creation (kamome sano Remix)
Artist:kamome sano
ArtistUnicode:kamome sano
Creator:Shima Rin
Version:Akasha x CS's MAXIMUM
Source:SOUND VOLTEX VIVID WAVE
Tags:Tofu1222 Kuo Kyoka Akasha Critical_Star Rhezie Agayers Touru0711 FAMoss dj TAKA DJ YOSHITAKA SDVX V 5 III GRAVITY WARS コナステ Konaste BEMANI楽曲リミックスコンテスト~2019~ Electronic Video Game Instrumental
BeatmapID:2718081
BeatmapSetID:1219293

[Difficulty]
HPDrainRate:8.2
CircleSize:4
OverallDifficulty:8.2
ApproachRate:5
SliderMultiplier:1.4
SliderTickRate:1

[Events]
//Background and Video events
0,0,"BG.jpg",0,0
//Break Periods
//Storyboard Layer 0 (Background)
//Storyboard Layer 1 (Fail)
//Storyboard Layer 2 (Pass)
//Storyboard Layer 3 (Foreground)
//Storyboard Layer 4 (Overlay)
//Storyboard Sound Samples
Sample,67895,0,"amenbreak_snare1.wav",70
Sample,68051,0,"amenbreak_snare2.wav",70
Sample,68363,0,"amenbreak_snare1.wav",70
Sample,82914,0,"amenbreak_snare3.wav",70

[TimingPoints]
1880,468.75,4,1,1,30,1,0
5630,-100,4,1,1,40,0,0
7505,-100,4,1,1,50,0,0
48755,468.75,5,1,1,30,1,0
62817,468.75,3,1,1,50,1,0
68442,468.75,4,1,1,50,1,0
79692,234.375,4,1,1,50,1,0
79692,-200,4,1,1,50,0,1
87192,-200,4,1,1,50,0,0
94692,-200,4,1,1,50,0,1
97504,-200,4,1,1,50,0,0

[HitObjects]
64,192,1880,5,0,0:0:0:50:LR_Kick Bass strong.wav
192,192,1880,1,0,0:0:0:0:
448,192,1880,1,0,0:0:0:0:
192,192,2036,1,0,0:0:0:0:
320,192,2114,1,0,0:0:0:0:
320,192,2270,1,0,0:0:0:0:
64,192,2348,1,0,0:0:0:0:
192,192,2505,1,0,0:0:0:0:
320,192,2583,1,0,0:0:0:50:LR_Kick Bass strong.wav
448,192,2661,1,0,0:0:0:0:
320,192,2739,1,0,0:0:0:0:
192,192,2817,1,0,0:0:0:0:
448,192,2973,1,0,0:0:0:0:
192,192,3051,1,0,0:0:0:0:
320,192,3208,1,0,0:0:0:0:
192,192,3286,1,0,0:0:0:0:
320,192,3442,1,0,0:0:0:0:
64,192,3520,1,0,0:0:0:0:
192,192,3598,1,0,0:0:0:0:
320,192,3676,1,0,0:0:0:0:
64,192,3755,1,0,0:0:0:50:LR_Kick Bass strong.wav
448,192,3755,1,0,0:0:0:0:
448,192,3911,1,0,0:0:0:0:
448,192,4145,1,0,0:0:0:0:
192,192,4223,1,0,0:0:0:0:
320,192,4380,1,0,0:0:0:0:
64,192,4458,1,0,0:0:0:50:LR_Kick Bass strong.wav
64,192,4614,128,0,5161:0:0:0:0:
448,192,4614,1,0,0:0:0:0:
320,192,4848,1,0,0:0:0:50:LR_Kick Bass strong.wav
192,192,4926,128,0,5161:0:0:0:0:
448,192,5083,1,0,0:0:0:0:
320,192,5161,128,0,5395:0:0:0:0:
64,192,5317,1,0,0:0:0:0:
192,192,5395,1,0,0:0:0:0:
448,192,5395,128,0,5630:0:0:0:0:
192,192,5551,1,0,0:0:0:0:
64,192,5630,1,2,0:0:0:0:
320,192,5630,1,0,0:0:0:0:
320,192,5786,1,0,0:0:0:0:
64,192,5864,1,0,0:0:0:0:
320,192,6020,1,0,0:0:0:0:
192,192,6098,1,2,0:0:0:0:
448,192,6098,1,0,0:0:0:0:
320,192,6255,1,0,0:0:0:0:
448,192,6333,1,0,0:0:0:0:
192,192,6411,1,0,0:0:0:0:
448,192,6489,1,0,0:0:0:0:
64,192,6567,1,2,0:0:0:0:
192,192,6567,1,0,0:0:0:0:
192,192,6723,1,0,0:0:0:0:
320,192,6801,1,2,0:0:0:0:
448,192,6801,1,0,0:0:0:0:
192,192,6958,1,0,0:0:0:0:
64,192,7036,1,2,0:0:0:0:
320,192,7036,1,0,0:0:0:0:
320,192,7192,1,0,0:0:0:0:
192,192,7270,1,2,0:0:0:0:
448,192,7270,1,0,0:0:0:0:
320,192,7426,1,2,0:0:0:0:
448,192,7426,1,0,0:0:0:0:
64,192,7505,128,0,7973:0:0:0:0:
448,192,7973,1,0,0:0:0:0:
320,192,8208,1,0,0:0:0:0:
64,192,8442,1,0,0:0:0:0:
192,192,8442,1,0,0:0:0:0:
448,192,8520,1,0,0:0:0:0:
192,192,8598,1,0,0:0:0:0:
64,192,8676,1,0,0:0:0:0:
320,192,8676,1,0,0:0:0:0:
448,192,8755,1,0,0:0:0:0:
192,192,8833,1,0,0:0:0:0:
64,192,8911,1,0,0:0:0:0:
448,192,8911,1,0,0:0:0:0:
320,192,8989,1,0,0:0:0:0:
64,192,9067,1,0,0:0:0:0:
192,192,9145,1,0,0:0:0:0:
448,192,9145,1,0,0:0:0:0:
320,192,9223,1,0,0:0:0:0:
64,192,9301,1,0,0:0:0:0:
192,192,9380,128,2,9536:0:0:0:0:
320,192,9380,1,4,0:0:0:0:
448,192,9380,1,0,0:0:0:0:
448,192,9614,1,0,0:0:0:0:
192,192,9770,128,0,9926:0:0:0:0:
64,192,9848,1,2,0:0:0:0:
320,192,9848,1,8,0:0:0:0:
448,192,9848,1,0,0:0:0:0:
192,192,10083,128,0,10239:0:0:0:0:
448,192,10083,1,0,0:0:0:0:
320,192,10317,1,2,0:0:0:0:
448,192,10317,1,0,0:0:0:0:
192,192,10473,128,0,10630:0:0:0:0:
448,192,10551,1,0,0:0:0:0:
192,192,10786,128,2,10942:0:0:0:0:
320,192,10786,1,8,0:0:0:0:
448,192,10786,1,0,0:0:0:0:
192,192,11020,128,0,11255:0:0:0:0:
448,192,11020,1,0,0:0:0:0:
64,192,11255,1,2,0:0:0:0:
320,192,11255,128,0,11411:0:0:0:0:
448,192,11255,1,0,0:0:0:0:
64,192,11489,1,0,0:0:0:0:
320,192,11645,128,0,11801:0:0:0:0:
64,192,11723,1,8,0:0:0:0:
192,192,11723,1,2,0:0:0:0:
448,192,11723,1,0,0:0:0:0:
64,192,11958,1,0,0:0:0:0:
320,192,11958,128,0,12114:0:0:0:0:
64,192,12192,1,2,0:0:0:0:
448,192,12192,1,0,0:0:0:0:
320,192,12348,128,0,12505:0:0:0:0:
64,192,12426,1,0,0:0:0:0:
64,192,12661,1,8,0:0:0:0:
320,192,12661,1,2,0:0:0:0:
448,192,12661,1,0,0:0:0:0:
192,192,12739,1,0,0:0:0:0:
320,192,12817,1,0,0:0:0:0:
448,192,12895,1,0,0:0:0:0:
320,192,12973,1,0,0:0:0:0:
192,192,13051,1,0,0:0:0:0:
64,192,13130,1,2,0:0:0:0:
448,192,13130,1,0,0:0:0:0:
192,192,13286,1,0,0:0:0:0:
320,192,13364,1,0,0:0:0:0:
192,192,13520,1,0,0:0:0:0:
64,192,13598,1,2,0:0:0:0:
320,192,13598,1,8,0:0:0:0:
448,192,13598,1,0,0:0:0:0:
64,192,13755,1,0,0:0:0:0:
192,192,13833,1,0,0:0:0:0:
320,192,13911,1,0,0:0:0:0:
192,192,13989,1,0,0:0:0:0:
64,192,14067,1,2,0:0:0:0:
448,192,14067,1,0,0:0:0:0:
320,192,14223,1,0,0:0:0:0:
192,192,14301,1,0,0:0:0:0:
320,192,14458,1,0,0:0:0:0:
64,192,14536,1,2,0:0:0:0:
192,192,14536,1,8,0:0:0:0:
448,192,14536,1,0,0:0:0:0:
192,192,14692,1,0,0:0:0:0:
320,192,14770,1,0,0:0:0:0:
320,192,14926,1,0,0:0:0:0:
64,192,15005,1,2,0:0:0:0:
192,192,15005,1,0,0:0:0:0:
448,192,15083,1,0,0:0:0:0:
192,192,15161,1,0,0:0:0:0:
320,192,15239,1,0,0:0:0:0:
192,192,15317,1,0,0:0:0:0:
448,192,15395,1,0,0:0:0:0:
64,192,15473,1,8,0:0:0:0:
192,192,15473,1,2,0:0:0:0:
320,192,15551,1,0,0:0:0:0:
192,192,15630,1,0,0:0:0:0:
448,192,15708,1,0,0:0:0:0:
320,192,15864,1,0,0:0:0:0:
64,192,15942,1,2,0:0:0:0:
192,192,15942,1,4,0:0:0:0:
448,192,15942,1,0,0:0:0:0:
64,192,16098,1,2,0:0:0:0:
192,192,16098,1,4,0:0:0:0:
448,192,16098,1,0,0:0:0:0:
320,192,16176,1,0,0:0:0:0:
64,192,16333,1,2,0:0:0:0:
320,192,16333,1,4,0:0:0:0:
448,192,16333,1,0,0:0:0:0:
192,192,16411,1,0,0:0:0:0:
64,192,16567,1,2,0:0:0:0:
192,192,16567,1,4,0:0:0:0:
448,192,16567,1,0,0:0:0:0:
320,192,16645,1,0,0:0:0:0:
192,192,16801,1,0,0:0:0:0:
64,192,16880,128,4,17036:0:0:0:0:
320,192,16880,1,2,0:0:0:0:
448,192,16880,1,0,0:0:0:0:
320,192,17114,1,0,0:0:0:0:
64,192,17270,128,0,17426:0:0:0:0:
192,192,17348,1,8,0:0:0:0:
320,192,17348,1,2,0:0:0:0:
448,192,17348,1,0,0:0:0:0:
64,192,17583,128,0,17739:0:0:0:0:
320,192,17583,1,0,0:0:0:0:
320,192,17817,1,2,0:0:0:0:
448,192,17817,1,0,0:0:0:0:
64,192,17973,128,0,18130:0:0:0:0:
320,192,18051,1,0,0:0:0:0:
64,192,18286,128,8,18442:0:0:0:0:
320,192,18286,1,2,0:0:0:0:
448,192,18286,1,0,0:0:0:0:
64,192,18520,128,0,18755:0:0:0:0:
320,192,18520,1,0,0:0:0:0:
192,192,18755,1,2,0:0:0:0:
448,192,18755,128,0,18911:0:0:0:0:
192,192,18989,1,0,0:0:0:0:
448,192,19145,128,0,19301:0:0:0:0:
64,192,19223,1,2,0:0:0:0:
192,192,19223,1,8,0:0:0:0:
320,192,19223,1,0,0:0:0:0:
192,192,19458,1,0,0:0:0:0:
448,192,19458,128,0,19614:0:0:0:0:
64,192,19692,1,2,0:0:0:0:
192,192,19692,1,0,0:0:0:0:
448,192,19848,128,0,20005:0:0:0:0:
192,192,19926,1,0,0:0:0:0:
64,192,20161,1,2,0:0:0:0:
320,192,20161,1,8,0:0:0:0:
448,192,20161,1,0,0:0:0:0:
192,192,20239,1,0,0:0:0:0:
320,192,20317,1,0,0:0:0:0:
448,192,20395,1,0,0:0:0:0:
320,192,20473,1,0,0:0:0:0:
192,192,20551,1,0,0:0:0:0:
64,192,20630,1,2,0:0:0:0:
448,192,20630,1,0,0:0:0:0:
192,192,20786,1,0,0:0:0:0:
320,192,20864,1,0,0:0:0:0:
192,192,21020,1,0,0:0:0:0:
64,192,21098,1,8,0:0:0:0:
320,192,21098,1,2,0:0:0:0:
448,192,21098,1,0,0:0:0:0:
320,192,21255,1,0,0:0:0:0:
192,192,21333,1,0,0:0:0:0:
64,192,21411,1,0,0:0:0:0:
192,192,21489,1,0,0:0:0:0:
320,192,21567,1,2,0:0:0:0:
448,192,21567,1,0,0:0:0:0:
320,192,21723,1,0,0:0:0:0:
192,192,21801,1,0,0:0:0:0:
320,192,21958,1,0,0:0:0:0:
64,192,22036,1,8,0:0:0:0:
192,192,22036,1,2,0:0:0:0:
448,192,22036,1,0,0:0:0:0:
320,192,22192,1,0,0:0:0:0:
448,192,22270,1,0,0:0:0:0:
64,192,22426,1,0,0:0:0:0:
192,192,22505,1,2,0:0:0:0:
448,192,22505,1,0,0:0:0:0:
320,192,22583,1,0,0:0:0:0:
64,192,22661,1,0,0:0:0:0:
192,192,22739,1,0,0:0:0:0:
448,192,22739,1,0,0:0:0:0:
320,192,22817,1,0,0:0:0:0:
64,192,22895,1,0,0:0:0:0:
192,192,22973,1,2,0:0:0:0:
448,192,22973,1,8,0:0:0:0:
320,192,23051,1,0,0:0:0:0:
192,192,23130,1,0,0:0:0:0:
64,192,23208,1,0,0:0:0:0:
448,192,23208,1,0,0:0:0:0:
320,192,23286,1,0,0:0:0:0:
192,192,23364,1,0,0:0:0:0:
64,192,23442,1,0,0:0:0:50:LR_Kick Bass strong.wav
448,192,23442,1,0,0:0:0:0:
192,192,23520,1,0,0:0:0:0:
64,192,23598,1,0,0:0:0:0:
320,192,23598,1,0,0:0:0:0:
448,192,23676,1,0,0:0:0:0:
64,192,23755,1,0,0:0:0:0:
192,192,23833,1,0,0:0:0:0:
448,192,23833,1,0,0:0:0:0:
64,192,23911,1,0,0:0:0:0:
320,192,23911,1,0,0:0:0:0:
448,192,23989,1,0,0:0:0:0:
192,192,24067,1,0,0:0:0:0:
320,192,24145,1,0,0:0:0:0:
64,192,24223,1,0,0:0:0:0:
192,192,24301,1,0,0:0:0:0:
64,192,24380,1,2,0:0:0:0:
320,192,24380,1,4,0:0:0:0:
448,192,24380,1,0,0:0:0:0:
320,192,24536,1,0,0:0:0:0:
64,192,24614,1,0,0:0:0:0:
64,192,24770,1,0,0:0:0:0:
192,192,24848,1,2,0:0:0:0:
448,192,24848,1,8,0:0:0:0:
192,192,25005,1,0,0:0:0:0:
448,192,25083,1,0,0:0:0:0:
448,192,25239,1,0,0:0:0:0:
64,192,25317,1,2,0:0:0:0:
320,192,25317,1,0,0:0:0:0:
192,192,25395,1,0,0:0:0:0:
320,192,25473,1,0,0:0:0:0:
64,192,25551,1,0,0:0:0:0:
192,192,25630,1,0,0:0:0:0:
320,192,25708,1,0,0:0:0:0:
64,192,25786,1,2,0:0:0:0:
448,192,25786,1,8,0:0:0:0:
320,192,25864,1,0,0:0:0:0:
192,192,25942,1,0,0:0:0:0:
448,192,26020,1,0,0:0:0:0:
320,192,26098,1,0,0:0:0:0:
192,192,26176,1,0,0:0:0:0:
64,192,26255,128,2,26489:0:0:0:0:
448,192,26255,128,0,26489:0:0:0:0:
320,192,26489,1,0,0:0:0:0:
64,192,26645,1,0,0:0:0:0:
192,192,26645,1,0,0:0:0:0:
64,192,26723,128,8,26958:0:0:0:0:
192,192,26723,128,2,26958:0:0:0:0:
320,192,27114,1,0,0:0:0:0:
64,192,27192,128,0,27583:0:0:0:0:
448,192,27192,1,0,0:0:0:0:
192,192,27270,128,0,27505:0:0:0:0:
320,192,27348,128,0,27426:0:0:0:0:
448,192,27426,1,0,0:0:0:0:
320,192,27505,1,0,0:0:0:0:
192,192,27583,1,0,0:0:0:0:
64,192,27661,1,0,0:0:0:0:
448,192,27661,128,0,28051:0:0:0:0:
320,192,27739,128,0,27973:0:0:0:0:
192,192,27817,128,0,27895:0:0:0:0:
64,192,27895,1,0,0:0:0:0:
192,192,27973,1,0,0:0:0:0:
320,192,28051,1,0,0:0:0:0:
64,192,28130,128,2,28364:0:0:0:0:
448,192,28130,1,0,0:0:0:0:
320,192,28364,1,0,0:0:0:0:
192,192,28442,1,0,0:0:0:0:
448,192,28598,128,8,28833:0:0:0:0:
192,192,28598,1,2,0:0:0:0:
64,192,28833,1,0,0:0:0:0:
192,192,28989,1,0,0:0:0:0:
64,192,29067,1,2,0:0:0:0:
448,192,29067,128,0,29223:0:0:0:0:
320,192,29145,128,0,29301:0:0:0:0:
192,192,29223,128,0,29380:0:0:0:0:
448,192,29301,1,0,0:0:0:0:
320,192,29380,1,0,0:0:0:0:
192,192,29458,1,0,0:0:0:0:
64,192,29536,128,2,29692:0:0:0:0:
448,192,29536,1,8,0:0:0:0:
192,192,29614,128,0,29770:0:0:0:0:
320,192,29692,128,0,29848:0:0:0:0:
64,192,29770,1,0,0:0:0:0:
192,192,29848,1,0,0:0:0:0:
320,192,29926,1,0,0:0:0:0:
64,192,30005,1,2,0:0:0:0:
448,192,30005,1,0,0:0:0:0:
64,192,30239,1,0,0:0:0:0:
192,192,30395,1,0,0:0:0:0:
320,192,30395,1,0,0:0:0:0:
192,192,30473,128,8,30708:0:0:0:0:
320,192,30473,128,2,30708:0:0:0:0:
64,192,30708,1,0,0:0:0:0:
192,192,30786,1,0,0:0:0:0:
320,192,30864,1,0,0:0:0:0:
64,192,30942,1,2,0:0:0:0:
192,192,30942,1,4,0:0:0:0:
448,192,30942,1,0,0:0:0:0:
64,192,31098,1,2,0:0:0:0:
192,192,31098,1,4,0:0:0:0:
448,192,31098,1,0,0:0:0:0:
192,192,31333,1,2,0:0:0:0:
320,192,31333,1,4,0:0:0:0:
448,192,31333,1,0,0:0:0:0:
64,192,31567,128,2,31801:0:0:0:0:
192,192,31567,128,4,31801:0:0:0:0:
320,192,31567,128,0,31801:0:0:0:0:
64,192,31880,1,4,0:0:0:0:
320,192,31880,1,2,0:0:0:0:
448,192,31880,1,0,0:0:0:0:
192,192,32114,1,0,0:0:0:0:
448,192,32270,128,0,32426:0:0:0:0:
64,192,32348,1,0,0:0:0:50:LR_Kick Bass strong.wav
192,192,32583,1,0,0:0:0:0:
448,192,32583,128,0,32739:0:0:0:0:
64,192,32817,1,0,0:0:0:50:LR_Kick Bass strong.wav
448,192,32973,128,0,33130:0:0:0:0:
192,192,33051,1,0,0:0:0:0:
64,192,33286,1,0,0:0:0:50:LR_Kick Bass strong.wav
448,192,33286,128,0,33442:0:0:0:0:
192,192,33520,1,0,0:0:0:0:
448,192,33520,128,0,33676:0:0:0:0:
64,192,33755,128,2,33911:0:0:0:0:
448,192,33755,1,0,0:0:0:0:
320,192,33989,1,0,0:0:0:0:
64,192,34145,128,0,34301:0:0:0:0:
448,192,34223,1,2,0:0:0:0:
64,192,34458,128,0,34614:0:0:0:0:
320,192,34458,1,0,0:0:0:0:
448,192,34692,1,2,0:0:0:0:
192,192,34848,128,0,35005:0:0:0:0:
320,192,34926,1,0,0:0:0:0:
64,192,35161,1,2,0:0:0:0:
448,192,35161,1,0,0:0:0:0:
320,192,35239,1,0,0:0:0:0:
192,192,35317,1,0,0:0:0:0:
320,192,35395,1,0,0:0:0:0:
192,192,35473,1,0,0:0:0:0:
64,192,35551,1,0,0:0:0:0:
320,192,35630,1,2,0:0:0:0:
448,192,35630,1,0,0:0:0:0:
192,192,35786,1,0,0:0:0:0:
64,192,35864,1,0,0:0:0:0:
64,192,36020,1,0,0:0:0:0:
192,192,36098,1,2,0:0:0:0:
448,192,36098,1,0,0:0:0:0:
192,192,36255,1,0,0:0:0:0:
320,192,36333,1,0,0:0:0:0:
64,192,36411,1,0,0:0:0:0:
192,192,36489,1,0,0:0:0:0:
320,192,36567,1,2,0:0:0:0:
448,192,36567,1,0,0:0:0:0:
320,192,36723,1,0,0:0:0:0:
448,192,36801,1,0,0:0:0:0:
448,192,36958,1,0,0:0:0:0:
64,192,37036,1,2,0:0:0:0:
320,192,37036,1,0,0:0:0:0:
320,192,37192,1,0,0:0:0:0:
64,192,37270,1,0,0:0:0:0:
64,192,37426,1,0,0:0:0:0:
192,192,37505,1,2,0:0:0:0:
448,192,37505,1,0,0:0:0:0:
320,192,37583,1,0,0:0:0:0:
448,192,37661,1,0,0:0:0:0:
320,192,37739,1,0,0:0:0:0:
448,192,37817,1,0,0:0:0:0:
320,192,37895,1,0,0:0:0:0:
64,192,37973,1,2,0:0:0:0:
448,192,37973,1,0,0:0:0:0:
320,192,38051,1,0,0:0:0:0:
448,192,38130,1,0,0:0:0:0:
320,192,38208,1,0,0:0:0:0:
192,192,38364,1,0,0:0:0:0:
64,192,38442,1,2,0:0:0:0:
320,192,38442,1,4,0:0:0:0:
448,192,38442,1,0,0:0:0:0:
192,192,38598,1,2,0:0:0:0:
320,192,38598,1,4,0:0:0:0:
448,192,38598,1,0,0:0:0:0:
64,192,38676,1,0,0:0:0:0:
64,192,38833,1,2,0:0:0:0:
192,192,38833,1,4,0:0:0:0:
320,192,38833,1,0,0:0:0:0:
448,192,38911,1,0,0:0:0:0:
64,192,39067,1,2,0:0:0:0:
192,192,39067,1,4,0:0:0:0:
448,192,39067,1,0,0:0:0:0:
320,192,39145,1,0,0:0:0:0:
64,192,39301,1,0,0:0:0:0:
320,192,39380,1,8,0:0:0:0:
320,192,39536,1,8,0:0:0:0:
192,192,39614,1,8,0:0:0:0:
320,192,39692,1,8,0:0:0:0:
64,192,39770,1,2,0:0:0:0:
192,192,39770,1,4,0:0:0:0:
448,192,39770,1,0,0:0:0:0:
192,192,40083,1,0,0:0:0:0:
320,192,40083,128,0,40239:0:0:0:0:
64,192,40317,1,2,0:0:0:0:
448,192,40317,1,0,0:0:0:0:
320,192,40473,128,0,40630:0:0:0:0:
192,192,40551,1,0,0:0:0:0:
64,192,40786,1,2,0:0:0:0:
320,192,40786,128,8,40942:0:0:0:0:
448,192,40786,1,0,0:0:0:0:
192,192,41020,128,0,41176:0:0:0:0:
448,192,41020,1,0,0:0:0:0:
64,192,41255,128,2,41411:0:0:0:0:
320,192,41255,1,0,0:0:0:0:
448,192,41489,1,0,0:0:0:0:
64,192,41645,128,0,41801:0:0:0:0:
192,192,41723,1,8,0:0:0:0:
320,192,41723,1,2,0:0:0:0:
448,192,41723,1,0,0:0:0:0:
64,192,41958,128,0,42114:0:0:0:0:
448,192,41958,1,0,0:0:0:0:
192,192,42192,1,2,0:0:0:0:
320,192,42192,1,0,0:0:0:0:
448,192,42348,128,0,42505:0:0:0:0:
64,192,42426,1,0,0:0:0:0:
64,192,42661,1,8,0:0:0:0:
192,192,42661,1,2,0:0:0:0:
320,192,42661,1,0,0:0:0:0:
448,192,42739,1,0,0:0:0:0:
192,192,42817,1,0,0:0:0:0:
320,192,42895,1,0,0:0:0:0:
64,192,42973,1,0,0:0:0:0:
192,192,43051,1,0,0:0:0:0:
320,192,43130,1,2,0:0:0:0:
448,192,43130,1,0,0:0:0:0:
192,192,43286,128,0,43364:0:0:0:0:
448,192,43364,128,0,43442:0:0:0:0:
320,192,43520,128,0,43598:0:0:0:0:
64,192,43598,128,2,43676:0:0:0:0:
448,192,43598,1,8,0:0:0:0:
192,192,43598,1,0,0:0:0:0:
320,192,43755,128,0,43833:0:0:0:0:
192,192,43833,128,0,43911:0:0:0:0:
448,192,43911,128,0,43989:0:0:0:0:
320,192,43989,128,0,44067:0:0:0:0:
64,192,44067,1,2,0:0:0:0:
448,192,44067,128,0,44145:0:0:0:0:
320,192,44223,128,0,44301:0:0:0:0:
64,192,44301,128,0,44380:0:0:0:0:
192,192,44458,128,0,44536:0:0:0:0:
64,192,44536,1,2,0:0:0:0:
448,192,44536,128,8,44614:0:0:0:0:
320,192,44536,1,0,0:0:0:0:
320,192,44692,128,0,44770:0:0:0:0:
448,192,44770,128,0,44848:0:0:0:0:
64,192,44926,128,0,45005:0:0:0:0:
320,192,45005,128,2,45083:0:0:0:0:
448,192,45005,1,0,0:0:0:0:
192,192,45083,128,0,45161:0:0:0:0:
64,192,45161,128,0,45239:0:0:0:0:
448,192,45239,128,0,45317:0:0:0:0:
192,192,45317,128,0,45395:0:0:0:0:
320,192,45395,128,0,45473:0:0:0:0:
64,192,45473,1,8,0:0:0:0:
448,192,45473,128,2,45551:0:0:0:0:
192,192,45551,128,0,45630:0:0:0:0:
320,192,45630,128,0,45708:0:0:0:0:
64,192,45708,128,0,45786:0:0:0:0:
448,192,45786,128,0,45864:0:0:0:0:
192,192,45864,128,0,45942:0:0:0:0:
320,192,45942,1,0,0:0:0:50:LR_Kick Bass strong.wav
448,192,45942,1,0,0:0:0:0:
64,192,46020,1,0,0:0:0:0:
320,192,46098,1,0,0:0:0:0:
448,192,46098,1,0,0:0:0:0:
64,192,46176,1,0,0:0:0:0:
192,192,46176,1,0,0:0:0:0:
448,192,46255,1,0,0:0:0:0:
64,192,46333,1,0,0:0:0:0:
192,192,46333,1,0,0:0:0:0:
320,192,46411,1,0,0:0:0:0:
448,192,46411,1,0,0:0:0:0:
192,192,46489,1,0,0:0:0:0:
64,192,46567,1,0,0:0:0:0:
448,192,46567,1,0,0:0:0:0:
320,192,46645,1,0,0:0:0:0:
192,192,46723,1,0,0:0:0:0:
64,192,46723,1,0,0:0:0:0:
320,192,46801,1,0,0:0:0:0:
64,192,46880,1,4,0:0:0:0:
448,192,46880,1,0,0:0:0:0:
192,192,46880,1,0,0:0:0:0:
64,192,48051,1,0,0:0:0:100:G7S_s.wav
448,192,48051,128,0,48286:0:0:0:0:
320,192,48130,128,0,48364:0:0:0:0:
192,192,48208,128,0,48442:0:0:0:100:F7S_s.wav
64,192,48286,128,0,48520:0:0:0:100:E7S_s.wav
448,192,48364,128,0,48598:0:0:0:100:D#7S_Eb7S_s.wav
320,192,48442,128,0,48676:0:0:0:100:D7S_s.wav
192,192,48520,128,0,48755:0:0:0:100:C#7S_Db7S_s.wav
64,192,48598,128,0,48833:0:0:0:100:C7S_s.wav
448,192,48676,128,0,48833:0:0:0:100:B6S_s.wav
320,192,48755,128,4,49067:0:0:0:0:
64,192,48911,128,0,48989:0:0:0:0:
192,192,48911,128,0,48989:0:0:0:0:
448,192,48911,1,0,0:0:0:0:
192,192,49067,128,0,49145:0:0:0:0:
320,192,49145,128,0,49223:0:0:0:0:
64,192,49223,128,0,49301:0:0:0:0:
192,192,49223,128,0,49301:0:0:0:0:
320,192,49301,128,0,49380:0:0:0:0:
192,192,49380,128,0,49458:0:0:0:0:
320,192,49458,128,0,49536:0:0:0:0:
448,192,49458,1,0,0:0:0:0:
192,192,49692,128,0,49848:0:0:0:0:
448,192,49692,128,0,49770:0:0:0:0:
320,192,49848,128,0,50005:0:0:0:0:
64,192,49926,1,0,0:0:0:0:
448,192,50005,128,0,50161:0:0:0:0:
64,192,50083,128,0,50161:0:0:0:0:
64,192,50317,128,0,50395:0:0:0:0:
320,192,50395,128,0,50551:0:0:0:0:
448,192,50395,1,0,0:0:0:0:
320,192,50630,128,0,50786:0:0:0:0:
192,192,50786,128,0,50942:0:0:0:0:
320,192,50864,128,0,50942:0:0:0:0:
448,192,50864,1,0,0:0:0:0:
64,192,50942,128,0,51098:0:0:0:0:
448,192,51255,128,0,51333:0:0:0:0:
64,192,51333,1,0,0:0:0:0:
192,192,51333,128,0,51489:0:0:0:0:
192,192,51567,128,0,51723:0:0:0:0:
448,192,51567,128,0,51645:0:0:0:0:
320,192,51723,128,0,51880:0:0:0:0:
64,192,51801,1,0,0:0:0:0:
448,192,51880,128,0,52036:0:0:0:0:
64,192,52036,128,0,52114:0:0:0:0:
320,192,52036,1,0,0:0:0:0:
192,192,52192,1,0,0:0:0:0:
448,192,52270,1,0,0:0:0:0:
320,192,52348,1,0,0:0:0:0:
64,192,52426,128,0,52505:0:0:0:0:
448,192,52426,1,0,0:0:0:0:
192,192,52505,1,0,0:0:0:0:
448,192,52583,1,0,0:0:0:0:
320,192,52661,1,0,0:0:0:0:
64,192,52739,128,0,52817:0:0:0:0:
448,192,52739,1,0,0:0:0:0:
192,192,52817,1,0,0:0:0:0:
448,192,52895,1,0,0:0:0:0:
320,192,52973,1,0,0:0:0:0:
192,192,53051,1,0,0:0:0:0:
64,192,53130,1,0,0:0:0:0:
320,192,53208,1,0,0:0:0:0:
448,192,53208,128,0,53286:0:0:0:0:
192,192,53286,1,0,0:0:0:0:
64,192,53364,1,0,0:0:0:0:
448,192,53364,1,0,0:0:0:0:
192,192,53520,1,0,0:0:0:0:
320,192,53598,1,0,0:0:0:0:
448,192,53598,128,0,53676:0:0:0:0:
192,192,53676,1,0,0:0:0:0:
64,192,53755,1,0,0:0:0:0:
320,192,53833,1,0,0:0:0:0:
64,192,53911,128,0,53989:0:0:0:0:
448,192,53911,1,0,0:0:0:0:
192,192,53989,1,0,0:0:0:0:
320,192,54067,1,0,0:0:0:0:
64,192,54145,1,0,0:0:0:0:
448,192,54145,128,0,54223:0:0:0:0:
192,192,54223,1,0,0:0:0:0:
320,192,54301,1,0,0:0:0:0:
192,192,54380,1,0,0:0:0:0:
64,192,54458,1,0,0:0:0:0:
448,192,54536,1,0,0:0:0:0:
192,192,54614,1,0,0:0:0:0:
320,192,54692,1,0,0:0:0:0:
64,192,54770,128,0,54848:0:0:0:0:
448,192,54770,1,0,0:0:0:0:
192,192,54848,1,0,0:0:0:0:
448,192,54926,1,0,0:0:0:0:
192,192,55005,1,0,0:0:0:0:
320,192,55083,1,0,0:0:0:0:
448,192,55083,128,0,55161:0:0:0:0:
64,192,55161,1,0,0:0:0:0:
320,192,55239,1,0,0:0:0:0:
64,192,55317,128,0,55395:0:0:0:0:
448,192,55317,1,0,0:0:0:0:
320,192,55395,1,0,0:0:0:0:
192,192,55473,1,0,0:0:0:0:
448,192,55551,1,0,0:0:0:0:
320,192,55630,1,0,0:0:0:0:
192,192,55708,1,0,0:0:0:0:
64,192,55786,1,0,0:0:0:0:
448,192,55786,1,0,0:0:0:0:
64,192,55942,128,0,56098:0:0:0:0:
448,192,55942,128,0,56020:0:0:0:0:
320,192,56020,1,0,0:0:0:0:
448,192,56176,128,0,56255:0:0:0:0:
64,192,56255,128,0,56333:0:0:0:0:
192,192,56255,128,0,56411:0:0:0:0:
192,192,56489,128,0,56567:0:0:0:0:
320,192,56489,128,0,56645:0:0:0:0:
64,192,56645,128,0,56801:0:0:0:0:
320,192,56723,128,0,56801:0:0:0:0:
448,192,56723,1,0,0:0:0:0:
192,192,56880,128,0,57036:0:0:0:0:
320,192,56958,1,0,0:0:0:0:
448,192,56958,128,0,57036:0:0:0:0:
64,192,57114,128,0,57192:0:0:0:0:
192,192,57114,128,0,57192:0:0:0:0:
320,192,57192,1,0,0:0:0:0:
448,192,57192,128,0,57426:0:0:0:0:
192,192,57426,1,0,0:0:0:0:
320,192,57505,1,0,0:0:0:0:
448,192,57583,1,0,0:0:0:0:
64,192,57661,1,0,0:0:0:0:
192,192,57661,1,0,0:0:0:0:
192,192,57817,1,0,0:0:0:0:
64,192,57895,1,0,0:0:0:0:
192,192,57973,1,0,0:0:0:0:
320,192,58051,1,0,0:0:0:0:
64,192,58130,1,0,0:0:0:0:
448,192,58130,128,0,58676:0:0:0:0:
320,192,58364,1,0,0:0:0:0:
64,192,58520,1,0,0:0:0:0:
192,192,58598,1,0,0:0:0:0:
320,192,58676,1,0,0:0:0:0:
192,192,58755,1,0,0:0:0:0:
64,192,58833,128,0,59301:0:0:0:0:
448,192,58833,1,0,0:0:0:0:
448,192,58989,1,0,0:0:0:0:
192,192,59067,1,0,0:0:0:0:
320,192,59067,1,0,0:0:0:0:
320,192,59301,128,0,59692:0:0:0:0:
448,192,59301,1,0,0:0:0:0:
64,192,59458,1,0,0:0:0:0:
448,192,59536,1,0,0:0:0:0:
192,192,59692,128,0,60005:0:0:0:0:
448,192,59770,1,0,0:0:0:0:
320,192,59926,1,0,0:0:0:0:
64,192,60005,128,0,60473:0:0:0:0:
448,192,60005,1,0,0:0:0:0:
320,192,60239,1,0,0:0:0:0:
448,192,60317,1,0,0:0:0:0:
320,192,60395,1,0,0:0:0:0:
192,192,60473,1,0,0:0:0:0:
448,192,60473,128,0,61176:0:0:0:0:
192,192,60708,1,0,0:0:0:0:
64,192,60864,1,0,0:0:0:0:
192,192,60942,1,0,0:0:0:0:
320,192,61098,1,0,0:0:0:0:
192,192,61176,128,0,61411:0:0:0:0:
320,192,61333,1,0,0:0:0:0:
64,192,61411,1,0,0:0:0:0:
448,192,61411,1,0,0:0:0:0:
192,192,61567,1,0,0:0:0:0:
64,192,61645,1,0,0:0:0:0:
320,192,61645,128,0,62348:0:0:0:0:
192,192,61801,1,0,0:0:0:0:
64,192,61880,1,0,0:0:0:0:
64,192,62036,1,0,0:0:0:0:
192,192,62114,1,0,0:0:0:0:
192,192,62270,1,0,0:0:0:0:
64,192,62348,128,0,62817:0:0:0:0:
448,192,62348,1,0,0:0:0:0:
320,192,62583,1,0,0:0:0:0:
192,192,62817,1,0,0:0:0:0:
448,192,62817,1,0,0:0:0:0:
320,192,62973,1,0,0:0:0:0:
64,192,63051,1,0,0:0:0:0:
64,192,63207,1,0,0:0:0:0:
320,192,63285,1,0,0:0:0:0:
448,192,63285,1,0,0:0:0:0:
448,192,63442,1,0,0:0:0:0:
192,192,63520,1,0,0:0:0:0:
192,192,63676,1,0,0:0:0:0:
64,192,63754,1,0,0:0:0:0:
448,192,63754,1,0,0:0:0:0:
320,192,63910,1,0,0:0:0:0:
192,192,63988,1,0,0:0:0:0:
192,192,64145,1,0,0:0:0:0:
320,192,64223,1,0,0:0:0:0:
448,192,64223,1,0,0:0:0:0:
64,192,64379,1,0,0:0:0:0:
448,192,64457,1,0,0:0:0:0:
320,192,64535,1,0,0:0:0:0:
192,192,64613,1,0,0:0:0:0:
64,192,64692,1,0,0:0:0:0:
448,192,64692,1,0,0:0:0:0:
320,192,64770,1,0,0:0:0:0:
448,192,64848,1,0,0:0:0:0:
192,192,64926,1,0,0:0:0:0:
320,192,65004,1,0,0:0:0:0:
64,192,65082,1,0,0:0:0:0:
192,192,65160,1,0,0:0:0:0:
448,192,65160,1,0,0:0:0:0:
64,192,65238,1,0,0:0:0:0:
320,192,65317,1,0,0:0:0:0:
192,192,65395,1,0,0:0:0:0:
448,192,65473,1,0,0:0:0:50:amenbreak_snare2.wav
320,192,65551,1,0,0:0:0:50:amenbreak_snare2.wav
64,192,65629,1,0,0:0:0:0:
192,192,65629,1,0,0:0:0:0:
320,192,65785,1,0,0:0:0:50:amenbreak_snare2.wav
64,192,65863,1,0,0:0:0:0:
448,192,65863,1,0,0:0:0:0:
192,192,65942,1,0,0:0:0:0:
448,192,66020,1,0,0:0:0:50:amenbreak_snare2.wav
64,192,66098,1,0,0:0:0:0:
320,192,66098,1,0,0:0:0:0:
192,192,66176,1,0,0:0:0:50:amenbreak_snare1.wav
448,192,66254,1,0,0:0:0:0:
64,192,66332,1,0,0:0:0:0:
320,192,66332,1,0,0:0:0:0:
192,192,66410,1,0,0:0:0:60:amenbreak_snare2.wav
320,192,66488,1,0,0:0:0:60:amenbreak_snare1.wav
64,192,66567,1,0,0:0:0:0:
448,192,66567,1,0,0:0:0:0:
320,192,66723,1,0,0:0:0:0:
64,192,66801,1,0,0:0:0:0:
192,192,66801,1,0,0:0:0:0:
448,192,66879,1,0,0:0:0:60:amenbreak_snare2.wav
320,192,66957,1,0,0:0:0:60:amenbreak_snare2.wav
64,192,67035,1,0,0:0:0:70:amenbreak_kick1.wav
448,192,67035,1,0,0:0:0:0:
192,192,67113,1,0,0:0:0:70:amenbreak_kick1.wav
320,192,67192,1,0,0:0:0:70:amenbreak_kick1.wav
448,192,67192,1,0,0:0:0:70:amenbreak_snare2.wav
64,192,67270,1,0,0:0:0:70:amenbreak_kick1.wav
192,192,67348,1,0,0:0:0:70:amenbreak_kick1.wav
64,192,67426,1,0,0:0:0:70:amenbreak_kick1.wav
448,192,67426,1,0,0:0:0:70:amenbreak_snare1.wav
320,192,67504,1,0,0:0:0:70:amenbreak_kick1.wav
64,192,67582,1,0,0:0:0:70:amenbreak_kick1.wav
192,192,67582,1,0,0:0:0:70:amenbreak_snare1.wav
448,192,67660,1,0,0:0:0:70:amenbreak_kick1.wav
320,192,67738,1,0,0:0:0:70:amenbreak_kick1.wav
64,192,67817,1,0,0:0:0:70:amenbreak_kick1.wav
192,192,67817,1,0,0:0:0:70:amenbreak_snare2.wav
64,192,67895,1,0,0:0:0:70:amenbreak_kick1.wav
320,192,67973,1,0,0:0:0:70:amenbreak_kick1.wav
448,192,67973,1,0,0:0:0:70:amenbreak_snare2.wav
320,192,68051,1,0,0:0:0:70:amenbreak_kick1.wav
64,192,68129,1,0,0:0:0:70:amenbreak_kick1.wav
192,192,68129,1,0,0:0:0:0:
320,192,68207,1,0,0:0:0:70:amenbreak_kick1.wav
64,192,68285,1,0,0:0:0:70:amenbreak_kick1.wav
448,192,68285,1,0,0:0:0:70:amenbreak_snare2.wav
192,192,68363,1,0,0:0:0:70:amenbreak_kick1.wav
64,192,68442,1,2,0:0:0:0:
320,192,68442,1,4,0:0:0:0:
448,192,68442,1,0,0:0:0:0:
192,192,68598,1,0,0:0:0:0:
320,192,68676,1,0,0:0:0:0:
192,192,68754,1,0,0:0:0:0:
320,192,68832,1,0,0:0:0:0:
192,192,68910,1,0,0:0:0:0:
320,192,68988,1,0,0:0:0:0:
192,192,69067,1,0,0:0:0:0:
448,192,69145,1,0,0:0:0:0:
320,192,69223,1,0,0:0:0:0:
64,192,69301,1,4,0:0:0:0:
192,192,69301,1,2,0:0:0:0:
448,192,69301,1,0,0:0:0:0:
320,192,69379,1,0,0:0:0:0:
192,192,69457,1,0,0:0:0:0:
320,192,69535,1,0,0:0:0:0:
64,192,69613,1,2,0:0:0:0:
192,192,69613,1,4,0:0:0:0:
448,192,69613,1,0,0:0:0:0:
320,192,69692,1,0,0:0:0:0:
64,192,69770,1,0,0:0:0:0:
320,192,69848,1,0,0:0:0:0:
64,192,69926,1,0,0:0:0:0:
320,192,70004,1,0,0:0:0:0:
64,192,70082,1,0,0:0:0:0:
192,192,70160,1,0,0:0:0:0:
64,192,70238,1,4,0:0:0:0:
320,192,70238,1,2,0:0:0:0:
448,192,70238,1,0,0:0:0:0:
192,192,70317,1,0,0:0:0:0:
320,192,70395,1,0,0:0:0:0:
192,192,70473,1,0,0:0:0:0:
320,192,70551,1,0,0:0:0:0:
192,192,70629,1,0,0:0:0:0:
320,192,70707,1,0,0:0:0:0:
192,192,70785,1,0,0:0:0:0:
320,192,70863,1,0,0:0:0:0:
192,192,70942,1,0,0:0:0:0:
448,192,71020,1,0,0:0:0:0:
320,192,71098,1,0,0:0:0:0:
64,192,71176,1,2,0:0:0:0:
192,192,71176,1,4,0:0:0:0:
448,192,71176,1,0,0:0:0:0:
192,192,71410,128,0,71488:0:0:0:0:
448,192,71488,128,0,71567:0:0:0:0:
192,192,71567,128,0,71645:0:0:0:0:
448,192,71645,128,0,71723:0:0:0:0:
192,192,71723,128,0,71801:0:0:0:0:
448,192,71801,128,0,71879:0:0:0:0:
192,192,71879,128,0,72113:0:0:0:0:
64,192,72192,1,4,0:0:0:0:
192,192,72192,1,2,0:0:0:0:
320,192,72192,1,0,0:0:0:0:
448,192,72348,1,0,0:0:0:0:
192,192,72426,1,0,0:0:0:0:
448,192,72504,1,0,0:0:0:0:
192,192,72582,1,0,0:0:0:0:
64,192,72660,1,2,0:0:0:0:
320,192,72660,1,4,0:0:0:0:
448,192,72660,1,0,0:0:0:0:
192,192,72738,1,0,0:0:0:0:
320,192,72817,1,0,0:0:0:0:
192,192,72895,1,0,0:0:0:0:
320,192,72973,1,0,0:0:0:0:
64,192,73051,1,4,0:0:0:0:
192,192,73051,1,2,0:0:0:0:
448,192,73051,1,0,0:0:0:0:
320,192,73129,1,0,0:0:0:0:
64,192,73207,1,0,0:0:0:0:
320,192,73285,1,0,0:0:0:0:
64,192,73363,1,0,0:0:0:0:
320,192,73442,1,0,0:0:0:0:
64,192,73520,1,0,0:0:0:0:
192,192,73598,1,2,0:0:0:0:
320,192,73598,1,4,0:0:0:0:
448,192,73598,1,0,0:0:0:0:
64,192,73676,1,0,0:0:0:0:
448,192,73754,1,0,0:0:0:0:
64,192,73832,1,0,0:0:0:0:
448,192,73910,1,0,0:0:0:0:
64,192,73988,128,4,75707:0:0:0:0:
192,192,73988,128,2,75785:0:0:0:0:
320,192,73988,128,0,75863:0:0:0:0:
448,192,75317,128,0,75942:0:0:0:0:
64,192,76098,1,0,0:0:0:70:LR_Drum Hit P.wav
192,192,76098,1,0,0:0:0:0:
448,192,76098,1,0,0:0:0:0:
64,192,76254,1,0,0:0:0:70:LR_Drum Hit P.wav
192,192,76254,1,0,0:0:0:0:
448,192,76254,1,0,0:0:0:0:
64,192,76410,1,0,0:0:0:70:LR_Drum Hit P.wav
192,192,76410,1,0,0:0:0:0:
448,192,76410,1,0,0:0:0:0:
64,192,76567,1,0,0:0:0:70:LR_Drum Hit P.wav
192,192,76567,1,0,0:0:0:0:
448,192,76567,1,0,0:0:0:0:
192,192,76723,1,0,0:0:0:70:LR_Drum Hit P.wav
320,192,76723,1,0,0:0:0:0:
448,192,76723,1,0,0:0:0:0:
64,192,77035,1,0,0:0:0:70:LR_Drum Hit P2.wav
320,192,77035,1,0,0:0:0:0:
448,192,77035,1,0,0:0:0:0:
64,192,77192,1,0,0:0:0:70:LR_Drum Hit P2.wav
320,192,77192,1,0,0:0:0:0:
448,192,77192,1,0,0:0:0:0:
64,192,77348,1,0,0:0:0:70:LR_Drum Hit P2.wav
320,192,77348,1,0,0:0:0:0:
448,192,77348,1,0,0:0:0:0:
64,192,77504,1,0,0:0:0:70:LR_Drum Hit P2.wav
320,192,77504,1,0,0:0:0:0:
448,192,77504,1,0,0:0:0:0:
64,192,77660,1,0,0:0:0:70:LR_Drum Hit P2.wav
192,192,77660,1,0,0:0:0:0:
320,192,77660,1,0,0:0:0:0:
320,192,77817,128,0,78285:0:0:0:0:
64,192,78285,1,0,0:0:0:0:
192,192,78520,1,0,0:0:0:0:
320,192,78754,1,0,0:0:0:0:
192,192,78832,1,0,0:0:0:0:
64,192,78910,1,0,0:0:0:0:
448,192,78988,1,0,0:0:0:0:
320,192,79067,1,0,0:0:0:0:
192,192,79145,1,0,0:0:0:0:
64,192,79223,1,0,0:0:0:0:
192,192,79301,1,0,0:0:0:0:
320,192,79379,1,0,0:0:0:0:
192,192,79457,1,0,0:0:0:0:
320,192,79535,1,0,0:0:0:0:
448,192,79613,1,0,0:0:0:0:
64,192,79692,1,2,0:0:0:0:
192,192,79692,1,4,0:0:0:0:
320,192,79692,1,0,0:0:0:0:
320,192,79809,1,2,0:0:0:0:
64,192,79926,1,2,0:0:0:0:
320,192,79926,1,0,0:0:0:70:amenbreak_snare3.wav
192,192,80043,1,2,0:0:0:0:
320,192,80043,1,0,0:0:0:0:
448,192,80043,1,0,0:0:0:0:
192,192,80160,1,2,0:0:0:0:
192,192,80277,1,2,0:0:0:0:
448,192,80277,1,0,0:0:0:70:amenbreak_snare3.wav
64,192,80395,1,2,0:0:0:0:
192,192,80395,1,0,0:0:0:0:
320,192,80395,1,0,0:0:0:0:
320,192,80512,1,2,0:0:0:0:
64,192,80629,1,2,0:0:0:0:
320,192,80629,1,0,0:0:0:70:amenbreak_snare3.wav
192,192,80746,1,2,0:0:0:0:
320,192,80746,1,0,0:0:0:0:
448,192,80746,1,0,0:0:0:0:
64,192,80863,1,2,0:0:0:0:
192,192,80863,1,0,0:0:0:70:amenbreak_snare3.wav
448,192,80922,1,0,0:0:0:70:amenbreak_snare3.wav
64,192,80981,1,2,0:0:0:0:
320,192,80981,1,0,0:0:0:0:
192,192,81039,1,2,0:0:0:0:
320,192,81098,1,2,0:0:0:0:
448,192,81098,1,0,0:0:0:0:
64,192,81156,1,2,0:0:0:0:
192,192,81215,1,2,0:0:0:0:
448,192,81215,1,0,0:0:0:0:
320,192,81274,1,2,0:0:0:0:
64,192,81332,128,0,81567:0:0:0:70:VEC4 Snares 151.wav
192,192,81332,128,0,81567:0:0:0:0:
448,192,81332,1,0,0:0:0:0:
320,192,81567,1,4,0:0:0:0:
448,192,81567,1,2,0:0:0:0:
192,192,81625,1,2,0:0:0:0:
320,192,81684,1,2,0:0:0:0:
192,192,81742,1,2,0:0:0:0:
320,192,81801,1,2,0:0:0:0:
448,192,81801,1,0,0:0:0:70:amenbreak_snare3.wav
64,192,81918,1,2,0:0:0:0:
192,192,81918,1,0,0:0:0:0:
320,192,81977,1,2,0:0:0:0:
64,192,82035,1,2,0:0:0:0:
192,192,82035,1,0,0:0:0:0:
192,192,82152,1,2,0:0:0:0:
448,192,82152,1,0,0:0:0:70:amenbreak_snare3.wav
320,192,82211,1,2,0:0:0:0:
448,192,82270,1,2,0:0:0:0:
64,192,82328,1,2,0:0:0:0:
192,192,82328,1,0,0:0:0:70:amenbreak_snare3.wav
320,192,82387,1,2,0:0:0:0:
448,192,82445,1,2,0:0:0:0:
64,192,82504,1,2,0:0:0:0:
192,192,82504,1,0,0:0:0:70:amenbreak_snare3.wav
192,192,82621,1,2,0:0:0:0:
448,192,82621,1,0,0:0:0:0:
320,192,82738,1,2,0:0:0:0:
448,192,82738,1,0,0:0:0:0:
192,192,82797,1,2,0:0:0:0:
64,192,82856,1,2,0:0:0:0:
448,192,82856,1,0,0:0:0:70:amenbreak_snare3.wav
320,192,82914,1,2,0:0:0:0:
64,192,82973,128,0,83383:0:0:0:0:
192,192,82973,1,0,0:0:0:0:
448,192,83090,1,0,0:0:0:0:
320,192,83149,1,0,0:0:0:0:
192,192,83207,1,0,0:0:0:0:
448,192,83266,1,0,0:0:0:0:
320,192,83324,1,0,0:0:0:0:
192,192,83383,1,0,0:0:0:0:
64,192,83442,1,2,0:0:0:0:
448,192,83442,1,0,0:0:0:0:
320,192,83559,1,0,0:0:0:0:
320,192,83676,1,0,0:0:0:0:
64,192,83793,1,0,0:0:0:0:
192,192,83852,1,0,0:0:0:0:
320,192,83910,1,0,0:0:0:50:VEC3 Snares 002.wav
448,192,83910,1,0,0:0:0:0:
64,192,83969,1,0,0:0:0:0:
192,192,84027,1,0,0:0:0:0:
320,192,84086,1,0,0:0:0:0:
448,192,84145,1,0,0:0:0:0:
192,192,84203,1,0,0:0:0:0:
320,192,84262,1,0,0:0:0:0:
192,192,84320,1,0,0:0:0:0:
64,192,84379,1,2,0:0:0:0:
448,192,84379,1,0,0:0:0:0:
320,192,84496,1,0,0:0:0:0:
192,192,84555,1,0,0:0:0:0:
64,192,84613,1,0,0:0:0:0:
448,192,84731,1,0,0:0:0:0:
320,192,84789,1,0,0:0:0:0:
64,192,84848,1,0,0:0:0:50:VEC3 Snares 002.wav
192,192,84848,1,0,0:0:0:0:
320,192,84906,1,0,0:0:0:0:
448,192,84965,1,0,0:0:0:0:
64,192,85024,1,0,0:0:0:0:
192,192,85082,1,0,0:0:0:0:
448,192,85082,1,0,0:0:0:0:
320,192,85141,1,0,0:0:0:0:
192,192,85199,1,0,0:0:0:0:
64,192,85258,1,0,0:0:0:0:
320,192,85317,1,2,0:0:0:0:
448,192,85317,1,0,0:0:0:0:
192,192,85375,1,0,0:0:0:0:
448,192,85434,1,0,0:0:0:0:
192,192,85492,1,0,0:0:0:0:
320,192,85551,1,0,0:0:0:0:
64,192,85609,1,0,0:0:0:0:
192,192,85668,1,2,0:0:0:0:
448,192,85668,1,0,0:0:0:0:
64,192,85727,1,2,0:0:0:0:
320,192,85785,1,0,0:0:0:50:VEC3 Snares 002.wav
448,192,85785,1,0,0:0:0:0:
192,192,85844,1,0,0:0:0:0:
64,192,85902,1,2,0:0:0:0:
320,192,85902,1,0,0:0:0:0:
448,192,85961,1,0,0:0:0:0:
192,192,86020,1,0,0:0:0:0:
320,192,86078,1,0,0:0:0:0:
192,192,86137,1,2,0:0:0:0:
448,192,86137,1,0,0:0:0:0:
64,192,86195,1,2,0:0:0:0:
320,192,86254,1,0,0:0:0:50:LR_Kick Bass strong.wav
448,192,86254,1,0,0:0:0:0:
64,192,86371,1,0,0:0:0:50:LR_Kick Bass strong.wav
192,192,86371,1,0,0:0:0:0:
320,192,86430,1,0,0:0:0:50:LR_Kick Bass strong.wav
64,192,86488,1,0,0:0:0:50:LR_Kick Bass strong.wav
448,192,86488,1,0,0:0:0:0:
320,192,86606,1,0,0:0:0:50:LR_Kick Bass strong.wav
448,192,86606,1,0,0:0:0:0:
192,192,86664,1,0,0:0:0:50:LR_Kick Bass strong.wav
64,192,86723,1,0,0:0:0:50:LR_Kick Bass strong.wav
448,192,86723,1,0,0:0:0:0:
320,192,86781,1,0,0:0:0:50:LR_Kick Bass strong.wav
192,192,86840,1,0,0:0:0:50:LR_Kick Bass strong.wav
448,192,86840,1,0,0:0:0:0:
64,192,86899,1,0,0:0:0:50:LR_Kick Bass strong.wav
192,192,86957,1,0,0:0:0:50:LR_Kick Bass strong.wav
320,192,86957,1,0,0:0:0:0:
448,192,87016,1,0,0:0:0:50:LR_Kick Bass strong.wav
64,192,87074,1,0,0:0:0:50:LR_Kick Bass strong.wav
320,192,87074,1,0,0:0:0:0:
192,192,87133,1,0,0:0:0:50:LR_Kick Bass strong.wav
64,192,87192,128,0,87250:0:0:0:100:B6S_s.wav
448,192,87192,1,0,0:0:0:0:
320,192,87309,1,0,0:0:0:100:E6S_s.wav
192,192,87426,1,0,0:0:0:100:B5S_s.wav
64,192,87543,1,0,0:0:0:100:B6S_s.wav
448,192,87543,128,0,87602:0:0:0:0:
192,192,87660,1,0,0:0:0:100:E6S_s.wav
320,192,87777,1,0,0:0:0:100:B5S_s.wav
64,192,87895,128,0,87953:0:0:0:100:B6S_s.wav
448,192,87895,1,0,0:0:0:0:
320,192,88012,1,0,0:0:0:100:E6S_s.wav
192,192,88129,1,0,0:0:0:100:B5S_s.wav
64,192,88246,1,0,0:0:0:100:B6S_s.wav
448,192,88246,128,0,88305:0:0:0:0:
192,192,88363,1,0,0:0:0:100:E6S_s.wav
320,192,88481,1,0,0:0:0:100:B5S_s.wav
64,192,88598,1,0,0:0:0:100:B6S_s.wav
448,192,88598,1,0,0:0:0:0:
192,192,88715,1,0,0:0:0:100:D7S_s.wav
64,192,88832,1,0,0:0:0:70:VEC4 Snares 151.wav
192,192,88832,1,0,0:0:0:100:G7S_s.wav
320,192,88832,1,0,0:0:0:0:
448,192,88832,1,0,0:0:0:0:
64,192,89067,1,0,0:0:0:100:F#7S_Gb7S_s.wav
448,192,89067,128,0,89125:0:0:0:0:
192,192,89184,1,0,0:0:0:100:B6S_s.wav
320,192,89301,1,0,0:0:0:100:F#6S_Gb6S_s.wav
64,192,89418,128,0,89477:0:0:0:100:F#7S_Gb7S_s.wav
448,192,89418,1,0,0:0:0:0:
320,192,89535,1,0,0:0:0:100:B6S_s.wav
192,192,89652,1,0,0:0:0:100:F#6S_Gb6S_s.wav
64,192,89770,1,0,0:0:0:100:F#7S_Gb7S_s.wav
448,192,89770,128,0,89828:0:0:0:0:
192,192,89887,1,0,0:0:0:100:B6S_s.wav
320,192,90004,1,0,0:0:0:100:F#6S_Gb6S_s.wav
64,192,90121,128,0,90180:0:0:0:100:F#7S_Gb7S_s.wav
448,192,90121,1,0,0:0:0:0:
320,192,90238,1,0,0:0:0:100:B6S_s.wav
192,192,90356,1,0,0:0:0:100:F#6S_Gb6S_s.wav
64,192,90473,1,0,0:0:0:0:
448,192,90473,1,0,0:0:0:0:
320,192,90590,1,0,0:0:0:0:
448,192,90649,1,0,0:0:0:0:
192,192,90707,1,0,0:0:0:0:
64,192,90766,1,0,0:0:0:0:
320,192,90824,1,0,0:0:0:0:
192,192,90883,1,0,0:0:0:0:
64,192,90942,1,2,0:0:0:0:
448,192,90942,1,0,0:0:0:0:
192,192,91059,1,0,0:0:0:0:
320,192,91176,1,0,0:0:0:0:
64,192,91293,1,0,0:0:0:70:LR_Drum Hit P2.wav
448,192,91293,1,0,0:0:0:0:
192,192,91352,1,0,0:0:0:0:
320,192,91410,1,2,0:0:0:0:
448,192,91410,1,0,0:0:0:0:
64,192,91469,1,0,0:0:0:0:
320,192,91527,1,0,0:0:0:0:
192,192,91586,1,0,0:0:0:0:
64,192,91645,1,0,0:0:0:70:LR_Drum Hit P2.wav
320,192,91645,1,0,0:0:0:0:
448,192,91703,1,0,0:0:0:0:
192,192,91762,1,0,0:0:0:0:
320,192,91820,1,0,0:0:0:0:
64,192,91879,1,2,0:0:0:0:
448,192,91879,1,0,0:0:0:0:
320,192,91996,1,0,0:0:0:0:
192,192,92055,1,0,0:0:0:0:
64,192,92113,1,0,0:0:0:0:
64,192,92231,1,0,0:0:0:70:LR_Drum Hit P2.wav
448,192,92231,1,0,0:0:0:0:
192,192,92289,1,0,0:0:0:0:
320,192,92348,1,2,0:0:0:0:
448,192,92348,1,0,0:0:0:0:
64,192,92406,1,0,0:0:0:0:
192,192,92465,1,0,0:0:0:0:
320,192,92524,1,0,0:0:0:0:
64,192,92582,1,0,0:0:0:70:LR_Drum Hit P2.wav
192,192,92582,1,0,0:0:0:0:
448,192,92641,1,0,0:0:0:0:
192,192,92699,1,0,0:0:0:0:
320,192,92758,1,0,0:0:0:0:
64,192,92817,1,2,0:0:0:0:
448,192,92817,1,0,0:0:0:0:
320,192,92875,1,0,0:0:0:0:
192,192,92934,1,0,0:0:0:0:
64,192,92992,1,0,0:0:0:0:
320,192,93051,1,0,0:0:0:0:
448,192,93051,1,0,0:0:0:0:
192,192,93109,1,0,0:0:0:0:
448,192,93168,1,0,0:0:0:70:LR_Drum Hit P2.wav
320,192,93227,1,0,0:0:0:0:
64,192,93285,1,2,0:0:0:0:
192,192,93285,1,0,0:0:0:0:
448,192,93344,1,0,0:0:0:0:
320,192,93402,1,0,0:0:0:0:
192,192,93461,1,0,0:0:0:0:
64,192,93520,1,0,0:0:0:70:LR_Drum Hit P2.wav
448,192,93520,1,0,0:0:0:0:
192,192,93578,1,0,0:0:0:0:
448,192,93637,1,0,0:0:0:0:
320,192,93695,1,0,0:0:0:0:
64,192,93754,1,0,0:0:0:50:LR_Kick Bass strong.wav
192,192,93754,1,0,0:0:0:0:
448,192,93813,1,0,0:0:0:50:LR_Kick Bass strong.wav
64,192,93871,1,0,0:0:0:50:LR_Kick Bass strong.wav
192,192,93871,1,0,0:0:0:0:
320,192,93930,1,0,0:0:0:50:LR_Kick Bass strong.wav
64,192,93988,1,0,0:0:0:50:LR_Kick Bass strong.wav
448,192,93988,1,0,0:0:0:0:
192,192,94047,1,0,0:0:0:50:LR_Kick Bass strong.wav
320,192,94106,1,0,0:0:0:50:LR_Kick Bass strong.wav
448,192,94106,1,0,0:0:0:0:
192,192,94164,1,0,0:0:0:50:LR_Kick Bass strong.wav
64,192,94223,1,0,0:0:0:50:LR_Kick Bass strong.wav
448,192,94223,1,0,0:0:0:0:
320,192,94281,1,0,0:0:0:50:LR_Kick Bass strong.wav
64,192,94340,1,0,0:0:0:50:LR_Kick Bass strong.wav
192,192,94340,1,0,0:0:0:0:
448,192,94399,1,0,0:0:0:50:LR_Kick Bass strong.wav
192,192,94457,1,0,0:0:0:50:LR_Kick Bass strong.wav
320,192,94457,1,0,0:0:0:0:
64,192,94516,1,0,0:0:0:50:LR_Kick Bass strong.wav
320,192,94574,1,0,0:0:0:50:LR_Kick Bass strong.wav
448,192,94574,1,0,0:0:0:0:
192,192,94633,1,0,0:0:0:50:LR_Kick Bass strong.wav
64,192,94692,1,2,0:0:0:0:
320,192,94692,1,4,0:0:0:0:
448,192,94692,1,0,0:0:0:0:
192,192,94809,1,0,0:0:0:0:
448,192,94809,1,0,0:0:0:0:
64,192,94926,1,2,0:0:0:0:
192,192,94926,1,0,0:0:0:70:amenbreak_snare3.wav
320,192,94926,1,0,0:0:0:0:
64,192,95043,1,0,0:0:0:0:
448,192,95043,1,0,0:0:0:0:
192,192,95160,1,2,0:0:0:0:
320,192,95160,1,0,0:0:0:0:
448,192,95160,1,0,0:0:0:0:
64,192,95277,1,0,0:0:0:70:amenbreak_snare3.wav
192,192,95336,1,0,0:0:0:70:amenbreak_snare3.wav
64,192,95395,1,2,0:0:0:0:
320,192,95395,1,0,0:0:0:0:
448,192,95395,1,0,0:0:0:0:
192,192,95512,1,0,0:0:0:0:
320,192,95512,1,0,0:0:0:0:
64,192,95629,1,2,0:0:0:0:
192,192,95629,1,0,0:0:0:70:amenbreak_snare3.wav
448,192,95629,1,0,0:0:0:0:
320,192,95746,1,0,0:0:0:0:
192,192,95805,1,0,0:0:0:0:
64,192,95863,1,2,0:0:0:0:
320,192,95863,1,0,0:0:0:70:amenbreak_snare3.wav
448,192,95863,1,0,0:0:0:0:
192,192,95981,1,0,0:0:0:0:
320,192,96039,1,0,0:0:0:0:
64,192,96098,1,2,0:0:0:0:
192,192,96098,1,0,0:0:0:0:
448,192,96098,1,0,0:0:0:0:
320,192,96215,1,0,0:0:0:70:amenbreak_snare3.wav
192,192,96274,1,0,0:0:0:70:amenbreak_snare3.wav
320,192,96332,1,2,0:0:0:0:
448,192,96332,1,0,0:0:0:70:amenbreak_snare2.wav
64,192,96391,1,0,0:0:0:70:amenbreak_snare2.wav
320,192,96449,1,0,0:0:0:70:amenbreak_snare1.wav
448,192,96449,1,0,0:0:0:0:
64,192,96508,1,0,0:0:0:70:amenbreak_snare1.wav
192,192,96567,1,2,0:0:0:0:
320,192,96567,1,0,0:0:0:0:
448,192,96567,1,0,0:0:0:0:
64,192,96684,1,0,0:0:0:0:
320,192,96684,1,0,0:0:0:0:
64,192,96801,1,2,0:0:0:0:
192,192,96801,1,0,0:0:0:70:amenbreak_snare3.wav
448,192,96801,1,0,0:0:0:0:
320,192,96918,1,0,0:0:0:0:
448,192,96918,1,0,0:0:0:0:
64,192,97035,1,2,0:0:0:0:
192,192,97035,1,0,0:0:0:0:
320,192,97035,1,0,0:0:0:0:
448,192,97152,1,0,0:0:0:70:amenbreak_snare3.wav
320,192,97211,1,0,0:0:0:70:amenbreak_snare3.wav
64,192,97270,1,2,0:0:0:0:
192,192,97270,1,0,0:0:0:0:
448,192,97270,1,0,0:0:0:0:
320,192,97426,1,0,0:0:0:0:
64,192,97504,1,0,0:0:0:0:
448,192,97582,1,0,0:0:0:0:
192,192,97660,1,0,0:0:0:0:
64,192,97738,1,0,0:0:0:0:
320,192,97817,1,0,0:0:0:0:
192,192,97895,1,0,0:0:0:0:
448,192,97973,1,0,0:0:0:0:
320,192,98051,1,0,0:0:0:0:
64,192,98129,1,0,0:0:0:0:
192,192,98207,1,0,0:0:0:0:
320,192,98285,1,0,0:0:0:0:
64,192,98363,1,0,0:0:0:0:
192,192,98442,1,0,0:0:0:50:LR_Kick Bass strong.wav
448,192,98442,128,0,98559:0:0:0:0:
64,192,98559,128,0,98676:0:0:0:0:
192,192,98676,128,0,98734:0:0:0:0:
320,192,98793,128,0,98969:0:0:0:0:
320,192,99027,128,0,99086:0:0:0:0:
192,192,99145,128,0,99203:0:0:0:0:
64,192,99262,128,0,99320:0:0:0:0:
448,192,99379,128,0,99496:0:0:0:0:
320,192,99496,1,0,0:0:0:0:
448,192,99555,1,0,0:0:0:0:
320,192,99613,128,0,99731:0:0:0:0:
192,192,99731,1,0,0:0:0:0:
320,192,99789,1,0,0:0:0:0:
192,192,99848,128,0,99965:0:0:0:0:
64,192,99965,1,0,0:0:0:0:
192,192,100024,1,0,0:0:0:0:
64,192,100082,128,0,100199:0:0:0:0:
320,192,100199,1,0,0:0:0:0:
192,192,100258,1,0,0:0:0:0:
64,192,100317,128,0,100434:0:0:0:0:
448,192,100317,128,0,100434:0:0:0:0:
64,192,100551,1,0,0:0:0:0:
448,192,100551,1,0,0:0:0:0:
192,192,100668,128,0,100727:0:0:0:0:
320,192,100668,128,0,100727:0:0:0:0:
192,192,100785,128,0,101137:0:0:0:0:
320,192,100785,128,0,101137:0:0:0:0:
192,192,101254,1,2,0:0:0:0:
320,192,101254,1,4,0:0:0:0:
448,192,101254,1,0,0:0:0:0:
64,192,101371,1,2,0:0:0:0:
192,192,101371,1,4,0:0:0:0:
320,192,101371,1,0,0:0:0:0:
64,192,101606,1,2,0:0:0:0:
192,192,101606,1,4,0:0:0:0:
448,192,101606,1,0,0:0:0:0:
192,192,101840,1,2,0:0:0:0:
320,192,101840,1,4,0:0:0:0:
448,192,101840,1,0,0:0:0:0:
192,192,101957,1,2,0:0:0:0:
320,192,101957,1,4,0:0:0:0:
448,192,101957,1,0,0:0:0:0:
64,192,102192,1,4,0:0:0:0:
192,192,102192,1,2,0:0:0:0:
448,192,102192,1,0,0:0:0:0:
64,192,102309,1,2,0:0:0:0:
320,192,102309,1,4,0:0:0:0:
448,192,102309,1,0,0:0:0:0:
192,192,102543,1,4,0:0:0:0:
320,192,102543,1,2,0:0:0:0:
448,192,102543,1,0,0:0:0:0:
64,192,102777,1,2,0:0:0:0:
192,192,102777,1,4,0:0:0:0:
320,192,102777,1,0,0:0:0:0:
64,192,102895,128,4,103129:0:0:0:0:
192,192,102895,128,2,103070:0:0:0:0:
320,192,102895,128,0,103012:0:0:0:0:
192,192,103754,128,0,106879:0:0:0:0:
64,192,103832,128,0,106879:0:0:0:0:
320,192,103832,128,0,106879:0:0:0:0:
448,192,103832,128,0,106879:0:0:0:0:
64,192,107113,1,0,0:0:0:0:
192,192,107113,1,0,0:0:0:0:
320,192,107113,1,0,0:0:0:0:
448,192,107113,1,0,0:0:0:0:
