osu file format v14

[General]
AudioFilename: audio.mp3
AudioLeadIn: 0
PreviewTime: 77785
Countdown: 0
SampleSet: Normal
StackLeniency: 0.7
Mode: 1
LetterboxInBreaks: 0
WidescreenStoryboard: 1

[Editor]
Bookmarks: 311
DistanceSpacing: 1
BeatDivisor: 4
GridSize: 32
TimelineZoom: 1.8

[Metadata]
Title:Elemental Creation (kamome sano Remix)
TitleUnicode:Elemental Creation (kamome sano Remix)
Artist:kamome sano
ArtistUnicode:kamome sano
Creator:Dusk-
Version:yassu-'s NOVICE
Source:SOUND VOLTEX VIVID WAVE
Tags:dj TAKA DJ YOSHITAKA SDVX V 5 III GRAVITY WARS コナステ Konaste BEMANI楽曲リミックスコンテスト~2019~ Electronic Instrumental hivie yassu-
BeatmapID:3513132
BeatmapSetID:1717750

[Difficulty]
HPDrainRate:6.5
CircleSize:4
OverallDifficulty:4
ApproachRate:9
SliderMultiplier:1.4
SliderTickRate:3

[Events]
//Background and Video events
0,0,"BG.jpg",0,0
//Break Periods
//Storyboard Layer 0 (Background)
//Storyboard Layer 1 (Fail)
//Storyboard Layer 2 (Pass)
//Storyboard Layer 3 (Foreground)
//Storyboard Layer 4 (Overlay)
//Storyboard Sound Samples

[TimingPoints]
-3,468.75,4,1,0,100,1,0
9372,-66.6666666666667,4,1,0,100,0,0
48747,468.75,5,1,0,100,1,0
48747,-66.6666666666667,4,1,0,100,0,0
62809,468.75,3,1,0,100,1,0
62809,-66.6666666666667,3,1,0,100,0,0
68434,468.75,4,1,0,100,1,0
68434,-66.6666666666667,4,1,0,100,0,0
77806,468.75,4,1,0,100,1,0
77806,-66.6666666666667,4,1,0,100,0,0
79681,234.375,4,1,0,100,1,1
79681,-100,4,1,0,100,0,1
82962,-100,4,1,0,100,0,0
94681,-100,4,1,0,100,0,1
97493,-100,4,1,0,100,0,0
104993,-111.111111111111,4,1,0,100,0,0
105931,-125,4,1,0,100,0,0
106868,-142.857142857143,4,1,0,100,0,0

[HitObjects]
243,207,1872,5,4,0:0:0:0:
247,209,5622,1,0,0:0:0:0:
257,204,6090,1,0,0:0:0:0:
258,204,6559,1,0,0:0:0:0:
257,204,6793,1,0,0:0:0:0:
257,204,7028,1,0,0:0:0:0:
278,181,7418,1,0,0:0:0:0:
262,181,8434,1,2,0:0:0:0:
264,190,8903,1,2,0:0:0:0:
265,192,9137,1,2,0:0:0:0:
260,193,9372,1,4,0:0:0:0:
264,190,9840,1,2,0:0:0:0:
267,182,10309,1,0,0:0:0:0:
262,179,10465,1,2,0:0:0:0:
262,178,10778,1,2,0:0:0:0:
251,190,11247,1,0,0:0:0:0:
251,190,11715,1,2,0:0:0:0:
251,190,12184,1,0,0:0:0:0:
270,187,12340,1,2,0:0:0:0:
240,156,12653,1,0,0:0:0:0:
249,172,13122,1,2,0:0:0:0:
249,172,14059,1,2,0:0:0:0:
259,183,14997,2,0,L|238:136,6,35.0000013351441
240,155,15934,1,0,0:0:0:0:
240,155,16325,1,0,0:0:0:0:
240,155,16559,1,0,0:0:0:0:
276,169,16872,1,4,0:0:0:0:
264,190,17340,1,2,0:0:0:0:
267,182,17809,1,0,0:0:0:0:
262,179,17965,1,2,0:0:0:0:
262,178,18278,1,2,0:0:0:0:
251,190,18747,1,0,0:0:0:0:
251,190,19215,1,2,0:0:0:0:
251,190,19684,1,0,0:0:0:0:
260,181,19840,1,2,0:0:0:0:
240,156,20153,1,0,0:0:0:0:
249,172,20622,1,2,0:0:0:0:
249,172,21559,1,2,0:0:0:0:
281,203,22497,1,0,0:0:0:0:
281,203,22965,1,2,0:0:0:0:
240,155,23434,1,0,0:0:0:0:
240,155,23903,1,2,0:0:0:0:
240,155,24137,1,2,0:0:0:0:
276,169,24372,1,4,0:0:0:0:
244,205,25309,1,2,0:0:0:0:
249,199,25778,1,2,0:0:0:0:
251,197,26247,1,0,0:0:0:0:
257,187,27184,1,2,0:0:0:0:
257,187,28122,1,0,0:0:0:0:
263,186,28590,1,0,0:0:0:0:
263,186,29059,1,2,0:0:0:0:
276,154,29528,1,2,0:0:0:0:
271,160,29997,1,0,0:0:0:0:
271,160,30934,1,2,0:0:0:0:
271,160,31325,1,2,0:0:0:0:
283,172,31559,1,2,0:0:0:0:
260,193,31872,1,4,0:0:0:0:
264,190,32262,1,2,0:0:0:0:
267,182,32575,1,2,0:0:0:0:
282,202,32809,1,0,0:0:0:0:
262,178,33278,1,0,0:0:0:0:
256,177,33512,1,2,0:0:0:0:
251,190,33747,1,0,0:0:0:0:
251,190,34137,1,2,0:0:0:0:
245,31,34450,1,2,0:0:0:0:
251,190,34684,1,0,0:0:0:0:
240,156,35153,1,0,0:0:0:0:
251,173,35387,1,0,0:0:0:0:
249,172,35622,1,2,0:0:0:0:
249,172,36559,1,2,0:0:0:0:
259,183,37497,2,0,L|226:153,6,35.0000013351441
240,155,38434,1,0,0:0:0:0:
240,155,38825,1,0,0:0:0:0:
240,155,39059,1,0,0:0:0:0:
278,186,39762,1,4,0:0:0:0:
267,182,40075,1,2,0:0:0:0:
245,37,40309,1,0,0:0:0:0:
262,178,40778,1,0,0:0:0:0:
250,29,41012,1,2,0:0:0:0:
251,190,41247,1,0,0:0:0:0:
251,190,41637,1,2,0:0:0:0:
240,30,41950,1,2,0:0:0:0:
251,190,42184,1,0,0:0:0:0:
240,156,42653,1,0,0:0:0:0:
260,181,42887,1,0,0:0:0:0:
249,172,43122,1,2,0:0:0:0:
249,172,44059,1,2,0:0:0:0:
281,203,44997,1,0,0:0:0:0:
281,203,45465,1,2,0:0:0:0:
240,155,45934,1,0,0:0:0:0:
240,155,46403,1,2,0:0:0:0:
240,155,46637,1,2,0:0:0:0:
276,169,46872,1,4,0:0:0:0:
256,192,48747,1,0,0:0:0:0:
256,192,49059,1,2,0:0:0:0:
256,192,49684,1,8,0:0:0:0:
256,192,49997,1,0,0:0:0:0:
247,194,50622,1,2,0:0:0:0:
256,192,50934,1,0,0:0:0:0:
250,189,51559,1,2,0:0:0:0:
249,153,51872,1,0,0:0:0:0:
256,192,52497,1,8,0:0:0:0:
245,175,52965,1,0,0:0:0:0:
242,170,53356,1,2,0:0:0:0:
256,192,54059,1,10,0:0:0:0:
256,192,54372,1,0,0:0:0:0:
256,176,54840,1,0,0:0:0:0:
224,176,55309,1,2,0:0:0:0:
256,192,55778,1,0,0:0:0:0:
256,192,56168,1,0,0:0:0:0:
256,192,56481,1,8,0:0:0:0:
256,192,56872,1,0,0:0:0:0:
256,192,57184,1,8,0:0:0:0:
256,192,57653,1,8,0:0:0:0:
256,192,57887,1,2,0:0:0:0:
256,192,58122,1,0,0:0:0:0:
256,192,59293,1,0,0:0:0:0:
256,192,59997,1,0,0:0:0:0:
256,192,60465,1,8,0:0:0:0:
256,192,61168,1,8,0:0:0:0:
256,192,61637,1,0,0:0:0:0:
256,192,62340,1,2,0:0:0:0:
256,192,62809,1,0,0:0:0:0:
256,192,63043,1,8,0:0:0:0:
256,192,63278,1,8,0:0:0:0:
256,192,63668,1,0,0:0:0:0:
256,192,63981,1,8,0:0:0:0:
256,192,64450,1,8,0:0:0:0:
256,192,64684,1,8,0:0:0:0:
256,192,65075,1,0,0:0:0:0:
256,192,65387,1,8,0:0:0:0:
256,192,65622,1,0,0:0:0:0:
256,192,65856,1,8,0:0:0:0:
256,192,66090,1,8,0:0:0:0:
256,192,66481,1,0,0:0:0:0:
256,192,66793,1,2,0:0:0:0:
259,187,67028,1,0,0:0:0:0:
256,192,67262,1,2,0:0:0:0:
270,192,67809,1,2,0:0:0:0:
263,206,68434,5,4,0:0:0:0:
269,200,69293,1,4,0:0:0:0:
265,183,69606,1,4,0:0:0:0:
245,178,70231,1,4,0:0:0:0:
265,193,71168,1,4,0:0:0:0:
265,193,72184,1,4,0:0:0:0:
265,191,72653,1,4,0:0:0:0:
272,200,73043,1,4,0:0:0:0:
258,196,73590,1,4,0:0:0:0:
259,198,73981,1,4,0:0:0:0:
254,201,76090,1,6,0:0:0:0:
254,189,76403,1,2,0:0:0:0:
254,189,76559,1,2,0:0:0:0:
250,181,76715,1,2,0:0:0:0:
254,181,77028,1,4,0:0:0:0:
258,192,77340,1,0,0:0:0:0:
254,189,77497,1,0,0:0:0:0:
259,193,77653,1,0,0:0:0:0:
281,210,77806,1,2,0:0:0:0:
265,184,78743,1,2,0:0:0:0:
265,184,79212,1,2,0:0:0:0:
283,200,79446,1,2,0:0:0:0:
276,194,79681,1,4,0:0:0:0:
264,194,79915,1,2,0:0:0:0:
284,196,80032,1,0,0:0:0:0:
277,211,80266,1,2,0:0:0:0:
255,207,80384,1,0,0:0:0:0:
278,209,80618,1,2,0:0:0:0:
277,208,80735,1,0,0:0:0:0:
277,208,80852,1,2,0:0:0:0:
272,197,81087,1,0,0:0:0:0:
248,188,81204,1,0,0:0:0:0:
270,205,81321,1,2,0:0:0:0:
270,206,81556,1,0,0:0:0:0:
272,206,81790,1,2,0:0:0:0:
270,206,81907,1,0,0:0:0:0:
270,205,82141,1,2,0:0:0:0:
256,200,82317,1,2,0:0:0:0:
279,195,82493,1,2,0:0:0:0:
275,189,82610,1,0,0:0:0:0:
278,200,82845,1,2,0:0:0:0:
288,208,83431,1,0,0:0:0:0:
306,218,83782,1,0,0:0:0:0:
288,208,83899,1,2,0:0:0:0:
288,208,84368,1,0,0:0:0:0:
288,208,84837,1,2,0:0:0:0:
288,208,85306,1,0,0:0:0:0:
298,218,85657,1,0,0:0:0:0:
306,218,85774,1,2,0:0:0:0:
306,218,85891,1,0,0:0:0:0:
307,220,86126,1,0,0:0:0:0:
269,229,86243,1,2,0:0:0:0:
274,216,86477,1,0,0:0:0:0:
276,215,86595,1,0,0:0:0:0:
277,215,86712,1,2,0:0:0:0:
277,216,86946,1,0,0:0:0:0:
316,226,88821,1,6,0:0:0:0:
281,221,90462,1,2,0:0:0:0:
281,221,90696,1,2,0:0:0:0:
281,221,90813,1,2,0:0:0:0:
319,232,90931,1,0,0:0:0:0:
245,206,91282,1,2,0:0:0:0:
251,210,91399,1,0,0:0:0:0:
274,206,91634,1,2,0:0:0:0:
274,206,91868,1,0,0:0:0:0:
274,206,92220,1,2,0:0:0:0:
275,207,92337,1,0,0:0:0:0:
274,206,92571,1,2,0:0:0:0:
274,206,92806,1,0,0:0:0:0:
274,206,93040,1,2,0:0:0:0:
275,207,93274,1,0,0:0:0:0:
274,206,93391,1,2,0:0:0:0:
274,206,93567,1,2,0:0:0:0:
294,200,94681,1,0,0:0:0:0:
277,198,94915,1,2,0:0:0:0:
294,200,95149,1,0,0:0:0:0:
277,198,95266,1,2,0:0:0:0:
304,213,95384,1,0,0:0:0:0:
277,198,95618,1,2,0:0:0:0:
277,198,95852,1,2,0:0:0:0:
296,199,96087,1,0,0:0:0:0:
283,198,96204,1,0,0:0:0:0:
297,194,96321,1,2,0:0:0:0:
285,198,96438,1,2,0:0:0:0:
300,193,96556,1,0,0:0:0:0:
285,198,96790,1,2,0:0:0:0:
302,193,97024,1,0,0:0:0:0:
283,198,97141,1,2,0:0:0:0:
325,177,97259,1,0,0:0:0:0:
253,198,98431,5,2,0:0:0:0:
232,194,98665,1,0,0:0:0:0:
253,198,98782,1,0,0:0:0:0:
253,198,99134,1,0,0:0:0:0:
251,204,99368,1,2,0:0:0:0:
253,205,99602,1,0,0:0:0:0:
251,214,99720,1,0,0:0:0:0:
251,215,99837,1,2,0:0:0:0:
254,217,100071,1,0,0:0:0:0:
258,220,100306,1,2,0:0:0:0:
258,220,100657,1,2,0:0:0:0:
256,234,100774,1,2,0:0:0:0:
253,198,101243,1,4,0:0:0:0:
255,205,101595,1,4,0:0:0:0:
255,205,101829,1,4,0:0:0:0:
255,205,101946,1,4,0:0:0:0:
259,208,102181,1,6,0:0:0:0:
259,210,102532,1,6,0:0:0:0:
259,212,102766,1,6,0:0:0:0:
257,217,102884,1,6,0:0:0:0:
256,192,103821,12,2,106868,0:0:0:0:
262,189,107102,5,2,0:0:0:0:
