osu file format v14

[General]
AudioFilename: audio.mp3
AudioLeadIn: 0
PreviewTime: 77785
Countdown: 0
SampleSet: Normal
StackLeniency: 0.7
Mode: 1
LetterboxInBreaks: 0
WidescreenStoryboard: 1

[Editor]
Bookmarks: 311
DistanceSpacing: 1
BeatDivisor: 6
GridSize: 32
TimelineZoom: 3.299999

[Metadata]
Title:Elemental Creation (kamome sano Remix)
TitleUnicode:Elemental Creation (kamome sano Remix)
Artist:kamome sano
ArtistUnicode:kamome sano
Creator:Dusk-
Version:MAXIMUM
Source:SOUND VOLTEX VIVID WAVE
Tags:dj TAKA DJ YOSHITAKA SDVX V 5 III GRAVITY WARS コナステ Konaste BEMANI楽曲リミックスコンテスト~2019~ Electronic Instrumental hivie yassu-
BeatmapID:3574921
BeatmapSetID:1717750

[Difficulty]
HPDrainRate:6.5
CircleSize:5
OverallDifficulty:6.5
ApproachRate:9
SliderMultiplier:1.4
SliderTickRate:3

[Events]
//Background and Video events
0,0,"BG.jpg",0,0
//Break Periods
//Storyboard Layer 0 (Background)
//Storyboard Layer 1 (Fail)
//Storyboard Layer 2 (Pass)
//Storyboard Layer 3 (Foreground)
//Storyboard Layer 4 (Overlay)
//Storyboard Sound Samples

[TimingPoints]
-3,468.75,4,1,0,100,1,0
2572,-96.3372062731204,4,1,0,100,0,0
3509,-91.852955787382,4,1,0,100,0,0
3744,-90.7930272526393,4,1,0,100,0,0
4447,-87.7634326941333,4,1,0,100,0,0
5384,-84.0263576459895,4,1,0,100,0,0
5619,-83.1384892086331,4,1,0,100,0,0
6087,-81.425048441078,4,1,0,100,0,0
6556,-79.7773654916512,4,1,0,100,0,0
6791,-78.9765932000683,4,1,0,100,0,0
7025,-78.1950435591643,4,1,0,100,0,0
7259,-77.428810720268,4,1,0,100,0,0
7416,-76.9230769230769,4,1,0,100,0,0
8587,-76.2135635310116,4,1,0,100,0,0
8666,-75.8592278719397,4,1,0,100,0,0
8900,-74.8287472425403,4,1,0,100,0,0
9134,-73.8258877434135,4,1,0,100,0,0
9369,-72.8454365640011,4,1,0,100,0,0
9759,-71.2745369090406,4,1,0,100,0,0
9837,-70.9684523481804,4,1,0,100,0,0
10072,-70.0619632568757,4,1,0,100,0,0
10306,-69.182052382997,4,1,0,100,0,0
10462,-68.6076218863104,4,1,0,100,0,0
10775,-67.4833778336213,4,1,0,100,0,0
11009,-66.6666666666667,4,1,0,100,0,0
46087,-65.9356108533671,4,1,0,100,0,0
46166,-65.5714785040196,4,1,0,100,0,0
46322,-64.8641172809626,4,1,0,100,0,0
46400,-64.5161290322581,4,1,0,100,0,0
46478,-64.1718546897448,4,1,0,100,0,0
46556,-63.8312351139843,4,1,0,100,0,0
46634,-63.49421241454,4,1,0,100,0,0
46712,-63.1607299171773,4,1,0,100,0,0
46791,-62.8265237776289,4,1,0,100,0,0
46869,-62.5,4,1,0,100,0,0
48041,-66.6666666666667,4,1,0,100,0,0
48119,-67.1634661316519,4,1,0,100,0,0
48197,-67.6677254788719,4,1,0,100,0,0
48275,-68.1796140044613,4,1,0,100,0,0
48353,-68.6993061663246,4,1,0,100,0,0
48431,-69.2269817823732,4,1,0,100,0,0
48509,-69.7628262379676,4,1,0,100,0,0
48587,-70.3070307030703,4,1,0,100,0,0
48666,-70.866935483871,4,1,0,100,0,0
48744,-71.4285714285714,4,1,0,100,0,0
48747,468.75,5,1,0,100,1,0
48747,-71.4285714285714,5,1,0,100,0,0
62809,468.75,3,1,0,100,1,0
62809,-71.4285714285714,3,1,0,100,0,0
64681,-69.1000520201144,3,1,0,100,0,0
64759,-68.3603801420386,3,1,0,100,0,0
64837,-67.6363759801758,3,1,0,100,0,0
64915,-66.9275469416546,3,1,0,100,0,0
65071,-65.5535449909525,3,1,0,100,0,0
65149,-64.8874849382877,3,1,0,100,0,0
65306,-63.5870432423807,3,1,0,100,0,0
65384,-62.9601542010301,3,1,0,100,0,0
65462,-62.34550517851,3,1,0,100,0,0
65540,-61.7427411607945,3,1,0,100,0,0
65618,-61.1515207316699,3,1,0,100,0,0
65774,-60.002409130605,3,1,0,100,0,0
65852,-59.4438974909753,3,1,0,100,0,0
66009,-58.3506603801212,3,1,0,100,0,0
66165,-57.3035000431394,3,1,0,100,0,0
66321,-56.2932617601356,3,1,0,100,0,0
66399,-55.8013834822304,3,1,0,100,0,0
66477,-55.3180265970738,3,1,0,100,0,0
66556,-54.8369340855924,3,1,0,100,0,0
66712,-53.9110906680376,3,1,0,100,0,0
66790,-53.4597944782807,3,1,0,100,0,0
66868,-53.0159912726499,3,1,0,100,0,0
66946,-52.5794959757224,3,1,0,100,0,0
67024,-52.1501295574109,3,1,0,100,0,0
67181,-51.3068108664864,3,1,0,100,0,0
67259,-50.8978976677651,3,1,0,100,0,0
67337,-50.4954509744291,3,1,0,100,0,0
67415,-50.0993185989792,3,1,0,100,0,0
67571,-49.3254115608367,3,1,0,100,0,0
67649,-48.9473554916845,3,1,0,100,0,0
67806,-48.2037014636507,3,1,0,100,0,0
67884,-47.8425816985617,3,1,0,100,0,0
67962,-47.4868323839939,3,1,0,100,0,0
68040,-47.1363346029192,3,1,0,100,0,0
68118,-46.7909729234671,3,1,0,100,0,0
68274,-46.1152128127387,3,1,0,100,0,0
68352,-45.7845998299593,3,1,0,100,0,0
68434,468.75,4,1,0,100,1,0
68434,-45.4545454545455,4,1,0,100,0,0
68610,-66.6666666666667,4,1,0,100,0,0
69254,-45.4545454545455,4,1,0,100,0,0
69372,-66.6666666666667,4,1,0,100,0,0
69528,-45.4545454545455,4,1,0,100,0,0
69782,-66.6666666666667,4,1,0,100,0,0
70192,-45.4545454545455,4,1,0,100,0,0
70309,-66.6666666666667,4,1,0,100,0,0
70485,-66.6666666666667,4,1,0,100,0,0
71129,-45.4545454545455,4,1,0,100,0,0
71247,-66.6666666666667,4,1,0,100,0,0
72125,-45.4545454545455,4,1,0,100,0,0
72575,-45.045045045045,4,1,0,100,0,0
72965,-44.6428571428571,4,1,0,100,0,0
73512,-44.2477876106195,4,1,0,100,0,0
73903,-43.859649122807,4,1,0,100,0,0
74059,-25,4,1,0,100,0,0
74997,-48.0769230769231,4,1,0,100,0,0
76051,-43.4782608695652,4,1,0,100,0,0
77806,468.75,4,1,0,100,1,0
77806,-43.4782608695652,4,1,0,100,0,0
78740,-66.6666666666667,4,1,0,100,0,0
78896,-65.2204144068975,4,1,0,100,0,0
78974,-64.5205667904801,4,1,0,100,0,0
79209,-62.5,4,1,0,100,0,0
79443,-60.6099767381752,4,1,0,100,0,0
79671,-72.8454365640011,4,1,0,100,0,0
79681,234.375,4,1,0,100,1,1
79681,-93.4579439252336,4,1,0,100,0,1
81321,-76.9230769230769,4,1,0,100,0,1
81556,-100,4,1,0,100,0,1
82962,-100,4,1,0,100,0,0
83428,-166.666666666667,4,1,0,100,0,0
83545,-161.406046412848,4,1,0,100,0,0
83662,-156.467354410799,4,1,0,100,0,0
83779,-151.82191699466,4,1,0,100,0,0
83838,-149.582424597053,4,1,0,100,0,0
83896,-147.444367541266,4,1,0,100,0,0
83955,-145.331259141347,4,1,0,100,0,0
84013,-143.312183064496,4,1,0,100,0,0
84072,-141.315054174121,4,1,0,100,0,0
84131,-139.372822299652,4,1,0,100,0,0
84189,-137.514854245013,4,1,0,100,0,0
84248,-135.674997587571,4,1,0,100,0,0
84306,-133.913689484061,4,1,0,100,0,0
84365,-132.168321904126,4,1,0,100,0,0
84482,-128.838347277076,4,1,0,100,0,0
84541,-127.221973388348,4,1,0,100,0,0
84599,-125.672046014203,4,1,0,100,0,0
84717,-122.632499356746,4,1,0,100,0,0
84775,-121.191747583276,4,1,0,100,0,0
84834,-119.760479041916,4,1,0,100,0,0
84892,-118.386042908626,4,1,0,100,0,0
84951,-117.019904203478,4,1,0,100,0,0
85010,-115.684935451755,4,1,0,100,0,0
85068,-114.40195280716,4,1,0,100,0,0
85127,-113.125721619001,4,1,0,100,0,0
85185,-111.898575004278,4,1,0,100,0,0
85244,-110.677288327718,4,1,0,100,0,0
85303,-109.482372637194,4,1,0,100,0,0
85361,-108.33259493549,4,1,0,100,0,0
85420,-107.187509529473,4,1,0,100,0,0
85478,-106.08518504546,4,1,0,100,0,0
85537,-104.98687664042,4,1,0,100,0,0
85595,-103.929127135777,4,1,0,100,0,0
85654,-102.874786897001,4,1,0,100,0,0
85713,-101.841623961031,4,1,0,100,0,0
85771,-100.846001843344,4,1,0,100,0,0
85830,-99.8529902632682,4,1,0,100,0,0
85888,-98.8956882605332,4,1,0,100,0,0
85947,-97.9405321249821,4,1,0,100,0,0
86006,-97.0036497105759,4,1,0,100,0,0
86064,-96.0999548890681,4,1,0,100,0,0
86123,-95.1977927112074,4,1,0,100,0,0
86181,-94.3272807779653,4,1,0,100,0,0
86240,-93.4579439252336,4,1,0,100,0,0
87529,-125,4,1,0,100,0,0
87881,-135.147601476015,4,1,0,100,0,0
88118,-140.845070422535,4,1,0,100,0,0
88232,-147.051442910916,4,1,0,100,0,0
88584,-161.29920176163,4,1,0,100,0,0
88701,-166.666666666667,4,1,0,100,0,0
88821,-66.6666666666667,4,1,0,100,0,0
88997,-142.857142857143,4,1,0,100,0,0
89053,-125,4,1,0,100,0,0
89404,-131.137221989089,4,1,0,100,0,0
89756,-137.928497866706,4,1,0,100,0,0
89993,-140.845070422535,4,1,0,100,0,0
90107,-145.439031957803,4,1,0,100,0,0
90459,-142.857142857143,4,1,0,100,0,0
90576,-148.136449778901,4,1,0,100,0,0
90635,-150.949468941101,4,1,0,100,0,0
90693,-153.820924893408,4,1,0,100,0,0
90752,-156.85618729097,4,1,0,100,0,0
90810,-159.959072305593,4,1,0,100,0,0
90869,-163.243995823181,4,1,0,100,0,0
90928,-166.666666666667,4,1,0,100,0,0
91279,-160.944942845192,4,1,0,100,0,0
91338,-158.206097501105,4,1,0,100,0,0
91396,-155.60303721677,4,1,0,100,0,0
91455,-153.041537301649,4,1,0,100,0,0
91513,-150.604345209929,4,1,0,100,0,0
91572,-148.203506754815,4,1,0,100,0,0
91631,-145.878012482812,4,1,0,100,0,0
91689,-143.66198752849,4,1,0,100,0,0
91748,-141.475782287539,4,1,0,100,0,0
91806,-139.390531392608,4,1,0,100,0,0
91865,-137.331465312885,4,1,0,100,0,0
91924,-135.332346425609,4,1,0,100,0,0
91982,-133.423041093055,4,1,0,100,0,0
92041,-131.535309934538,4,1,0,100,0,0
92099,-129.730926584775,4,1,0,100,0,0
92217,-126.208601571488,4,1,0,100,0,0
92275,-124.546477866187,4,1,0,100,0,0
92334,-122.900020975954,4,1,0,100,0,0
92392,-121.323356393242,4,1,0,100,0,0
92451,-119.760479041916,4,1,0,100,0,0
92510,-118.237355299125,4,1,0,100,0,0
92568,-116.777343926944,4,1,0,100,0,0
92627,-115.328695729975,4,1,0,100,0,0
92685,-113.939211795228,4,1,0,100,0,0
92744,-112.559707292367,4,1,0,100,0,0
92803,-111.21320753903,4,1,0,100,0,0
92861,-109.920565549411,4,1,0,100,0,0
92920,-108.636106967375,4,1,0,100,0,0
92978,-107.402346353819,4,1,0,100,0,0
93037,-106.175737731925,4,1,0,100,0,0
93095,-104.99692503187,4,1,0,100,0,0
93154,-103.824344352085,4,1,0,100,0,0
93213,-102.677664620814,4,1,0,100,0,0
93271,-101.574843480968,4,1,0,100,0,0
93330,-100.477051633824,4,1,0,100,0,0
93388,-99.4207526359226,4,1,0,100,0,0
93447,-98.3687875608127,4,1,0,100,0,0
93506,-97.3388509635716,4,1,0,100,0,0
93564,-96.3471787243902,4,1,0,100,0,0
93623,-95.3589276004542,4,1,0,100,0,0
93681,-94.4069900722517,4,1,0,100,0,0
93740,-93.4579439252336,4,1,0,100,0,0
94681,-93.4579439252336,4,1,0,100,0,1
97490,-95.3042042661764,4,1,0,100,0,1
97493,-95.3042042661764,4,1,0,100,0,0
97568,-97.2248803827751,4,1,0,100,0,0
97646,-99.2245639392933,4,1,0,100,0,0
97724,-101.308232291002,4,1,0,100,0,0
97803,-103.509754979369,4,1,0,100,0,0
97881,-105.779341794292,4,1,0,100,0,0
97959,-108.150687118785,4,1,0,100,0,0
98037,-110.630791511047,4,1,0,100,0,0
98115,-113.227312745874,4,1,0,100,0,0
98193,-115.948644793153,4,1,0,100,0,0
98271,-118.804008465955,4,1,0,100,0,0
98349,-121.803555800655,4,1,0,100,0,0
98428,-125,4,1,0,100,0,0
98545,-123.597660370122,4,1,0,100,0,0
98662,-122.226436563626,4,1,0,100,0,0
98779,-120.885304323361,4,1,0,100,0,0
99013,-118.289437459851,4,1,0,100,0,0
99131,-117.022242396732,4,1,0,100,0,0
99248,-115.792310456342,4,1,0,100,0,0
99365,-114.587963374522,4,1,0,100,0,0
99482,-113.408411050501,4,1,0,100,0,0
99541,-112.822757111597,4,1,0,100,0,0
99599,-112.252895584777,4,1,0,100,0,0
99717,-111.111111111111,4,1,0,100,0,0
99775,-110.558366926838,4,1,0,100,0,0
99834,-110.0017067759,4,1,0,100,0,0
99951,-108.914237431348,4,1,0,100,0,0
100010,-108.373970068942,4,1,0,100,0,0
100068,-107.848058902276,4,1,0,100,0,0
100185,-106.802551992709,4,1,0,100,0,0
100244,-106.282981530343,4,1,0,100,0,0
100303,-105.768441782227,4,1,0,100,0,0
100420,-104.762678803641,4,1,0,100,0,0
100537,-103.775863457049,4,1,0,100,0,0
100654,-102.807465305471,4,1,0,100,0,0
100771,-101.85697352825,4,1,0,100,0,0
100888,-100.923896022549,4,1,0,100,0,0
101006,-100,4,1,0,100,0,0
101243,-90.9090909090909,4,1,0,100,0,0
102181,-83.3333333333333,4,1,0,100,0,0
103763,-66.6666666666667,4,1,0,100,0,0
103977,-125,4,1,0,100,0,0

[HitObjects]
256,192,1872,5,0,0:0:0:0:
256,192,2575,5,0,0:0:0:0:
256,192,3512,1,0,0:0:0:0:
256,192,3747,1,0,0:0:0:0:
256,192,4450,1,0,0:0:0:0:
256,192,5387,1,0,0:0:0:0:
256,192,5622,1,0,0:0:0:0:
256,192,6090,1,0,0:0:0:0:
256,192,6559,1,0,0:0:0:0:
256,192,6794,1,0,0:0:0:0:
256,192,7028,1,0,0:0:0:0:
256,192,7262,1,0,0:0:0:0:
256,192,7419,1,0,0:0:0:0:
256,192,8434,1,0,0:0:0:0:
256,192,8590,1,0,0:0:0:0:
256,192,8669,1,0,0:0:0:0:
256,192,8903,1,0,0:0:0:0:
256,192,9137,1,0,0:0:0:0:
256,192,9372,1,12,0:0:0:0:
256,192,9762,1,8,0:0:0:0:
256,192,9840,1,0,0:0:0:0:
256,192,10075,1,8,0:0:0:0:
256,192,10309,1,0,0:0:0:0:
256,192,10465,1,8,0:0:0:0:
256,192,10778,1,0,0:0:0:0:
256,192,11012,1,8,0:0:0:0:
256,192,11247,1,0,0:0:0:0:
256,192,11637,1,8,0:0:0:0:
256,192,11715,1,0,0:0:0:0:
256,192,11950,1,8,0:0:0:0:
256,192,12184,1,0,0:0:0:0:
256,192,12340,1,8,0:0:0:0:
256,192,12653,1,8,0:0:0:0:
256,192,12809,1,0,0:0:0:0:
256,192,12887,1,8,0:0:0:0:
256,192,12965,1,0,0:0:0:0:
256,192,13044,1,0,0:0:0:0:
256,192,13122,1,8,0:0:0:0:
256,192,13278,1,0,0:0:0:0:
256,192,13356,1,0,0:0:0:0:
256,192,13497,1,8,0:0:0:0:
256,192,13747,1,8,0:0:0:0:
256,192,13825,1,0,0:0:0:0:
256,192,13903,1,8,0:0:0:0:
256,192,13981,1,8,0:0:0:0:
256,192,14059,1,0,0:0:0:0:
256,192,14215,1,0,0:0:0:0:
256,192,14294,1,8,0:0:0:0:
256,192,14450,1,8,0:0:0:0:
256,192,14684,1,8,0:0:0:0:
256,192,14762,1,0,0:0:0:0:
256,192,14918,1,8,0:0:0:0:
256,192,14997,1,0,0:0:0:0:
256,192,15075,1,8,0:0:0:0:
256,192,15231,1,0,0:0:0:0:
256,192,15387,1,8,0:0:0:0:
256,192,15465,1,0,0:0:0:0:
256,192,15622,1,0,0:0:0:0:
256,192,15700,1,8,0:0:0:0:
256,192,15856,1,8,0:0:0:0:
256,192,15934,1,8,0:0:0:0:
256,192,16090,1,0,0:0:0:0:
256,192,16169,1,8,0:0:0:0:
256,192,16325,1,0,0:0:0:0:
256,192,16559,1,0,0:0:0:0:
256,192,16637,1,8,0:0:0:0:
256,192,16794,1,8,0:0:0:0:
256,192,16872,1,0,0:0:0:0:
256,192,17262,1,8,0:0:0:0:
256,192,17340,1,0,0:0:0:0:
256,192,17575,1,8,0:0:0:0:
256,192,17809,1,0,0:0:0:0:
256,192,17965,1,8,0:0:0:0:
256,192,18278,1,0,0:0:0:0:
256,192,18512,1,8,0:0:0:0:
256,192,18747,1,0,0:0:0:0:
256,192,19137,1,8,0:0:0:0:
256,192,19215,1,0,0:0:0:0:
256,192,19450,1,8,0:0:0:0:
256,192,19684,1,0,0:0:0:0:
256,192,19840,1,8,0:0:0:0:
256,192,20153,1,8,0:0:0:0:
256,192,20309,1,0,0:0:0:0:
256,192,20387,1,8,0:0:0:0:
256,192,20465,1,8,0:0:0:0:
256,192,20544,1,0,0:0:0:0:
256,192,20622,1,8,0:0:0:0:
256,192,20778,1,0,0:0:0:0:
256,192,20856,1,0,0:0:0:0:
256,192,21012,1,8,0:0:0:0:
256,192,21247,1,8,0:0:0:0:
256,192,21325,1,0,0:0:0:0:
256,192,21403,1,0,0:0:0:0:
256,192,21481,1,8,0:0:0:0:
256,192,21559,1,0,0:0:0:0:
256,192,21715,1,8,0:0:0:0:
256,192,21794,1,0,0:0:0:0:
256,192,21950,1,0,0:0:0:0:
256,192,22184,1,0,0:0:0:0:
256,192,22262,1,8,0:0:0:0:
256,192,22418,1,8,0:0:0:0:
256,192,22497,1,0,0:0:0:0:
256,192,22575,1,0,0:0:0:0:
256,192,22653,1,0,0:0:0:0:
256,192,22731,1,8,0:0:0:0:
256,192,22887,1,0,0:0:0:0:
256,192,22965,1,8,0:0:0:0:
256,192,23043,1,8,0:0:0:0:
256,192,23122,1,8,0:0:0:0:
256,192,23200,1,0,0:0:0:0:
256,192,23356,1,0,0:0:0:0:
256,192,23434,1,8,0:0:0:0:
256,192,23512,1,0,0:0:0:0:
256,192,23590,1,8,0:0:0:0:
256,192,23668,1,8,0:0:0:0:
256,192,23825,1,8,0:0:0:0:
256,192,23903,1,0,0:0:0:0:
256,192,23981,1,8,0:0:0:0:
256,192,24059,1,8,0:0:0:0:
256,192,24137,1,0,0:0:0:0:
256,192,24215,1,0,0:0:0:0:
256,192,24293,1,0,0:0:0:0:
256,192,24372,1,8,0:0:0:0:
256,192,24606,1,8,0:0:0:0:
256,192,24762,1,8,0:0:0:0:
256,192,24840,1,0,0:0:0:0:
256,192,24997,1,0,0:0:0:0:
256,192,25075,1,8,0:0:0:0:
256,192,25231,1,8,0:0:0:0:
256,192,25309,1,8,0:0:0:0:
256,192,25387,1,0,0:0:0:0:
256,192,25465,1,0,0:0:0:0:
256,192,25544,1,8,0:0:0:0:
256,192,25700,1,0,0:0:0:0:
256,192,25778,1,8,0:0:0:0:
256,192,25856,1,8,0:0:0:0:
256,192,25934,1,0,0:0:0:0:
256,192,26012,1,8,0:0:0:0:
256,192,26168,1,0,0:0:0:0:
256,192,26247,1,8,0:0:0:0:
256,192,26481,1,0,0:0:0:0:
256,192,26637,1,8,0:0:0:0:
256,192,26715,1,0,0:0:0:0:
256,192,26950,1,8,0:0:0:0:
256,192,27106,1,0,0:0:0:0:
256,192,27184,1,8,0:0:0:0:
256,192,27262,1,8,0:0:0:0:
256,192,27340,1,8,0:0:0:0:
256,192,27419,1,0,0:0:0:0:
256,192,27575,1,0,0:0:0:0:
256,192,27653,1,8,0:0:0:0:
256,192,27809,1,8,0:0:0:0:
256,192,27887,1,0,0:0:0:0:
256,192,27965,1,0,0:0:0:0:
256,192,28044,1,0,0:0:0:0:
256,192,28122,1,8,0:0:0:0:
256,192,28356,1,8,0:0:0:0:
256,192,28512,1,8,0:0:0:0:
256,192,28590,1,0,0:0:0:0:
256,192,28747,1,0,0:0:0:0:
256,192,28825,1,8,0:0:0:0:
256,192,28981,1,0,0:0:0:0:
256,192,29059,1,0,0:0:0:0:
256,192,29137,1,8,0:0:0:0:
256,192,29215,1,8,0:0:0:0:
256,192,29294,1,0,0:0:0:0:
256,192,29450,1,8,0:0:0:0:
256,192,29528,1,8,0:0:0:0:
256,192,29606,1,0,0:0:0:0:
256,192,29684,1,0,0:0:0:0:
256,192,29762,1,8,0:0:0:0:
256,192,29919,1,8,0:0:0:0:
256,192,29997,1,0,0:0:0:0:
256,192,30231,1,0,0:0:0:0:
256,192,30387,1,8,0:0:0:0:
256,192,30465,1,8,0:0:0:0:
256,192,30700,1,0,0:0:0:0:
256,192,30778,1,8,0:0:0:0:
256,192,30856,1,8,0:0:0:0:
256,192,30934,1,4,0:0:0:0:
256,192,31090,1,4,0:0:0:0:
256,192,31325,1,4,0:0:0:0:
256,192,31559,1,4,0:0:0:0:
256,192,31872,1,12,0:0:0:0:
256,192,32262,1,8,0:0:0:0:
256,192,32340,1,0,0:0:0:0:
256,192,32575,1,8,0:0:0:0:
256,192,32809,1,0,0:0:0:0:
256,192,32965,1,8,0:0:0:0:
256,192,33278,1,0,0:0:0:0:
256,192,33512,1,8,0:0:0:0:
256,192,33747,1,0,0:0:0:0:
256,192,34137,1,8,0:0:0:0:
256,192,34215,1,0,0:0:0:0:
256,192,34450,1,8,0:0:0:0:
256,192,34684,1,0,0:0:0:0:
256,192,34840,1,8,0:0:0:0:
256,192,35153,1,8,0:0:0:0:
256,192,35309,1,0,0:0:0:0:
256,192,35387,1,0,0:0:0:0:
256,192,35465,1,8,0:0:0:0:
256,192,35544,1,8,0:0:0:0:
256,192,35622,1,0,0:0:0:0:
256,192,35778,1,0,0:0:0:0:
256,192,35856,1,0,0:0:0:0:
256,192,35997,1,8,0:0:0:0:
256,192,36247,1,8,0:0:0:0:
256,192,36325,1,0,0:0:0:0:
256,192,36403,1,0,0:0:0:0:
256,192,36481,1,8,0:0:0:0:
256,192,36559,1,0,0:0:0:0:
256,192,36715,1,0,0:0:0:0:
256,192,36794,1,8,0:0:0:0:
256,192,36950,1,8,0:0:0:0:
256,192,37184,1,8,0:0:0:0:
256,192,37262,1,8,0:0:0:0:
256,192,37419,1,8,0:0:0:0:
256,192,37497,1,0,0:0:0:0:
256,192,37575,1,8,0:0:0:0:
256,192,37731,1,8,0:0:0:0:
256,192,37887,1,0,0:0:0:0:
256,192,37965,1,0,0:0:0:0:
256,192,38122,1,8,0:0:0:0:
256,192,38200,1,8,0:0:0:0:
256,192,38356,1,8,0:0:0:0:
256,192,38434,1,0,0:0:0:0:
256,192,38590,1,0,0:0:0:0:
256,192,38669,1,8,0:0:0:0:
256,192,38825,1,0,0:0:0:0:
256,192,39059,1,0,0:0:0:0:
256,192,39137,1,8,0:0:0:0:
256,192,39294,1,8,0:0:0:0:
256,192,39372,1,8,0:0:0:0:
256,192,39528,1,8,0:0:0:0:
256,192,39606,1,8,0:0:0:0:
256,192,39684,1,8,0:0:0:0:
256,192,39762,1,0,0:0:0:0:
256,192,39840,1,8,0:0:0:0:
256,192,40075,1,8,0:0:0:0:
256,192,40309,1,0,0:0:0:0:
256,192,40465,1,8,0:0:0:0:
256,192,40778,1,0,0:0:0:0:
256,192,41012,1,8,0:0:0:0:
256,192,41247,1,0,0:0:0:0:
256,192,41637,1,8,0:0:0:0:
256,192,41715,1,0,0:0:0:0:
256,192,41950,1,8,0:0:0:0:
256,192,42184,1,0,0:0:0:0:
256,192,42340,1,8,0:0:0:0:
256,192,42653,1,8,0:0:0:0:
256,192,42809,1,0,0:0:0:0:
256,192,42887,1,8,0:0:0:0:
256,192,42965,1,8,0:0:0:0:
256,192,43044,1,8,0:0:0:0:
256,192,43122,1,0,0:0:0:0:
256,192,43278,1,0,0:0:0:0:
256,192,43356,1,8,0:0:0:0:
256,192,43497,1,8,0:0:0:0:
256,192,43747,1,0,0:0:0:0:
256,192,43825,1,0,0:0:0:0:
256,192,43903,1,8,0:0:0:0:
256,192,43981,1,8,0:0:0:0:
256,192,44059,1,0,0:0:0:0:
256,192,44215,1,8,0:0:0:0:
256,192,44294,1,0,0:0:0:0:
256,192,44450,1,8,0:0:0:0:
256,192,44684,1,0,0:0:0:0:
256,192,44762,1,8,0:0:0:0:
256,192,44997,1,0,0:0:0:0:
256,192,45075,1,0,0:0:0:0:
256,192,45153,1,8,0:0:0:0:
256,192,45231,1,0,0:0:0:0:
256,192,45309,1,0,0:0:0:0:
256,192,45387,1,8,0:0:0:0:
256,192,45465,1,0,0:0:0:0:
256,192,45622,1,8,0:0:0:0:
256,192,45700,1,8,0:0:0:0:
256,192,45778,1,0,0:0:0:0:
256,192,45856,1,0,0:0:0:0:
256,192,45934,1,8,0:0:0:0:
256,192,46090,1,0,0:0:0:0:
256,192,46169,1,8,0:0:0:0:
256,192,46325,1,0,0:0:0:0:
256,192,46403,1,8,0:0:0:0:
256,192,46559,1,0,0:0:0:0:
256,192,46637,1,8,0:0:0:0:
256,192,46715,1,0,0:0:0:0:
256,192,46794,1,0,0:0:0:0:
256,192,46872,1,8,0:0:0:0:
256,192,48044,5,8,0:0:0:0:
256,192,48122,1,8,0:0:0:0:
256,192,48200,1,8,0:0:0:0:
256,192,48278,1,0,0:0:0:0:
256,192,48434,1,0,0:0:0:0:
256,192,48512,1,8,0:0:0:0:
256,192,48590,1,0,0:0:0:0:
256,192,48669,1,0,0:0:0:0:
256,192,48747,1,8,0:0:0:0:
256,192,48903,1,0,0:0:0:0:
256,192,49059,1,8,0:0:0:0:
256,192,49137,1,0,0:0:0:0:
256,192,49215,1,8,0:0:0:0:
256,192,49294,1,0,0:0:0:0:
256,192,49372,1,8,0:0:0:0:
256,192,49450,1,0,0:0:0:0:
256,192,49684,1,8,0:0:0:0:
256,192,49840,1,0,0:0:0:0:
256,192,49997,1,8,0:0:0:0:
256,192,50387,1,8,0:0:0:0:
256,192,50622,1,0,0:0:0:0:
256,192,50778,1,8,0:0:0:0:
256,192,50934,1,8,0:0:0:0:
256,192,51325,1,0,0:0:0:0:
256,192,51559,1,8,0:0:0:0:
256,192,51715,1,8,0:0:0:0:
256,192,51872,1,0,0:0:0:0:
256,192,52028,1,8,0:0:0:0:
256,192,52184,1,8,0:0:0:0:
256,192,52262,1,0,0:0:0:0:
256,192,52340,1,8,0:0:0:0:
256,192,52419,1,0,0:0:0:0:
256,192,52497,1,8,0:0:0:0:
256,192,52653,1,0,0:0:0:0:
256,192,52731,1,8,0:0:0:0:
256,192,52809,1,0,0:0:0:0:
256,192,52887,1,8,0:0:0:0:
256,192,52965,1,0,0:0:0:0:
256,192,53122,1,8,0:0:0:0:
256,192,53200,1,0,0:0:0:0:
256,192,53278,1,0,0:0:0:0:
256,192,53356,1,8,0:0:0:0:
256,192,53512,1,8,0:0:0:0:
256,192,53590,1,8,0:0:0:0:
256,192,53669,1,0,0:0:0:0:
256,192,53747,1,8,0:0:0:0:
256,192,53825,1,8,0:0:0:0:
256,192,53981,1,0,0:0:0:0:
256,192,54059,1,8,0:0:0:0:
256,192,54215,1,8,0:0:0:0:
256,192,54294,1,8,0:0:0:0:
256,192,54450,1,0,0:0:0:0:
256,192,54528,1,8,0:0:0:0:
256,192,54606,1,8,0:0:0:0:
256,192,54684,1,8,0:0:0:0:
256,192,54840,1,0,0:0:0:0:
256,192,54919,1,0,0:0:0:0:
256,192,54997,1,8,0:0:0:0:
256,192,55075,1,0,0:0:0:0:
256,192,55153,1,8,0:0:0:0:
256,192,55309,1,0,0:0:0:0:
256,192,55387,1,0,0:0:0:0:
256,192,55465,1,8,0:0:0:0:
256,192,55544,1,0,0:0:0:0:
256,192,55622,1,8,0:0:0:0:
256,192,55700,1,8,0:0:0:0:
256,192,55778,1,0,0:0:0:0:
256,192,55934,1,0,0:0:0:0:
256,192,56169,1,8,0:0:0:0:
256,192,56247,1,0,0:0:0:0:
256,192,56481,1,8,0:0:0:0:
256,192,56637,1,0,0:0:0:0:
256,192,56872,1,8,0:0:0:0:
256,192,56950,1,0,0:0:0:0:
256,192,57184,1,8,0:0:0:0:
256,192,57419,1,8,0:0:0:0:
256,192,57497,1,8,0:0:0:0:
256,192,57575,1,0,0:0:0:0:
256,192,57653,1,8,0:0:0:0:
256,192,57809,1,8,0:0:0:0:
256,192,57887,1,0,0:0:0:0:
256,192,57965,1,0,0:0:0:0:
256,192,58044,1,0,0:0:0:0:
256,192,58122,1,8,0:0:0:0:
256,192,58356,1,8,0:0:0:0:
256,192,58512,1,0,0:0:0:0:
256,192,58825,1,8,0:0:0:0:
256,192,59059,1,0,0:0:0:0:
256,192,59294,1,8,0:0:0:0:
256,192,59450,1,0,0:0:0:0:
256,192,59684,1,8,0:0:0:0:
256,192,59997,1,0,0:0:0:0:
256,192,60231,1,8,0:0:0:0:
256,192,60387,1,0,0:0:0:0:
256,192,60465,1,8,0:0:0:0:
256,192,60700,1,8,0:0:0:0:
256,192,60856,1,0,0:0:0:0:
256,192,60934,1,0,0:0:0:0:
256,192,61090,1,0,0:0:0:0:
256,192,61169,1,8,0:0:0:0:
256,192,61403,1,8,0:0:0:0:
256,192,61637,1,0,0:0:0:0:
256,192,61794,1,8,0:0:0:0:
256,192,62028,1,0,0:0:0:0:
256,192,62106,1,0,0:0:0:0:
256,192,62262,1,0,0:0:0:0:
256,192,62340,1,8,0:0:0:0:
256,192,62575,1,8,0:0:0:0:
256,192,62731,1,0,0:0:0:0:
256,192,62809,1,8,0:0:0:0:
256,192,62965,1,8,0:0:0:0:
256,192,63044,1,8,0:0:0:0:
256,192,63278,1,8,0:0:0:0:
256,192,63434,1,0,0:0:0:0:
256,192,63669,1,8,0:0:0:0:
256,192,63903,1,0,0:0:0:0:
256,192,63981,1,0,0:0:0:0:
256,192,64137,1,8,0:0:0:0:
256,192,64449,1,8,0:0:0:0:
256,192,64684,1,8,0:0:0:0:
256,192,64762,1,0,0:0:0:0:
256,192,64840,1,0,0:0:0:0:
256,192,64918,1,8,0:0:0:0:
256,192,65074,1,0,0:0:0:0:
256,192,65152,1,8,0:0:0:0:
256,192,65309,1,0,0:0:0:0:
256,192,65387,1,8,0:0:0:0:
256,192,65465,1,8,0:0:0:0:
256,192,65543,1,8,0:0:0:0:
256,192,65621,1,0,0:0:0:0:
256,192,65777,1,8,0:0:0:0:
256,192,65855,1,0,0:0:0:0:
256,192,66012,1,8,0:0:0:0:
256,192,66168,1,8,0:0:0:0:
256,192,66324,1,0,0:0:0:0:
256,192,66402,1,8,0:0:0:0:
256,192,66480,1,8,0:0:0:0:
256,192,66559,1,0,0:0:0:0:
256,192,66715,1,8,0:0:0:0:
256,192,66793,1,0,0:0:0:0:
256,192,66871,1,8,0:0:0:0:
256,192,66949,1,8,0:0:0:0:
256,192,67027,1,0,0:0:0:0:
256,192,67184,1,8,0:0:0:0:
256,192,67262,1,0,0:0:0:0:
256,192,67340,1,0,0:0:0:0:
256,192,67418,1,8,0:0:0:0:
256,192,67574,1,8,0:0:0:0:
256,192,67652,1,0,0:0:0:0:
256,192,67809,1,8,0:0:0:0:
256,192,67887,1,8,0:0:0:0:
256,192,67965,1,0,0:0:0:0:
256,192,68043,1,8,0:0:0:0:
256,192,68121,1,8,0:0:0:0:
256,192,68277,1,8,0:0:0:0:
256,192,68355,1,8,0:0:0:0:
256,192,68434,1,4,0:0:0:0:
256,192,68668,1,8,0:0:0:0:
256,192,69137,1,8,0:0:0:0:
256,192,69294,1,4,0:0:0:0:
256,192,69606,1,4,0:0:0:0:
256,192,69840,1,8,0:0:0:0:
256,192,69996,1,8,0:0:0:0:
256,192,70074,1,8,0:0:0:0:
256,192,70231,1,4,0:0:0:0:
256,192,70543,1,8,0:0:0:0:
256,192,71012,1,8,0:0:0:0:
256,192,71169,1,4,0:0:0:0:
256,192,71480,1,0,0:0:0:0:
256,192,71637,1,8,0:0:0:0:
256,192,72184,1,4,0:0:0:0:
256,192,72653,1,4,0:0:0:0:
256,192,73044,1,4,0:0:0:0:
256,192,73590,1,4,0:0:0:0:
256,192,73981,1,4,0:0:0:0:
256,192,74059,12,0,75817,0:0:0:0:
256,192,76090,5,12,0:0:0:0:
256,192,76247,1,12,0:0:0:0:
256,192,76403,1,12,0:0:0:0:
256,192,76559,1,12,0:0:0:0:
256,192,76715,1,12,0:0:0:0:
256,192,77028,1,12,0:0:0:0:
256,192,77184,1,12,0:0:0:0:
256,192,77340,1,12,0:0:0:0:
256,192,77497,1,12,0:0:0:0:
256,192,77653,1,12,0:0:0:0:
256,192,77806,1,0,0:0:0:0:
256,192,78743,1,0,0:0:0:0:
256,192,78899,1,0,0:0:0:0:
256,192,78977,1,0,0:0:0:0:
256,192,79212,1,0,0:0:0:0:
256,192,79446,1,0,0:0:0:0:
256,192,79681,5,4,0:0:0:0:
256,192,79798,1,0,0:0:0:0:
256,192,79915,1,8,0:0:0:0:
256,192,80032,1,0,0:0:0:0:
256,192,80149,1,0,0:0:0:0:
256,192,80266,1,8,0:0:0:0:
256,192,80384,1,0,0:0:0:0:
256,192,80501,1,0,0:0:0:0:
256,192,80618,1,8,0:0:0:0:
256,192,80735,1,0,0:0:0:0:
256,192,80794,1,0,0:0:0:0:
256,192,80852,1,8,0:0:0:0:
256,192,80911,1,8,0:0:0:0:
256,192,80970,1,0,0:0:0:0:
256,192,81087,1,0,0:0:0:0:
256,192,81145,1,0,0:0:0:0:
256,192,81204,1,0,0:0:0:0:
256,192,81263,1,0,0:0:0:0:
256,192,81321,1,12,0:0:0:0:
256,192,81556,1,0,0:0:0:0:
256,192,81614,1,0,0:0:0:0:
256,192,81673,1,0,0:0:0:0:
256,192,81731,1,0,0:0:0:0:
256,192,81790,1,8,0:0:0:0:
256,192,81907,1,0,0:0:0:0:
256,192,81966,1,0,0:0:0:0:
256,192,82024,1,0,0:0:0:0:
256,192,82141,1,8,0:0:0:0:
256,192,82200,1,0,0:0:0:0:
256,192,82259,1,0,0:0:0:0:
256,192,82317,1,8,0:0:0:0:
256,192,82376,1,0,0:0:0:0:
256,192,82434,1,0,0:0:0:0:
256,192,82493,1,8,0:0:0:0:
256,192,82610,1,0,0:0:0:0:
256,192,82669,1,8,0:0:0:0:
256,192,82727,1,0,0:0:0:0:
256,192,82786,1,0,0:0:0:0:
256,192,82845,1,8,0:0:0:0:
256,192,82903,1,8,0:0:0:0:
256,192,83431,1,0,0:0:0:0:
256,192,83548,1,8,0:0:0:0:
256,192,83665,1,8,0:0:0:0:
256,192,83782,1,0,0:0:0:0:
256,192,83841,1,0,0:0:0:0:
256,192,83899,1,8,0:0:0:0:
256,192,83958,1,8,0:0:0:0:
256,192,84016,1,0,0:0:0:0:
256,192,84075,1,8,0:0:0:0:
256,192,84134,1,0,0:0:0:0:
256,192,84251,1,8,0:0:0:0:
256,192,84309,1,8,0:0:0:0:
256,192,84368,1,0,0:0:0:0:
256,192,84485,1,8,0:0:0:0:
256,192,84544,1,8,0:0:0:0:
256,192,84602,1,8,0:0:0:0:
256,192,84720,1,0,0:0:0:0:
256,192,84778,1,0,0:0:0:0:
256,192,84837,1,8,0:0:0:0:
256,192,84895,1,8,0:0:0:0:
256,192,84954,1,0,0:0:0:0:
256,192,85013,1,0,0:0:0:0:
256,192,85071,1,8,0:0:0:0:
256,192,85188,1,8,0:0:0:0:
256,192,85247,1,8,0:0:0:0:
256,192,85306,1,0,0:0:0:0:
256,192,85364,1,8,0:0:0:0:
256,192,85423,1,0,0:0:0:0:
256,192,85481,1,0,0:0:0:0:
256,192,85540,1,8,0:0:0:0:
256,192,85657,1,0,0:0:0:0:
256,192,85716,1,0,0:0:0:0:
256,192,85774,1,8,0:0:0:0:
256,192,85891,1,8,0:0:0:0:
256,192,86009,1,0,0:0:0:0:
256,192,86067,1,0,0:0:0:0:
256,192,86126,1,8,0:0:0:0:
256,192,86184,1,8,0:0:0:0:
256,192,86243,1,0,0:0:0:0:
256,192,86360,1,0,0:0:0:0:
256,192,86419,1,0,0:0:0:0:
256,192,86477,1,8,0:0:0:0:
256,192,86595,1,0,0:0:0:0:
256,192,86653,1,0,0:0:0:0:
256,192,86712,1,8,0:0:0:0:
256,192,86770,1,8,0:0:0:0:
256,192,86829,1,0,0:0:0:0:
256,192,86888,1,0,0:0:0:0:
256,192,86946,1,8,0:0:0:0:
256,192,87005,1,0,0:0:0:0:
256,192,87063,1,8,0:0:0:0:
256,192,87122,1,8,0:0:0:0:
256,192,87181,1,0,0:0:0:0:
256,192,87532,1,0,0:0:0:0:
256,192,87884,1,0,0:0:0:0:
256,192,88235,1,0,0:0:0:0:
256,192,88587,1,0,0:0:0:0:
256,192,88704,1,0,0:0:0:0:
256,192,88821,1,12,0:0:0:0:
256,192,89056,1,8,0:0:0:0:
256,192,89407,1,8,0:0:0:0:
256,192,89759,1,8,0:0:0:0:
256,192,90110,1,8,0:0:0:0:
256,192,90462,1,8,0:0:0:0:
256,192,90579,1,0,0:0:0:0:
256,192,90638,1,0,0:0:0:0:
256,192,90696,1,8,0:0:0:0:
256,192,90755,1,8,0:0:0:0:
256,192,90813,1,8,0:0:0:0:
256,192,90872,1,8,0:0:0:0:
256,192,90931,1,0,0:0:0:0:
256,192,91165,1,0,0:0:0:0:
256,192,91282,1,8,0:0:0:0:
256,192,91341,1,0,0:0:0:0:
256,192,91399,1,0,0:0:0:0:
256,192,91458,1,8,0:0:0:0:
256,192,91516,1,0,0:0:0:0:
256,192,91575,1,0,0:0:0:0:
256,192,91634,1,8,0:0:0:0:
256,192,91751,1,8,0:0:0:0:
256,192,91809,1,8,0:0:0:0:
256,192,91868,1,0,0:0:0:0:
256,192,91985,1,8,0:0:0:0:
256,192,92044,1,0,0:0:0:0:
256,192,92102,1,0,0:0:0:0:
256,192,92220,1,0,0:0:0:0:
256,192,92278,1,0,0:0:0:0:
256,192,92337,1,8,0:0:0:0:
256,192,92395,1,8,0:0:0:0:
256,192,92454,1,0,0:0:0:0:
256,192,92571,1,8,0:0:0:0:
256,192,92630,1,8,0:0:0:0:
256,192,92688,1,8,0:0:0:0:
256,192,92747,1,8,0:0:0:0:
256,192,92806,1,0,0:0:0:0:
256,192,92923,1,8,0:0:0:0:
256,192,92981,1,8,0:0:0:0:
256,192,93040,1,0,0:0:0:0:
256,192,93098,1,8,0:0:0:0:
256,192,93157,1,0,0:0:0:0:
256,192,93216,1,0,0:0:0:0:
256,192,93274,1,8,0:0:0:0:
256,192,93391,1,0,0:0:0:0:
256,192,93450,1,0,0:0:0:0:
256,192,93509,1,8,0:0:0:0:
256,192,93567,1,0,0:0:0:0:
256,192,93626,1,8,0:0:0:0:
256,192,93684,1,8,0:0:0:0:
256,192,93743,1,0,0:0:0:0:
256,192,93860,1,0,0:0:0:0:
256,192,93919,1,0,0:0:0:0:
256,192,93977,1,8,0:0:0:0:
256,192,94095,1,0,0:0:0:0:
256,192,94153,1,0,0:0:0:0:
256,192,94212,1,8,0:0:0:0:
256,192,94270,1,8,0:0:0:0:
256,192,94329,1,8,0:0:0:0:
256,192,94388,1,0,0:0:0:0:
256,192,94446,1,8,0:0:0:0:
256,192,94505,1,8,0:0:0:0:
256,192,94563,1,0,0:0:0:0:
256,192,94622,1,0,0:0:0:0:
256,192,94681,1,8,0:0:0:0:
256,192,94798,1,0,0:0:0:0:
256,192,94856,1,0,0:0:0:0:
256,192,94915,1,8,0:0:0:0:
256,192,95032,1,8,0:0:0:0:
256,192,95149,1,0,0:0:0:0:
256,192,95266,1,8,0:0:0:0:
256,192,95325,1,8,0:0:0:0:
256,192,95384,1,0,0:0:0:0:
256,192,95501,1,0,0:0:0:0:
256,192,95618,1,8,0:0:0:0:
256,192,95735,1,0,0:0:0:0:
256,192,95794,1,0,0:0:0:0:
256,192,95852,1,8,0:0:0:0:
256,192,95970,1,0,0:0:0:0:
256,192,96028,1,0,0:0:0:0:
256,192,96087,1,8,0:0:0:0:
256,192,96204,1,8,0:0:0:0:
256,192,96263,1,8,0:0:0:0:
256,192,96321,1,0,0:0:0:0:
256,192,96380,1,8,0:0:0:0:
256,192,96438,1,8,0:0:0:0:
256,192,96556,1,0,0:0:0:0:
256,192,96673,1,0,0:0:0:0:
256,192,96731,1,0,0:0:0:0:
256,192,96790,1,8,0:0:0:0:
256,192,96907,1,0,0:0:0:0:
256,192,97024,1,8,0:0:0:0:
256,192,97141,1,8,0:0:0:0:
256,192,97200,1,8,0:0:0:0:
256,192,97259,1,0,0:0:0:0:
256,192,97415,1,0,0:0:0:0:
256,192,97493,1,8,0:0:0:0:
256,192,97571,1,8,0:0:0:0:
256,192,97649,1,8,0:0:0:0:
256,192,97727,1,0,0:0:0:0:
256,192,97884,1,8,0:0:0:0:
256,192,97962,1,0,0:0:0:0:
256,192,98040,1,0,0:0:0:0:
256,192,98118,1,8,0:0:0:0:
256,192,98196,1,8,0:0:0:0:
256,192,98274,1,0,0:0:0:0:
256,192,98352,1,0,0:0:0:0:
256,192,98431,1,8,0:0:0:0:
256,192,98548,1,8,0:0:0:0:
256,192,98665,1,0,0:0:0:0:
256,192,98782,1,0,0:0:0:0:
256,192,99016,1,8,0:0:0:0:
256,192,99134,1,0,0:0:0:0:
256,192,99251,1,0,0:0:0:0:
256,192,99368,1,8,0:0:0:0:
256,192,99485,1,0,0:0:0:0:
256,192,99544,1,0,0:0:0:0:
256,192,99602,1,8,0:0:0:0:
256,192,99720,1,0,0:0:0:0:
256,192,99778,1,0,0:0:0:0:
256,192,99837,1,0,0:0:0:0:
256,192,99954,1,8,0:0:0:0:
256,192,100013,1,8,0:0:0:0:
256,192,100071,1,8,0:0:0:0:
256,192,100188,1,0,0:0:0:0:
256,192,100247,1,8,0:0:0:0:
256,192,100306,1,0,0:0:0:0:
256,192,100423,1,8,0:0:0:0:
256,192,100540,1,0,0:0:0:0:
256,192,100657,1,8,0:0:0:0:
256,192,100774,1,8,0:0:0:0:
256,192,100891,1,0,0:0:0:0:
256,192,101009,1,8,0:0:0:0:
256,192,101243,1,4,0:0:0:0:
256,192,101360,1,4,0:0:0:0:
256,192,101595,1,4,0:0:0:0:
256,192,101829,1,4,0:0:0:0:
256,192,101946,1,4,0:0:0:0:
256,192,102181,1,12,0:0:0:0:
256,192,102298,1,12,0:0:0:0:
256,192,102532,1,12,0:0:0:0:
256,192,102766,1,12,0:0:0:0:
256,192,102884,1,12,0:0:0:0:
256,192,103821,12,0,106868,0:0:0:0:
256,192,107102,5,8,0:0:0:0:
