osu file format v14

[General]
AudioFilename: audio.mp3
AudioLeadIn: 0
PreviewTime: 77785
Countdown: 0
SampleSet: Normal
StackLeniency: 0.7
Mode: 1
LetterboxInBreaks: 0
WidescreenStoryboard: 1

[Editor]
Bookmarks: 311
DistanceSpacing: 1
BeatDivisor: 6
GridSize: 32
TimelineZoom: 2

[Metadata]
Title:Elemental Creation (kamome sano Remix)
TitleUnicode:Elemental Creation (kamome sano Remix)
Artist:kamome sano
ArtistUnicode:kamome sano
Creator:Dusk-
Version:ADVANCED
Source:SOUND VOLTEX VIVID WAVE
Tags:dj TAKA DJ YOSHITAKA SDVX V 5 III GRAVITY WARS コナステ Konaste BEMANI楽曲リミックスコンテスト~2019~ Electronic Instrumental hivie yassu-
BeatmapID:3512243
BeatmapSetID:1717750

[Difficulty]
HPDrainRate:6
CircleSize:4
OverallDifficulty:5
ApproachRate:9
SliderMultiplier:1.4
SliderTickRate:3

[Events]
//Background and Video events
0,0,"BG.jpg",0,0
//Break Periods
//Storyboard Layer 0 (Background)
//Storyboard Layer 1 (Fail)
//Storyboard Layer 2 (Pass)
//Storyboard Layer 3 (Foreground)
//Storyboard Layer 4 (Overlay)
//Storyboard Sound Samples

[TimingPoints]
-3,468.75,4,1,0,100,1,0
1872,-76.9230769230769,4,1,0,100,0,0
8395,-76.9230769230769,4,1,0,100,0,0
8587,-76.2135635310116,4,1,0,100,0,0
8666,-75.8592278719397,4,1,0,100,0,0
8900,-74.8287472425403,4,1,0,100,0,0
9134,-73.8258877434135,4,1,0,100,0,0
9369,-72.8454365640011,4,1,0,100,0,0
9759,-71.2745369090406,4,1,0,100,0,0
9837,-70.9684523481804,4,1,0,100,0,0
10072,-70.0619632568757,4,1,0,100,0,0
10306,-69.182052382997,4,1,0,100,0,0
10462,-68.6076218863104,4,1,0,100,0,0
10775,-67.4833778336213,4,1,0,100,0,0
11009,-66.6666666666667,4,1,0,100,0,0
46087,-65.9356108533671,4,1,0,100,0,0
46166,-65.5714785040196,4,1,0,100,0,0
46322,-64.8641172809626,4,1,0,100,0,0
46400,-64.5161290322581,4,1,0,100,0,0
46478,-64.1718546897448,4,1,0,100,0,0
46556,-63.8312351139843,4,1,0,100,0,0
46634,-63.49421241454,4,1,0,100,0,0
46712,-63.1607299171773,4,1,0,100,0,0
46791,-62.8265237776289,4,1,0,100,0,0
46869,-62.5,4,1,0,100,0,0
48041,-50,4,1,0,100,0,0
48744,-71.4285714285714,4,1,0,100,0,0
48747,468.75,5,1,0,100,1,0
48747,-71.4285714285714,5,1,0,100,0,0
62809,468.75,3,1,0,100,1,0
62809,-71.4285714285714,3,1,0,100,0,0
64525,-70.9099371654643,4,1,0,100,0,0
64603,-70.3987800933413,4,1,0,100,0,0
64681,-69.8949396705969,4,1,0,100,0,0
64837,-68.9085892622914,4,1,0,100,0,0
64916,-68.4196344366102,4,1,0,100,0,0
65072,-67.4742016918376,4,1,0,100,0,0
65150,-67.0112161864966,4,1,0,100,0,0
65228,-66.5545410860163,4,1,0,100,0,0
65384,-65.65961298108,4,1,0,100,0,0
65541,-64.7829229918782,4,1,0,100,0,0
65619,-64.3560174037934,4,1,0,100,0,0
65853,-63.108404788534,4,1,0,100,0,0
66009,-62.3031938821413,4,1,0,100,0,0
66087,-61.9082449510342,4,1,0,100,0,0
66166,-61.5133039932168,4,1,0,100,0,0
66556,-59.6351822131757,4,1,0,100,0,0
66712,-58.915657991415,4,1,0,100,0,0
66791,-58.5578660106853,4,1,0,100,0,0
66947,-57.8639522959474,4,1,0,100,0,0
67025,-57.5231262979045,4,1,0,100,0,0
67181,-56.8533791096018,4,1,0,100,0,0
67259,-56.5243201127889,4,1,0,100,0,0
67415,-55.8774986246103,4,1,0,100,0,0
67494,-55.5555555555556,4,1,0,100,0,0
68434,468.75,4,1,0,100,1,0
68434,-55.5555555555556,4,1,0,100,0,0
68610,-55.5555555555556,4,1,0,100,0,0
69254,-55.5555555555556,4,1,0,100,0,0
69528,-55.5555555555556,4,1,0,100,0,0
70192,-55.5555555555556,4,1,0,100,0,0
70485,-55.5555555555556,4,1,0,100,0,0
71129,-55.5555555555556,4,1,0,100,0,0
72125,-55.5555555555556,4,1,0,100,0,0
77806,468.75,4,1,0,100,1,0
77806,-55.5555555555556,4,1,0,100,0,0
78740,-66.6666666666667,4,1,0,100,0,0
78896,-65.2204144068975,4,1,0,100,0,0
78974,-64.5205667904801,4,1,0,100,0,0
79209,-62.5,4,1,0,100,0,0
79443,-60.6099767381752,4,1,0,100,0,0
79681,234.375,4,1,0,100,1,1
79681,-111.111111111111,4,1,0,100,0,1
82962,-111.111111111111,4,1,0,100,0,0
83428,-166.666666666667,4,1,0,100,0,0
83779,-156.875871687587,4,1,0,100,0,0
83896,-153.862989713285,4,1,0,100,0,0
84131,-148.148148148148,4,1,0,100,0,0
84248,-145.458307469481,4,1,0,100,0,0
84365,-142.864400751918,4,1,0,100,0,0
84544,-138.888888888889,4,1,0,100,0,0
84717,-135.589951299484,4,1,0,100,0,0
84834,-133.333333333333,4,1,0,100,0,0
84892,-132.242287434161,4,1,0,100,0,0
84951,-131.150599319062,4,1,0,100,0,0
85068,-129.038179148311,4,1,0,100,0,0
85185,-126.992729079167,4,1,0,100,0,0
85244,-125.985663082437,4,1,0,100,0,0
85303,-124.994443703605,4,1,0,100,0,0
85537,-121.951219512195,4,1,0,100,0,0
85654,-120.481927710843,4,1,0,100,0,0
85716,-119.405520169851,4,1,0,100,0,0
85771,-117.651981088657,4,1,0,100,0,0
85888,-115.949200065974,4,1,0,100,0,0
86006,-114.281069657807,4,1,0,100,0,0
86123,-112.673798934167,4,1,0,100,0,0
86240,-111.111111111111,4,1,0,100,0,0
87529,-125,4,1,0,100,0,0
87881,-135.147601476015,4,1,0,100,0,0
88118,-140.845070422535,4,1,0,100,0,0
88232,-147.051442910916,4,1,0,100,0,0
88584,-161.29920176163,4,1,0,100,0,0
88701,-166.666666666667,4,1,0,100,0,0
88821,-83.3333333333333,4,1,0,100,0,0
88997,-142.857142857143,4,1,0,100,0,0
89053,-125,4,1,0,100,0,0
89404,-131.137221989089,4,1,0,100,0,0
89756,-137.928497866706,4,1,0,100,0,0
89993,-140.845070422535,4,1,0,100,0,0
90107,-145.439031957803,4,1,0,100,0,0
90459,-153.839842468001,4,1,0,100,0,0
90576,-156.851263175506,4,1,0,100,0,0
90635,-158.41500506928,4,1,0,100,0,0
90693,-159.982935153584,4,1,0,100,0,0
90752,-161.610067229788,4,1,0,100,0,0
90810,-163.242207905276,4,1,0,100,0,0
90869,-164.936664320901,4,1,0,100,0,0
90928,-166.666666666667,4,1,0,100,0,0
91162,-160.009104358712,4,1,0,100,0,0
91279,-156.875871687587,4,1,0,100,0,0
91396,-153.862989713285,4,1,0,100,0,0
91513,-150.96365490954,4,1,0,100,0,0
91631,-148.148148148148,4,1,0,100,0,0
91865,-142.864400751918,4,1,0,100,0,0
91982,-140.361385644405,4,1,0,100,0,0
92099,-137.94456708364,4,1,0,100,0,0
92217,-135.589951299484,4,1,0,100,0,0
92334,-133.333333333333,4,1,0,100,0,0
92451,-131.150599319062,4,1,0,100,0,0
92568,-129.038179148311,4,1,0,100,0,0
92685,-126.992729079167,4,1,0,100,0,0
92803,-123.456790123457,4,1,0,100,0,0
92923,-121.951219512195,4,1,0,100,0,0
93037,-121.212121212121,4,1,0,100,0,0
93154,-119.405520169851,4,1,0,100,0,0
93213,-118.514772200447,4,1,0,100,0,0
93271,-117.651981088657,4,1,0,100,0,0
93388,-115.949200065974,4,1,0,100,0,0
93506,-114.281069657807,4,1,0,100,0,0
93623,-112.673798934167,4,1,0,100,0,0
93740,-111.111111111111,4,1,0,100,0,0
94681,-111.111111111111,4,1,0,100,0,1
97493,-111.111111111111,4,1,0,100,0,0
98428,-125,4,1,0,100,0,0
98545,-123.597660370122,4,1,0,100,0,0
98662,-122.226436563626,4,1,0,100,0,0
98779,-120.885304323361,4,1,0,100,0,0
99013,-118.289437459851,4,1,0,100,0,0
99131,-117.022242396732,4,1,0,100,0,0
99248,-115.792310456342,4,1,0,100,0,0
99365,-114.587963374522,4,1,0,100,0,0
99482,-113.408411050501,4,1,0,100,0,0
99541,-112.822757111597,4,1,0,100,0,0
99599,-112.252895584777,4,1,0,100,0,0
99717,-111.111111111111,4,1,0,100,0,0
99775,-110.558366926838,4,1,0,100,0,0
99834,-110.0017067759,4,1,0,100,0,0
99951,-108.914237431348,4,1,0,100,0,0
100010,-108.373970068942,4,1,0,100,0,0
100068,-107.848058902276,4,1,0,100,0,0
100185,-106.802551992709,4,1,0,100,0,0
100244,-106.282981530343,4,1,0,100,0,0
100303,-105.768441782227,4,1,0,100,0,0
100420,-104.762678803641,4,1,0,100,0,0
100537,-103.775863457049,4,1,0,100,0,0
100654,-102.807465305471,4,1,0,100,0,0
100771,-101.85697352825,4,1,0,100,0,0
100888,-100.923896022549,4,1,0,100,0,0
101006,-100,4,1,0,100,0,0
101243,-95.2380952380952,4,1,0,100,0,0
102181,-90.9090909090909,4,1,0,100,0,0
103118,-100,4,1,0,100,0,0
103763,-55.5555555555556,4,1,0,100,0,0
104036,-166.666666666667,4,1,0,100,0,0

[HitObjects]
256,192,1872,5,0,0:0:0:0:
256,192,2575,1,0,0:0:0:0:
256,192,3512,1,0,0:0:0:0:
256,192,3747,1,0,0:0:0:0:
256,192,4450,1,0,0:0:0:0:
256,192,5387,1,0,0:0:0:0:
256,192,5622,1,0,0:0:0:0:
256,192,6090,1,0,0:0:0:0:
256,192,6559,1,0,0:0:0:0:
256,192,6793,1,0,0:0:0:0:
256,192,7028,1,0,0:0:0:0:
256,192,7262,1,0,0:0:0:0:
256,192,7418,1,0,0:0:0:0:
256,192,8434,5,0,0:0:0:0:
256,192,8669,1,0,0:0:0:0:
256,192,8903,1,0,0:0:0:0:
256,192,9137,1,0,0:0:0:0:
256,192,9372,1,12,0:0:0:0:
256,192,9762,1,8,0:0:0:0:
256,192,10075,1,8,0:0:0:0:
256,192,10309,1,0,0:0:0:0:
256,192,10465,1,8,0:0:0:0:
256,192,10778,1,0,0:0:0:0:
256,192,11012,1,8,0:0:0:0:
256,192,11247,1,0,0:0:0:0:
256,192,11637,1,8,0:0:0:0:
256,192,11950,1,8,0:0:0:0:
256,192,12184,1,0,0:0:0:0:
256,192,12340,1,8,0:0:0:0:
256,192,12653,1,0,0:0:0:0:
256,192,12809,1,8,0:0:0:0:
256,192,12887,1,8,0:0:0:0:
256,192,13122,1,8,0:0:0:0:
256,192,13356,1,0,0:0:0:0:
256,192,13512,1,8,0:0:0:0:
256,192,14059,1,0,0:0:0:0:
256,192,14294,1,8,0:0:0:0:
256,192,14450,1,0,0:0:0:0:
256,192,14762,1,8,0:0:0:0:
256,192,14997,1,0,0:0:0:0:
256,192,15934,1,12,0:0:0:0:
256,192,16325,1,12,0:0:0:0:
256,192,16559,1,12,0:0:0:0:
256,192,16872,1,4,0:0:0:0:
256,192,17262,1,8,0:0:0:0:
256,192,17575,1,8,0:0:0:0:
256,192,17809,1,0,0:0:0:0:
256,192,17965,1,8,0:0:0:0:
256,192,18278,1,0,0:0:0:0:
256,192,18512,1,8,0:0:0:0:
256,192,18747,1,0,0:0:0:0:
256,192,19137,1,8,0:0:0:0:
256,192,19450,1,8,0:0:0:0:
256,192,19684,1,0,0:0:0:0:
256,192,19840,1,8,0:0:0:0:
256,192,20153,1,8,0:0:0:0:
256,192,20309,1,0,0:0:0:0:
256,192,20387,1,0,0:0:0:0:
256,192,20622,1,8,0:0:0:0:
256,192,20856,1,0,0:0:0:0:
256,192,21012,1,8,0:0:0:0:
256,192,21325,1,8,0:0:0:0:
256,192,21559,1,0,0:0:0:0:
256,192,21793,1,8,0:0:0:0:
256,192,21950,1,0,0:0:0:0:
256,192,22262,1,8,0:0:0:0:
256,192,22497,1,0,0:0:0:0:
256,192,22653,1,0,0:0:0:0:
256,192,22731,1,0,0:0:0:0:
256,192,22965,1,0,0:0:0:0:
256,192,23434,1,0,0:0:0:0:
256,192,23590,1,8,0:0:0:0:
256,192,23668,1,8,0:0:0:0:
256,192,23903,1,8,0:0:0:0:
256,192,24372,1,12,0:0:0:0:
256,192,24840,1,0,0:0:0:0:
256,192,25309,1,8,0:0:0:0:
256,192,25465,1,0,0:0:0:0:
256,192,25543,1,0,0:0:0:0:
256,192,25778,1,8,0:0:0:0:
256,192,26012,1,0,0:0:0:0:
256,192,26247,1,8,0:0:0:0:
256,192,26637,1,8,0:0:0:0:
256,192,26715,1,8,0:0:0:0:
256,192,26950,1,0,0:0:0:0:
256,192,28122,1,0,0:0:0:0:
256,192,28356,1,8,0:0:0:0:
256,192,28512,1,0,0:0:0:0:
256,192,28747,1,0,0:0:0:0:
256,192,28825,1,0,0:0:0:0:
256,192,29059,1,8,0:0:0:0:
256,192,29293,1,8,0:0:0:0:
256,192,29528,1,0,0:0:0:0:
256,192,29684,1,0,0:0:0:0:
256,192,29762,1,0,0:0:0:0:
256,192,29997,1,8,0:0:0:0:
256,192,30387,1,8,0:0:0:0:
256,192,30465,1,8,0:0:0:0:
256,192,30934,5,4,0:0:0:0:
256,192,31090,1,4,0:0:0:0:
256,192,31325,1,4,0:0:0:0:
256,192,31559,1,4,0:0:0:0:
256,192,31872,1,12,0:0:0:0:
256,192,32262,1,0,0:0:0:0:
256,192,32340,1,0,0:0:0:0:
256,192,32575,1,8,0:0:0:0:
256,192,32965,1,8,0:0:0:0:
256,192,33278,1,0,0:0:0:0:
256,192,33512,1,0,0:0:0:0:
256,192,33747,1,8,0:0:0:0:
256,192,34137,1,8,0:0:0:0:
256,192,34215,1,8,0:0:0:0:
256,192,34450,1,8,0:0:0:0:
256,192,34840,1,8,0:0:0:0:
256,192,35153,1,0,0:0:0:0:
256,192,35309,1,0,0:0:0:0:
256,192,35387,1,0,0:0:0:0:
256,192,35622,1,8,0:0:0:0:
256,192,35856,1,0,0:0:0:0:
256,192,36012,1,8,0:0:0:0:
256,192,36247,1,0,0:0:0:0:
256,192,36325,1,0,0:0:0:0:
256,192,36559,1,8,0:0:0:0:
256,192,36793,1,0,0:0:0:0:
256,192,36950,1,8,0:0:0:0:
256,192,37184,1,8,0:0:0:0:
256,192,37262,1,8,0:0:0:0:
256,192,37497,1,0,0:0:0:0:
256,192,38434,1,0,0:0:0:0:
256,192,38590,1,0,0:0:0:0:
256,192,38825,1,0,0:0:0:0:
256,192,39059,1,0,0:0:0:0:
256,192,39372,1,8,0:0:0:0:
256,192,39528,1,8,0:0:0:0:
256,192,39606,1,8,0:0:0:0:
256,192,39762,1,4,0:0:0:0:
256,192,40075,1,8,0:0:0:0:
256,192,40465,1,8,0:0:0:0:
256,192,40778,1,0,0:0:0:0:
256,192,41012,1,0,0:0:0:0:
256,192,41247,1,8,0:0:0:0:
256,192,41637,1,8,0:0:0:0:
256,192,41715,1,0,0:0:0:0:
256,192,41950,1,8,0:0:0:0:
256,192,42184,1,0,0:0:0:0:
256,192,42340,1,8,0:0:0:0:
256,192,42653,1,8,0:0:0:0:
256,192,42809,1,0,0:0:0:0:
256,192,42887,1,0,0:0:0:0:
256,192,43122,1,8,0:0:0:0:
256,192,43356,1,0,0:0:0:0:
256,192,43512,1,8,0:0:0:0:
256,192,43747,1,0,0:0:0:0:
256,192,43825,1,0,0:0:0:0:
256,192,44059,1,0,0:0:0:0:
256,192,44293,1,8,0:0:0:0:
256,192,44450,1,0,0:0:0:0:
256,192,44684,1,8,0:0:0:0:
256,192,44762,1,8,0:0:0:0:
256,192,44997,1,0,0:0:0:0:
256,192,45153,1,0,0:0:0:0:
256,192,45231,1,0,0:0:0:0:
256,192,45465,1,8,0:0:0:0:
256,192,45934,1,8,0:0:0:0:
256,192,46090,1,8,0:0:0:0:
256,192,46168,1,8,0:0:0:0:
256,192,46403,1,8,0:0:0:0:
256,192,46559,1,0,0:0:0:0:
256,192,46637,1,0,0:0:0:0:
256,192,46872,1,12,0:0:0:0:
256,192,48747,1,0,0:0:0:0:
256,192,49059,1,8,0:0:0:0:
256,192,49215,1,0,0:0:0:0:
256,192,49372,1,0,0:0:0:0:
256,192,49684,1,8,0:0:0:0:
256,192,49840,1,8,0:0:0:0:
256,192,49997,1,8,0:0:0:0:
256,192,50622,1,8,0:0:0:0:
256,192,50778,1,8,0:0:0:0:
256,192,50934,1,0,0:0:0:0:
256,192,51559,1,8,0:0:0:0:
256,192,51715,1,0,0:0:0:0:
256,192,51872,1,0,0:0:0:0:
256,192,52262,1,0,0:0:0:0:
256,192,52497,1,8,0:0:0:0:
256,192,52731,1,0,0:0:0:0:
256,192,52887,1,8,0:0:0:0:
256,192,52965,1,8,0:0:0:0:
256,192,53200,1,8,0:0:0:0:
256,192,53356,1,0,0:0:0:0:
256,192,53512,1,8,0:0:0:0:
256,192,53590,1,8,0:0:0:0:
256,192,53747,1,0,0:0:0:0:
256,192,53825,1,0,0:0:0:0:
256,192,54059,1,8,0:0:0:0:
256,192,54215,1,0,0:0:0:0:
256,192,54293,1,0,0:0:0:0:
256,192,54762,1,0,0:0:0:0:
256,192,54997,1,8,0:0:0:0:
256,192,55231,1,8,0:0:0:0:
256,192,55387,1,0,0:0:0:0:
256,192,55465,1,0,0:0:0:0:
256,192,55700,1,8,0:0:0:0:
256,192,55778,1,8,0:0:0:0:
256,192,55934,1,0,0:0:0:0:
256,192,56168,1,8,0:0:0:0:
256,192,56247,1,0,0:0:0:0:
256,192,56481,1,8,0:0:0:0:
256,192,56637,1,0,0:0:0:0:
256,192,56872,1,8,0:0:0:0:
256,192,56950,1,0,0:0:0:0:
256,192,57184,1,8,0:0:0:0:
256,192,57418,1,0,0:0:0:0:
256,192,57575,1,0,0:0:0:0:
256,192,57653,1,8,0:0:0:0:
256,192,57887,1,0,0:0:0:0:
256,192,58043,1,0,0:0:0:0:
256,192,58122,1,0,0:0:0:0:
256,192,58825,1,8,0:0:0:0:
256,192,59293,1,0,0:0:0:0:
256,192,59684,1,8,0:0:0:0:
256,192,59997,1,0,0:0:0:0:
256,192,60465,1,8,0:0:0:0:
256,192,61168,1,8,0:0:0:0:
256,192,61637,1,8,0:0:0:0:
256,192,62340,1,8,0:0:0:0:
256,192,62809,1,0,0:0:0:0:
256,192,63043,1,8,0:0:0:0:
256,192,63278,1,8,0:0:0:0:
256,192,63434,1,0,0:0:0:0:
256,192,63668,1,8,0:0:0:0:
256,192,63903,1,8,0:0:0:0:
256,192,63981,1,8,0:0:0:0:
256,192,64137,1,0,0:0:0:0:
256,192,64450,1,8,0:0:0:0:
256,192,64684,1,8,0:0:0:0:
256,192,64840,1,0,0:0:0:0:
256,192,65075,1,8,0:0:0:0:
256,192,65309,1,8,0:0:0:0:
256,192,65387,1,8,0:0:0:0:
256,192,65622,1,0,0:0:0:0:
256,192,65856,1,8,0:0:0:0:
256,192,66090,1,8,0:0:0:0:
256,192,66247,1,8,0:0:0:0:
256,192,66481,1,0,0:0:0:0:
256,192,66715,1,0,0:0:0:0:
256,192,66793,1,0,0:0:0:0:
256,192,66950,1,8,0:0:0:0:
256,192,67028,1,8,0:0:0:0:
256,192,67262,1,0,0:0:0:0:
256,192,67497,1,8,0:0:0:0:
256,192,67731,1,0,0:0:0:0:
256,192,67887,1,8,0:0:0:0:
256,192,68122,1,8,0:0:0:0:
256,192,68434,5,4,0:0:0:0:
256,192,69294,1,4,0:0:0:0:
256,192,69606,1,4,0:0:0:0:
256,192,70231,1,4,0:0:0:0:
256,192,71169,1,4,0:0:0:0:
256,192,72184,1,4,0:0:0:0:
256,192,72653,1,4,0:0:0:0:
256,192,73044,1,4,0:0:0:0:
256,192,73590,1,4,0:0:0:0:
256,192,73981,1,4,0:0:0:0:
256,192,74176,12,0,75817,0:0:0:0:
256,192,76090,5,8,0:0:0:0:
256,192,76247,1,8,0:0:0:0:
256,192,76403,1,8,0:0:0:0:
256,192,76559,1,8,0:0:0:0:
256,192,76715,1,8,0:0:0:0:
256,192,77028,1,8,0:0:0:0:
256,192,77184,1,8,0:0:0:0:
256,192,77340,1,8,0:0:0:0:
256,192,77497,1,8,0:0:0:0:
256,192,77653,1,8,0:0:0:0:
256,192,77806,1,0,0:0:0:0:
256,192,78743,1,0,0:0:0:0:
256,192,78977,1,0,0:0:0:0:
256,192,79212,1,0,0:0:0:0:
256,192,79446,1,0,0:0:0:0:
256,192,79681,1,4,0:0:0:0:
256,192,79915,1,8,0:0:0:0:
256,192,80032,1,0,0:0:0:0:
256,192,80149,1,0,0:0:0:0:
256,192,80266,1,8,0:0:0:0:
256,192,80384,1,0,0:0:0:0:
256,192,80618,1,8,0:0:0:0:
256,192,80735,1,0,0:0:0:0:
256,192,80852,1,8,0:0:0:0:
256,192,80911,1,8,0:0:0:0:
256,192,80970,1,8,0:0:0:0:
256,192,81087,1,0,0:0:0:0:
256,192,81204,1,0,0:0:0:0:
256,192,81321,1,8,0:0:0:0:
256,192,81556,1,0,0:0:0:0:
256,192,81614,1,0,0:0:0:0:
256,192,81673,1,0,0:0:0:0:
256,192,81790,1,8,0:0:0:0:
256,192,81907,1,0,0:0:0:0:
256,192,82141,1,8,0:0:0:0:
256,192,82259,1,0,0:0:0:0:
256,192,82317,1,0,0:0:0:0:
256,192,82376,1,0,0:0:0:0:
256,192,82493,1,8,0:0:0:0:
256,192,82610,1,0,0:0:0:0:
256,192,82727,1,0,0:0:0:0:
256,192,82845,1,8,0:0:0:0:
256,192,83431,1,0,0:0:0:0:
256,192,83782,1,0,0:0:0:0:
256,192,83899,1,8,0:0:0:0:
256,192,84368,1,0,0:0:0:0:
256,192,84544,1,0,0:0:0:0:
256,192,84720,1,0,0:0:0:0:
256,192,84837,1,8,0:0:0:0:
256,192,85071,1,8,0:0:0:0:
256,192,85188,1,8,0:0:0:0:
256,192,85306,1,0,0:0:0:0:
256,192,85540,1,8,0:0:0:0:
256,192,85657,1,0,0:0:0:0:
256,192,85716,1,0,0:0:0:0:
256,192,85774,1,0,0:0:0:0:
256,192,85891,1,0,0:0:0:0:
256,192,86009,1,8,0:0:0:0:
256,192,86243,1,0,0:0:0:0:
256,192,86360,1,0,0:0:0:0:
256,192,86477,1,8,0:0:0:0:
256,192,86595,1,0,0:0:0:0:
256,192,86712,1,8,0:0:0:0:
256,192,86770,1,8,0:0:0:0:
256,192,86829,1,8,0:0:0:0:
256,192,86946,1,0,0:0:0:0:
256,192,87063,1,8,0:0:0:0:
256,192,88821,1,12,0:0:0:0:
256,192,90462,1,8,0:0:0:0:
256,192,90696,1,8,0:0:0:0:
256,192,90813,1,8,0:0:0:0:
256,192,90931,1,0,0:0:0:0:
256,192,91282,1,0,0:0:0:0:
256,192,91399,1,8,0:0:0:0:
256,192,91868,1,0,0:0:0:0:
256,192,92044,1,8,0:0:0:0:
256,192,92220,1,8,0:0:0:0:
256,192,92337,1,0,0:0:0:0:
256,192,92571,1,8,0:0:0:0:
256,192,92806,1,0,0:0:0:0:
256,192,92923,1,0,0:0:0:0:
256,192,93040,1,8,0:0:0:0:
256,192,93274,1,8,0:0:0:0:
256,192,93391,1,0,0:0:0:0:
256,192,93509,1,8,0:0:0:0:
256,192,93626,1,8,0:0:0:0:
256,192,93743,1,0,0:0:0:0:
256,192,93802,1,0,0:0:0:0:
256,192,93860,1,0,0:0:0:0:
256,192,94095,1,0,0:0:0:0:
256,192,94153,1,0,0:0:0:0:
256,192,94212,1,0,0:0:0:0:
256,192,94329,1,8,0:0:0:0:
256,192,94446,1,0,0:0:0:0:
256,192,94681,1,8,0:0:0:0:
256,192,94798,1,0,0:0:0:0:
256,192,94915,1,0,0:0:0:0:
256,192,95032,1,8,0:0:0:0:
256,192,95266,1,0,0:0:0:0:
256,192,95325,1,0,0:0:0:0:
256,192,95384,1,0,0:0:0:0:
256,192,95501,1,8,0:0:0:0:
256,192,95618,1,0,0:0:0:0:
256,192,95735,1,0,0:0:0:0:
256,192,95852,1,8,0:0:0:0:
256,192,96087,1,0,0:0:0:0:
256,192,96204,1,8,0:0:0:0:
256,192,96263,1,8,0:0:0:0:
256,192,96321,1,8,0:0:0:0:
256,192,96438,1,0,0:0:0:0:
256,192,96556,1,8,0:0:0:0:
256,192,96790,1,0,0:0:0:0:
256,192,96907,1,8,0:0:0:0:
256,192,97024,1,8,0:0:0:0:
256,192,97141,1,0,0:0:0:0:
256,192,97259,1,8,0:0:0:0:
256,192,98431,1,8,0:0:0:0:
256,192,98548,1,8,0:0:0:0:
256,192,98665,1,8,0:0:0:0:
256,192,98782,1,0,0:0:0:0:
256,192,99016,1,0,0:0:0:0:
256,192,99134,1,0,0:0:0:0:
256,192,99251,1,0,0:0:0:0:
256,192,99368,1,8,0:0:0:0:
256,192,99602,1,0,0:0:0:0:
256,192,99720,1,8,0:0:0:0:
256,192,99837,1,0,0:0:0:0:
256,192,100071,1,8,0:0:0:0:
256,192,100188,1,0,0:0:0:0:
256,192,100306,1,8,0:0:0:0:
256,192,100657,1,8,0:0:0:0:
256,192,100774,1,8,0:0:0:0:
256,192,101243,1,4,0:0:0:0:
256,192,101360,1,4,0:0:0:0:
256,192,101595,1,4,0:0:0:0:
256,192,101829,1,4,0:0:0:0:
256,192,101946,1,4,0:0:0:0:
256,192,102181,1,12,0:0:0:0:
256,192,102298,1,12,0:0:0:0:
256,192,102532,1,12,0:0:0:0:
256,192,102766,1,12,0:0:0:0:
256,192,102884,1,12,0:0:0:0:
256,192,103821,12,0,106868,0:0:0:0:
256,192,107102,5,8,0:0:0:0:
