osu file format v14

[General]
AudioFilename: audio.mp3
AudioLeadIn: 0
PreviewTime: 60902
Countdown: 0
SampleSet: Normal
StackLeniency: 0.7
Mode: 3
LetterboxInBreaks: 0
SpecialStyle: 0
WidescreenStoryboard: 0

[Editor]
DistanceSpacing: 0.8
BeatDivisor: 4
GridSize: 32
TimelineZoom: 1.5

[Metadata]
Title:Citrus
TitleUnicode:Citrus
Artist:kamome sano
ArtistUnicode:kamome sano
Creator:Viandanesh
Version:Advanced Lv.7
Source:jubeat prop
Tags:jubeat plus jubeat series sdvx 3 gravity wars bemani summer diary 2015 leoudel konami
BeatmapID:1031739
BeatmapSetID:483584

[Difficulty]
HPDrainRate:7
CircleSize:4
OverallDifficulty:7
ApproachRate:5
SliderMultiplier:1.4
SliderTickRate:1

[Events]
//Background and Video events
0,0,"BG.jpg",0,0
//Break Periods
//Storyboard Layer 0 (Background)
//Storyboard Layer 1 (Fail)
//Storyboard Layer 2 (Pass)
//Storyboard Layer 3 (Foreground)
//Storyboard Sound Samples

[TimingPoints]
1247,344.827586206897,4,3,0,40,1,0
61936,-100,4,3,0,40,0,1
81247,-100,4,3,0,40,0,0
92626,-100,4,3,0,40,0,1
103315,-100,4,3,0,40,0,0

[HitObjects]
192,192,1247,5,0,0:0:0:0:
448,192,1419,1,0,0:0:0:0:
320,192,1591,1,0,0:0:0:0:
192,192,1764,1,0,0:0:0:0:
64,192,2109,1,0,0:0:0:0:
320,192,2281,1,0,0:0:0:0:
192,192,2453,1,0,0:0:0:0:
448,192,2798,1,0,0:0:0:0:
64,192,2971,1,0,0:0:0:0:
320,192,3143,1,0,0:0:0:0:
64,192,3488,1,0,0:0:0:0:
192,192,3660,1,0,0:0:0:0:
320,192,3833,1,0,0:0:0:0:
64,192,4005,1,0,0:0:0:0:
448,192,4178,1,0,0:0:0:0:
320,192,4350,1,0,0:0:0:0:
192,192,4522,1,0,0:0:0:0:
64,192,4867,1,0,0:0:0:0:
192,192,5040,1,0,0:0:0:0:
320,192,5212,1,0,0:0:0:0:
448,192,5557,1,0,0:0:0:0:
320,192,5729,1,0,0:0:0:0:
192,192,5902,1,0,0:0:0:0:
320,192,6247,128,0,6764:0:0:0:0:
64,192,6764,1,0,0:0:0:0:
448,192,6936,1,0,0:0:0:0:
320,192,7109,1,0,0:0:0:0:
192,192,7281,1,0,0:0:0:0:
320,192,7626,1,0,0:0:0:0:
64,192,7798,1,0,0:0:0:0:
192,192,7971,1,0,0:0:0:0:
320,192,8315,1,0,0:0:0:0:
448,192,8488,1,0,0:0:0:0:
192,192,8660,1,0,0:0:0:0:
320,192,9005,1,0,0:0:0:0:
192,192,9178,1,0,0:0:0:0:
448,192,9350,1,0,0:0:0:0:
64,192,9522,1,0,0:0:0:0:
320,192,9695,1,0,0:0:0:0:
192,192,9867,5,0,0:0:0:0:
64,192,10040,1,0,0:0:0:0:
448,192,10384,1,0,0:0:0:0:
192,192,10557,1,0,0:0:0:0:
64,192,10729,1,0,0:0:0:0:
320,192,10902,128,0,11591:0:0:0:0:
192,192,11591,128,0,12281:0:0:0:0:
448,192,12281,128,0,13315:0:0:0:0:
320,192,12281,1,0,0:0:0:0:
192,192,13315,1,0,0:0:0:0:
320,192,13402,1,0,0:0:0:0:
64,192,13488,1,0,0:0:0:0:
192,192,13574,1,0,0:0:0:0:
320,192,13660,128,0,14178:0:0:0:0:
448,192,13660,1,0,0:0:0:0:
64,192,14178,128,0,14695:0:0:0:0:
192,192,14178,1,0,0:0:0:0:
448,192,14695,128,0,15729:0:0:0:0:
320,192,14695,1,0,0:0:0:0:
192,192,15729,128,0,16419:0:0:0:0:
320,192,16419,128,0,16936:0:0:0:0:
64,192,16419,1,0,0:0:0:0:
192,192,16936,128,0,17453:0:0:0:0:
448,192,16936,1,0,0:0:0:0:
320,192,17453,128,0,18660:0:0:0:0:
64,192,17453,1,0,0:0:0:0:
448,192,18660,1,0,0:0:0:0:
320,192,18747,1,0,0:0:0:0:
192,192,18833,1,0,0:0:0:0:
64,192,18919,1,0,0:0:0:0:
320,192,19005,1,0,0:0:0:0:
192,192,19091,1,0,0:0:0:0:
320,192,19178,128,0,19695:0:0:0:0:
448,192,19178,1,0,0:0:0:0:
448,192,19695,128,0,20212:0:0:0:0:
64,192,19695,1,0,0:0:0:0:
192,192,20212,128,0,21419:0:0:0:0:
320,192,20212,1,0,0:0:0:0:
64,192,21419,1,0,0:0:0:0:
192,192,21505,1,0,0:0:0:0:
320,192,21591,1,0,0:0:0:0:
192,192,21764,1,0,0:0:0:0:
448,192,21936,128,0,22453:0:0:0:0:
320,192,21936,1,0,0:0:0:0:
192,192,22453,128,0,23315:0:0:0:0:
320,192,22453,1,0,0:0:0:0:
448,192,23315,128,0,24178:0:0:0:0:
64,192,23315,1,0,0:0:0:0:
192,192,24005,1,0,0:0:0:0:
320,192,24178,128,0,24695:0:0:0:0:
64,192,24695,1,0,0:0:0:0:
448,192,24695,128,0,25212:0:0:0:0:
320,192,25212,128,0,25729:0:0:0:0:
192,192,25212,1,0,0:0:0:0:
64,192,25384,1,0,0:0:0:0:
192,192,25729,128,0,26591:0:0:0:0:
448,192,25729,1,0,0:0:0:0:
64,192,26591,1,0,0:0:0:0:
192,192,26678,1,0,0:0:0:0:
448,192,26764,1,0,0:0:0:0:
320,192,26850,1,0,0:0:0:0:
192,192,26936,1,0,0:0:0:0:
64,192,27022,1,0,0:0:0:0:
320,192,27109,1,0,0:0:0:0:
192,192,27195,1,0,0:0:0:0:
320,192,27281,1,0,0:0:0:0:
192,192,27367,1,0,0:0:0:0:
64,192,27453,1,0,0:0:0:0:
448,192,27453,128,0,27971:0:0:0:0:
192,192,27971,128,0,28488:0:0:0:0:
320,192,27971,1,0,0:0:0:0:
64,192,28143,1,0,0:0:0:0:
320,192,28488,128,0,28833:0:0:0:0:
448,192,28488,1,0,0:0:0:0:
64,192,28833,128,0,29350:0:0:0:0:
192,192,28833,1,0,0:0:0:0:
448,192,29350,128,0,29867:0:0:0:0:
320,192,29350,1,0,0:0:0:0:
192,192,29867,128,0,30384:0:0:0:0:
64,192,29867,1,0,0:0:0:0:
320,192,30384,128,0,31247:0:0:0:0:
448,192,30384,1,0,0:0:0:0:
192,192,31074,1,0,0:0:0:0:
448,192,31247,1,0,0:0:0:0:
64,192,31247,1,0,0:0:0:0:
64,192,31591,1,0,0:0:0:0:
448,192,31591,1,0,0:0:0:0:
192,192,31764,1,0,0:0:0:0:
320,192,31936,1,0,0:0:0:0:
448,192,31936,1,0,0:0:0:0:
320,192,32109,1,0,0:0:0:0:
320,192,32281,1,0,0:0:0:0:
192,192,32453,1,0,0:0:0:0:
64,192,32626,1,0,0:0:0:0:
448,192,32626,1,0,0:0:0:0:
320,192,32798,1,0,0:0:0:0:
64,192,32971,1,0,0:0:0:0:
320,192,33315,1,0,0:0:0:0:
448,192,33315,1,0,0:0:0:0:
192,192,33833,1,0,0:0:0:0:
64,192,34005,1,0,0:0:0:0:
448,192,34005,1,0,0:0:0:0:
320,192,34350,1,0,0:0:0:0:
192,192,34522,1,0,0:0:0:0:
320,192,34695,1,0,0:0:0:0:
448,192,34695,1,0,0:0:0:0:
320,192,34867,1,0,0:0:0:0:
320,192,35040,1,0,0:0:0:0:
192,192,35212,1,0,0:0:0:0:
448,192,35384,1,0,0:0:0:0:
320,192,35384,1,0,0:0:0:0:
64,192,35557,1,0,0:0:0:0:
320,192,35729,1,0,0:0:0:0:
192,192,36074,1,0,0:0:0:0:
64,192,36074,1,0,0:0:0:0:
448,192,36591,1,0,0:0:0:0:
320,192,36764,1,0,0:0:0:0:
64,192,36764,1,0,0:0:0:0:
192,192,36936,1,0,0:0:0:0:
448,192,37109,1,0,0:0:0:0:
320,192,37453,1,0,0:0:0:0:
192,192,37453,1,0,0:0:0:0:
64,192,37626,1,0,0:0:0:0:
320,192,37971,1,0,0:0:0:0:
64,192,38143,1,0,0:0:0:0:
448,192,38143,1,0,0:0:0:0:
320,192,38488,1,0,0:0:0:0:
192,192,38833,1,0,0:0:0:0:
64,192,38833,1,0,0:0:0:0:
448,192,39005,1,0,0:0:0:0:
320,192,39350,1,0,0:0:0:0:
192,192,39522,1,0,0:0:0:0:
64,192,39522,1,0,0:0:0:0:
448,192,39695,1,0,0:0:0:0:
192,192,39867,128,0,40212:0:0:0:0:
320,192,40212,1,0,0:0:0:0:
320,192,40384,128,0,40902:0:0:0:0:
448,192,40729,1,0,0:0:0:0:
192,192,40902,128,0,41247:0:0:0:0:
448,192,41247,1,0,0:0:0:0:
320,192,41591,1,0,0:0:0:0:
320,192,41764,128,0,42109:0:0:0:0:
64,192,42109,1,0,0:0:0:0:
192,192,42195,1,0,0:0:0:0:
320,192,42281,1,0,0:0:0:0:
448,192,42367,1,0,0:0:0:0:
64,192,42453,1,0,0:0:0:0:
192,192,42540,1,0,0:0:0:0:
448,192,42626,1,0,0:0:0:0:
320,192,42626,1,0,0:0:0:0:
64,192,42798,1,0,0:0:0:0:
320,192,42971,1,0,0:0:0:0:
192,192,42971,1,0,0:0:0:0:
320,192,43143,1,0,0:0:0:0:
320,192,43315,1,0,0:0:0:0:
192,192,43488,1,0,0:0:0:0:
320,192,43660,1,0,0:0:0:0:
448,192,43660,1,0,0:0:0:0:
64,192,43833,1,0,0:0:0:0:
320,192,44005,1,0,0:0:0:0:
64,192,44350,1,0,0:0:0:0:
192,192,44350,1,0,0:0:0:0:
320,192,44867,1,0,0:0:0:0:
64,192,45040,1,0,0:0:0:0:
448,192,45040,1,0,0:0:0:0:
192,192,45384,1,0,0:0:0:0:
64,192,45557,1,0,0:0:0:0:
320,192,45729,1,0,0:0:0:0:
448,192,45729,1,0,0:0:0:0:
320,192,45902,1,0,0:0:0:0:
320,192,46074,1,0,0:0:0:0:
192,192,46247,1,0,0:0:0:0:
320,192,46419,1,0,0:0:0:0:
448,192,46419,1,0,0:0:0:0:
64,192,46591,1,0,0:0:0:0:
320,192,46764,1,0,0:0:0:0:
448,192,46936,1,0,0:0:0:0:
320,192,47109,1,0,0:0:0:0:
64,192,47109,1,0,0:0:0:0:
192,192,47281,1,0,0:0:0:0:
320,192,47453,1,0,0:0:0:0:
192,192,47626,1,0,0:0:0:0:
64,192,47626,1,0,0:0:0:0:
448,192,47798,1,0,0:0:0:0:
320,192,47798,1,0,0:0:0:0:
192,192,47971,1,0,0:0:0:0:
64,192,47971,1,0,0:0:0:0:
320,192,48143,1,0,0:0:0:0:
448,192,48143,1,0,0:0:0:0:
64,192,48488,1,0,0:0:0:0:
192,192,48488,1,0,0:0:0:0:
448,192,48660,1,0,0:0:0:0:
192,192,49005,1,0,0:0:0:0:
64,192,49178,1,0,0:0:0:0:
448,192,49178,1,0,0:0:0:0:
320,192,49350,1,0,0:0:0:0:
320,192,49522,1,0,0:0:0:0:
448,192,49695,1,0,0:0:0:0:
192,192,49867,1,0,0:0:0:0:
320,192,50040,1,0,0:0:0:0:
64,192,50212,1,0,0:0:0:0:
448,192,50384,1,0,0:0:0:0:
192,192,50557,1,0,0:0:0:0:
320,192,50729,128,0,52971:0:0:0:0:
448,192,50729,1,0,0:0:0:0:
64,192,50902,1,0,0:0:0:0:
448,192,52971,128,0,53143:0:0:0:0:
192,192,53143,128,0,53315:0:0:0:0:
320,192,53315,128,0,53488:0:0:0:0:
64,192,53488,128,0,54695:0:0:0:0:
320,192,54695,128,0,54867:0:0:0:0:
448,192,54867,128,0,55557:0:0:0:0:
192,192,55557,1,0,0:0:0:0:
320,192,55643,1,0,0:0:0:0:
192,192,55729,1,0,0:0:0:0:
64,192,55729,1,0,0:0:0:0:
320,192,55902,1,0,0:0:0:0:
192,192,56074,1,0,0:0:0:0:
64,192,56247,1,0,0:0:0:0:
192,192,56419,1,0,0:0:0:0:
448,192,56419,128,0,56764:0:0:0:0:
320,192,56764,128,0,56936:0:0:0:0:
64,192,56936,128,0,57453:0:0:0:0:
192,192,56936,1,0,0:0:0:0:
320,192,57281,1,0,0:0:0:0:
320,192,57453,128,0,58315:0:0:0:0:
448,192,57453,1,0,0:0:0:0:
192,192,58315,1,0,0:0:0:0:
64,192,58402,1,0,0:0:0:0:
448,192,58488,1,0,0:0:0:0:
320,192,58574,1,0,0:0:0:0:
192,192,58660,1,0,0:0:0:0:
64,192,58747,1,0,0:0:0:0:
320,192,58833,128,0,59005:0:0:0:0:
448,192,59005,128,0,59178:0:0:0:0:
192,192,59178,1,0,0:0:0:0:
64,192,59178,128,0,59522:0:0:0:0:
192,192,59522,128,0,59695:0:0:0:0:
448,192,59695,128,0,60212:0:0:0:0:
320,192,59695,1,0,0:0:0:0:
192,192,60040,1,0,0:0:0:0:
320,192,60212,128,0,60902:0:0:0:0:
64,192,60212,1,0,0:0:0:0:
192,192,60729,1,0,0:0:0:0:
64,192,60902,1,0,0:0:0:0:
448,192,61074,1,0,0:0:0:0:
320,192,61247,1,0,0:0:0:0:
192,192,61419,1,0,0:0:0:0:
64,192,61591,1,0,0:0:0:0:
448,192,61591,1,0,0:0:0:0:
192,192,61936,1,0,0:0:0:0:
64,192,61936,1,0,0:0:0:0:
320,192,62281,1,0,0:0:0:0:
448,192,62281,1,0,0:0:0:0:
192,192,62453,1,0,0:0:0:0:
64,192,62626,1,0,0:0:0:0:
320,192,62798,1,0,0:0:0:0:
64,192,62971,1,0,0:0:0:0:
448,192,62971,1,0,0:0:0:0:
320,192,63315,1,0,0:0:0:0:
192,192,63660,1,0,0:0:0:0:
64,192,63660,1,0,0:0:0:0:
448,192,63833,1,0,0:0:0:0:
192,192,64005,1,0,0:0:0:0:
320,192,64178,1,0,0:0:0:0:
64,192,64350,1,0,0:0:0:0:
192,192,64350,1,0,0:0:0:0:
448,192,64695,1,0,0:0:0:0:
192,192,64867,1,0,0:0:0:0:
64,192,65040,1,0,0:0:0:0:
448,192,65040,1,0,0:0:0:0:
320,192,65212,1,0,0:0:0:0:
192,192,65557,1,0,0:0:0:0:
320,192,65729,1,0,0:0:0:0:
448,192,65729,1,0,0:0:0:0:
64,192,65902,1,0,0:0:0:0:
320,192,66074,1,0,0:0:0:0:
192,192,66419,1,0,0:0:0:0:
64,192,66419,1,0,0:0:0:0:
448,192,66591,1,0,0:0:0:0:
64,192,66936,1,0,0:0:0:0:
320,192,66936,1,0,0:0:0:0:
192,192,67109,1,0,0:0:0:0:
320,192,67281,1,0,0:0:0:0:
448,192,67281,1,0,0:0:0:0:
64,192,67453,1,0,0:0:0:0:
192,192,67626,1,0,0:0:0:0:
320,192,67798,1,0,0:0:0:0:
448,192,67798,1,0,0:0:0:0:
192,192,68315,1,0,0:0:0:0:
64,192,68488,1,0,0:0:0:0:
448,192,68488,1,0,0:0:0:0:
320,192,68660,1,0,0:0:0:0:
192,192,68833,1,0,0:0:0:0:
320,192,69178,1,0,0:0:0:0:
448,192,69178,1,0,0:0:0:0:
192,192,69695,1,0,0:0:0:0:
64,192,69867,1,0,0:0:0:0:
448,192,69867,1,0,0:0:0:0:
320,192,70040,1,0,0:0:0:0:
64,192,70212,1,0,0:0:0:0:
448,192,70384,1,0,0:0:0:0:
192,192,70557,1,0,0:0:0:0:
64,192,70557,1,0,0:0:0:0:
320,192,70729,1,0,0:0:0:0:
192,192,71074,1,0,0:0:0:0:
64,192,71074,1,0,0:0:0:0:
320,192,71247,1,0,0:0:0:0:
448,192,71419,1,0,0:0:0:0:
192,192,71764,1,0,0:0:0:0:
320,192,71936,1,0,0:0:0:0:
448,192,71936,1,0,0:0:0:0:
192,192,72109,1,0,0:0:0:0:
64,192,72281,1,0,0:0:0:0:
192,192,72453,1,0,0:0:0:0:
448,192,72453,1,0,0:0:0:0:
320,192,72626,1,0,0:0:0:0:
192,192,72798,1,0,0:0:0:0:
448,192,72971,1,0,0:0:0:0:
320,192,73315,1,0,0:0:0:0:
64,192,73315,1,0,0:0:0:0:
448,192,73488,1,0,0:0:0:0:
192,192,73660,1,0,0:0:0:0:
320,192,73833,1,0,0:0:0:0:
64,192,74005,1,0,0:0:0:0:
192,192,74005,1,0,0:0:0:0:
448,192,74178,1,0,0:0:0:0:
192,192,74350,1,0,0:0:0:0:
320,192,74695,1,0,0:0:0:0:
448,192,74695,1,0,0:0:0:0:
64,192,74867,1,0,0:0:0:0:
320,192,75040,1,0,0:0:0:0:
192,192,75212,1,0,0:0:0:0:
320,192,75384,1,0,0:0:0:0:
448,192,75384,1,0,0:0:0:0:
192,192,75729,1,0,0:0:0:0:
64,192,76074,1,0,0:0:0:0:
448,192,76074,1,0,0:0:0:0:
192,192,76247,1,0,0:0:0:0:
448,192,76591,128,0,76936:0:0:0:0:
320,192,76591,1,0,0:0:0:0:
192,192,76936,128,0,77281:0:0:0:0:
64,192,76936,1,0,0:0:0:0:
320,192,77281,1,0,0:0:0:0:
448,192,77453,1,0,0:0:0:0:
64,192,77453,1,0,0:0:0:0:
192,192,77626,1,0,0:0:0:0:
64,192,77798,1,0,0:0:0:0:
448,192,77971,1,0,0:0:0:0:
320,192,77971,1,0,0:0:0:0:
64,192,78143,1,0,0:0:0:0:
320,192,78315,1,0,0:0:0:0:
192,192,78488,1,0,0:0:0:0:
64,192,78488,1,0,0:0:0:0:
448,192,78660,1,0,0:0:0:0:
320,192,78833,1,0,0:0:0:0:
64,192,79005,1,0,0:0:0:0:
448,192,79005,1,0,0:0:0:0:
192,192,79178,1,0,0:0:0:0:
448,192,79350,1,0,0:0:0:0:
64,192,79350,1,0,0:0:0:0:
320,192,79522,1,0,0:0:0:0:
192,192,79695,1,0,0:0:0:0:
448,192,80040,1,0,0:0:0:0:
320,192,80040,1,0,0:0:0:0:
320,192,80212,128,0,80902:0:0:0:0:
448,192,80212,1,0,0:0:0:0:
64,192,80902,1,0,0:0:0:0:
448,192,81247,128,0,84005:0:0:0:0:
192,192,84005,128,0,85384:0:0:0:0:
320,192,85384,128,0,86764:0:0:0:0:
64,192,86764,128,0,88143:0:0:0:0:
448,192,88143,128,0,89178:0:0:0:0:
192,192,89522,128,0,90040:0:0:0:0:
320,192,90040,1,0,0:0:0:0:
448,192,90212,1,0,0:0:0:0:
64,192,90442,1,0,0:0:0:0:
320,192,90686,128,0,91419:0:0:0:0:
192,192,91419,1,0,0:0:0:0:
448,192,91591,1,0,0:0:0:0:
192,192,91764,1,0,0:0:0:0:
64,192,91936,1,0,0:0:0:0:
448,192,92109,128,0,92626:0:0:0:0:
192,192,92626,1,0,0:0:0:0:
320,192,92798,1,0,0:0:0:0:
64,192,92971,1,0,0:0:0:0:
448,192,93143,1,0,0:0:0:0:
320,192,93315,1,0,0:0:0:0:
64,192,93315,1,0,0:0:0:0:
192,192,93488,1,0,0:0:0:0:
448,192,93660,1,0,0:0:0:0:
320,192,94005,1,0,0:0:0:0:
64,192,94005,1,0,0:0:0:0:
192,192,94178,1,0,0:0:0:0:
320,192,94350,1,0,0:0:0:0:
448,192,94522,1,0,0:0:0:0:
192,192,94695,1,0,0:0:0:0:
64,192,94695,1,0,0:0:0:0:
320,192,94867,1,0,0:0:0:0:
448,192,95212,1,0,0:0:0:0:
320,192,95384,1,0,0:0:0:0:
192,192,95384,1,0,0:0:0:0:
64,192,95557,1,0,0:0:0:0:
320,192,95902,128,0,96247:0:0:0:0:
448,192,95902,1,0,0:0:0:0:
448,192,96247,128,0,96591:0:0:0:0:
64,192,96247,1,0,0:0:0:0:
192,192,96591,1,0,0:0:0:0:
320,192,96764,1,0,0:0:0:0:
64,192,96764,1,0,0:0:0:0:
192,192,96936,1,0,0:0:0:0:
448,192,97109,1,0,0:0:0:0:
320,192,97281,1,0,0:0:0:0:
192,192,97281,1,0,0:0:0:0:
64,192,97453,1,0,0:0:0:0:
192,192,97626,1,0,0:0:0:0:
448,192,97798,1,0,0:0:0:0:
320,192,97971,1,0,0:0:0:0:
192,192,98143,1,0,0:0:0:0:
64,192,98143,1,0,0:0:0:0:
448,192,98315,1,0,0:0:0:0:
320,192,98660,1,0,0:0:0:0:
192,192,98833,1,0,0:0:0:0:
64,192,98833,1,0,0:0:0:0:
448,192,99005,1,0,0:0:0:0:
64,192,99178,1,0,0:0:0:0:
320,192,99350,1,0,0:0:0:0:
192,192,99522,1,0,0:0:0:0:
64,192,99522,1,0,0:0:0:0:
448,192,99695,1,0,0:0:0:0:
192,192,100040,1,0,0:0:0:0:
320,192,100212,1,0,0:0:0:0:
64,192,100384,1,0,0:0:0:0:
448,192,100557,1,0,0:0:0:0:
192,192,100557,1,0,0:0:0:0:
320,192,100729,1,0,0:0:0:0:
192,192,100902,1,0,0:0:0:0:
320,192,101074,1,0,0:0:0:0:
448,192,101074,1,0,0:0:0:0:
64,192,101247,1,0,0:0:0:0:
192,192,101419,1,0,0:0:0:0:
448,192,101419,1,0,0:0:0:0:
320,192,101591,1,0,0:0:0:0:
448,192,101764,1,0,0:0:0:0:
192,192,102109,1,0,0:0:0:0:
64,192,102109,1,0,0:0:0:0:
192,192,102281,128,0,102971:0:0:0:0:
64,192,102281,1,0,0:0:0:0:
320,192,102971,128,0,103315:0:0:0:0:
448,192,103315,128,0,105384:0:0:0:0:
64,192,103315,1,0,0:0:0:0:
192,192,103660,1,0,0:0:0:0:
320,192,104178,1,0,0:0:0:0:
64,192,104350,1,0,0:0:0:0:
192,192,104695,1,0,0:0:0:0:
320,192,105040,1,0,0:0:0:0:
192,192,105557,1,0,0:0:0:0:
320,192,105729,1,0,0:0:0:0:
448,192,105729,1,0,0:0:0:0:
64,192,106074,1,0,0:0:0:0:
192,192,106419,1,0,0:0:0:0:
448,192,106419,1,0,0:0:0:0:
320,192,106936,1,0,0:0:0:0:
64,192,107109,1,0,0:0:0:0:
448,192,107109,1,0,0:0:0:0:
192,192,107453,1,0,0:0:0:0:
320,192,107798,1,0,0:0:0:0:
448,192,107798,1,0,0:0:0:0:
64,192,107971,1,0,0:0:0:0:
192,192,108315,1,0,0:0:0:0:
320,192,108315,1,0,0:0:0:0:
448,192,108488,1,0,0:0:0:0:
320,192,108660,1,0,0:0:0:0:
64,192,108833,1,0,0:0:0:0:
192,192,108833,1,0,0:0:0:0:
320,192,109178,1,0,0:0:0:0:
448,192,109178,1,0,0:0:0:0:
192,192,109522,1,0,0:0:0:0:
64,192,109867,1,0,0:0:0:0:
448,192,109867,1,0,0:0:0:0:
320,192,110212,1,0,0:0:0:0:
192,192,110557,1,0,0:0:0:0:
64,192,110557,1,0,0:0:0:0:
448,192,110902,1,0,0:0:0:0:
320,192,111247,1,0,0:0:0:0:
64,192,111247,1,0,0:0:0:0:
192,192,111419,1,0,0:0:0:0:
320,192,111505,1,0,0:0:0:0:
448,192,111591,1,0,0:0:0:0:
64,192,111591,1,0,0:0:0:0:
320,192,111764,1,0,0:0:0:0:
192,192,111850,1,0,0:0:0:0:
64,192,111936,1,0,0:0:0:0:
448,192,111936,1,0,0:0:0:0:
192,192,112109,1,0,0:0:0:0:
320,192,112281,1,0,0:0:0:0:
448,192,112367,1,0,0:0:0:0:
192,192,112453,1,0,0:0:0:0:
64,192,112453,1,0,0:0:0:0:
320,192,112626,1,0,0:0:0:0:
448,192,112798,1,0,0:0:0:0:
192,192,112884,1,0,0:0:0:0:
64,192,112971,1,0,0:0:0:0:
320,192,112971,1,0,0:0:0:0:
320,192,113143,1,0,0:0:0:0:
192,192,113315,1,0,0:0:0:0:
448,192,113315,1,0,0:0:0:0:
64,192,113402,1,0,0:0:0:0:
320,192,113488,1,0,0:0:0:0:
192,192,113660,1,0,0:0:0:0:
448,192,113833,1,0,0:0:0:0:
320,192,113919,1,0,0:0:0:0:
192,192,114005,128,0,114178:0:0:0:0:
448,192,114178,128,0,118143:0:0:0:0:
320,192,114178,1,0,0:0:0:0:
64,192,114178,1,0,0:0:0:0:
