osu file format v14

[General]
AudioFilename: audio.mp3
AudioLeadIn: 0
PreviewTime: 201977
Countdown: 0
SampleSet: None
StackLeniency: 0.4
Mode: 0
LetterboxInBreaks: 0
WidescreenStoryboard: 0

[Editor]
Bookmarks: 245,11154,22063,35358,46608,91608,113426,114790,135245,136608,157063,158426,180245,202063,223881,245699,289335,311154
DistanceSpacing: 1
BeatDivisor: 4
GridSize: 8
TimelineZoom: 1

[Metadata]
Title:A Day in the S.I.O.U.
TitleUnicode:A Day in the S.I.O.U.
Artist:kamome sano
ArtistUnicode:kamome sano
Creator:Shogud
Version:N A N I ! ? ! ?
Source:
Tags:
BeatmapID:1406815
BeatmapSetID:664736

[Difficulty]
HPDrainRate:5
CircleSize:4
OverallDifficulty:9
ApproachRate:9.5
SliderMultiplier:2
SliderTickRate:1

[Events]
//Background and Video events
//Break Periods
2,44080,45926
//Storyboard Layer 0 (Background)
//Storyboard Layer 1 (Fail)
//Storyboard Layer 2 (Pass)
//Storyboard Layer 3 (Foreground)
//Storyboard Sound Samples

[TimingPoints]
245,340.909090909091,4,1,0,100,1,0
245,-133.333333333333,4,1,0,100,0,0
21722,-100,4,1,0,100,0,0
30245,-66.6666666666667,4,1,0,100,0,0
30585,-50,4,1,0,100,0,0
30926,-33.3333333333334,4,1,0,100,0,0
31266,-25,4,1,0,100,0,0
31608,-100,4,1,0,100,0,0
32631,-66.6666666666667,4,1,0,100,0,0
32972,-100,4,1,0,100,0,0
34323,-100,4,1,0,100,0,0
35696,-80,4,1,0,100,0,0
46608,-200,4,1,0,100,0,0
68426,-133.333333333333,4,1,0,100,0,0
90926,-25,4,1,0,100,0,1
91097,-25,4,1,0,100,0,0
91608,-50,4,1,0,100,0,1
93483,-40,4,1,0,100,0,1
93824,-50,4,1,0,100,0,1
95699,-40,4,1,0,100,0,1
96210,-50,4,1,0,100,0,1
98938,-40,4,1,0,100,0,1
99279,-50,4,1,0,100,0,1
101665,-57.1428571428571,4,1,0,100,0,1
102006,-50,4,1,0,100,0,1
104392,-40,4,1,0,100,0,1
104733,-50,4,1,0,100,0,1
106608,-40,4,1,0,100,0,1
106949,-50,4,1,0,100,0,1
109847,-40,4,1,0,100,0,1
110188,-50,4,1,0,100,0,1
112574,-57.1428571428571,4,1,0,100,0,1
112915,-50,4,1,0,100,0,1
113426,-100,4,1,0,100,0,0
114790,-50,4,1,0,100,0,1
115301,-40,4,1,0,100,0,1
117517,-40,4,1,0,100,0,1
126210,-40,4,1,0,100,0,1
128426,-40,4,1,0,100,0,1
138483,-40,4,1,0,100,0,1
140699,-40,4,1,0,100,0,1
143938,-40,4,1,0,100,0,1
149392,-40,4,1,0,100,0,1
151608,-40,4,1,0,100,0,1
154847,-40,4,1,0,100,0,1

[HitObjects]
176,152,245,6,0,P|184:120|192:144,1,75.0000028610231
238,210,585,1,0,0:0:0:0:
238,210,756,2,0,L|288:201,1,37.5000014305115
323,303,926,2,0,L|196:280,1,112.500004291535
344,232,1438,1,0,0:0:0:0:
368,224,1779,5,0,0:0:0:0:
392,216,2120,1,0,0:0:0:0:
392,216,2290,2,0,B|408:200|408:184|408:184|376:168|336:160,1,112.500004291535
448,96,2801,1,0,0:0:0:0:
424,88,3142,5,0,0:0:0:0:
400,80,3483,2,0,L|336:91,1,37.5000014305115
304,152,3654,2,0,L|170:128,1,112.500004291535
312,232,4165,1,0,0:0:0:0:
288,240,4506,5,0,0:0:0:0:
256,248,4847,2,0,L|208:239,1,37.5000014305115
136,328,5017,2,0,B|132:296|132:296|139:280|139:280|136:248,1,75.0000028610231
128,248,5273,2,0,B|120:202|120:202|136:128,1,112.500004291535
40,208,5870,5,0,0:0:0:0:
48,184,6210,2,0,L|54:144,1,37.5000014305115
114,26,6381,2,0,L|137:159,1,112.500004291535
200,40,6892,1,0,0:0:0:0:
224,48,7233,5,0,0:0:0:0:
248,56,7574,1,0,0:0:0:0:
248,56,7745,2,0,B|312:83|312:83|295:98|272:104,1,112.500004291535
392,96,8256,1,0,0:0:0:0:
384,120,8597,5,0,0:0:0:0:
376,144,8938,2,0,L|382:183,1,37.5000014305115
288,304,9108,2,0,L|308:185,1,112.500004291535
368,304,9620,1,0,0:0:0:0:
368,304,9790,6,0,B|400:320|408:336|408:336|429:308|432:280,1,112.500004291535
452,212,10301,1,0,0:0:0:0:
452,212,10472,2,0,P|464:168|448:104,1,112.500004291535
448,80,10813,2,0,P|427:73|392:80,3,37.5000014305115
392,56,11154,6,0,P|352:56|312:80,1,75.0000028610231
272,8,11495,2,0,P|246:38|238:84,1,75.0000028610231
158,69,11835,2,0,P|164:108|195:143,1,75.0000028610231
131,195,12176,2,0,P|165:215|212:214,1,75.0000028610231
296,264,12517,6,0,L|369:277,1,75.0000028610231
274,176,12858,2,0,L|347:189,1,75.0000028610231
252,88,13199,2,0,L|325:101,1,75.0000028610231
230,0,13540,2,0,L|303:13,1,75.0000028610231
384,40,13881,6,0,P|405:70|411:107,1,75.0000028610231
472,160,14222,2,0,P|462:195|438:224,1,75.0000028610231
436,304,14563,2,0,P|402:319|365:319,1,75.0000028610231
302,368,14904,2,0,P|268:352|244:323,1,75.0000028610231
288,216,15245,6,0,B|296:176|296:176|288:136,1,75.0000028610231
200,240,15585,2,0,B|208:200|208:200|201:160,1,75.0000028610231
112,264,15926,2,0,B|120:224|120:224|113:184,1,75.0000028610231
24,288,16267,2,0,B|32:248|32:248|25:208,1,75.0000028610231
160,120,16608,6,0,P|125:107|87:110,1,75.0000028610231
272,128,16949,2,0,P|259:93|232:66,1,75.0000028610231
337,218,17290,2,0,P|355:185|358:148,1,75.0000028610231
309,325,17631,2,0,P|345:318|376:297,1,75.0000028610231
200,264,17972,6,0,L|97:282,1,75.0000028610231
272,176,18313,2,0,L|169:194,1,75.0000028610231
344,88,18654,2,0,L|241:106,1,75.0000028610231
416,0,18995,2,0,L|313:18,1,75.0000028610231
270,101,19335,6,0,L|191:114,1,75.0000028610231
120,136,19676,1,0,0:0:0:0:
80,216,19847,1,0,0:0:0:0:
129,290,20017,2,0,L|118:343,1,37.5000014305115
216,272,20188,2,0,L|205:325,1,37.5000014305115
310,217,20358,2,0,L|303:254,1,37.5000014305115
397,199,20528,2,0,L|390:236,1,37.5000014305115
440,112,20699,6,0,B|400:104|400:104|360:112,1,75.0000028610231
352,32,21040,2,0,B|313:45|313:45|282:72,1,75.0000028610231
235,6,21381,2,0,B|208:36|208:36|195:75,1,75.0000028610231
152,144,21722,2,0,P|152:184|168:152,1,100
288,136,21977,1,0,0:0:0:0:
296,144,22063,6,0,B|304:184|304:184|293:226|296:256,1,100
456,136,22404,2,0,P|429:92|382:74,1,100
376,152,22659,1,0,0:0:0:0:
384,160,22745,2,0,L|364:270,1,100
224,336,23085,2,0,P|167:321|140:288,1,100
232,160,23426,6,0,B|240:200|240:200|212:270,1,100
154,191,23767,2,0,B|146:151|146:151|168:96,1,100
312,144,24108,2,0,L|331:254,1,100
400,160,24449,2,0,L|417:61,1,100
312,64,24790,6,0,B|262:74|262:74|228:112,1,100
229,191,25131,2,0,B|278:180|278:180|312:143,1,100
176,48,25387,1,0,0:0:0:0:
168,56,25472,2,0,P|152:104|168:152,1,100
96,288,25813,2,0,P|112:240|96:192,1,100
32,240,26154,6,0,B|13:271|13:271|2:334,1,100
199,285,26495,2,0,B|217:253|217:253|228:190,1,100
128,56,26750,1,0,0:0:0:0:
136,64,26835,2,0,P|192:78|219:112,1,100
228,190,27176,2,0,P|171:175|144:142,1,100
400,88,27517,6,0,L|379:206,1,100
288,264,27858,2,0,L|308:145,1,100
320,72,28114,1,0,0:0:0:0:
312,80,28199,2,0,B|280:72|280:72|208:80,1,100
122,159,28540,2,0,B|154:167|154:167|221:160,1,100
376,224,28881,6,0,P|392:280|376:320,1,100
312,176,29222,2,0,P|297:128|313:82,1,100
311,270,29563,2,0,B|283:266|283:266|220:218,1,100
377,132,29904,2,0,B|404:135|404:135|467:184,1,100
287,175,30245,6,0,B|220:139|220:139|217:215,1,150.000005722046
287,175,30585,6,0,B|207:114|207:114|217:215,1,200
287,175,30926,6,0,B|282:103|185:79|185:79|158:175|217:215,1,300.000011444092
287,175,31267,6,0,B|245:134|274:89|274:89|218:103|177:65|177:65|190:119|150:161|150:161|203:158|217:215,1,400
144,240,31608,5,0,0:0:0:0:
144,240,31949,5,0,0:0:0:0:
144,240,32290,5,0,0:0:0:0:
144,240,32631,6,0,P|144:296|152:240,1,150.000005722046
256,256,32972,6,0,L|319:267,3,50
320,184,33313,2,0,L|383:172,3,50
384,256,33654,2,0,L|447:267,3,50
448,184,33995,2,0,L|511:172,3,50
464,48,34335,6,0,P|439:48|408:38,3,50
344,128,34676,2,0,P|319:127|288:137,3,50
224,48,35017,2,0,P|199:48|168:38,3,50
104,128,35358,2,0,P|79:127|48:137,3,50
128,272,35699,6,0,B|124:304|124:304|106:332,3,62.5
272,192,36040,2,0,B|275:224|275:224|293:252,3,62.5
128,112,36381,2,0,B|124:144|124:144|106:172,3,62.5
272,32,36722,2,0,B|275:64|275:64|293:92,3,62.5
400,96,37063,6,0,B|415:93|432:98|432:98|447:87|463:84,3,62.5
312,184,37404,2,0,B|296:181|279:186|279:186|264:175|248:172,3,62.5
400,272,37745,2,0,B|415:269|432:274|432:274|447:263|463:260,3,62.5
312,360,38085,2,0,B|296:357|279:362|279:362|264:351|248:348,3,62.5
160,320,38426,6,0,P|152:288|160:256,1,62.5
80,232,38597,2,0,P|94:202|121:182,1,62.5
75,113,38767,2,0,P|105:99|138:101,1,62.5
147,18,38938,2,0,P|178:27|202:50,1,62.5
216,128,39108,6,0,L|279:139,1,62.5
392,200,39279,2,0,L|328:211,1,62.5
216,272,39449,2,0,L|279:283,1,62.5
392,344,39620,2,0,L|328:355,1,62.5
192,352,39790,6,0,B|166:332|166:332|136:320,1,62.5
277,282,39960,2,0,B|246:272|246:272|213:270,1,62.5
332,186,40131,2,0,B|299:187|299:187|268:197,1,62.5
350,76,40301,2,0,B|320:88|320:88|294:107,1,62.5
208,64,40472,6,0,P|200:104|208:144,1,62.5
112,152,40642,2,0,P|105:192|84:227,1,62.5
208,240,40813,2,0,P|227:275|259:301,1,62.5
112,328,40983,2,0,P|77:349|36:355,1,62.5
56,240,41154,5,0,0:0:0:0:
68,219,41239,1,0,0:0:0:0:
82,201,41324,1,0,0:0:0:0:
99,185,41409,1,0,0:0:0:0:
118,171,41494,5,0,0:0:0:0:
139,160,41580,1,0,0:0:0:0:
160,151,41665,1,0,0:0:0:0:
183,146,41750,1,0,0:0:0:0:
208,144,41835,5,0,0:0:0:0:
238,150,41920,1,0,0:0:0:0:
269,151,42005,1,0,0:0:0:0:
300,148,42090,1,0,0:0:0:0:
331,140,42175,5,0,0:0:0:0:
359,128,42261,1,0,0:0:0:0:
386,111,42346,1,0,0:0:0:0:
409,90,42431,1,0,0:0:0:0:
429,67,42517,5,0,0:0:0:0:
399,42,42602,1,0,0:0:0:0:
363,29,42687,1,0,0:0:0:0:
324,31,42772,1,0,0:0:0:0:
288,46,42857,5,0,0:0:0:0:
260,72,42943,1,0,0:0:0:0:
243,107,43028,1,0,0:0:0:0:
240,146,43113,1,0,0:0:0:0:
251,183,43199,5,0,0:0:0:0:
259,244,43284,1,0,0:0:0:0:
229,298,43369,1,0,0:0:0:0:
174,324,43454,1,0,0:0:0:0:
114,312,43539,5,0,0:0:0:0:
72,267,43625,1,0,0:0:0:0:
65,206,43710,1,0,0:0:0:0:
96,153,43795,1,0,0:0:0:0:
153,128,43880,5,0,0:0:0:0:
255,123,46608,6,0,P|367:107|421:184,1,200
322,196,47460,2,0,P|305:214|273:224,2,50
255,123,47972,6,0,B|239:67|239:67|192:80|168:122,1,150
87,142,48654,2,0,P|161:205|206:196,1,150
168,120,49335,6,0,B|172:85|144:56|144:56|96:63|56:47|56:47|16:71|0:120,1,250
16,208,50358,2,0,P|24:232|43:256,1,50
24,336,50699,6,0,B|96:344|96:344|176:336,2,150
96,256,51892,1,0,0:0:0:0:
136,251,51977,1,0,0:0:0:0:
177,247,52063,5,0,0:0:0:0:
177,247,52404,2,0,B|216:248|247:235|247:235|280:248|328:248,1,150
336,168,53085,2,0,P|304:168|272:156,1,50
328,88,53426,6,0,P|344:60|369:38,1,50
401,121,53767,1,0,0:0:0:0:
401,121,53938,2,0,P|417:148|422:181,1,50
440,240,54279,1,0,0:0:0:0:
400,312,54449,1,0,0:0:0:0:
329,354,54620,1,0,0:0:0:0:
328,271,54790,6,0,B|344:168|312:184|328:72,1,200
248,56,55642,2,0,L|184:44,2,50
240,136,56154,6,0,P|230:167|208:191,1,50
168,248,56495,2,0,P|145:224|135:192,1,50
40,152,56835,2,0,P|72:143|104:151,1,50
168,248,57176,2,0,L|158:313,1,50
87,262,57517,6,0,P|108:190|231:194,1,200
272,296,58370,1,0,0:0:0:0:
360,312,58540,1,0,0:0:0:0:
417,243,58710,1,0,0:0:0:0:
431,154,58881,6,0,L|330:171,1,100
264,224,59392,2,0,P|248:176|264:120,1,100
328,88,59904,2,0,L|383:78,1,50
440,24,60245,6,0,B|402:-4|402:-4|296:16,1,150
248,80,60926,2,0,L|137:99,1,100
56,256,61608,6,0,B|86:242|86:242|120:247|120:247|147:223|147:223|194:226|210:212,1,150
232,296,62290,2,0,L|295:284,1,50
376,280,62631,2,0,L|334:230,1,50
272,209,62972,6,0,L|289:162,1,50
272,80,63313,2,0,P|249:88|223:108,1,50
144,144,63654,2,0,P|148:120|144:88,1,50
152,1,63995,2,0,P|170:16|200:29,1,50
272,80,64335,6,0,L|327:89,1,50
400,152,64676,2,0,L|344:161,1,50
304,232,65017,2,0,L|359:241,1,50
304,312,65358,2,0,L|248:321,1,50
168,304,65699,5,0,0:0:0:0:
152,217,65870,1,0,0:0:0:0:
85,273,66040,1,0,0:0:0:0:
70,188,66210,2,0,P|113:139|240:192,1,200
280,240,67063,5,0,0:0:0:0:
424,264,67233,1,0,0:0:0:0:
336,184,67404,1,0,0:0:0:0:
480,168,67574,1,0,0:0:0:0:
480,168,67915,5,0,0:0:0:0:
296,112,68085,1,0,0:0:0:0:
296,112,68426,6,0,B|256:80|256:80|192:72|138:116|138:116|72:128|32:56,1,300.000011444092
112,32,69279,1,0,0:0:0:0:
224,160,69449,1,0,0:0:0:0:
344,48,69620,1,0,0:0:0:0:
223,76,69790,6,0,P|143:142|191:235,1,225.000008583069
224,160,70472,2,0,B|274:181|283:234|268:272|268:272|320:296|368:296,1,225.000008583069
352,216,71154,6,0,B|351:170|321:135|321:135|370:108|420:48|420:48|408:112|438:161|438:161|444:144|458:128,1,375.000014305115
512,184,72176,1,0,0:0:0:0:
408,352,72347,1,0,0:0:0:0:
424,240,72517,6,0,B|352:216|352:216|264:240,1,150.000005722046
232,176,73029,2,0,P|220:286|314:307,1,225.000008583069
424,240,73710,1,0,0:0:0:0:
376,224,73796,1,0,0:0:0:0:
328,208,73881,5,0,0:0:0:0:
328,208,74222,2,0,P|286:113|232:176,1,225.000008583069
232,264,74904,2,0,P|223:311|204:339,1,75.0000028610231
104,328,75245,5,0,0:0:0:0:
48,144,75415,1,0,0:0:0:0:
235,187,75585,1,0,0:0:0:0:
128,232,75756,2,0,P|120:184|128:152,1,75.0000028610231
200,104,76097,1,0,0:0:0:0:
408,112,76267,1,0,0:0:0:0:
256,48,76438,1,0,0:0:0:0:
358,169,76608,6,0,P|368:279|205:297,1,300.000011444092
280,232,77460,1,0,0:0:0:0:
448,184,77631,1,0,0:0:0:0:
408,352,77801,1,0,0:0:0:0:
352,168,77972,6,0,P|334:122|308:91,1,75.0000028610231
216,160,78313,2,0,P|185:197|172:236,1,75.0000028610231
277,281,78654,2,0,P|325:289|365:281,1,75.0000028610231
256,80,78995,2,0,P|207:72|167:80,1,75.0000028610231
426,318,79335,6,0,B|440:264|406:225|406:225|420:174|420:174|384:136|384:32,1,300.000011444092
280,32,80188,1,0,0:0:0:0:
96,128,80358,1,0,0:0:0:0:
288,120,80529,1,0,0:0:0:0:
85,45,80699,6,0,P|17:148|29:175,1,150.000005722046
105,275,81210,2,0,B|113:232|113:232|92:114,1,150.000005722046
24,280,81722,2,0,P|41:325|64:349,1,75.0000028610231
192,280,82063,6,0,B|189:264|200:237|200:237|185:199|186:159|186:159|230:175|306:146,1,225.000008583069
239,65,82745,2,0,P|342:71|378:183,1,225.000008583069
285,153,83426,6,0,B|328:104|405:73|405:73|440:104|480:104,1,225.000008583069
476,103,84023,1,0,0:0:0:0:
476,103,84108,1,0,0:0:0:0:
288,232,84279,1,0,0:0:0:0:
384,112,84449,1,0,0:0:0:0:
432,256,84620,1,0,0:0:0:0:
288,232,84790,6,0,P|250:217|218:192,1,75.0000028610231
56,208,85131,2,0,P|87:182|125:168,1,75.0000028610231
192,19,85472,1,0,0:0:0:0:
192,19,85557,1,0,0:0:0:0:
192,19,85642,1,0,0:0:0:0:
286,158,85813,2,0,P|254:183|216:198,1,75.0000028610231
144,80,86154,6,0,P|181:94|213:120,1,75.0000028610231
216,280,86495,2,0,P|178:265|146:240,1,75.0000028610231
286,158,86835,1,0,0:0:0:0:
286,158,86921,1,0,0:0:0:0:
286,158,87006,1,0,0:0:0:0:
72,208,87176,2,0,P|103:182|141:167,1,75.0000028610231
296,280,87517,5,0,0:0:0:0:
112,320,87688,1,0,0:0:0:0:
376,264,87858,1,0,0:0:0:0:
160,120,88029,1,0,0:0:0:0:
256,352,88199,1,0,0:0:0:0:
328,192,88370,1,0,0:0:0:0:
72,256,88540,1,0,0:0:0:0:
72,255,88881,5,0,0:0:0:0:
76,255,88966,1,0,0:0:0:0:
81,254,89051,1,0,0:0:0:0:
85,253,89136,1,0,0:0:0:0:
90,252,89222,5,0,0:0:0:0:
95,251,89307,1,0,0:0:0:0:
99,251,89392,1,0,0:0:0:0:
104,250,89477,1,0,0:0:0:0:
111,249,89563,5,0,0:0:0:0:
120,284,89648,1,0,0:0:0:0:
148,308,89733,1,0,0:0:0:0:
185,311,89818,1,0,0:0:0:0:
217,292,89903,5,0,0:0:0:0:
231,258,89989,1,0,0:0:0:0:
224,222,90074,1,0,0:0:0:0:
197,197,90159,1,0,0:0:0:0:
160,192,90245,6,0,P|256:117|352:192,1,262.500010013581
352,192,90926,6,0,B|344:80|256:26|256:26|168:80|160:192,1,400
256,192,91267,1,0,3:0:0:0:
312,296,91608,6,0,B|314:280|334:263|334:263|360:179|363:93,1,200
264,102,91949,1,0,0:0:0:0:
128,200,92120,2,0,P|168:280|200:208,1,200
216,40,92460,2,0,B|120:24|120:24|16:40,1,200
128,200,92801,1,0,0:0:0:0:
213,116,92972,6,0,P|303:207|266:287,1,200
56,232,93313,1,0,0:0:0:0:
232,96,93483,6,0,P|328:192|301:290,1,250
128,200,93824,5,0,0:0:0:0:
232,96,93995,1,0,0:0:0:0:
281,96,94080,1,0,0:0:0:0:
329,110,94165,1,0,0:0:0:0:
372,136,94250,1,0,0:0:0:0:
406,173,94335,6,0,B|440:224|448:296|448:296|464:168,1,200
472,64,94676,1,0,0:0:0:0:
320,200,94847,2,0,B|264:224|264:224|248:312|248:312|304:312|352:280,1,200
448,144,95188,2,0,B|330:101|330:101|247:131,1,200
144,360,95529,1,0,0:0:0:0:
88,264,95699,6,0,B|72:136|72:136|88:16,1,250
224,144,96040,5,0,0:0:0:0:
104,240,96210,2,0,B|88:136|88:136|104:40,1,200
264,208,96551,1,0,0:0:0:0:
104,240,96722,1,0,0:0:0:0:
65,208,96807,1,0,0:0:0:0:
41,164,96892,1,0,0:0:0:0:
34,115,96977,1,0,0:0:0:0:
46,67,97063,6,0,B|74:38|74:38|231:11,1,200
344,64,97404,1,0,0:0:0:0:
184,216,97574,2,0,P|88:192|168:160,1,200
376,160,97915,2,0,B|400:200|407:233|407:233|352:280|248:288,1,200
168,72,98256,1,0,0:0:0:0:
108,231,98426,6,0,B|136:252|136:252|302:281,1,200
248,88,98767,1,0,0:0:0:0:
80,240,98938,6,0,B|118:279|118:279|310:313,1,250
192,144,99279,1,0,0:0:0:0:
80,240,99449,1,0,0:0:0:0:
104,283,99534,1,0,0:0:0:0:
142,315,99619,1,0,0:0:0:0:
188,334,99704,1,0,0:0:0:0:
240,336,99790,6,0,B|320:336|383:309|383:309|373:286|327:270,1,200
160,152,100131,1,0,0:0:0:0:
80,240,100301,2,0,P|176:272|278:169,1,200
400,88,100642,2,0,B|360:72|360:72|280:88|280:88|144:80,1,200
80,240,100983,1,0,0:0:0:0:
255,224,101154,6,0,B|278:297|271:368|271:368|239:363|215:328,1,200
104,168,101495,1,0,0:0:0:0:
247,230,101665,6,0,B|265:280|260:354|260:354|226:346|202:311,1,175.00000166893
80,240,102006,5,0,0:0:0:0:
247,230,102176,1,0,0:0:0:0:
296,232,102261,1,0,0:0:0:0:
343,215,102346,1,0,0:0:0:0:
380,182,102431,1,0,0:0:0:0:
401,137,102517,6,0,P|304:64|256:136,1,200
272,320,102858,1,0,0:0:0:0:
328,136,103029,2,0,B|305:123|305:123|250:116|216:128|216:128|158:122|100:87,1,200
24,272,103370,2,0,B|100:342|100:342|197:302,1,200
256,96,103710,1,0,0:0:0:0:
128,192,103881,6,0,P|120:112|192:160,1,200
189,305,104222,1,0,0:0:0:0:
120,200,104392,6,0,P|112:96|200:152,1,250
264,280,104733,5,0,0:0:0:0:
120,200,104904,1,0,0:0:0:0:
78,172,104989,1,0,0:0:0:0:
60,127,105074,1,0,0:0:0:0:
72,79,105159,1,0,0:0:0:0:
109,46,105245,6,0,P|286:41|320:48,1,200
448,152,105585,1,0,0:0:0:0:
296,184,105756,2,0,B|160:144|160:144|296:120,1,200
401,235,106097,2,0,P|326:295|230:278,1,200
352,120,106438,1,0,0:0:0:0:
201,148,106608,6,0,P|100:256|156:387,1,250
320,296,106949,5,0,0:0:0:0:
209,172,107120,2,0,P|133:250|149:336,1,200
336,208,107460,1,0,0:0:0:0:
209,172,107631,1,0,0:0:0:0:
159,165,107716,1,0,0:0:0:0:
111,179,107801,1,0,0:0:0:0:
73,210,107886,1,0,0:0:0:0:
48,256,107972,6,0,B|96:312|160:320|160:320|168:288|160:248,1,200
152,40,108313,1,0,0:0:0:0:
32,144,108483,2,0,B|95:155|95:155|171:184|171:184|241:197,1,200
384,296,108824,2,0,B|368:376|464:368|472:288|408:264|352:248|344:192|392:160,1,200
320,64,109165,1,0,0:0:0:0:
296,272,109335,6,0,B|204:304|204:304|99:306,1,200
192,152,109676,1,0,0:0:0:0:
324,293,109847,6,0,B|210:332|210:332|78:332,1,250
272,128,110188,5,0,0:0:0:0:
324,293,110358,1,0,0:0:0:0:
279,316,110443,1,0,0:0:0:0:
232,331,110528,1,0,0:0:0:0:
182,337,110613,1,0,0:0:0:0:
132,334,110699,6,0,P|80:248|184:200,1,200
376,96,111040,1,0,0:0:0:0:
344,231,111210,2,0,B|256:271|256:271|128:263,1,200
80,72,111551,2,0,B|137:24|200:8|200:8|168:57|128:80,1,200
141,192,111892,1,0,0:0:0:0:
352,56,112063,6,0,P|416:64|352:136,1,200
224,96,112404,1,0,0:0:0:0:
352,64,112574,6,0,P|416:88|352:131,1,175.00000166893
224,176,112915,1,0,0:0:0:0:
352,64,113085,2,0,P|360:120|352:168,1,100
432,208,113256,2,0,P|424:264|432:312,1,100
352,352,113426,1,0,0:0:0:0:
