osu file format v14

[General]
AudioFilename: audio.mp3
AudioLeadIn: 0
PreviewTime: 245377
Countdown: 0
SampleSet: None
StackLeniency: 0.3
Mode: 0
LetterboxInBreaks: 0
WidescreenStoryboard: 0

[Editor]
Bookmarks: 22082,43900,68445,91627,114809,136627,158445,180264,202082,223900,245718,267536,289354,311173
DistanceSpacing: 0.6
BeatDivisor: 4
GridSize: 4
TimelineZoom: 2.799999

[Metadata]
Title:A Day in the S.I.O.U.
TitleUnicode:A Day in the S.I.O.U.
Artist:kamome sano
ArtistUnicode:kamome sano
Creator:Kurtainn
Version:Beta
Source:ガールフレンド(仮)
Tags:girlfriend beta ceptin kurtainn collab annoying repetitive earrape dnb vacuum
BeatmapID:1514392
BeatmapSetID:693323

[Difficulty]
HPDrainRate:7
CircleSize:4
OverallDifficulty:8
ApproachRate:9.6
SliderMultiplier:1.8
SliderTickRate:1

[Events]
//Background and Video events
0,0,"ECjuhEBCGEISUCgewciughjEILUGCKAEFEfgiyq3r3i4uygrfeaf.png",0,0
//Break Periods
//Storyboard Layer 0 (Background)
//Storyboard Layer 1 (Fail)
//Storyboard Layer 2 (Pass)
//Storyboard Layer 3 (Foreground)
//Storyboard Sound Samples

[TimingPoints]
264,340.909090909091,4,2,1,100,1,0
264,-133.333333333333,4,2,1,75,0,0
22082,-117.647058823529,4,2,1,75,0,0
22423,-133.333333333333,4,2,1,75,0,0
26087,-133.333333333333,4,2,1,5,0,0
26173,-133.333333333333,4,2,1,75,0,0
27195,-100,4,2,1,75,0,0
27366,-133.333333333333,4,2,1,75,0,0
27792,-133.333333333333,4,2,1,5,0,0
27877,-133.333333333333,4,2,1,75,0,0
27962,-133.333333333333,4,2,1,5,0,0
28048,-133.333333333333,4,2,1,75,0,0
30264,-100,4,2,1,75,0,0
30604,-111.111111111111,4,2,1,75,0,0
30945,-125,4,2,1,75,0,0
31286,-142.857142857143,4,2,1,75,0,0
32650,-133.333333333333,4,2,1,75,0,0
45860,-133.333333333333,4,2,1,5,0,0
45945,-300,4,2,1,60,0,0
46627,-142.857142857143,4,2,1,75,0,0
84127,-100,4,2,1,75,0,0
84468,-125,4,2,1,75,0,0
91627,-66.6666666666667,4,2,1,80,0,0
93502,-55.5555555555556,4,2,1,80,0,0
94354,-66.6666666666667,4,2,1,80,0,0
95718,-58.8235294117647,4,2,1,80,0,0
96229,-62.5,4,2,1,80,0,0
97082,-66.6666666666667,4,2,1,80,0,0
101173,-58.8235294117647,4,2,1,80,0,0
101684,-62.5,4,2,1,80,0,0
102366,-66.6666666666667,4,2,1,80,0,0
103900,-62.5,4,2,1,80,0,0
104411,-55.5555555555556,4,2,1,80,0,0
105264,-66.6666666666667,4,2,1,80,0,0
105604,-55.5555555555556,4,2,1,80,0,0
106627,-58.8235294117647,4,2,1,80,0,0
107139,-62.5,4,2,1,80,0,0
107650,-64.5161290322581,4,2,1,80,0,0
107991,-66.6666666666667,4,2,1,80,0,0
109354,-55.5555555555556,4,2,1,80,0,0
109866,-58.8235294117647,4,2,1,80,0,0
110718,-66.6666666666667,4,2,1,80,0,0
112082,-58.8235294117647,4,2,1,80,0,0
112593,-62.5,4,2,1,80,0,0
114298,-100,4,2,1,80,0,0
114809,-57.1428571428571,4,2,1,80,0,0
114809,-62.5,4,2,1,80,0,0
115320,-57.1428571428571,4,2,1,80,0,0
116173,-58.8235294117647,4,2,1,80,0,0
116684,-62.5,4,2,1,80,0,0
117195,-66.6666666666667,4,2,1,80,0,0
117536,-57.1428571428571,4,2,1,80,0,0
124866,-50,4,2,1,80,0,0
125377,-500,4,2,1,80,0,0
125718,-57.1428571428571,4,2,1,80,0,0
126911,-66.6666666666667,4,2,1,80,0,0
127423,-100,4,2,1,80,0,0
127934,-50,4,2,1,80,0,0
128957,-100,4,2,1,80,0,0
129298,-50,4,2,1,80,0,0
129639,-58.8235294117647,4,2,1,80,0,0
133389,-62.5,4,2,1,80,0,0
133729,-66.6666666666667,4,2,1,80,0,0
134241,-100,4,2,1,80,0,0
134411,-133.333333333333,4,2,1,80,0,0
134923,-200,4,2,1,80,0,0
136031,-200,4,2,1,5,0,0
136116,-200,4,2,1,75,0,0
136627,-55.5555555555556,4,2,1,80,0,0
138502,-52.6315789473684,4,2,1,80,0,0
139354,-55.5555555555556,4,2,1,80,0,0
140718,-50,4,2,1,80,0,0
141229,-52.6315789473684,4,2,1,80,0,0
142082,-55.5555555555556,4,2,1,80,0,0
143957,-50,4,2,1,80,0,0
144809,-55.5555555555556,4,2,1,80,0,0
146684,-52.6315789473684,4,2,1,80,0,0

[HitObjects]
50,273,264,6,0,L|47:350,1,67.5000025749208
119,225,604,2,0,L|116:148,1,67.5000025749208
200,88,945,6,0,L|197:165,1,67.5000025749208
285,94,1285,2,0,L|282:17,1,67.5000025749208
363,317,1627,6,0,P|415:318|442:307,1,67.5000025749208
244,295,1968,2,0,P|243:347|254:374,1,67.5000025749208
265,176,2309,6,0,P|213:175|186:186,1,67.5000025749208
385,198,2650,2,8,P|386:146|375:119,1,67.5000025749208
189,66,2991,5,0,0:0:0:0:
171,159,3161,1,0,0:0:0:0:
78,141,3332,1,0,0:0:0:0:
95,48,3502,1,0,0:0:0:0:
282,83,3673,5,0,0:0:0:0:
171,159,3843,5,0,0:0:0:0:
189,66,4014,1,0,0:0:0:0:
282,83,4184,1,0,0:0:0:0:
265,176,4354,6,0,P|258:215|262:254,1,67.5000025749208
382,226,4695,2,0,P|383:259|376:292,1,67.5000025749208
188,327,5036,6,0,L|263:333,1,67.5000025749208
407,367,5377,2,0,L|332:361,1,67.5000025749208
477,206,5718,6,0,P|465:244|467:275,1,67.5000025749208
466,140,6059,2,0,P|478:178|476:209,1,67.5000025749208
400,129,6400,6,0,P|438:141|469:139,1,67.5000025749208
334,139,6741,2,0,P|372:127|403:129,1,67.5000025749208
266,233,7082,5,0,0:0:0:0:
272,240,7252,1,0,0:0:0:0:
244,146,7423,5,0,0:0:0:0:
233,158,7593,1,0,0:0:0:0:
365,173,7764,5,0,0:0:0:0:
334,139,7934,1,0,0:0:0:0:
272,240,8104,5,0,0:0:0:0:
327,300,8274,1,0,0:0:0:0:
334,139,8445,6,0,L|267:147,1,67.5000025749208
443,201,8786,2,0,L|376:209,1,67.5000025749208
415,64,9127,6,0,P|422:105|419:136,1,67.5000025749208
301,282,9468,2,0,P|294:241|297:210,1,67.5000025749208
200,351,9809,5,0,0:0:0:0:
200,351,10150,2,0,P|203:309|197:278,1,67.5000025749208
97,136,10491,5,0,0:0:0:0:
97,136,10832,2,0,P|138:139|169:133,1,67.5000025749208
312,33,11173,6,0,P|308:74|313:93,3,33.7500012874604
343,135,11514,2,0,P|346:176|342:195,3,33.7500012874604
336,252,11854,6,0,P|377:248|396:253,3,33.7500012874604
438,283,12195,2,0,P|479:286|498:282,3,33.7500012874604
354,353,12536,6,0,L|368:313,3,33.7500012874604
279,311,12877,2,0,L|265:351,3,33.7500012874604
188,341,13218,6,0,L|202:381,3,33.7500012874604
113,383,13559,2,0,L|99:343,3,33.7500012874604
46,288,13900,6,0,P|38:263|38:243,3,33.7500012874604
137,313,14241,2,0,P|145:288|145:268,3,33.7500012874604
207,208,14582,6,0,P|215:183|215:163,3,33.7500012874604
116,233,14923,2,0,P|108:208|108:188,3,33.7500012874604
121,98,15264,6,0,L|155:103,3,33.7500012874604
227,38,15604,2,0,L|261:33,3,33.7500012874604
375,156,15945,6,0,P|391:195|392:216,3,33.7500012874604
379,336,16286,6,0,P|362:374|348:390,3,33.7500012874604
99,339,16627,6,0,L|93:298,1,33.7500012874604
178,361,16798,2,0,L|184:320,1,33.7500012874604
103,305,16968,6,0,L|97:264,1,33.7500012874604
182,327,17139,2,0,L|188:286,1,33.7500012874604
369,196,17309,6,0,L|378:131,1,33.7500012874604
244,230,17480,2,0,L|234:165,1,33.7500012874604
373,162,17650,6,0,L|382:97,1,33.7500012874604
239,196,17821,2,0,L|229:131,1,33.7500012874604
483,293,17991,6,0,L|492:228,1,33.7500012874604
331,334,18162,2,0,L|321:269,1,33.7500012874604
478,259,18332,6,0,L|487:194,1,33.7500012874604
326,300,18503,2,0,L|316:235,1,33.7500012874604
136,216,18673,6,0,L|126:151,1,33.7500012874604
321,266,18844,2,0,L|330:201,1,33.7500012874604
140,182,19014,6,0,L|130:117,1,33.7500012874604
325,232,19185,2,0,L|334:167,1,33.7500012874604
226,44,19354,5,0,0:0:0:0:
290,223,19525,1,0,0:0:0:0:
226,44,19695,1,0,0:0:0:0:
185,255,19866,1,0,0:0:0:0:
334,135,20036,5,0,0:0:0:0:
355,145,20121,1,0,0:0:0:0:
373,159,20207,1,0,0:0:0:0:
387,177,20292,1,0,0:0:0:0:
397,198,20377,2,0,P|399:218|396:243,3,33.7500012874604
356,302,20718,6,0,B|341:350|341:350|370:355|397:339|397:339|476:360|513:299,1,236.250009012223
433,263,21400,5,0,0:0:0:0:
228,124,22082,6,0,P|196:116|208:144,1,76.5000014591217
296,172,22423,2,0,L|392:172,1,67.5000025749208,8|0,0:0|0:0,0:0:0:0:
384,128,22678,1,0,0:0:0:0:
364,172,22763,1,0,0:0:0:0:
284,268,22934,1,0,0:0:0:0:
284,268,23019,2,0,L|168:268,1,101.250003862381,8|0,0:0|0:0,0:0:0:0:
236,58,23445,6,0,P|236:102|212:142,1,67.5000025749208
140,196,23786,2,0,P|184:196|224:172,1,67.5000025749208,8|0,0:0|0:0,0:0:0:0:
344,128,24127,1,0,0:0:0:0:
300,276,24383,1,0,0:0:0:0:
316,232,24468,1,8,0:0:0:0:
220,244,24639,1,0,0:0:0:0:
136,320,24809,6,0,L|52:308,1,67.5000025749208
288,240,25150,2,0,L|204:252,1,67.5000025749208,8|0,0:0|0:0,0:0:0:0:
404,324,25491,2,0,B|436:288|436:256|440:232,1,101.250003862381
440,184,25832,1,8,0:0:0:0:
344,128,26002,2,0,L|284:128,1,33.7500012874604
100,192,26173,5,0,0:0:0:0:
288,240,26343,1,0,0:0:0:0:
192,64,26514,1,8,0:0:0:0:
176,256,26684,1,0,0:0:0:0:
352,140,26854,2,0,P|396:144|456:132,1,101.250003862381
460,88,27195,6,0,P|468:152|444:204,1,90,8|0,0:0|0:0,0:0:0:0:
404,300,27536,1,0,0:0:0:0:
324,236,27707,2,0,L|284:208,1,33.7500012874604
200,264,27877,2,0,L|151:259,1,33.7500012874604,8|0,0:0|0:0,0:0:0:0:
404,300,28048,1,0,0:0:0:0:
200,264,28218,6,0,P|196:216|224:248,1,101.250003862381
236,332,28559,2,0,P|180:352|152:352,1,67.5000025749208,8|0,0:0|0:0,0:0:0:0:
120,200,28900,2,0,P|153:206|183:220,1,67.5000025749208
236,332,29241,2,0,P|294:321|318:307,1,67.5000025749208,8|0,0:0|0:3,0:3:0:0:
308,188,29582,1,0,0:0:0:0:
404,300,29837,1,0,0:0:0:0:
396,252,29922,1,8,0:0:0:0:
308,188,30093,1,0,0:0:0:0:
88,84,30264,6,0,P|136:136|128:224,1,135
124,184,30604,6,0,P|129:118|172:72,1,121.499996292114
184,40,30945,6,0,P|178:105|140:152,1,108
136,108,31286,6,0,P|201:113|248:152,1,125.999996154785
256,192,31968,5,0,0:0:0:0:
256,192,32310,5,0,0:0:0:0:
256,192,32650,6,0,L|256:236,1,33.7500012874604,6|0,0:0|0:0,0:0:0:0:
356,296,32991,6,0,P|380:244|380:208,1,67.5000025749208
352,120,33332,1,8,0:0:0:0:
256,192,33502,1,0,0:0:0:0:
256,316,33673,6,0,P|192:304|156:324,1,101.250003862381
124,348,34014,1,8,0:0:0:0:
76,224,34184,2,0,L|112:224,1,33.7500012874604
256,192,34354,5,0,0:0:0:0:
50,141,34525,1,0,0:0:0:0:
239,108,34695,1,8,0:0:0:0:
18,55,34866,1,0,0:0:0:0:
216,20,35036,2,0,P|268:4|336:24,1,101.250003862381
360,104,35377,6,0,P|308:84|284:60,1,67.5000025749208,8|0,0:0|0:0,0:0:0:0:
436,176,35718,2,0,P|407:194|375:203,1,67.5000025749208
268,284,36059,1,8,0:0:0:0:
428,336,36229,1,0,0:0:0:0:
312,196,36400,2,0,P|290:127|302:79,1,101.250003862381
300,76,36741,5,8,0:0:0:0:
436,176,36911,1,0,0:0:0:0:
312,196,37082,2,0,P|260:196|232:216,1,67.5000025749208
148,340,37423,2,0,P|200:340|228:320,1,67.5000025749208,8|0,0:0|0:0,0:0:0:0:
272,104,37764,2,0,P|226:130|200:176,1,101.250003862381
312,196,38104,6,0,P|357:170|371:138,1,67.5000025749208,8|0,0:0|0:0,0:0:0:0:
229,137,38445,1,0,0:0:0:0:
245,251,38616,1,0,0:0:0:0:
299,150,38786,1,8,0:0:0:0:
196,200,38957,1,0,0:0:0:0:
309,220,39127,1,0,0:0:0:0:
216,110,39298,5,0,0:0:0:0:
239,281,39469,1,8,0:0:0:0:
321,129,39639,1,0,0:0:0:0:
166,204,39810,1,0,0:0:0:0:
335,235,39980,1,0,0:0:0:0:
197,69,40150,5,8,0:0:0:0:
231,325,40321,1,0,0:0:0:0:
354,98,40491,1,0,0:0:0:0:
120,210,40662,1,0,0:0:0:0:
375,256,40832,1,8,0:0:0:0:
375,256,41002,1,0,0:0:0:0:
472,156,41173,5,0,0:0:0:0:
484,108,41258,1,0,0:0:0:0:
472,60,41343,1,0,0:0:0:0:
428,32,41428,1,0,0:0:0:0:
376,32,41514,1,0,0:0:0:0:
336,64,41599,1,0,0:0:0:0:
320,112,41684,1,0,0:0:0:0:
320,164,41769,1,0,0:0:0:0:
308,212,41854,5,0,0:0:0:0:
272,248,41940,1,0,0:0:0:0:
228,272,42025,1,0,0:0:0:0:
176,272,42110,1,0,0:0:0:0:
132,248,42195,1,0,0:0:0:0:
104,204,42281,1,0,0:0:0:0:
104,152,42366,1,0,0:0:0:0:
128,108,42451,1,0,0:0:0:0:
168,80,42536,5,0,0:0:0:0:
184,88,42621,1,0,0:0:0:0:
200,96,42707,1,0,0:0:0:0:
216,104,42792,1,0,0:0:0:0:
232,112,42877,1,0,0:0:0:0:
248,120,42962,1,0,0:0:0:0:
264,128,43048,1,0,0:0:0:0:
280,136,43133,1,0,0:0:0:0:
296,144,43218,6,0,L|352:172,1,33.7500012874604
392,200,43389,5,0,0:0:0:0:
314,200,43474,1,0,0:0:0:0:
275,132,43559,1,0,0:0:0:0:
314,65,43644,1,0,0:0:0:0:
392,65,43729,1,0,0:0:0:0:
430,132,43815,1,0,0:0:0:0:
256,192,43900,12,0,45860,0:0:0:0:
275,132,45945,6,0,L|293:248,1,105
274,277,46627,6,0,P|249:298|213:147,1,314.999990386963
264,214,47650,2,0,L|277:300,1,62.9999980773926
396,73,47991,6,0,B|380:159|380:159|405:245|405:245|384:335,1,251.999992309571,8|0,0:0|0:0,0:0:0:0:
387,318,49354,6,0,B|346:290|298:262|239:295|205:355|205:355|280:377|323:346,1,314.999990386963
387,318,50377,2,0,P|400:282|399:253,1,62.9999980773926
352,86,50718,6,0,L|217:109,1,125.999996154785
361,166,51229,1,0,0:0:0:0:
273,240,51400,2,0,P|327:223|361:165,1,125.999996154785
352,86,51854,5,0,0:0:0:0:
292,32,51968,5,0,0:0:0:0:
212,43,52082,5,0,0:0:0:0:
212,43,52423,6,0,L|244:303,1,251.999992309571
242,293,53445,5,0,0:0:0:0:
292,211,53615,1,0,0:0:0:0:
387,190,53786,1,0,0:0:0:0:
468,242,53956,1,0,0:0:0:0:
261,301,54298,5,0,0:0:0:0:
304,230,54468,1,0,0:0:0:0:
385,212,54639,1,0,0:0:0:0:
455,257,54809,6,0,L|134:296,1,314.999990386963
80,240,55832,1,0,0:0:0:0:
61,317,56002,1,0,0:0:0:0:
197,103,56173,5,0,2:0:0:0:
178,181,56514,1,0,2:0:0:0:
246,226,56854,1,0,2:0:0:0:
306,173,57195,1,0,2:0:0:0:
278,101,57536,6,0,B|315:144|315:144|326:229|326:229|357:155|425:164,1,251.999992309571
461,234,58389,1,0,2:0:0:0:
442,156,58559,2,0,L|456:83,1,62.9999980773926
384,42,58900,6,0,L|358:175,1,125.999996154785
293,107,59411,1,0,0:0:0:0:
58,283,59923,1,0,0:0:0:0:
16,188,60264,6,0,B|79:201|79:201|143:181|153:108|153:108|209:156,1,251.999992309571
217,50,61286,1,0,0:0:0:0:
253,296,61627,6,0,P|272:253|195:147,1,188.999994232178
198,147,62309,2,0,L|222:232,2,62.9999980773926
412,48,62991,6,0,B|428:104|428:104|416:180,1,125.999996154785
392,324,63673,1,0,0:0:0:0:
328,264,64014,1,0,0:0:0:0:
112,340,64354,6,0,P|128:268|104:212,1,125.999996154785
32,80,65036,1,0,0:0:0:0:
122,106,65377,1,0,0:0:0:0:
213,132,65718,5,0,0:0:0:0:
121,243,65889,1,0,0:0:0:0:
178,375,66059,1,0,0:0:0:0:
270,264,66229,1,0,0:0:0:0:
121,243,67082,5,0,0:0:0:0:
268,364,67253,1,0,0:0:0:0:
441,288,67423,1,0,0:0:0:0:
295,167,67593,1,0,0:0:0:0:
268,364,67764,5,0,0:0:0:0:
354,326,67934,1,0,0:0:0:0:
441,288,68104,1,0,0:0:0:0:
339,53,68445,6,0,P|299:117|299:193,1,125.999996154785
368,232,68957,1,0,0:0:0:0:
213,132,69127,1,0,0:0:0:0:
368,232,69298,1,0,0:0:0:0:
213,132,69468,5,0,0:0:0:0:
368,232,69639,1,0,0:0:0:0:
178,375,69809,2,0,P|218:311|218:235,1,125.999996154785
213,132,70320,1,0,0:0:0:0:
128,40,70491,6,0,P|88:104|88:180,1,125.999996154785
108,272,71002,1,0,0:0:0:0:
222,261,71173,2,0,P|297:258|363:296,1,125.999996154785
304,348,71684,1,0,0:0:0:0:
308,96,71854,1,0,0:0:0:0:
448,192,72025,1,0,0:0:0:0:
249,158,72195,6,0,P|201:150|173:126,1,62.9999980773926
128,40,72536,2,0,P|162:68|190:156,1,125.999996154785
241,15,73048,2,0,P|245:58|202:140,1,125.999996154785
139,244,73559,2,0,L|103:276,2,41.9999987182618
222,261,73900,6,0,B|258:281|286:269|286:269|326:261,1,94.499997116089
360,300,74241,6,0,P|340:240|352:168,1,125.999996154785
428,96,74752,1,0,0:0:0:0:
460,252,74923,1,0,0:0:0:0:
428,96,75093,1,0,0:0:0:0:
460,252,75264,5,0,0:0:0:0:
428,96,75434,1,0,0:0:0:0:
344,200,75604,1,0,0:0:0:0:
222,261,75775,2,0,B|178:277|142:305|142:305|78:305,1,125.999996154785
68,220,76286,1,0,0:0:0:0:
100,132,76457,1,0,0:0:0:0:
192,108,76627,1,0,0:0:0:0:
284,128,76798,1,0,0:0:0:0:
344,200,76968,2,0,P|408:236|460:212,1,125.999996154785
496,132,77479,5,0,0:0:0:0:
440,56,77650,1,0,0:0:0:0:
344,56,77820,1,0,0:0:0:0:
284,128,77991,2,0,L|264:208,1,62.9999980773926
208,116,78332,2,0,L|188:36,1,62.9999980773926
140,168,78673,2,0,L|109:288,1,94.499997116089
25,150,79014,2,0,L|-5:29,1,94.499997116089
144,192,79354,6,0,L|113:70,1,125.999996154785
144,192,79866,1,0,0:0:0:0:
224,292,80036,1,0,0:0:0:0:
295,178,80207,1,0,0:0:0:0:
412,144,80377,2,0,L|488:152,1,62.9999980773926
348,340,80718,2,0,P|316:284|316:212,1,125.999996154785
412,144,81229,2,0,P|355:176|283:176,1,125.999996154785
196,100,81741,1,0,0:0:0:0:
196,100,82082,6,0,P|179:162|128:213,1,125.999996154785
295,178,82764,2,0,P|238:209|166:210,1,125.999996154785
104,108,83275,1,0,0:0:0:0:
178,212,83445,1,0,0:0:0:0:
295,178,83616,1,0,0:0:0:0:
184,200,83786,1,0,0:0:0:0:
292,68,83957,1,0,0:0:0:0:
360,272,84127,2,0,P|316:248|368:252,1,135
380,304,84468,6,0,B|324:328|300:280|256:312,1,108
128,328,84809,5,0,0:0:0:0:
178,212,84979,1,0,0:0:0:0:
32,240,85150,1,0,0:0:0:0:
178,212,85320,5,0,0:0:0:0:
202,188,85406,1,0,0:0:0:0:
226,164,85491,1,0,0:0:0:0:
250,140,85576,1,0,0:0:0:0:
274,116,85661,1,0,0:0:0:0:
352,36,85832,2,0,L|360:84,1,36
480,100,86002,2,0,L|451:139,1,36
366,244,86173,5,0,0:0:0:0:
296,96,86343,1,0,0:0:0:0:
459,129,86514,1,0,0:0:0:0:
296,96,86684,5,0,0:0:0:0:
272,72,86770,1,0,0:0:0:0:
248,48,86855,1,0,0:0:0:0:
224,24,86940,1,0,0:0:0:0:
200,0,87025,1,0,0:0:0:0:
96,100,87195,5,0,0:0:0:0:
184,296,87366,1,0,0:0:0:0:
156,44,87536,5,0,0:0:0:0:
244,240,87707,1,0,0:0:0:0:
248,48,87877,5,0,0:0:0:0:
160,244,88048,1,0,0:0:0:0:
305,158,88218,5,0,0:0:0:0:
96,100,88389,1,0,0:0:0:0:
357,71,88559,5,0,0:0:0:0:
43,158,88730,1,0,0:0:0:0:
184,292,88900,5,0,0:0:0:0:
184,276,88985,1,0,0:0:0:0:
184,260,89070,1,0,0:0:0:0:
184,240,89156,1,0,0:0:0:0:
184,224,89241,6,0,L|184:168,1,36
324,328,89411,1,0,0:0:0:0:
272,344,89496,1,0,0:0:0:0:
216,352,89582,1,0,0:0:0:0:
168,328,89667,1,0,0:0:0:0:
128,288,89752,1,0,0:0:0:0:
128,236,89837,5,0,0:0:0:0:
144,184,89923,1,0,0:0:0:0:
188,152,90008,1,0,0:0:0:0:
204,100,90093,1,0,0:0:0:0:
172,56,90178,1,0,0:0:0:0:
120,44,90264,6,0,B|60:56|60:136|128:176|128:176|172:124|240:160,1,288
348,40,91116,5,0,0:0:0:0:
328,244,91286,2,0,L|324:288,1,36
451,323,91627,6,0,P|388:222|309:267,1,202.500007724762
272,304,91968,2,0,L|262:381,1,67.5000025749208
272,28,92139,6,0,L|246:238,1,202.500007724762
272,304,92479,2,0,L|262:381,1,67.5000025749208
396,216,92650,1,0,0:0:0:0:
120,316,92820,2,0,L|136:240,1,67.5000025749208
144,40,92991,6,0,P|192:112|112:176,1,202.500007724762
48,152,93332,1,0,0:0:0:0:
132,240,93502,6,0,P|168:160|368:200,1,323.999990112305
276,368,94014,1,0,0:0:0:0:
288,360,94099,1,0,0:0:0:0:
248,304,94184,5,0,0:0:0:0:
260,296,94269,1,0,0:0:0:0:
220,228,94354,6,0,B|224:176|224:176|392:200,1,202.500007724762
448,176,94695,2,0,P|494:146|502:130,1,67.5000025749208
440,168,94866,6,0,P|424:236|444:312,1,135.000005149842
241,103,95207,2,0,L|402:126,1,135.000005149842
176,17,95548,1,0,0:0:0:0:
201,311,95718,6,0,B|236:235|236:235|194:70,1,229.500004377365
176,17,96059,1,0,0:0:0:0:
462,237,96229,6,0,P|378:235|368:53,1,288
351,66,96741,5,0,0:0:0:0:
319,153,96826,5,0,0:0:0:0:
369,230,96911,5,0,0:0:0:0:
462,237,96996,5,0,0:0:0:0:
420,152,97082,6,0,L|170:196,1,202.500007724762
145,202,97423,1,0,0:0:0:0:
258,74,97593,6,0,P|269:54|269:9,2,67.5000025749208
283,326,97934,1,0,0:0:0:0:
168,110,98104,2,0,L|14:137,1,135.000005149842
420,152,98445,6,0,L|220:187,1,202.500007724762
168,110,98786,1,0,0:0:0:0:
35,133,98957,6,0,L|314:83,1,270.000010299683
23,223,99468,6,0,L|92:210,1,67.5000025749208
288,176,99639,2,0,L|218:188,1,67.5000025749208
392,332,99809,6,0,P|421:269|330:281,1,202.500007724762
317,356,100150,1,0,0:0:0:0:
248,106,100320,2,0,L|262:24,2,67.5000025749208
288,249,100661,5,0,0:0:0:0:
70,207,100832,1,0,0:0:0:0:
216,38,101002,1,0,0:0:0:0:
169,290,101173,6,0,B|211:347|211:347|293:166,1,229.500004377365
229,193,101514,1,0,0:0:0:0:
343,94,101684,6,0,B|301:37|301:37|219:218,1,216
229,193,102025,1,0,0:0:0:0:
471,153,102196,5,0,0:0:0:0:
391,166,102281,5,0,0:0:0:0:
310,179,102366,5,0,0:0:0:0:
229,193,102451,5,0,0:0:0:0:
283,258,102536,6,0,L|517:219,1,202.500007724762
471,153,102877,1,0,0:0:0:0:
229,193,103048,6,0,P|200:260|233:326,1,135.000005149842
280,371,103389,1,0,0:0:0:0:
336,100,103559,1,0,0:0:0:0:
201,115,103729,1,0,0:0:0:0:
482,225,103900,6,0,L|283:258,1,202.500007724762
229,193,104241,1,0,0:0:0:0:
81,344,104411,6,0,P|142:337|48:316,1,323.999990112305
81,344,104923,2,0,P|138:339|156:323,1,80.9999975280763
154,240,105093,2,0,P|120:218|80:220,1,80.9999975280763
427,332,105264,6,0,B|360:339|360:339|288:308|288:308|169:318,1,202.500007724762,0|0,2:0|2:0,2:0:0:0:
154,324,105604,2,0,P|120:346|81:344,1,80.9999975280763
215,78,105775,6,0,P|236:164|110:203,1,242.999992584229
157,136,106116,1,0,0:0:0:0:
436,170,106286,2,0,L|426:332,1,161.999995056153
257,76,106627,6,0,P|236:162|362:201,1,242.999992584229
436,170,106968,1,0,0:0:0:0:
138,30,107139,6,0,P|159:116|33:155,1,216
0,125,107479,1,0,0:0:0:0:
257,75,107650,6,0,P|252:110|252:145,1,69.7500005321503
345,185,107821,6,0,P|366:212|391:236,1,69.7500005321503
458,59,107991,6,0,L|248:75,1,202.500007724762
194,27,108332,1,0,0:0:0:0:
479,174,108502,6,0,L|287:188,1,135.000005149842
276,146,108758,1,0,0:0:0:0:
276,146,108843,1,0,0:0:0:0:
304,368,109014,1,0,0:0:0:0:
99,281,109184,1,0,0:0:0:0:
99,281,109269,1,0,0:0:0:0:
99,281,109354,6,0,P|174:301|123:203,1,242.999992584229
52,202,109695,1,0,0:0:0:0:
396,333,109866,6,0,P|321:353|372:255,1,229.500004377365
442,247,110207,1,0,0:0:0:0:
236,16,110377,1,0,0:0:0:0:
224,24,110462,1,0,0:0:0:0:
264,80,110547,5,0,0:0:0:0:
252,88,110632,1,0,0:0:0:0:
283,153,110718,6,0,B|206:182|206:182|70:160,1,202.500007724762
58,166,111059,1,0,0:0:0:0:
370,161,111229,6,0,L|387:294,1,135.000005149842
177,366,111570,2,0,L|311:349,1,135.000005149842
443,106,111911,1,0,0:0:0:0:
289,301,112082,6,0,P|276:213|161:260,1,229.500004377365
177,366,112423,1,0,0:0:0:0:
503,324,112593,6,0,L|228:294,1,216
177,366,112934,1,0,0:0:0:0:
166,239,113104,5,0,0:0:0:0:
201,242,113189,1,0,0:0:0:0:
237,246,113274,1,0,0:0:0:0:
273,250,113359,1,0,0:0:0:0:
309,254,113444,5,0,0:0:0:0:
166,239,113957,5,0,0:0:0:0:
256,125,114298,6,0,L|251:94,1,22.5
264,28,114809,6,0,B|380:28|380:144|380:144|300:164|292:136,1,236.250002253056
256,125,115150,1,0,0:0:0:0:
476,184,115320,2,0,B|428:228|436:296|436:296|392:236|280:236,1,236.250002253056
320,328,115661,1,0,0:0:0:0:
166,239,115832,2,0,L|250:215,1,78.7500007510185
56,312,116002,2,0,L|140:336,1,78.7500007510185
184,90,116173,6,0,B|118:115|118:115|271:241,1,229.500004377365
262,173,116514,1,0,0:0:0:0:
328,308,116684,6,0,B|393:282|393:282|240:156,1,216
262,173,117025,1,0,0:0:0:0:
448,40,117195,5,0,0:0:0:0:
448,120,117281,5,0,0:0:0:0:
448,200,117366,5,0,0:0:0:0:
320,304,117536,2,0,B|260:276|216:344|216:344|260:372|260:372|320:364,1,236.250002253056
432,216,117877,2,0,P|472:240|492:276,1,78.7500007510185
262,173,118047,2,0,P|222:149|202:113,2,78.7500007510185
248,312,118389,2,0,B|160:356|56:316|56:316|160:260,1,315.000003004074
156,56,118900,6,0,L|272:184,1,157.500001502037
368,284,119241,1,0,0:0:0:0:
112,192,119411,2,0,B|196:232|196:232|256:180|336:180,1,236.250002253056
404,168,119752,1,0,0:0:0:0:
236,288,119923,5,0,0:0:0:0:
268,272,120008,1,0,0:0:0:0:
336,300,120093,5,0,0:0:0:0:
368,284,120178,1,0,0:0:0:0:
404,264,120264,6,0,B|464:196|464:196|508:268|508:268|472:344|428:360,1,236.250002253056
280,352,120604,1,0,0:0:0:0:
326,180,120775,2,0,L|348:112,4,39.3750003755093
220,68,121116,1,0,0:0:0:0:
200,264,121286,1,0,0:0:0:0:
80,160,121457,2,0,L|172:172,1,78.7500007510185
200,264,121627,2,0,L|528:294,1,315.000003004074
80,160,122139,2,0,L|406:190,1,315.000003004074
200,264,122650,2,0,L|212:348,1,78.7500007510185
240,176,122820,2,0,L|228:92,1,78.7500007510185
352,336,122991,6,0,B|408:272|408:272|392:196,1,157.500001502037
368,76,123332,1,0,0:0:0:0:
240,176,123502,2,0,B|224:92|224:92|152:124|152:124|184:144|200:268,1,315.000003004074
216,352,124014,1,0,0:0:0:0:
356,336,124184,5,0,0:0:0:0:
420,264,124269,5,0,0:0:0:0:
388,176,124354,6,0,P|292:176|260:52,1,236.250002253056
368,76,124695,1,0,0:0:0:0:
393,201,124866,6,0,P|282:201|245:57,1,270
368,76,125207,1,0,0:0:0:0:
272,188,125377,2,0,L|240:188,1,27
56,256,125718,6,0,B|112:180|112:180|160:224|196:272|196:272|184:376,1,315.000003004074
56,256,126229,2,0,B|32:152|100:104|100:104|192:104|192:104|192:176,1,315.000003004074
240,348,126741,2,0,L|324:348,1,78.7500007510185
394,268,126911,5,0,0:0:0:0:
292,268,126996,5,0,0:0:0:0:
192,268,127082,2,0,L|432:268,1,202.500007724762
464,268,127423,1,0,0:0:0:0:
256,192,127593,2,0,L|424:192,1,135
424,192,127934,1,0,0:0:0:0:
325,136,128104,2,0,B|325:118|325:118|343:136|343:136|325:153|325:153|308:136|308:136|325:122|325:122|339:136|339:136|325:150|325:150|311:136|311:136|325:125,1,180
192,268,128445,6,0,P|72:180|136:88,1,270
216,56,128786,1,0,0:0:0:0:
256,192,128957,2,0,L|104:172,1,90
280,176,129298,2,0,L|309:395,1,180
435,216,129639,5,0,0:0:0:0:
345,203,129724,1,0,0:0:0:0:
256,192,129809,2,0,L|67:166,1,153.000002918243
192,268,130150,1,0,0:0:0:0:
345,203,130320,2,0,L|184:156,1,153.000002918243
435,216,130661,2,0,L|274:263,1,153.000002918243
192,268,131002,5,0,0:0:0:0:
172,180,131087,5,0,0:0:0:0:
233,106,131173,2,0,P|344:108|344:204,1,229.500004377365
192,268,131514,1,0,0:0:0:0:
292,152,131684,2,0,P|424:205|339:292,1,306.000005836487
192,268,132195,1,0,0:0:0:0:
296,136,132366,1,0,0:0:0:0:
304,120,132451,1,0,0:0:0:0:
276,84,132536,2,0,L|268:8,1,76.5000014591217
97,162,132707,2,0,L|201:186,1,76.5000014591217
366,169,132877,2,0,L|262:145,1,76.5000014591217
302,330,133048,6,0,P|378:302|318:302,1,229.500004377365
302,330,133389,2,0,B|340:272|404:328|404:328|360:256|456:192,1,216
366,169,133729,1,0,0:0:0:0:
60,299,133900,6,0,L|212:263,1,135.000005149842
272,196,134241,1,0,0:0:0:0:
192,176,134411,2,0,L|48:144,1,135.000005149842
40,96,134923,1,0,0:0:0:0:
256,192,135008,12,0,136031,0:0:0:0:
228,224,136116,5,0,0:0:0:0:
225,137,136201,5,0,0:0:0:0:
302,178,136286,5,0,0:0:0:0:
302,178,136627,6,0,B|224:260|116:208|116:208|152:168,1,242.999992584229
40,202,136968,1,0,0:0:0:0:
401,163,137139,6,0,P|373:250|219:235,1,242.999992584229
185,189,137479,2,0,L|193:307,1,80.9999975280763
200,345,137650,1,0,0:0:0:0:
276,26,137820,1,0,0:0:0:0:
257,71,137906,1,0,0:0:0:0:
272,117,137991,6,0,L|514:94,1,242.999992584229
460,177,138332,1,0,0:0:0:0:
160,64,138502,6,0,B|112:160|208:216|160:332,1,256.499993150711
264,136,138843,1,0,0:0:0:0:
316,335,139014,5,0,0:0:0:0:
384,289,139099,5,0,0:0:0:0:
398,207,139184,5,0,0:0:0:0:
346,142,139269,5,0,0:0:0:0:
264,136,139354,6,0,P|176:152|112:32,1,242.999992584229
126,12,139695,1,0,0:0:0:0:
300,232,139866,6,0,L|292:332,1,80.9999975280763
398,207,140036,2,0,L|390:107,1,80.9999975280763
200,284,140207,1,0,0:0:0:0:
398,19,140377,1,0,0:0:0:0:
193,176,140548,2,0,L|201:276,1,80.9999975280763
472,352,140718,6,0,P|488:284|412:320,1,180
396,380,140974,1,0,0:0:0:0:
391,384,141059,1,0,0:0:0:0:
52,276,141229,6,0,B|140:276|140:276|172:300|172:300|200:276|200:276|304:276,1,256.499993150711
368,276,141570,1,0,0:0:0:0:
144,378,141741,6,0,P|168:334|172:290,1,85.4999977169037
144,92,141911,6,0,P|168:136|172:180,1,85.4999977169037
368,276,142082,6,0,P|297:226|341:80,1,242.999992584229
401,64,142423,1,0,0:0:0:0:
261,317,142593,6,0,L|161:304,1,80.9999975280763
180,172,142764,2,0,L|260:161,1,80.9999975280763
338,355,142934,1,0,0:0:0:0:
289,81,143104,2,0,P|216:98|182:192,1,161.999995056153
179,171,143445,6,0,P|213:100|289:81,1,161.999995056153
362,269,143786,1,0,0:0:0:0:
72,292,143957,6,0,B|16:172|144:148|80:32,1,270
179,171,144298,1,0,0:0:0:0:
401,45,144468,5,0,0:0:0:0:
327,68,144553,1,0,0:0:0:0:
352,144,144639,5,0,0:0:0:0:
426,119,144724,1,0,0:0:0:0:
376,94,144809,6,0,P|320:168|432:240,1,242.999992584229
488,184,145150,1,0,0:0:0:0:
271,37,145320,6,0,P|284:129|414:101,1,242.999992584229
414,22,145661,1,0,0:0:0:0:
400,320,145832,1,0,0:0:0:0:
126,234,146002,1,0,0:0:0:0:
283,58,146173,6,0,B|304:148|304:148|196:116|200:32,1,242.999992584229
204,24,146514,1,0,0:0:0:0:
52,308,146684,2,0,B|80:236|80:236|180:236|180:236|220:324,1,256.499993150711
132,312,147025,1,0,0:0:0:0:
4,156,147195,6,0,P|52:144|100:156,1,85.4999977169037
260,156,147366,6,0,P|219:167|176:161,1,85.4999977169037
