osu file format v14

[General]
AudioFilename: audio.mp3
AudioLeadIn: 0
PreviewTime: 245377
Countdown: 0
SampleSet: Soft
StackLeniency: 0.3
Mode: 0
LetterboxInBreaks: 0
WidescreenStoryboard: 1

[Editor]
Bookmarks: 22082,43900,68445,91627,114809,136627,158445,180264,202082,223900,245718,267536,289354,311173,339809
DistanceSpacing: 1
BeatDivisor: 4
GridSize: 4
TimelineZoom: 2.799999

[Metadata]
Title:A Day in the S.I.O.U.
TitleUnicode:A Day in the S.I.O.U.
Artist:kamome sano
ArtistUnicode:kamome sano
Creator:Kurtainn
Version:2018
Source:ガールフレンド(仮)
Tags:girlfriend beta ceptin kurtainn collab annoying repetitive earrape dnb vacuum
BeatmapID:1506657
BeatmapSetID:693323

[Difficulty]
HPDrainRate:7
CircleSize:4
OverallDifficulty:8
ApproachRate:9.6
SliderMultiplier:1.8
SliderTickRate:1

[Events]
//Background and Video events
0,0,"ECjuhEBCGEISUCgewciughjEILUGCKAEFEfgiyq3r3i4uygrfeaf.png",0,0
//Break Periods
//Storyboard Layer 0 (Background)
//Storyboard Layer 1 (Fail)
//Storyboard Layer 2 (Pass)
//Storyboard Layer 3 (Foreground)
//Storyboard Sound Samples

[TimingPoints]
264,340.909090909091,4,2,1,100,1,0
264,-1,4,2,1,75,0,0
604,-133.333333333333,4,2,1,75,0,0
20718,-100,4,2,1,75,0,0
21400,-133.333333333333,4,2,1,75,0,0
22082,-100,4,2,1,75,0,0
27792,-100,4,2,1,5,0,0
27877,-100,4,2,1,75,0,0
27962,-100,4,2,1,5,0,0
28048,-100,4,2,1,75,0,0
28133,-100,4,2,1,5,0,0
28218,-100,4,2,1,75,0,0
30604,-125,4,2,1,75,0,0
30945,-166.666666666667,4,2,1,75,0,0
32991,-100,4,2,1,75,0,0
34014,-83.3333333333333,4,2,1,75,0,0
34354,-100,4,2,1,75,0,0
45860,-800,4,2,1,5,0,0
46627,-133.333333333333,4,2,1,50,0,0
84468,-133.333333333333,4,2,1,75,0,0
84809,-100,4,2,1,75,0,0
88559,-100,4,2,1,25,0,0
88900,-100,4,2,1,50,0,0
89411,-100,4,2,1,75,0,0
91286,-100,4,2,1,75,0,0

[HitObjects]
63,207,264,6,0,P|133:245|93:51,1,450
97,51,434,5,0,0:0:0:0:
143,142,604,2,0,L|216:142,1,67.5000025749208
220,215,945,6,0,L|295:215,1,67.5000025749208
297,288,1286,2,0,L|371:288,1,67.5000025749208
441,357,1627,5,0,0:0:0:0:
364,284,1968,1,0,0:0:0:0:
441,210,2309,5,0,0:0:0:0:
360,146,2565,1,0,0:0:0:0:
364,136,2650,1,0,0:0:0:0:
440,62,2820,1,0,0:0:0:0:
337,33,2991,6,0,L|337:101,1,67.5000025749208
264,109,3332,2,0,L|264:181,1,67.5000025749208
191,186,3673,6,0,L|191:255,1,67.5000025749208
118,263,4014,2,0,L|118:331,1,67.5000025749208
45,186,4355,5,0,0:0:0:0:
122,113,4695,1,0,0:0:0:0:
191,186,4866,5,0,0:0:0:0:
199,178,4951,1,0,0:0:0:0:
264,117,5036,6,0,L|324:116,1,50.6250019311906
333,190,5249,1,0,0:0:0:0:
406,121,5377,2,0,L|406:188,1,67.5000025749208
360,362,5718,6,0,P|351:331|360:294,1,67.5000025749208
460,297,6059,2,0,P|467:329|458:361,1,67.5000025749208
262,362,6400,6,0,P|253:331|262:294,1,67.5000025749208
362,297,6741,2,0,P|369:329|360:361,1,67.5000025749208
164,362,7082,5,0,0:0:0:0:
134,269,7423,1,0,0:0:0:0:
213,211,7764,5,0,0:0:0:0:
292,268,8019,1,0,0:0:0:0:
284,276,8104,1,0,0:0:0:0:
262,360,8275,1,0,0:0:0:0:
301,171,8445,6,0,P|332:162|369:171,1,67.5000025749208
431,171,8786,2,0,P|400:162|363:171,1,67.5000025749208
292,268,9127,6,0,P|323:259|360:268,1,67.5000025749208
440,268,9468,2,0,P|409:259|372:268,1,67.5000025749208
283,365,9809,5,0,0:0:0:0:
292,268,10065,5,0,0:0:0:0:
301,171,10320,5,0,0:0:0:0:
310,74,10491,6,0,L|233:78,2,45.0000017166138
301,171,10832,6,0,L|243:173,3,33.7500012874604
292,268,11173,6,0,L|234:270,3,33.7500012874604
301,171,11514,2,0,L|255:206,3,33.7500012874604
211,132,11854,6,0,L|194:187,3,33.7500012874604
301,171,12195,2,0,L|255:206,3,33.7500012874604
211,132,12536,6,0,L|194:187,3,33.7500012874604
250,42,12877,2,0,L|267:-13,3,33.7500012874604
340,81,13218,6,0,L|395:98,3,33.7500012874604
250,42,13559,2,0,L|267:-13,3,33.7500012874604
340,81,13900,6,0,L|395:98,3,33.7500012874604
301,171,14241,2,0,L|284:226,3,33.7500012874604
252,293,14582,6,0,L|197:276,3,33.7500012874604
301,171,14923,2,0,L|284:226,3,33.7500012874604
252,293,15264,6,0,L|197:276,3,33.7500012874604
171,190,15604,2,0,L|226:207,3,33.7500012874604
90,293,15945,6,0,L|35:276,3,33.7500012874604
171,190,16286,2,0,L|226:207,3,33.7500012874604
90,293,16627,6,0,L|35:276,1,33.7500012874604
130,241,16798,2,0,L|185:258,1,33.7500012874604
205,293,16968,6,0,L|150:276,1,33.7500012874604
245,241,17139,2,0,L|300:258,1,33.7500012874604
320,293,17309,6,0,L|265:276,1,33.7500012874604
360,241,17480,2,0,L|415:258,1,33.7500012874604
435,293,17650,6,0,L|380:276,1,33.7500012874604
475,241,17821,2,0,L|530:258,1,33.7500012874604
395,345,17991,6,0,L|340:328,1,33.7500012874604
400,189,18161,2,0,L|455:206,1,33.7500012874604
296,345,18332,6,0,L|241:328,1,33.7500012874604
268,179,18502,2,0,L|300:188,1,33.7500012874604
197,345,18673,6,0,L|142:328,1,33.7500012874604
136,169,18843,2,0,L|168:178,1,33.7500012874604
98,345,19014,6,0,L|43:328,1,33.7500012874604
4,159,19184,2,0,L|36:168,1,33.7500012874604
98,345,19354,5,0,0:0:0:0:
136,169,19525,1,0,0:0:0:0:
117,256,19695,5,0,0:0:0:0:
155,82,19866,1,0,0:0:0:0:
117,256,20036,5,0,0:0:0:0:
126,212,20121,1,0,0:0:0:0:
136,169,20207,1,0,0:0:0:0:
146,126,20292,1,0,0:0:0:0:
155,82,20377,2,0,L|164:49,3,33.7500012874604
146,126,20718,6,0,B|194:109|194:109|280:131,1,135
162,142,21059,2,0,B|210:125|210:125|296:147,1,135
307,161,21400,6,0,L|307:336,1,168.750006437302
381,330,21911,2,0,L|381:375,1,33.7500012874604
340,124,22082,6,0,B|292:107|292:107|206:129,1,135
162,142,22423,1,0,0:0:0:0:
256,296,22593,2,0,L|208:292,1,45
320,60,22764,2,0,B|340:124|340:124|352:196,1,135
301,88,23104,2,0,P|282:58|321:72,1,90
296,108,23360,5,0,0:0:0:0:
292,128,23445,1,0,0:0:0:0:
268,252,23616,2,0,L|278:196,1,45
160,84,23786,1,0,0:0:0:0:
117,256,23957,2,0,L|107:312,1,45
268,252,24127,6,0,P|308:216|248:224,1,135
396,280,24468,5,0,0:0:0:0:
292,68,24639,1,0,0:0:0:0:
316,68,24724,1,0,0:0:0:0:
252,200,24809,2,0,P|216:180|208:164,1,45
160,84,24979,6,0,P|196:104|204:120,1,45
153,224,25150,2,0,P|163:184|176:172,1,45
268,69,25320,2,0,P|257:108|244:120,1,45
396,280,25491,2,0,B|420:172|420:172|376:192,1,135
328,280,25832,2,0,B|396:280|396:280|464:348,1,135
460,344,26173,5,0,0:0:0:0:
397,182,26343,1,0,0:0:0:0:
224,75,26514,2,0,P|252:67|276:71,1,45
356,68,26684,1,0,0:0:0:0:
264,176,26854,2,0,B|264:160|264:160|256:144|256:144|264:132|264:132|264:96,2,45
382,36,27195,2,0,L|393:158,1,90
393,154,27451,5,0,0:0:0:0:
397,182,27536,1,0,0:0:0:0:
404,316,27707,2,0,L|424:368,1,45
311,237,27877,2,0,L|331:289,1,45
218,158,28048,2,0,L|238:210,1,45
176,296,28218,1,0,0:0:0:0:
160,254,28303,1,0,0:0:0:0:
166,270,28389,6,0,L|150:228,1,45
218,158,28559,2,0,L|338:178,1,90
191,89,28900,1,0,0:0:0:0:
200,116,28985,1,0,0:0:0:0:
208,140,29070,1,0,0:0:0:0:
100,60,29241,2,0,L|-20:80,1,90
191,89,29582,6,0,B|256:60|304:80|304:80|280:108,1,135
416,56,29923,1,0,0:0:0:0:
306,172,30093,6,0,P|336:164|364:168,1,45
176,296,30264,2,0,P|124:276|176:248,1,135
176,296,30604,6,0,P|126:277|176:250,1,108
175,295,30945,6,0,P|142:283|175:264,1,80.9999975280763
244,248,31286,1,0,0:0:0:0:
308,296,31627,1,0,0:0:0:0:
388,304,31968,1,0,0:0:0:0:
436,240,32309,1,0,0:0:0:0:
440,212,32650,6,0,L|440:164,1,26.9999991760254
220,52,32991,2,0,B|180:132|180:132|192:208,1,135
187,176,33332,1,0,0:0:0:0:
316,128,33502,1,0,0:0:0:0:
316,128,33587,1,0,0:0:0:0:
316,128,33673,6,0,L|248:128,1,45
104,120,33843,1,0,0:0:0:0:
384,172,34014,2,0,P|396:96|340:44,1,107.999996704102
316,220,34354,2,0,P|363:258|422:240,1,90
472,140,34695,1,0,0:0:0:0:
316,128,34866,1,0,0:0:0:0:
316,128,34951,6,0,L|316:184,1,45
312,324,35207,1,0,0:0:0:0:
472,140,35377,1,0,0:0:0:0:
316,128,35548,1,0,0:0:0:0:
112,336,35718,6,0,L|216:328,1,90
268,200,36059,1,0,0:0:0:0:
100,156,36229,1,0,0:0:0:0:
102,200,36314,1,0,0:0:0:0:
105,245,36399,1,0,0:0:0:0:
108,290,36484,1,0,0:0:0:0:
111,335,36569,1,0,0:0:0:0:
268,200,36741,5,0,0:0:0:0:
248,72,36911,1,0,0:0:0:0:
368,118,37082,6,0,L|436:124,1,45
248,72,37252,1,0,0:0:0:0:
388,246,37423,6,0,L|456:252,1,45
268,200,37593,1,0,0:0:0:0:
390,297,37764,5,0,0:0:0:0:
345,297,37849,1,0,0:0:0:0:
305,279,37934,1,0,0:0:0:0:
277,244,38019,1,0,0:0:0:0:
268,200,38104,1,0,0:0:0:0:
253,116,38275,2,0,L|244:56,1,45
117,291,38445,6,0,L|108:351,1,45
253,127,38616,2,0,L|246:76,1,45
137,276,38786,6,0,L|131:327,1,45
253,137,38957,2,0,L|246:85,1,45
155,263,39127,2,0,L|148:314,1,45
130,143,39298,5,0,0:0:0:0:
305,279,39469,1,0,0:0:0:0:
336,60,39639,1,0,0:3:0:0:
416,156,39809,2,0,L|464:172,1,45
305,279,39979,2,0,L|353:263,1,45
253,137,40150,6,0,L|301:153,1,45
142,260,40320,2,0,L|190:244,1,45
20,208,40491,5,0,0:0:0:0:
195,344,40662,1,0,0:0:0:0:
331,169,40832,5,0,0:0:0:0:
156,33,41002,1,0,0:0:0:0:
200,216,41173,5,0,0:0:0:0:
227,251,41258,1,0,0:0:0:0:
264,276,41343,1,0,0:0:0:0:
307,288,41428,1,0,0:0:0:0:
352,285,41513,1,0,0:0:0:0:
393,267,41599,1,0,0:0:0:0:
426,238,41684,1,0,0:0:0:0:
448,199,41769,1,0,0:0:0:0:
456,155,41854,1,0,0:0:0:0:
450,110,41940,1,0,0:0:0:0:
436,68,42025,5,0,0:0:0:0:
436,112,42110,1,0,0:0:0:0:
437,157,42195,1,0,0:0:0:0:
437,202,42280,1,0,0:0:0:0:
438,247,42365,1,0,0:0:0:0:
439,292,42451,1,0,0:0:0:0:
440,336,42536,5,0,0:0:0:0:
395,342,42621,1,0,0:0:0:0:
351,332,42706,1,0,0:0:0:0:
314,308,42791,1,0,0:0:0:0:
287,272,42876,1,0,0:0:0:0:
275,229,42962,1,0,0:0:0:0:
278,185,43047,1,0,0:0:0:0:
316,160,43133,5,0,0:0:0:0:
332,200,43218,1,0,0:0:0:0:
312,238,43303,1,0,0:0:0:0:
269,247,43388,1,0,0:0:0:0:
235,220,43473,1,0,0:0:0:0:
234,177,43559,5,0,0:0:0:0:
199,124,43644,1,0,0:0:0:0:
141,146,43729,1,0,0:0:0:0:
149,208,43814,1,0,0:0:0:0:
211,213,43899,1,0,0:0:0:0:
256,192,43985,12,0,45860,0:0:0:0:
63,207,45945,6,0,L|87:209,1,22.5
179,28,46627,6,0,B|243:156|115:156|179:284,1,270.000010299683
235,220,47479,1,0,0:0:0:0:
160,349,47650,2,0,P|172:317|179:284,1,67.5000025749208
352,349,47991,6,0,P|339:317|426:103,1,270.000010299683
445,236,49354,6,0,B|381:268|317:236|317:236|285:260|285:260|253:236|253:236|189:204|109:236,1,337.500012874604
66,219,50377,2,0,P|99:227|133:229,1,67.5000025749208
390,106,50718,6,0,P|381:108|186:48,1,202.500007724762
286,162,51400,6,8,P|278:157|191:38,1,135.000005149842,0|8,0:0|0:0,0:0:0:0:
199,61,51854,6,0,P|182:46|163:33,1,45.0000017166138,8|0,0:0|0:0,0:0:0:0:
89,18,52082,1,0,0:0:0:0:
89,18,52423,6,0,P|42:141|91:264,1,270.000010299683
45,111,53445,6,0,P|42:141|55:205,1,67.5000025749208
89,18,53786,2,0,P|65:38|29:91,1,67.5000025749208
139,346,54298,5,0,0:0:0:0:
135,264,54468,1,0,0:0:0:0:
131,183,54639,1,0,0:0:0:0:
127,102,54809,6,0,B|255:38|255:166|383:102,1,270.000010299683
385,102,55661,5,0,0:0:0:0:
381,183,55831,1,0,0:0:0:0:
377,264,56002,1,0,0:0:0:0:
373,346,56173,5,0,0:0:0:0:
135,264,56514,1,0,0:0:0:0:
381,183,56854,1,0,0:0:0:0:
127,102,57195,1,0,0:0:0:0:
381,21,57536,6,0,B|413:85|381:149|381:149|405:181|405:181|381:213|381:213|349:277|381:357,1,337.500012874604
446,308,58559,5,0,0:0:0:0:
377,264,58729,1,0,0:0:0:0:
195,333,58900,6,0,P|143:315|152:180,1,202.500007724762
142,187,59923,1,0,0:0:0:0:
407,140,60264,6,0,L|142:187,1,270.000010299683
159,19,61286,1,0,0:0:0:0:
407,140,61627,6,0,L|142:187,1,270.000010299683
151,104,62650,1,0,0:0:0:0:
134,272,62991,5,0,0:0:0:0:
142,187,63332,1,0,0:0:0:0:
225,168,63673,1,0,0:0:0:0:
268,241,64014,1,0,0:0:0:0:
211,304,64354,5,0,3:0:0:0:
142,187,64695,1,0,0:0:0:0:
268,241,65036,1,0,0:0:0:0:
134,272,65377,1,0,0:0:0:0:
225,168,65718,5,0,0:0:0:0:
268,241,65889,1,0,0:0:0:0:
211,304,66059,5,0,3:0:0:0:
134,272,66229,1,0,0:0:0:0:
325,178,67082,5,0,0:0:0:0:
211,304,67252,1,0,3:0:0:0:
268,241,67423,5,0,0:0:0:0:
154,367,67593,1,0,3:0:0:0:
76,125,67764,5,0,0:0:0:0:
115,246,67934,1,0,0:0:0:0:
154,367,68105,1,0,3:0:0:0:
268,241,68445,2,0,P|328:212|396:256,1,135.000005149842
328,364,68957,1,0,0:0:0:0:
268,241,69127,1,0,0:0:0:0:
380,172,69298,2,0,L|388:268,1,67.5000025749208
225,168,69639,6,0,L|217:72,1,67.5000025749208
212,0,69979,1,0,0:0:0:0:
296,60,70150,1,0,0:0:0:0:
344,148,70320,1,0,0:0:0:0:
303,40,70491,5,0,0:0:0:0:
219,100,70662,1,0,0:0:0:0:
171,188,70832,1,0,0:0:0:0:
171,188,71002,1,0,0:0:0:0:
268,241,71173,2,0,L|360:245,1,67.5000025749208
411,145,71514,2,0,L|319:149,1,67.5000025749208
244,168,71854,1,0,0:0:0:0:
204,76,72025,1,0,0:0:0:0:
103,185,72195,2,0,L|195:189,1,67.5000025749208
248,101,72536,6,0,P|178:137|178:209,1,135.000005149842
204,76,73048,6,0,P|161:142|197:204,1,135.000005149842
292,240,73559,1,0,0:0:0:0:
340,232,73673,1,0,0:0:0:0:
388,224,73786,1,0,0:0:0:0:
372,124,73900,2,0,L|356:20,1,101.250003862381
292,240,74241,6,0,L|266:75,1,135.000005149842
196,36,74752,1,0,0:0:0:0:
200,136,74923,1,0,0:0:0:0:
272,208,75093,1,0,0:0:0:0:
271,106,75264,5,0,0:3:0:0:
182,152,75435,1,0,0:3:0:0:
84,126,75605,1,0,0:3:0:0:
84,126,75775,1,0,0:0:0:0:
76,228,75945,2,0,L|72:316,1,67.5000025749208
178,219,76286,2,0,L|182:131,1,67.5000025749208
271,106,76627,5,0,0:0:0:0:
368,136,76798,1,0,0:0:0:0:
271,106,76968,5,0,0:0:0:0:
368,136,77139,1,0,0:0:0:0:
334,72,77309,5,0,0:0:0:0:
304,169,77480,1,0,0:0:0:0:
334,72,77650,5,0,0:0:0:0:
304,169,77821,1,0,0:0:0:0:
404,196,77991,2,0,L|492:216,1,67.5000025749208
292,276,78332,2,0,L|380:256,1,67.5000025749208
112,204,78673,2,0,L|215:227,1,101.250003862381
40,236,79014,6,0,P|37:178|83:131,1,101.250003862381
84,120,79354,1,0,0:0:0:0:
160,176,79525,1,0,0:0:0:0:
252,136,79695,1,0,0:0:0:0:
172,77,79866,1,0,0:0:0:0:
160,176,80036,6,0,L|144:272,1,67.5000025749208
252,136,80377,2,0,L|268:40,1,67.5000025749208
317,245,80718,2,0,P|329:197|409:201,1,135.000005149842
303,194,81229,2,0,P|337:158|404:201,1,135.000005149842
428,292,81741,1,0,0:0:0:0:
295,317,82082,2,0,L|443:289,1,135.000005149842
170,219,82764,6,0,L|318:191,1,135.000005149842
39,102,83445,6,0,L|187:74,1,135.000005149842
296,48,83957,1,0,0:0:0:0:
171,76,84127,1,0,0:0:0:0:
143,94,84212,1,0,0:0:0:0:
131,125,84297,1,0,0:0:0:0:
137,158,84382,1,0,0:0:0:0:
160,184,84467,1,4,3:3:0:0:
258,171,84639,1,0,0:0:0:0:
171,76,84809,6,0,P|116:60|144:112,1,135
258,171,85150,2,0,L|332:168,1,45
372,164,85320,1,0,0:0:0:0:
317,0,85491,5,0,3:0:0:0:
302,42,85576,1,0,3:0:0:0:
287,85,85661,1,0,3:0:0:0:
272,127,85746,1,0,3:0:0:0:
257,170,85831,1,0,3:0:0:0:
220,294,86002,1,0,0:0:0:0:
346,265,86173,2,0,L|304:220,1,45
131,199,86343,1,0,0:0:0:0:
94,324,86514,5,0,0:0:0:0:
258,171,86684,1,0,3:0:0:0:
265,127,86769,1,0,3:0:0:0:
248,86,86854,1,0,3:0:0:0:
212,60,86939,1,0,3:0:0:0:
168,58,87024,1,0,3:0:0:0:
131,199,87195,2,0,P|168:248|256:248,1,135
304,240,87536,1,0,0:0:0:0:
304,104,87707,5,0,0:0:0:0:
68,240,87877,1,0,0:0:0:0:
304,376,88048,1,0,0:0:0:0:
185,104,88218,5,0,0:0:0:0:
187,240,88389,1,0,0:0:0:0:
66,104,88559,5,0,0:0:0:0:
189,376,88729,1,0,0:0:0:0:
62,202,88900,6,0,L|100:232,1,45,0|0,3:0|3:0,3:0:0:0:
304,376,89070,1,0,3:0:0:0:
320,360,89156,1,0,3:0:0:0:
336,344,89241,1,0,3:0:0:0:
352,328,89326,1,0,3:0:0:0:
384,296,89411,1,0,3:0:0:0:
364,256,89496,1,0,3:0:0:0:
324,236,89581,1,0,3:0:0:0:
281,243,89666,1,0,3:0:0:0:
250,275,89752,2,0,L|236:328,1,45,0|0,3:0|3:0,3:0:0:0:
172,212,89923,5,0,0:0:0:0:
135,187,90008,1,0,0:0:0:0:
119,146,90093,1,0,0:0:0:0:
131,103,90178,1,0,0:0:0:0:
165,76,90263,1,0,0:0:0:0:
256,192,90349,12,0,90945,0:0:0:0:
376,68,91116,5,0,0:0:0:0:
344,320,91286,2,0,L|352:264,1,45
