osu file format v14

[General]
AudioFilename: audio.mp3
AudioLeadIn: 0
PreviewTime: 267536
Countdown: 0
SampleSet: None
StackLeniency: 0.7
Mode: 3
LetterboxInBreaks: 0
SpecialStyle: 0
WidescreenStoryboard: 1

[Editor]
Bookmarks: 11173,16627,22082,43900,68445,84809,102536,125718,147536,169354,188445,199354,223559,240264,256627,278445,300264,311173
DistanceSpacing: 1.2
BeatDivisor: 4
GridSize: 8
TimelineZoom: 2.799998

[Metadata]
Title:A Day in the S.I.O.U.
TitleUnicode:A Day in the S.I.O.U.
Artist:kamome sano
ArtistUnicode:kamome sano
Creator:-Izayoi
Version:2ndlegend in the S.I.O.U
Source:ガールフレンド(仮)
Tags:girlfriend kari beta kokomi shiina chloe lemaire fumio murakami sakurai ayane erena mochizuki game GF dnb drumstep 2ndlegend
BeatmapID:2191644
BeatmapSetID:761695

[Difficulty]
HPDrainRate:8
CircleSize:4
OverallDifficulty:8
ApproachRate:9.5
SliderMultiplier:2
SliderTickRate:2

[Events]
//Background and Video events
0,0,"gfkari.jpg",0,0
//Break Periods
2,44098,46100
2,180462,201555
//Storyboard Layer 0 (Background)
//Storyboard Layer 1 (Fail)
//Storyboard Layer 2 (Pass)
//Storyboard Layer 3 (Foreground)
//Storyboard Layer 4 (Overlay)
//Storyboard Sound Samples

[TimingPoints]
262,340.909090909091,4,2,0,80,1,0
20716,-100,4,2,0,80,0,0
20801,-200,4,2,0,80,0,0
20929,-66.6666666666667,4,2,0,80,0,0
21057,-100,4,2,0,80,0,0
21142,-200,4,2,0,80,0,0
21227,-66.6666666666667,4,2,0,80,0,0
21398,-100,4,2,0,80,0,0
21483,-200,4,2,0,80,0,0
21568,-66.6666666666667,4,2,0,80,0,0
21739,-100,4,2,0,80,0,0
21824,-200,4,2,0,80,0,0
21909,-66.6666666666667,4,2,0,80,0,0
21994,-100,4,2,0,80,0,0
22080,-100,4,2,0,80,0,0
31284,-100,4,2,0,80,0,0
31369,-100,4,2,0,80,0,0
31455,-66.6666666666667,4,2,0,80,0,0
31540,-133.333333333333,4,2,0,80,0,0
31625,-100,4,2,0,80,0,0
31710,-200,4,2,0,80,0,0
31796,-66.6666666666667,4,2,0,80,0,0
31881,-133.333333333333,4,2,0,80,0,0
31966,-100,4,2,0,80,0,0
32051,-200,4,2,0,80,0,0
32137,-66.6666666666667,4,2,0,80,0,0
32307,-100,4,2,0,80,0,0
32392,-200,4,2,0,80,0,0
32477,-66.6666666666667,4,2,0,80,0,0
32563,-100,4,2,0,80,0,0
32648,-100,4,2,0,80,0,0
32648,-100,4,2,0,80,0,0
32648,-100,4,2,0,80,0,0
32733,-200,4,2,0,80,0,0
32818,-66.6666666666667,4,2,0,80,0,0
32904,-100,4,2,0,80,0,0
32918,-100,4,2,0,80,0,0
43898,-133.333333333333,4,2,0,80,0,0
44578,-200,4,2,0,80,0,0
46625,-100,4,2,0,80,0,0
88727,-133.333333333333,4,2,0,80,0,0
88898,-117.647058823529,4,2,0,80,0,0
89068,-105.263157894737,4,2,0,80,0,0
89154,-100,4,2,0,80,0,0
90262,-200,4,2,0,80,0,0
90943,-100,4,2,0,80,0,0
90943,-50,4,2,0,80,0,0
91114,-200,4,2,0,80,0,0
91199,-133.333333333333,4,2,0,80,0,0
91284,-66.6666666666667,4,2,0,80,0,0
91369,-200,4,2,0,80,0,0
91540,-133.333333333333,4,2,0,80,0,0
91625,-100,4,2,0,80,0,1
113443,-100,4,2,0,80,0,0
114296,-50,4,2,0,80,0,0
114551,-200,4,2,0,80,0,0
114722,-133.333333333333,4,2,0,80,0,0
114807,-100,4,2,0,80,0,1
135262,-100,4,2,0,80,0,0
136114,-50,4,2,0,80,0,0
136369,-200,4,2,0,80,0,0
136540,-133.333333333333,4,2,0,80,0,0
136625,-100,4,2,0,80,0,1
157080,-100,4,2,0,80,0,0
158102,-50,4,2,0,80,0,0
158273,-200,4,2,0,80,0,0
158358,-133.333333333333,4,2,0,80,0,0
158443,-100,4,2,0,80,0,1
180262,-400,4,2,0,80,0,0
202080,-200,4,2,0,20,0,0
202250,-133.333333333333,4,2,0,20,0,0
222534,-181.818181818181,4,2,0,20,0,0
223557,-100,4,2,0,80,0,0
223898,-100,4,2,0,80,0,0
245375,-66.6666666666667,4,2,0,80,0,0
245475,-44.4444444444445,4,2,0,80,0,0
245546,-200,4,2,0,80,0,0
245631,-133.333333333333,4,2,0,80,0,0
245716,-100,4,2,0,80,0,1
267193,-50,4,2,0,80,0,0
267279,-200,4,2,0,80,0,0
267364,-133.333333333333,4,2,0,80,0,0
267534,-100,4,2,0,80,0,1
289012,-50,4,2,0,80,0,1
289097,-200,4,2,0,80,0,1
289267,-133.333333333333,4,2,0,80,0,1
289352,-100,4,2,0,80,0,0
305460,-66.6666666666667,4,2,0,80,0,0
305631,-133.333333333333,4,2,0,80,0,0
305716,-100,4,2,0,80,0,0
310830,-66.6666666666667,4,2,0,80,0,0
311000,-200,4,2,0,80,0,0
311085,-133.333333333333,4,2,0,80,0,0
311171,-100,4,2,0,80,0,0
311171,-100,4,2,0,80,0,0

[HitObjects]
192,192,262,5,0,0:0:0:0:
64,192,262,1,0,0:0:0:0:
448,192,432,128,0,517:0:0:0:0:
192,192,602,1,0,0:0:0:0:
64,192,602,1,0,0:0:0:0:
448,192,773,1,0,0:0:0:0:
448,192,858,1,0,0:0:0:0:
192,192,943,1,0,0:0:0:0:
64,192,943,1,0,0:0:0:0:
320,192,1199,128,0,1284:0:0:0:0:
192,192,1284,1,0,0:0:0:0:
64,192,1284,1,0,0:0:0:0:
448,192,1455,128,0,1540:0:0:0:0:
192,192,1625,1,0,0:0:0:0:
64,192,1625,1,0,0:0:0:0:
320,192,1796,128,0,1881:0:0:0:0:
192,192,1966,1,0,0:0:0:0:
64,192,1966,1,0,0:0:0:0:
448,192,2137,128,0,2222:0:0:0:0:
192,192,2307,1,0,0:0:0:0:
64,192,2307,1,0,0:0:0:0:
448,192,2563,128,0,2648:0:0:0:0:
192,192,2648,1,0,0:0:0:0:
64,192,2648,1,0,0:0:0:0:
320,192,2818,128,0,2904:0:0:0:0:
192,192,2989,1,0,0:0:0:0:
64,192,2989,1,0,0:0:0:0:
448,192,3159,128,0,3244:0:0:0:0:
192,192,3330,1,0,0:0:0:0:
64,192,3330,1,0,0:0:0:0:
320,192,3500,1,0,0:0:0:0:
320,192,3585,1,0,0:0:0:0:
192,192,3671,1,0,0:0:0:0:
64,192,3671,1,0,0:0:0:0:
448,192,3926,128,0,4012:0:0:0:0:
192,192,4012,1,0,0:0:0:0:
64,192,4012,1,0,0:0:0:0:
320,192,4182,128,0,4267:0:0:0:0:
192,192,4352,1,0,0:0:0:0:
64,192,4352,1,0,0:0:0:0:
448,192,4523,128,0,4608:0:0:0:0:
192,192,4693,1,0,0:0:0:0:
64,192,4693,1,0,0:0:0:0:
320,192,4864,1,0,0:0:0:0:
320,192,4949,1,0,0:0:0:0:
192,192,5034,1,0,0:0:0:0:
64,192,5034,1,0,0:0:0:0:
448,192,5119,1,0,0:0:0:0:
448,192,5205,128,0,5290:0:0:0:0:
192,192,5375,1,0,0:0:0:0:
64,192,5375,1,0,0:0:0:0:
448,192,5546,128,0,5631:0:0:0:0:
320,192,5716,1,0,0:0:0:0:
448,192,5716,1,0,0:0:0:0:
64,192,5887,128,0,5972:0:0:0:0:
320,192,6057,1,0,0:0:0:0:
448,192,6057,1,0,0:0:0:0:
64,192,6227,1,0,0:0:0:0:
64,192,6313,1,0,0:0:0:0:
320,192,6398,1,0,0:0:0:0:
448,192,6398,1,0,0:0:0:0:
64,192,6654,128,0,6739:0:0:0:0:
320,192,6739,1,0,0:0:0:0:
448,192,6739,1,0,0:0:0:0:
192,192,6909,128,0,6994:0:0:0:0:
320,192,7080,1,0,0:0:0:0:
448,192,7080,1,0,0:0:0:0:
192,192,7250,128,0,7335:0:0:0:0:
320,192,7421,1,0,0:0:0:0:
448,192,7421,1,0,0:0:0:0:
64,192,7591,128,0,7676:0:0:0:0:
320,192,7762,1,0,0:0:0:0:
448,192,7762,1,0,0:0:0:0:
192,192,8017,128,0,8102:0:0:0:0:
320,192,8102,1,0,0:0:0:0:
448,192,8102,1,0,0:0:0:0:
192,192,8273,128,0,8358:0:0:0:0:
320,192,8443,1,0,0:0:0:0:
448,192,8443,1,0,0:0:0:0:
192,192,8614,128,0,8699:0:0:0:0:
320,192,8784,1,0,0:0:0:0:
448,192,8784,1,0,0:0:0:0:
64,192,8955,1,0,0:0:0:0:
64,192,9040,1,0,0:0:0:0:
320,192,9125,1,0,0:0:0:0:
448,192,9125,1,0,0:0:0:0:
64,192,9381,128,0,9466:0:0:0:0:
320,192,9466,1,0,0:0:0:0:
448,192,9466,1,0,0:0:0:0:
192,192,9637,128,0,9722:0:0:0:0:
320,192,9807,1,0,0:0:0:0:
448,192,9807,1,0,0:0:0:0:
192,192,10063,128,0,10148:0:0:0:0:
320,192,10148,1,0,0:0:0:0:
448,192,10148,1,0,0:0:0:0:
192,192,10318,128,0,10404:0:0:0:0:
320,192,10489,1,0,0:0:0:0:
448,192,10489,1,0,0:0:0:0:
192,192,10574,1,0,0:0:0:0:
192,192,10659,128,0,10744:0:0:0:0:
320,192,10830,5,0,0:0:0:0:
448,192,10830,1,0,0:0:0:0:
192,192,10915,1,0,0:0:0:0:
192,192,11000,128,0,11085:0:0:0:0:
448,192,11171,1,0,0:0:0:0:
320,192,11256,1,0,0:0:0:0:
192,192,11341,1,0,0:0:0:0:
320,192,11426,1,0,0:0:0:0:
192,192,11512,1,0,0:0:0:0:
64,192,11597,1,0,0:0:0:0:
192,192,11682,1,0,0:0:0:0:
448,192,11767,1,0,0:0:0:0:
320,192,11852,1,0,0:0:0:0:
192,192,11938,1,0,0:0:0:0:
64,192,12023,1,0,0:0:0:0:
192,192,12108,1,0,0:0:0:0:
448,192,12193,1,0,0:0:0:0:
64,192,12279,1,0,0:0:0:0:
192,192,12364,1,0,0:0:0:0:
320,192,12449,1,0,0:0:0:0:
448,192,12534,1,0,0:0:0:0:
192,192,12619,1,0,0:0:0:0:
64,192,12705,1,0,0:0:0:0:
448,192,12790,1,0,0:0:0:0:
320,192,12875,1,0,0:0:0:0:
192,192,12960,1,0,0:0:0:0:
64,192,13046,1,0,0:0:0:0:
320,192,13131,1,0,0:0:0:0:
448,192,13216,1,0,0:0:0:0:
64,192,13301,1,0,0:0:0:0:
192,192,13387,1,0,0:0:0:0:
320,192,13472,1,0,0:0:0:0:
448,192,13557,1,0,0:0:0:0:
320,192,13642,1,0,0:0:0:0:
192,192,13727,1,0,0:0:0:0:
448,192,13813,1,0,0:0:0:0:
320,192,13898,1,0,0:0:0:0:
192,192,13983,1,0,0:0:0:0:
64,192,14068,1,0,0:0:0:0:
192,192,14154,1,0,0:0:0:0:
448,192,14239,1,0,0:0:0:0:
320,192,14324,1,0,0:0:0:0:
192,192,14409,1,0,0:0:0:0:
64,192,14494,1,0,0:0:0:0:
320,192,14580,1,0,0:0:0:0:
448,192,14665,1,0,0:0:0:0:
64,192,14750,1,0,0:0:0:0:
192,192,14835,1,0,0:0:0:0:
320,192,14921,1,0,0:0:0:0:
448,192,15006,1,0,0:0:0:0:
320,192,15091,1,0,0:0:0:0:
192,192,15176,1,0,0:0:0:0:
64,192,15262,1,0,0:0:0:0:
448,192,15347,1,0,0:0:0:0:
320,192,15432,1,0,0:0:0:0:
64,192,15517,1,0,0:0:0:0:
192,192,15602,1,0,0:0:0:0:
320,192,15688,1,0,0:0:0:0:
448,192,15773,1,0,0:0:0:0:
64,192,15858,1,0,0:0:0:0:
320,192,15943,1,0,0:0:0:0:
448,192,16029,1,0,0:0:0:0:
192,192,16114,1,0,0:0:0:0:
320,192,16199,1,0,0:0:0:0:
448,192,16284,1,0,0:0:0:0:
320,192,16369,1,0,0:0:0:0:
192,192,16455,1,0,0:0:0:0:
64,192,16540,1,0,0:0:0:0:
192,192,16625,1,0,0:0:0:0:
448,192,16710,1,0,0:0:0:0:
320,192,16796,1,0,0:0:0:0:
64,192,16881,1,0,0:0:0:0:
192,192,16966,1,0,0:0:0:0:
320,192,17051,1,0,0:0:0:0:
448,192,17137,1,0,0:0:0:0:
64,192,17222,1,0,0:0:0:0:
192,192,17307,1,0,0:0:0:0:
448,192,17392,1,0,0:0:0:0:
320,192,17477,1,0,0:0:0:0:
192,192,17563,1,0,0:0:0:0:
64,192,17648,1,0,0:0:0:0:
192,192,17733,1,0,0:0:0:0:
448,192,17818,1,0,0:0:0:0:
64,192,17904,1,0,0:0:0:0:
192,192,17989,1,0,0:0:0:0:
320,192,18074,1,0,0:0:0:0:
448,192,18159,1,0,0:0:0:0:
192,192,18244,1,0,0:0:0:0:
64,192,18330,1,0,0:0:0:0:
320,192,18415,1,0,0:0:0:0:
192,192,18500,1,0,0:0:0:0:
448,192,18585,1,0,0:0:0:0:
320,192,18671,1,0,0:0:0:0:
192,192,18756,1,0,0:0:0:0:
64,192,18841,1,0,0:0:0:0:
192,192,18926,1,0,0:0:0:0:
320,192,19012,1,0,0:0:0:0:
64,192,19097,1,0,0:0:0:0:
192,192,19182,1,0,0:0:0:0:
320,192,19267,1,0,0:0:0:0:
448,192,19352,1,0,0:0:0:0:
320,192,19438,1,0,0:0:0:0:
192,192,19523,1,0,0:0:0:0:
64,192,19608,1,0,0:0:0:0:
448,192,19693,1,0,0:0:0:0:
320,192,19693,1,0,0:0:0:0:
64,192,19864,1,0,0:0:0:0:
320,192,19864,1,0,0:0:0:0:
448,192,19864,1,0,0:0:0:0:
192,192,19949,1,0,0:0:0:0:
448,192,20034,1,0,0:0:0:0:
320,192,20119,1,0,0:0:0:0:
64,192,20205,5,0,0:0:0:0:
320,192,20290,1,0,0:0:0:0:
192,192,20375,1,0,0:0:0:0:
448,192,20460,1,0,0:0:0:0:
320,192,20546,1,0,0:0:0:0:
192,192,20716,128,0,20801:0:0:0:0:
320,192,20716,128,0,20801:0:0:0:0:
448,192,20716,128,0,20801:0:0:0:0:
64,192,20716,128,0,20801:0:0:0:0:
64,192,21057,128,0,21142:0:0:0:0:
192,192,21057,128,0,21142:0:0:0:0:
320,192,21057,128,0,21142:0:0:0:0:
448,192,21057,128,0,21142:0:0:0:0:
192,192,21398,128,0,21483:0:0:0:0:
320,192,21398,128,0,21483:0:0:0:0:
448,192,21398,128,0,21483:0:0:0:0:
64,192,21398,128,0,21483:0:0:0:0:
320,192,21739,128,0,21824:0:0:0:0:
192,192,21739,128,0,21824:0:0:0:0:
448,192,21739,128,0,21824:0:0:0:0:
64,192,21739,128,0,21824:0:0:0:0:
192,192,22080,1,0,0:0:0:0:
64,192,22080,1,0,0:0:0:0:
448,192,22080,1,0,0:0:0:0:
320,192,22165,1,0,0:0:0:0:
192,192,22250,1,0,0:0:0:0:
448,192,22250,1,0,0:0:0:0:
320,192,22335,1,0,0:0:0:0:
192,192,22421,1,0,0:0:0:0:
64,192,22421,1,0,0:0:0:0:
320,192,22506,1,0,0:0:0:0:
448,192,22591,1,0,0:0:0:0:
64,192,22591,1,0,0:0:0:0:
192,192,22676,1,0,0:0:0:0:
320,192,22762,1,0,0:0:0:0:
448,192,22762,1,0,0:0:0:0:
192,192,22847,1,0,0:0:0:0:
64,192,22932,1,0,0:0:0:0:
448,192,22932,1,0,0:0:0:0:
320,192,23017,1,0,0:0:0:0:
64,192,23102,1,0,0:0:0:0:
192,192,23102,1,0,0:0:0:0:
448,192,23188,1,0,0:0:0:0:
320,192,23273,1,0,0:0:0:0:
192,192,23358,1,0,0:0:0:0:
320,192,23443,1,0,0:0:0:0:
448,192,23443,1,0,0:0:0:0:
64,192,23529,1,0,0:0:0:0:
192,192,23614,1,0,0:0:0:0:
448,192,23614,1,0,0:0:0:0:
320,192,23699,1,0,0:0:0:0:
192,192,23784,1,0,0:0:0:0:
64,192,23784,1,0,0:0:0:0:
320,192,23869,1,0,0:0:0:0:
448,192,23955,1,0,0:0:0:0:
64,192,23955,1,0,0:0:0:0:
192,192,24040,1,0,0:0:0:0:
320,192,24125,1,0,0:0:0:0:
448,192,24125,1,0,0:0:0:0:
64,192,24210,1,0,0:0:0:0:
192,192,24296,1,0,0:0:0:0:
448,192,24296,1,0,0:0:0:0:
320,192,24381,1,0,0:0:0:0:
192,192,24466,1,0,0:0:0:0:
64,192,24466,1,0,0:0:0:0:
448,192,24551,1,0,0:0:0:0:
64,192,24637,1,0,0:0:0:0:
320,192,24637,1,0,0:0:0:0:
192,192,24722,1,0,0:0:0:0:
320,192,24807,1,0,0:0:0:0:
448,192,24807,1,0,0:0:0:0:
64,192,24892,1,0,0:0:0:0:
192,192,24977,1,0,0:0:0:0:
320,192,24977,1,0,0:0:0:0:
448,192,25063,1,0,0:0:0:0:
192,192,25148,1,0,0:0:0:0:
64,192,25148,1,0,0:0:0:0:
320,192,25233,1,0,0:0:0:0:
448,192,25318,1,0,0:0:0:0:
64,192,25318,1,0,0:0:0:0:
192,192,25404,1,0,0:0:0:0:
320,192,25489,1,0,0:0:0:0:
64,192,25489,1,0,0:0:0:0:
448,192,25574,1,0,0:0:0:0:
320,192,25659,1,0,0:0:0:0:
192,192,25659,1,0,0:0:0:0:
64,192,25744,1,0,0:0:0:0:
320,192,25830,1,0,0:0:0:0:
448,192,25830,1,0,0:0:0:0:
192,192,25915,1,0,0:0:0:0:
64,192,26000,1,0,0:0:0:0:
448,192,26000,1,0,0:0:0:0:
320,192,26085,1,0,0:0:0:0:
192,192,26171,1,0,0:0:0:0:
64,192,26171,1,0,0:0:0:0:
448,192,26256,1,0,0:0:0:0:
64,192,26341,1,0,0:0:0:0:
320,192,26341,1,0,0:0:0:0:
192,192,26426,1,0,0:0:0:0:
320,192,26512,1,0,0:0:0:0:
448,192,26512,1,0,0:0:0:0:
192,192,26597,1,0,0:0:0:0:
64,192,26682,1,0,0:0:0:0:
448,192,26682,1,0,0:0:0:0:
192,192,26767,1,0,0:0:0:0:
320,192,26852,1,0,0:0:0:0:
64,192,26852,1,0,0:0:0:0:
448,192,26938,1,0,0:0:0:0:
320,192,27023,1,0,0:0:0:0:
192,192,27023,1,0,0:0:0:0:
64,192,27108,1,0,0:0:0:0:
320,192,27193,1,0,0:0:0:0:
448,192,27193,1,0,0:0:0:0:
192,192,27279,1,0,0:0:0:0:
64,192,27364,1,0,0:0:0:0:
448,192,27364,1,0,0:0:0:0:
320,192,27449,1,0,0:0:0:0:
192,192,27534,1,0,0:0:0:0:
448,192,27534,1,0,0:0:0:0:
64,192,27619,1,0,0:0:0:0:
192,192,27705,1,0,0:0:0:0:
320,192,27705,1,0,0:0:0:0:
448,192,27790,1,0,0:0:0:0:
192,192,27875,1,0,0:0:0:0:
64,192,27875,1,0,0:0:0:0:
448,192,27960,1,0,0:0:0:0:
320,192,28046,1,0,0:0:0:0:
64,192,28046,1,0,0:0:0:0:
192,192,28131,1,0,0:0:0:0:
320,192,28216,1,0,0:0:0:0:
448,192,28216,1,0,0:0:0:0:
192,192,28301,1,0,0:0:0:0:
64,192,28387,1,0,0:0:0:0:
448,192,28387,1,0,0:0:0:0:
320,192,28472,1,0,0:0:0:0:
192,192,28557,1,0,0:0:0:0:
448,192,28557,1,0,0:0:0:0:
64,192,28642,1,0,0:0:0:0:
192,192,28727,1,0,0:0:0:0:
448,192,28727,1,0,0:0:0:0:
320,192,28813,1,0,0:0:0:0:
192,192,28898,1,0,0:0:0:0:
64,192,28898,1,0,0:0:0:0:
320,192,28983,1,0,0:0:0:0:
448,192,29068,1,0,0:0:0:0:
192,192,29068,1,0,0:0:0:0:
64,192,29154,1,0,0:0:0:0:
192,192,29239,1,0,0:0:0:0:
320,192,29239,1,0,0:0:0:0:
448,192,29324,1,0,0:0:0:0:
320,192,29409,1,0,0:0:0:0:
64,192,29409,1,0,0:0:0:0:
192,192,29494,1,0,0:0:0:0:
320,192,29580,1,0,0:0:0:0:
448,192,29580,1,0,0:0:0:0:
64,192,29665,1,0,0:0:0:0:
448,192,29750,5,0,0:0:0:0:
192,192,29750,1,0,0:0:0:0:
320,192,29835,1,0,0:0:0:0:
192,192,29921,1,0,0:0:0:0:
64,192,29921,1,0,0:0:0:0:
320,192,30006,1,0,0:0:0:0:
192,192,30091,1,0,0:0:0:0:
448,192,30091,1,0,0:0:0:0:
64,192,30176,1,0,0:0:0:0:
192,192,30262,5,0,0:0:0:0:
320,192,30262,1,0,0:0:0:0:
448,192,30262,1,0,0:0:0:0:
192,192,30432,1,0,0:0:0:0:
320,192,30432,1,0,0:0:0:0:
192,192,30602,1,0,0:0:0:0:
320,192,30602,1,0,0:0:0:0:
64,192,30602,1,0,0:0:0:0:
64,192,30773,1,0,0:0:0:0:
192,192,30773,1,0,0:0:0:0:
192,192,30943,1,0,0:0:0:0:
320,192,30943,1,0,0:0:0:0:
448,192,30943,1,0,0:0:0:0:
320,192,31114,1,0,0:0:0:0:
448,192,31114,1,0,0:0:0:0:
320,192,31284,128,0,31369:0:0:0:0:
448,192,31284,128,0,31369:0:0:0:0:
192,192,31284,128,0,31369:0:0:0:0:
320,192,31625,128,0,31710:0:0:0:0:
192,192,31625,128,0,31710:0:0:0:0:
64,192,31625,128,0,31710:0:0:0:0:
448,192,31966,128,0,32051:0:0:0:0:
320,192,31966,128,0,32051:0:0:0:0:
192,192,31966,128,0,32051:0:0:0:0:
64,192,32307,128,0,32392:0:0:0:0:
192,192,32307,128,0,32392:0:0:0:0:
320,192,32307,128,0,32392:0:0:0:0:
320,192,32648,128,0,32733:0:0:0:0:
448,192,32648,128,0,32733:0:0:0:0:
192,192,32648,128,0,32733:0:0:0:0:
64,192,32989,1,0,0:0:0:0:
192,192,32989,1,0,0:0:0:0:
448,192,33074,1,0,0:0:0:0:
320,192,33159,1,0,0:0:0:0:
64,192,33159,1,0,0:0:0:0:
192,192,33244,1,0,0:0:0:0:
320,192,33330,1,0,0:0:0:0:
448,192,33330,1,0,0:0:0:0:
64,192,33415,1,0,0:0:0:0:
192,192,33500,1,0,0:0:0:0:
320,192,33500,1,0,0:0:0:0:
448,192,33585,1,0,0:0:0:0:
320,192,33671,1,0,0:0:0:0:
64,192,33671,1,0,0:0:0:0:
192,192,33756,1,0,0:0:0:0:
64,192,33841,1,0,0:0:0:0:
448,192,33841,1,0,0:0:0:0:
320,192,33926,1,0,0:0:0:0:
192,192,34012,1,0,0:0:0:0:
64,192,34012,1,0,0:0:0:0:
320,192,34097,1,0,0:0:0:0:
448,192,34182,1,0,0:0:0:0:
64,192,34182,1,0,0:0:0:0:
192,192,34267,1,0,0:0:0:0:
320,192,34352,1,0,0:0:0:0:
448,192,34352,1,0,0:0:0:0:
64,192,34438,1,0,0:0:0:0:
192,192,34523,1,0,0:0:0:0:
448,192,34523,1,0,0:0:0:0:
320,192,34608,1,0,0:0:0:0:
192,192,34693,1,0,0:0:0:0:
64,192,34693,1,0,0:0:0:0:
448,192,34779,1,0,0:0:0:0:
192,192,34864,1,0,0:0:0:0:
320,192,34864,1,0,0:0:0:0:
64,192,34949,1,0,0:0:0:0:
192,192,35034,1,0,0:0:0:0:
448,192,35034,1,0,0:0:0:0:
320,192,35119,1,0,0:0:0:0:
192,192,35205,1,0,0:0:0:0:
64,192,35205,1,0,0:0:0:0:
320,192,35290,1,0,0:0:0:0:
448,192,35375,1,0,0:0:0:0:
192,192,35375,1,0,0:0:0:0:
64,192,35460,1,0,0:0:0:0:
192,192,35546,1,0,0:0:0:0:
320,192,35546,1,0,0:0:0:0:
448,192,35631,1,0,0:0:0:0:
320,192,35716,1,0,0:0:0:0:
64,192,35716,1,0,0:0:0:0:
192,192,35801,1,0,0:0:0:0:
320,192,35887,1,0,0:0:0:0:
448,192,35887,1,0,0:0:0:0:
192,192,35972,1,0,0:0:0:0:
64,192,36057,1,0,0:0:0:0:
448,192,36057,1,0,0:0:0:0:
320,192,36142,1,0,0:0:0:0:
192,192,36227,1,0,0:0:0:0:
64,192,36227,1,0,0:0:0:0:
320,192,36313,1,0,0:0:0:0:
448,192,36398,1,0,0:0:0:0:
192,192,36398,1,0,0:0:0:0:
64,192,36483,1,0,0:0:0:0:
192,192,36568,1,0,0:0:0:0:
320,192,36568,1,0,0:0:0:0:
448,192,36654,1,0,0:0:0:0:
320,192,36739,1,0,0:0:0:0:
64,192,36739,1,0,0:0:0:0:
192,192,36824,1,0,0:0:0:0:
320,192,36909,1,0,0:0:0:0:
448,192,36909,1,0,0:0:0:0:
64,192,36994,1,0,0:0:0:0:
192,192,37080,1,0,0:0:0:0:
320,192,37080,1,0,0:0:0:0:
448,192,37165,1,0,0:0:0:0:
320,192,37250,1,0,0:0:0:0:
64,192,37250,1,0,0:0:0:0:
192,192,37335,1,0,0:0:0:0:
320,192,37421,1,0,0:0:0:0:
448,192,37421,1,0,0:0:0:0:
192,192,37506,1,0,0:0:0:0:
64,192,37591,1,0,0:0:0:0:
448,192,37591,1,0,0:0:0:0:
320,192,37676,1,0,0:0:0:0:
192,192,37762,1,0,0:0:0:0:
64,192,37762,1,0,0:0:0:0:
320,192,37847,1,0,0:0:0:0:
448,192,37932,1,0,0:0:0:0:
192,192,37932,1,0,0:0:0:0:
64,192,38017,1,0,0:0:0:0:
192,192,38102,1,0,0:0:0:0:
320,192,38102,1,0,0:0:0:0:
448,192,38188,1,0,0:0:0:0:
320,192,38273,1,0,0:0:0:0:
64,192,38273,1,0,0:0:0:0:
192,192,38358,1,0,0:0:0:0:
320,192,38443,1,0,0:0:0:0:
448,192,38443,1,0,0:0:0:0:
64,192,38529,1,0,0:0:0:0:
192,192,38614,1,0,0:0:0:0:
320,192,38614,1,0,0:0:0:0:
448,192,38699,1,0,0:0:0:0:
320,192,38784,1,0,0:0:0:0:
64,192,38784,1,0,0:0:0:0:
192,192,38869,1,0,0:0:0:0:
320,192,38955,1,0,0:0:0:0:
448,192,38955,1,0,0:0:0:0:
64,192,39040,1,0,0:0:0:0:
192,192,39125,1,0,0:0:0:0:
320,192,39125,1,0,0:0:0:0:
448,192,39210,1,0,0:0:0:0:
64,192,39296,1,0,0:0:0:0:
320,192,39296,1,0,0:0:0:0:
192,192,39381,1,0,0:0:0:0:
320,192,39466,1,0,0:0:0:0:
448,192,39466,1,0,0:0:0:0:
64,192,39551,1,0,0:0:0:0:
192,192,39637,1,0,0:0:0:0:
448,192,39637,1,0,0:0:0:0:
320,192,39722,1,0,0:0:0:0:
192,192,39807,1,0,0:0:0:0:
64,192,39807,1,0,0:0:0:0:
320,192,39892,1,0,0:0:0:0:
448,192,39977,1,0,0:0:0:0:
192,192,39977,1,0,0:0:0:0:
64,192,40063,1,0,0:0:0:0:
192,192,40148,1,0,0:0:0:0:
320,192,40148,1,0,0:0:0:0:
448,192,40233,1,0,0:0:0:0:
320,192,40318,1,0,0:0:0:0:
64,192,40318,1,0,0:0:0:0:
192,192,40404,1,0,0:0:0:0:
320,192,40489,1,0,0:0:0:0:
448,192,40489,1,0,0:0:0:0:
64,192,40574,1,0,0:0:0:0:
192,192,40659,1,0,0:0:0:0:
448,192,40659,1,0,0:0:0:0:
320,192,40744,1,0,0:0:0:0:
64,192,40830,1,0,0:0:0:0:
192,192,40830,1,0,0:0:0:0:
320,192,40915,1,0,0:0:0:0:
448,192,41000,1,0,0:0:0:0:
64,192,41000,1,0,0:0:0:0:
320,192,41085,1,0,0:0:0:0:
192,192,41171,5,0,0:0:0:0:
64,192,41171,1,0,0:0:0:0:
320,192,41256,1,0,0:0:0:0:
448,192,41256,1,0,0:0:0:0:
192,192,41341,1,0,0:0:0:0:
64,192,41341,1,0,0:0:0:0:
320,192,41426,1,0,0:0:0:0:
448,192,41426,1,0,0:0:0:0:
192,192,41512,1,0,0:0:0:0:
64,192,41512,1,0,0:0:0:0:
320,192,41597,1,0,0:0:0:0:
448,192,41597,1,0,0:0:0:0:
192,192,41682,1,0,0:0:0:0:
64,192,41682,1,0,0:0:0:0:
320,192,41767,1,0,0:0:0:0:
448,192,41767,1,0,0:0:0:0:
192,192,41852,1,0,0:0:0:0:
64,192,41852,1,0,0:0:0:0:
320,192,41938,1,0,0:0:0:0:
448,192,41938,1,0,0:0:0:0:
192,192,42023,1,0,0:0:0:0:
64,192,42023,1,0,0:0:0:0:
320,192,42108,1,0,0:0:0:0:
448,192,42108,1,0,0:0:0:0:
192,192,42193,1,0,0:0:0:0:
64,192,42193,1,0,0:0:0:0:
320,192,42279,1,0,0:0:0:0:
448,192,42279,1,0,0:0:0:0:
192,192,42364,1,0,0:0:0:0:
64,192,42364,1,0,0:0:0:0:
320,192,42449,1,0,0:0:0:0:
448,192,42449,1,0,0:0:0:0:
64,192,42534,1,0,0:0:0:0:
192,192,42534,1,0,0:0:0:0:
320,192,42619,1,0,0:0:0:0:
448,192,42705,1,0,0:0:0:0:
64,192,42705,1,0,0:0:0:0:
192,192,42790,1,0,0:0:0:0:
320,192,42790,1,0,0:0:0:0:
448,192,42875,1,0,0:0:0:0:
64,192,42875,1,0,0:0:0:0:
192,192,42960,1,0,0:0:0:0:
320,192,42960,1,0,0:0:0:0:
448,192,43046,1,0,0:0:0:0:
64,192,43046,1,0,0:0:0:0:
192,192,43131,1,0,0:0:0:0:
320,192,43131,1,0,0:0:0:0:
448,192,43216,1,0,0:0:0:0:
64,192,43216,1,0,0:0:0:0:
192,192,43301,1,0,0:0:0:0:
320,192,43301,1,0,0:0:0:0:
448,192,43387,1,0,0:0:0:0:
64,192,43387,1,0,0:0:0:0:
192,192,43472,1,0,0:0:0:0:
320,192,43472,1,0,0:0:0:0:
448,192,43557,1,0,0:0:0:0:
64,192,43557,1,0,0:0:0:0:
192,192,43642,1,0,0:0:0:0:
320,192,43642,1,0,0:0:0:0:
448,192,43727,1,0,0:0:0:0:
64,192,43727,1,0,0:0:0:0:
192,192,43813,1,0,0:0:0:0:
320,192,43813,1,0,0:0:0:0:
448,192,43898,1,0,0:0:0:0:
64,192,43898,1,0,0:0:0:0:
64,192,46625,132,0,47477:0:0:0:0:
192,192,46625,128,0,47477:0:0:0:0:
320,192,47477,128,0,47648:0:0:0:0:
448,192,47648,128,0,47818:0:0:0:0:
192,192,47818,128,0,47989:0:0:0:0:
320,192,47989,128,0,48671:0:0:0:0:
448,192,47989,128,0,48671:0:0:0:0:
192,192,48671,128,0,49352:0:0:0:0:
320,192,49352,128,0,50375:0:0:0:0:
64,192,50375,128,0,50546:0:0:0:0:
320,192,50546,128,0,50716:0:0:0:0:
448,192,50716,128,0,51227:0:0:0:0:
192,192,50716,1,0,0:0:0:0:
64,192,50716,1,0,0:0:0:0:
320,192,51227,128,0,52080:0:0:0:0:
64,192,52080,128,0,52421:0:0:0:0:
192,192,52080,128,0,52421:0:0:0:0:
448,192,52421,128,0,53102:0:0:0:0:
320,192,53102,128,0,53443:0:0:0:0:
192,192,53443,128,0,53614:0:0:0:0:
64,192,53614,128,0,53784:0:0:0:0:
192,192,53784,128,0,53955:0:0:0:0:
320,192,53955,128,0,54296:0:0:0:0:
448,192,54296,128,0,54466:0:0:0:0:
320,192,54466,128,0,54637:0:0:0:0:
192,192,54637,128,0,54807:0:0:0:0:
320,192,54807,128,0,55659:0:0:0:0:
448,192,54807,128,0,55659:0:0:0:0:
192,192,55659,128,0,55830:0:0:0:0:
64,192,55830,128,0,56000:0:0:0:0:
320,192,56000,128,0,56171:0:0:0:0:
192,192,56171,128,0,56512:0:0:0:0:
64,192,56512,128,0,56852:0:0:0:0:
320,192,56852,128,0,57193:0:0:0:0:
448,192,57193,128,0,57534:0:0:0:0:
192,192,57534,128,0,58387:0:0:0:0:
64,192,57534,128,0,58387:0:0:0:0:
320,192,58387,128,0,58557:0:0:0:0:
64,192,58557,128,0,58727:0:0:0:0:
320,192,58727,128,0,58898:0:0:0:0:
448,192,58898,128,0,59409:0:0:0:0:
320,192,59409,128,0,59921:0:0:0:0:
64,192,59921,128,0,60262:0:0:0:0:
192,192,60262,128,0,60943:0:0:0:0:
320,192,60262,128,0,60943:0:0:0:0:
448,192,60943,128,0,61284:0:0:0:0:
192,192,61284,128,0,61625:0:0:0:0:
320,192,61625,1,0,0:0:0:0:
64,192,61625,128,0,62307:0:0:0:0:
192,192,62307,128,0,62648:0:0:0:0:
320,192,62648,128,0,62989:0:0:0:0:
448,192,62989,128,0,63330:0:0:0:0:
320,192,63671,128,0,64012:0:0:0:0:
192,192,64012,128,0,64352:0:0:0:0:
64,192,64352,128,0,64693:0:0:0:0:
320,192,64693,128,0,65034:0:0:0:0:
448,192,65034,128,0,65375:0:0:0:0:
320,192,65375,128,0,65716:0:0:0:0:
192,192,65716,128,0,65887:0:0:0:0:
64,192,65887,128,0,66057:0:0:0:0:
192,192,66057,128,0,66227:0:0:0:0:
320,192,66227,128,0,66739:0:0:0:0:
448,192,67080,128,0,67250:0:0:0:0:
192,192,67250,128,0,67421:0:0:0:0:
320,192,67421,128,0,67591:0:0:0:0:
192,192,67591,128,0,67932:0:0:0:0:
320,192,67762,128,0,67932:0:0:0:0:
448,192,67762,128,0,67932:0:0:0:0:
64,192,67932,128,0,68102:0:0:0:0:
192,192,68102,128,0,68443:0:0:0:0:
320,192,68443,128,0,68529:0:0:0:0:
448,192,68443,1,0,0:0:0:0:
448,192,68614,1,0,0:0:0:0:
448,192,68784,1,0,0:0:0:0:
448,192,68955,1,0,0:0:0:0:
448,192,69125,1,0,0:0:0:0:
320,192,69296,128,0,69381:0:0:0:0:
448,192,69296,1,0,0:0:0:0:
192,192,69466,128,0,69551:0:0:0:0:
320,192,69466,1,0,0:0:0:0:
64,192,69637,128,0,69722:0:0:0:0:
192,192,69637,1,0,0:0:0:0:
320,192,69807,128,0,69892:0:0:0:0:
192,192,69807,1,0,0:0:0:0:
192,192,69977,1,0,0:0:0:0:
192,192,70148,1,0,0:0:0:0:
192,192,70318,1,0,0:0:0:0:
192,192,70489,1,0,0:0:0:0:
320,192,70489,128,0,70574:0:0:0:0:
192,192,70659,1,0,0:0:0:0:
192,192,70830,1,0,0:0:0:0:
192,192,71000,1,0,0:0:0:0:
192,192,71171,128,0,71256:0:0:0:0:
64,192,71171,1,0,0:0:0:0:
64,192,71341,1,0,0:0:0:0:
64,192,71512,1,0,0:0:0:0:
64,192,71682,1,0,0:0:0:0:
64,192,71852,1,0,0:0:0:0:
64,192,72023,1,0,0:0:0:0:
192,192,72193,1,0,0:0:0:0:
320,192,72193,128,0,72279:0:0:0:0:
448,192,72364,128,0,72449:0:0:0:0:
320,192,72364,1,0,0:0:0:0:
192,192,72534,128,0,72619:0:0:0:0:
320,192,72534,1,0,0:0:0:0:
320,192,72705,1,0,0:0:0:0:
320,192,72875,1,0,0:0:0:0:
320,192,73046,128,0,73131:0:0:0:0:
192,192,73046,1,0,0:0:0:0:
192,192,73216,1,0,0:0:0:0:
192,192,73387,1,0,0:0:0:0:
192,192,73557,1,0,0:0:0:0:
192,192,73727,1,0,0:0:0:0:
192,192,73898,128,0,73983:0:0:0:0:
64,192,73898,1,0,0:0:0:0:
64,192,74068,1,0,0:0:0:0:
64,192,74239,1,0,0:0:0:0:
320,192,74239,128,0,74324:0:0:0:0:
448,192,74239,1,0,0:0:0:0:
448,192,74409,1,0,0:0:0:0:
448,192,74580,1,0,0:0:0:0:
448,192,74750,1,0,0:0:0:0:
320,192,74921,1,0,0:0:0:0:
192,192,74921,128,0,75006:0:0:0:0:
320,192,75091,1,0,0:0:0:0:
64,192,75262,128,0,75347:0:0:0:0:
192,192,75262,1,0,0:0:0:0:
192,192,75432,128,0,75517:0:0:0:0:
320,192,75432,1,0,0:0:0:0:
320,192,75602,128,0,75688:0:0:0:0:
448,192,75602,1,0,0:0:0:0:
448,192,75773,128,0,75858:0:0:0:0:
320,192,75773,1,0,0:0:0:0:
320,192,75943,1,0,0:0:0:0:
320,192,76114,128,0,76199:0:0:0:0:
448,192,76114,1,0,0:0:0:0:
192,192,76284,128,0,76369:0:0:0:0:
320,192,76284,1,0,0:0:0:0:
64,192,76455,128,0,76540:0:0:0:0:
192,192,76455,1,0,0:0:0:0:
192,192,76625,128,0,76710:0:0:0:0:
320,192,76625,1,0,0:0:0:0:
320,192,76796,1,0,0:0:0:0:
320,192,76966,1,0,0:0:0:0:
320,192,77137,1,0,0:0:0:0:
320,192,77307,1,0,0:0:0:0:
192,192,77477,128,0,77563:0:0:0:0:
320,192,77477,1,0,0:0:0:0:
64,192,77648,128,0,77733:0:0:0:0:
192,192,77648,1,0,0:0:0:0:
448,192,77818,128,0,77904:0:0:0:0:
320,192,77818,1,0,0:0:0:0:
320,192,77989,128,0,78074:0:0:0:0:
192,192,77989,1,0,0:0:0:0:
192,192,78159,1,0,0:0:0:0:
192,192,78330,128,0,78415:0:0:0:0:
64,192,78330,1,0,0:0:0:0:
64,192,78500,1,0,0:0:0:0:
64,192,78671,128,0,78756:0:0:0:0:
192,192,78671,1,0,0:0:0:0:
192,192,78841,1,0,0:0:0:0:
192,192,79012,128,0,79097:0:0:0:0:
320,192,79012,1,0,0:0:0:0:
320,192,79182,1,0,0:0:0:0:
320,192,79352,128,0,79438:0:0:0:0:
448,192,79352,1,0,0:0:0:0:
448,192,79523,1,0,0:0:0:0:
448,192,79693,1,0,0:0:0:0:
448,192,79864,1,0,0:0:0:0:
448,192,80034,1,0,0:0:0:0:
192,192,80205,128,0,80290:0:0:0:0:
320,192,80205,1,0,0:0:0:0:
64,192,80375,128,0,80460:0:0:0:0:
192,192,80375,1,0,0:0:0:0:
192,192,80546,128,0,80631:0:0:0:0:
64,192,80546,1,0,0:0:0:0:
320,192,80716,128,0,80801:0:0:0:0:
192,192,80716,1,0,0:0:0:0:
192,192,80887,1,0,0:0:0:0:
192,192,81057,1,0,0:0:0:0:
448,192,81227,128,0,81313:0:0:0:0:
320,192,81227,1,0,0:0:0:0:
320,192,81398,1,0,0:0:0:0:
320,192,81568,1,0,0:0:0:0:
320,192,81739,128,0,81824:0:0:0:0:
448,192,81739,1,0,0:0:0:0:
448,192,81909,1,0,0:0:0:0:
448,192,82080,1,0,0:0:0:0:
192,192,82080,128,0,82165:0:0:0:0:
64,192,82080,1,0,0:0:0:0:
64,192,82250,1,0,0:0:0:0:
64,192,82421,1,0,0:0:0:0:
64,192,82591,1,0,0:0:0:0:
64,192,82762,1,0,0:0:0:0:
320,192,82762,128,0,82847:0:0:0:0:
192,192,82762,1,0,0:0:0:0:
192,192,82932,1,0,0:0:0:0:
192,192,83102,1,0,0:0:0:0:
192,192,83273,1,0,0:0:0:0:
448,192,83443,128,0,83529:0:0:0:0:
320,192,83443,1,0,0:0:0:0:
320,192,83614,1,0,0:0:0:0:
320,192,83784,1,0,0:0:0:0:
320,192,83955,1,0,0:0:0:0:
320,192,84125,128,0,84210:0:0:0:0:
448,192,84125,1,0,0:0:0:0:
320,192,84296,5,0,0:0:0:0:
192,192,84296,1,0,0:0:0:0:
64,192,84466,1,0,0:0:0:0:
192,192,84466,128,0,84551:0:0:0:0:
320,192,84637,1,0,0:0:0:0:
448,192,84637,1,0,0:0:0:0:
192,192,84807,1,0,0:0:0:0:
64,192,84807,1,0,0:0:0:0:
320,192,84807,128,0,84892:0:0:0:0:
192,192,84977,1,0,0:0:0:0:
64,192,84977,1,0,0:0:0:0:
192,192,85148,1,0,0:0:0:0:
64,192,85148,1,0,0:0:0:0:
320,192,85148,1,0,0:0:0:0:
448,192,85318,1,0,0:0:0:0:
320,192,85404,1,0,0:0:0:0:
64,192,85489,1,0,0:0:0:0:
192,192,85574,1,0,0:0:0:0:
320,192,85574,1,0,0:0:0:0:
448,192,85659,1,0,0:0:0:0:
320,192,85744,1,0,0:0:0:0:
192,192,85830,1,0,0:0:0:0:
64,192,85830,1,0,0:0:0:0:
320,192,86000,1,0,0:0:0:0:
448,192,86000,1,0,0:0:0:0:
192,192,86171,1,0,0:0:0:0:
320,192,86171,1,0,0:0:0:0:
64,192,86256,1,0,0:0:0:0:
192,192,86341,1,0,0:0:0:0:
448,192,86426,1,0,0:0:0:0:
320,192,86512,1,0,0:0:0:0:
192,192,86512,1,0,0:0:0:0:
64,192,86512,1,0,0:0:0:0:
320,192,86682,1,0,0:0:0:0:
448,192,86767,1,0,0:0:0:0:
64,192,86852,1,0,0:0:0:0:
192,192,86852,1,0,0:0:0:0:
320,192,86938,1,0,0:0:0:0:
448,192,87023,1,0,0:0:0:0:
192,192,87108,1,0,0:0:0:0:
320,192,87193,1,0,0:0:0:0:
448,192,87193,1,0,0:0:0:0:
192,192,87279,1,0,0:0:0:0:
64,192,87364,1,0,0:0:0:0:
320,192,87449,1,0,0:0:0:0:
192,192,87534,1,0,0:0:0:0:
448,192,87534,1,0,0:0:0:0:
320,192,87705,1,0,0:0:0:0:
192,192,87705,1,0,0:0:0:0:
64,192,87705,1,0,0:0:0:0:
192,192,87875,1,0,0:0:0:0:
320,192,87875,1,0,0:0:0:0:
448,192,87875,1,0,0:0:0:0:
64,192,88046,1,0,0:0:0:0:
320,192,88046,1,0,0:0:0:0:
448,192,88046,1,0,0:0:0:0:
192,192,88216,1,0,0:0:0:0:
64,192,88216,1,0,0:0:0:0:
448,192,88216,1,0,0:0:0:0:
320,192,88387,1,0,0:0:0:0:
192,192,88387,1,0,0:0:0:0:
448,192,88387,1,0,0:0:0:0:
448,192,88557,128,0,88727:0:0:0:0:
192,192,88557,128,0,88727:0:0:0:0:
64,192,88557,128,0,88727:0:0:0:0:
64,192,88898,1,0,0:0:0:0:
320,192,88983,1,0,0:0:0:0:
64,192,89068,1,0,0:0:0:0:
320,192,89154,1,0,0:0:0:0:
64,192,89239,1,0,0:0:0:0:
192,192,89324,1,0,0:0:0:0:
448,192,89409,1,0,0:0:0:0:
192,192,89494,1,0,0:0:0:0:
448,192,89580,1,0,0:0:0:0:
192,192,89665,1,0,0:0:0:0:
320,192,89750,1,0,0:0:0:0:
192,192,89835,1,0,0:0:0:0:
320,192,89921,1,0,0:0:0:0:
192,192,90006,1,0,0:0:0:0:
64,192,90091,1,0,0:0:0:0:
192,192,90176,1,0,0:0:0:0:
320,192,90262,128,0,90943:0:0:0:0:
448,192,90262,128,0,90943:0:0:0:0:
192,192,90943,5,0,0:0:0:0:
64,192,90943,1,0,0:0:0:0:
192,192,91284,5,0,0:0:0:0:
64,192,91284,1,0,0:0:0:0:
320,192,91284,1,0,0:0:0:0:
448,192,91284,1,0,0:0:0:0:
64,192,91625,5,0,0:0:0:0:
192,192,91668,1,0,0:0:0:0:
448,192,91710,1,0,0:0:0:0:
320,192,91753,1,0,0:0:0:0:
192,192,91796,1,0,0:0:0:0:
64,192,91881,1,0,0:0:0:0:
320,192,91966,1,0,0:0:0:0:
448,192,91966,1,0,0:0:0:0:
192,192,91966,1,0,0:0:0:0:
320,192,92094,1,0,0:0:0:0:
64,192,92137,1,0,0:0:0:0:
448,192,92179,1,0,0:0:0:0:
320,192,92222,1,0,0:0:0:0:
192,192,92264,1,0,0:0:0:0:
64,192,92307,1,0,0:0:0:0:
448,192,92350,1,0,0:0:0:0:
320,192,92392,1,0,0:0:0:0:
64,192,92477,1,0,0:0:0:0:
192,192,92520,1,0,0:0:0:0:
448,192,92563,1,0,0:0:0:0:
320,192,92605,1,0,0:0:0:0:
192,192,92648,1,0,0:0:0:0:
64,192,92648,1,0,0:0:0:0:
448,192,92733,1,0,0:0:0:0:
320,192,92776,1,0,0:0:0:0:
64,192,92818,1,0,0:0:0:0:
192,192,92861,1,0,0:0:0:0:
448,192,92904,1,0,0:0:0:0:
192,192,92989,1,0,0:0:0:0:
64,192,92989,1,0,0:0:0:0:
320,192,93031,1,0,0:0:0:0:
448,192,93074,1,0,0:0:0:0:
64,192,93117,1,0,0:0:0:0:
192,192,93159,1,0,0:0:0:0:
320,192,93202,1,0,0:0:0:0:
448,192,93244,1,0,0:0:0:0:
192,192,93330,1,0,0:0:0:0:
64,192,93330,1,0,0:0:0:0:
320,192,93330,1,0,0:0:0:0:
64,192,93415,1,0,0:0:0:0:
192,192,93415,1,0,0:0:0:0:
64,192,93500,1,0,0:0:0:0:
448,192,93543,1,0,0:0:0:0:
320,192,93585,1,0,0:0:0:0:
64,192,93628,1,0,0:0:0:0:
448,192,93671,1,0,0:0:0:0:
320,192,93713,1,0,0:0:0:0:
192,192,93756,1,0,0:0:0:0:
64,192,93841,1,0,0:0:0:0:
320,192,93841,1,0,0:0:0:0:
448,192,93841,1,0,0:0:0:0:
320,192,93926,1,0,0:0:0:0:
448,192,93926,1,0,0:0:0:0:
64,192,94012,1,0,0:0:0:0:
192,192,94012,1,0,0:0:0:0:
320,192,94097,1,0,0:0:0:0:
448,192,94097,1,0,0:0:0:0:
64,192,94182,1,0,0:0:0:0:
192,192,94182,1,0,0:0:0:0:
448,192,94267,1,0,0:0:0:0:
192,192,94352,1,0,0:0:0:0:
64,192,94352,1,0,0:0:0:0:
320,192,94352,1,0,0:0:0:0:
448,192,94438,1,0,0:0:0:0:
192,192,94480,1,0,0:0:0:0:
64,192,94523,1,0,0:0:0:0:
448,192,94565,1,0,0:0:0:0:
320,192,94608,1,0,0:0:0:0:
192,192,94651,1,0,0:0:0:0:
64,192,94693,1,0,0:0:0:0:
448,192,94693,1,0,0:0:0:0:
320,192,94779,1,0,0:0:0:0:
192,192,94821,1,0,0:0:0:0:
64,192,94864,1,0,0:0:0:0:
320,192,94906,1,0,0:0:0:0:
448,192,94949,1,0,0:0:0:0:
192,192,94992,1,0,0:0:0:0:
64,192,95034,1,0,0:0:0:0:
320,192,95119,1,0,0:0:0:0:
64,192,95205,1,0,0:0:0:0:
448,192,95205,1,0,0:0:0:0:
192,192,95247,1,0,0:0:0:0:
320,192,95290,1,0,0:0:0:0:
192,192,95375,1,0,0:0:0:0:
64,192,95375,1,0,0:0:0:0:
448,192,95375,1,0,0:0:0:0:
192,192,95503,1,0,0:0:0:0:
64,192,95503,1,0,0:0:0:0:
448,192,95546,1,0,0:0:0:0:
192,192,95631,1,0,0:0:0:0:
64,192,95631,1,0,0:0:0:0:
320,192,95716,1,0,0:0:0:0:
448,192,95716,1,0,0:0:0:0:
192,192,95759,1,0,0:0:0:0:
64,192,95801,1,0,0:0:0:0:
448,192,95844,1,0,0:0:0:0:
320,192,95887,1,0,0:0:0:0:
192,192,95929,1,0,0:0:0:0:
64,192,95972,1,0,0:0:0:0:
448,192,96014,1,0,0:0:0:0:
192,192,96057,1,0,0:0:0:0:
320,192,96057,1,0,0:0:0:0:
192,192,96185,1,0,0:0:0:0:
64,192,96227,1,0,0:0:0:0:
320,192,96270,1,0,0:0:0:0:
448,192,96313,1,0,0:0:0:0:
64,192,96355,1,0,0:0:0:0:
192,192,96398,1,0,0:0:0:0:
320,192,96440,1,0,0:0:0:0:
64,192,96483,1,0,0:0:0:0:
448,192,96526,1,0,0:0:0:0:
192,192,96568,1,0,0:0:0:0:
320,192,96568,1,0,0:0:0:0:
448,192,96696,1,0,0:0:0:0:
64,192,96739,1,0,0:0:0:0:
192,192,96739,1,0,0:0:0:0:
64,192,96824,1,0,0:0:0:0:
192,192,96824,1,0,0:0:0:0:
448,192,96909,1,0,0:0:0:0:
320,192,96909,1,0,0:0:0:0:
192,192,96994,1,0,0:0:0:0:
64,192,96994,1,0,0:0:0:0:
320,192,97080,1,0,0:0:0:0:
448,192,97080,1,0,0:0:0:0:
192,192,97080,1,0,0:0:0:0:
63,192,97165,1,0,0:0:0:0:
320,192,97208,1,0,0:0:0:0:
448,192,97250,1,0,0:0:0:0:
63,192,97293,1,0,0:0:0:0:
192,192,97335,1,0,0:0:0:0:
320,192,97378,1,0,0:0:0:0:
448,192,97421,1,0,0:0:0:0:
63,192,97421,1,0,0:0:0:0:
192,192,97506,1,0,0:0:0:0:
320,192,97506,1,0,0:0:0:0:
448,192,97591,1,0,0:0:0:0:
192,192,97634,1,0,0:0:0:0:
63,192,97676,1,0,0:0:0:0:
320,192,97719,1,0,0:0:0:0:
448,192,97762,1,0,0:0:0:0:
63,192,97847,1,0,0:0:0:0:
192,192,97847,1,0,0:0:0:0:
320,192,97932,1,0,0:0:0:0:
192,192,97975,1,0,0:0:0:0:
448,192,98017,1,0,0:0:0:0:
320,192,98102,1,0,0:0:0:0:
64,192,98102,1,0,0:0:0:0:
192,192,98102,1,0,0:0:0:0:
448,192,98230,1,0,0:0:0:0:
320,192,98230,1,0,0:0:0:0:
63,192,98273,1,0,0:0:0:0:
448,192,98358,1,0,0:0:0:0:
320,192,98358,1,0,0:0:0:0:
192,192,98443,1,0,0:0:0:0:
63,192,98443,1,0,0:0:0:0:
320,192,98486,1,0,0:0:0:0:
448,192,98529,1,0,0:0:0:0:
63,192,98571,1,0,0:0:0:0:
192,192,98614,1,0,0:0:0:0:
320,192,98656,1,0,0:0:0:0:
448,192,98699,1,0,0:0:0:0:
63,192,98742,1,0,0:0:0:0:
320,192,98784,1,0,0:0:0:0:
192,192,98784,1,0,0:0:0:0:
320,192,98912,1,0,0:0:0:0:
448,192,98955,1,0,0:0:0:0:
192,192,98997,1,0,0:0:0:0:
63,192,99040,1,0,0:0:0:0:
448,192,99083,1,0,0:0:0:0:
320,192,99125,1,0,0:0:0:0:
192,192,99168,1,0,0:0:0:0:
448,192,99210,1,0,0:0:0:0:
63,192,99253,1,0,0:0:0:0:
320,192,99296,1,0,0:0:0:0:
192,192,99381,1,0,0:0:0:0:
320,192,99466,1,0,0:0:0:0:
448,192,99466,1,0,0:0:0:0:
64,192,99466,1,0,0:0:0:0:
320,192,99551,1,0,0:0:0:0:
448,192,99551,1,0,0:0:0:0:
64,192,99637,1,0,0:0:0:0:
192,192,99637,1,0,0:0:0:0:
320,192,99722,1,0,0:0:0:0:
448,192,99722,1,0,0:0:0:0:
192,192,99807,1,0,0:0:0:0:
63,192,99807,1,0,0:0:0:0:
320,192,99892,1,0,0:0:0:0:
192,192,99935,1,0,0:0:0:0:
64,192,99977,1,0,0:0:0:0:
448,192,100020,1,0,0:0:0:0:
320,192,100063,1,0,0:0:0:0:
192,192,100105,1,0,0:0:0:0:
448,192,100148,1,0,0:0:0:0:
64,192,100148,1,0,0:0:0:0:
320,192,100233,1,0,0:0:0:0:
192,192,100233,1,0,0:0:0:0:
64,192,100318,1,0,0:0:0:0:
320,192,100361,1,0,0:0:0:0:
448,192,100404,1,0,0:0:0:0:
192,192,100446,1,0,0:0:0:0:
64,192,100489,1,0,0:0:0:0:
320,192,100574,1,0,0:0:0:0:
448,192,100574,1,0,0:0:0:0:
192,192,100659,1,0,0:0:0:0:
320,192,100702,1,0,0:0:0:0:
448,192,100744,1,0,0:0:0:0:
320,192,100830,1,0,0:0:0:0:
64,192,100830,1,0,0:0:0:0:
192,192,100830,1,0,0:0:0:0:
64,192,100958,1,0,0:0:0:0:
192,192,100958,1,0,0:0:0:0:
448,192,101021,1,0,0:0:0:0:
64,192,101085,1,0,0:0:0:0:
192,192,101085,1,0,0:0:0:0:
448,192,101171,1,0,0:0:0:0:
320,192,101171,1,0,0:0:0:0:
192,192,101213,1,0,0:0:0:0:
64,192,101256,1,0,0:0:0:0:
448,192,101298,1,0,0:0:0:0:
320,192,101341,1,0,0:0:0:0:
192,192,101384,1,0,0:0:0:0:
64,192,101426,1,0,0:0:0:0:
448,192,101469,1,0,0:0:0:0:
320,192,101512,1,0,0:0:0:0:
192,192,101512,1,0,0:0:0:0:
192,192,101639,1,0,0:0:0:0:
64,192,101682,1,0,0:0:0:0:
320,192,101725,1,0,0:0:0:0:
448,192,101767,1,0,0:0:0:0:
64,192,101810,1,0,0:0:0:0:
192,192,101852,1,0,0:0:0:0:
320,192,101895,1,0,0:0:0:0:
64,192,101938,1,0,0:0:0:0:
448,192,101980,1,0,0:0:0:0:
320,192,102023,1,0,0:0:0:0:
192,192,102023,1,0,0:0:0:0:
448,192,102108,1,0,0:0:0:0:
64,192,102193,1,0,0:0:0:0:
192,192,102193,1,0,0:0:0:0:
320,192,102279,1,0,0:0:0:0:
448,192,102279,1,0,0:0:0:0:
192,192,102364,1,0,0:0:0:0:
64,192,102364,1,0,0:0:0:0:
320,192,102449,1,0,0:0:0:0:
448,192,102449,1,0,0:0:0:0:
448,192,102534,1,0,0:0:0:0:
192,192,102534,1,0,0:0:0:0:
320,192,102534,1,0,0:0:0:0:
69,238,102619,1,0,0:0:0:0:
318,176,102662,1,0,0:0:0:0:
442,145,102705,1,0,0:0:0:0:
69,238,102747,1,0,0:0:0:0:
193,207,102790,1,0,0:0:0:0:
318,176,102833,1,0,0:0:0:0:
442,145,102875,1,0,0:0:0:0:
69,238,102875,1,0,0:0:0:0:
193,207,102960,1,0,0:0:0:0:
320,192,102960,1,0,0:0:0:0:
442,145,103046,1,0,0:0:0:0:
193,207,103088,1,0,0:0:0:0:
69,238,103131,1,0,0:0:0:0:
318,176,103173,1,0,0:0:0:0:
442,145,103216,1,0,0:0:0:0:
192,192,103259,1,0,0:0:0:0:
448,192,103387,1,0,0:0:0:0:
192,192,103429,1,0,0:0:0:0:
64,192,103472,1,0,0:0:0:0:
318,176,103557,1,0,0:0:0:0:
442,145,103557,1,0,0:0:0:0:
193,207,103557,1,0,0:0:0:0:
318,176,103685,1,0,0:0:0:0:
442,145,103685,1,0,0:0:0:0:
69,238,103749,1,0,0:0:0:0:
318,176,103813,1,0,0:0:0:0:
442,145,103813,1,0,0:0:0:0:
193,207,103898,1,0,0:0:0:0:
69,238,103898,1,0,0:0:0:0:
318,176,103940,1,0,0:0:0:0:
442,145,103983,1,0,0:0:0:0:
69,238,104026,1,0,0:0:0:0:
193,207,104068,1,0,0:0:0:0:
318,176,104111,1,0,0:0:0:0:
442,145,104154,1,0,0:0:0:0:
69,238,104196,1,0,0:0:0:0:
318,176,104239,1,0,0:0:0:0:
193,207,104239,1,0,0:0:0:0:
193,207,104367,1,0,0:0:0:0:
318,176,104367,1,0,0:0:0:0:
442,145,104409,1,0,0:0:0:0:
193,207,104452,1,0,0:0:0:0:
69,238,104494,1,0,0:0:0:0:
442,145,104537,1,0,0:0:0:0:
318,176,104580,1,0,0:0:0:0:
193,207,104622,1,0,0:0:0:0:
442,145,104665,1,0,0:0:0:0:
69,238,104708,1,0,0:0:0:0:
318,176,104750,1,0,0:0:0:0:
193,207,104750,1,0,0:0:0:0:
64,192,104835,1,0,0:0:0:0:
320,145,104921,1,0,0:0:0:0:
448,176,104921,1,0,0:0:0:0:
192,192,105006,1,0,0:0:0:0:
64,192,105006,1,0,0:0:0:0:
320,192,105091,1,0,0:0:0:0:
448,192,105091,1,0,0:0:0:0:
69,238,105176,1,0,0:0:0:0:
193,207,105176,1,0,0:0:0:0:
193,207,105262,1,0,0:0:0:0:
318,176,105262,1,0,0:0:0:0:
69,238,105262,1,0,0:0:0:0:
448,192,105347,1,0,0:0:0:0:
192,192,105389,1,0,0:0:0:0:
64,192,105432,1,0,0:0:0:0:
448,192,105475,1,0,0:0:0:0:
320,192,105517,1,0,0:0:0:0:
192,192,105560,1,0,0:0:0:0:
448,192,105602,1,0,0:0:0:0:
64,192,105602,1,0,0:0:0:0:
192,192,105688,1,0,0:0:0:0:
320,192,105688,1,0,0:0:0:0:
64,192,105773,1,0,0:0:0:0:
320,192,105815,1,0,0:0:0:0:
448,192,105858,1,0,0:0:0:0:
192,192,105901,1,0,0:0:0:0:
64,192,105943,1,0,0:0:0:0:
320,192,106029,1,0,0:0:0:0:
192,192,106029,1,0,0:0:0:0:
448,192,106114,1,0,0:0:0:0:
192,192,106156,1,0,0:0:0:0:
320,192,106199,1,0,0:0:0:0:
448,192,106284,1,0,0:0:0:0:
64,192,106284,1,0,0:0:0:0:
192,192,106284,1,0,0:0:0:0:
64,192,106412,1,0,0:0:0:0:
192,192,106412,1,0,0:0:0:0:
448,192,106476,1,0,0:0:0:0:
64,192,106540,1,0,0:0:0:0:
192,192,106540,1,0,0:0:0:0:
448,192,106625,1,0,0:0:0:0:
320,192,106625,1,0,0:0:0:0:
192,192,106668,1,0,0:0:0:0:
64,192,106710,1,0,0:0:0:0:
448,192,106753,1,0,0:0:0:0:
320,192,106796,1,0,0:0:0:0:
192,192,106838,1,0,0:0:0:0:
64,192,106881,1,0,0:0:0:0:
448,192,106923,1,0,0:0:0:0:
320,192,106966,1,0,0:0:0:0:
192,192,106966,1,0,0:0:0:0:
448,192,107051,1,0,0:0:0:0:
192,192,107094,1,0,0:0:0:0:
64,192,107137,1,0,0:0:0:0:
320,192,107179,1,0,0:0:0:0:
448,192,107222,1,0,0:0:0:0:
64,192,107264,1,0,0:0:0:0:
192,192,107307,1,0,0:0:0:0:
320,192,107350,1,0,0:0:0:0:
64,192,107392,1,0,0:0:0:0:
448,192,107435,1,0,0:0:0:0:
320,192,107477,1,0,0:0:0:0:
192,192,107477,1,0,0:0:0:0:
448,192,107563,1,0,0:0:0:0:
320,192,107605,1,0,0:0:0:0:
64,192,107648,1,0,0:0:0:0:
192,192,107648,1,0,0:0:0:0:
64,192,107733,1,0,0:0:0:0:
192,192,107733,1,0,0:0:0:0:
448,192,107818,1,0,0:0:0:0:
320,192,107818,1,0,0:0:0:0:
64,192,107904,1,0,0:0:0:0:
448,192,107989,1,0,0:0:0:0:
192,192,107989,1,0,0:0:0:0:
320,192,107989,1,0,0:0:0:0:
64,192,108031,1,0,0:0:0:0:
192,192,108074,1,0,0:0:0:0:
320,192,108117,1,0,0:0:0:0:
448,192,108159,1,0,0:0:0:0:
64,192,108202,1,0,0:0:0:0:
192,191,108244,1,0,0:0:0:0:
320,192,108287,1,0,0:0:0:0:
448,192,108330,1,0,0:0:0:0:
64,192,108330,1,0,0:0:0:0:
192,192,108415,1,0,0:0:0:0:
320,192,108415,1,0,0:0:0:0:
448,192,108500,1,0,0:0:0:0:
192,191,108543,1,0,0:0:0:0:
64,192,108585,1,0,0:0:0:0:
320,192,108628,1,0,0:0:0:0:
448,192,108671,1,0,0:0:0:0:
192,192,108756,1,0,0:0:0:0:
320,192,108756,1,0,0:0:0:0:
448,192,108841,1,0,0:0:0:0:
320,192,108884,1,0,0:0:0:0:
192,192,108926,1,0,0:0:0:0:
64,192,108969,1,0,0:0:0:0:
320,192,109012,1,0,0:0:0:0:
448,192,109012,1,0,0:0:0:0:
192,191,109012,1,0,0:0:0:0:
320,192,109139,1,0,0:0:0:0:
448,192,109139,1,0,0:0:0:0:
64,192,109203,1,0,0:0:0:0:
320,192,109267,1,0,0:0:0:0:
448,192,109267,1,0,0:0:0:0:
192,191,109352,1,0,0:0:0:0:
64,192,109352,1,0,0:0:0:0:
320,192,109395,1,0,0:0:0:0:
448,192,109438,1,0,0:0:0:0:
64,192,109480,1,0,0:0:0:0:
192,191,109523,1,0,0:0:0:0:
320,192,109565,1,0,0:0:0:0:
448,192,109608,1,0,0:0:0:0:
64,192,109651,1,0,0:0:0:0:
320,192,109693,1,0,0:0:0:0:
192,191,109693,1,0,0:0:0:0:
320,192,109821,1,0,0:0:0:0:
448,192,109864,1,0,0:0:0:0:
192,191,109906,1,0,0:0:0:0:
64,192,109949,1,0,0:0:0:0:
448,192,109992,1,0,0:0:0:0:
320,192,110034,1,0,0:0:0:0:
192,191,110077,1,0,0:0:0:0:
448,192,110119,1,0,0:0:0:0:
64,192,110162,1,0,0:0:0:0:
320,192,110205,1,0,0:0:0:0:
192,191,110205,1,0,0:0:0:0:
64,191,110290,1,0,0:0:0:0:
320,192,110333,1,0,0:0:0:0:
448,192,110375,1,0,0:0:0:0:
320,192,110460,1,0,0:0:0:0:
192,192,110460,1,0,0:0:0:0:
64,192,110546,1,0,0:0:0:0:
64,192,110631,1,0,0:0:0:0:
192,191,110631,1,0,0:0:0:0:
192,191,110716,1,0,0:0:0:0:
320,192,110716,1,0,0:0:0:0:
64,192,110716,1,0,0:0:0:0:
448,192,110801,1,0,0:0:0:0:
192,192,110844,1,0,0:0:0:0:
64,192,110887,1,0,0:0:0:0:
448,192,110929,1,0,0:0:0:0:
320,192,110972,1,0,0:0:0:0:
192,192,111014,1,0,0:0:0:0:
448,192,111057,1,0,0:0:0:0:
64,192,111057,1,0,0:0:0:0:
320,192,111142,1,0,0:0:0:0:
192,192,111142,1,0,0:0:0:0:
64,192,111227,1,0,0:0:0:0:
320,192,111270,1,0,0:0:0:0:
448,192,111313,1,0,0:0:0:0:
192,192,111355,1,0,0:0:0:0:
64,192,111398,1,0,0:0:0:0:
192,192,111483,1,0,0:0:0:0:
320,192,111483,1,0,0:0:0:0:
448,192,111568,1,0,0:0:0:0:
192,192,111611,1,0,0:0:0:0:
320,192,111654,1,0,0:0:0:0:
64,192,111739,1,0,0:0:0:0:
192,192,111739,1,0,0:0:0:0:
448,192,111739,1,0,0:0:0:0:
64,192,111867,1,0,0:0:0:0:
192,192,111867,1,0,0:0:0:0:
448,192,111931,1,0,0:0:0:0:
64,192,111994,1,0,0:0:0:0:
192,192,111994,1,0,0:0:0:0:
448,192,112080,1,0,0:0:0:0:
320,192,112080,1,0,0:0:0:0:
192,192,112122,1,0,0:0:0:0:
64,192,112165,1,0,0:0:0:0:
448,192,112208,1,0,0:0:0:0:
320,192,112250,1,0,0:0:0:0:
192,192,112293,1,0,0:0:0:0:
64,192,112335,1,0,0:0:0:0:
448,192,112378,1,0,0:0:0:0:
320,192,112421,1,0,0:0:0:0:
192,192,112421,1,0,0:0:0:0:
448,192,112506,1,0,0:0:0:0:
192,192,112548,1,0,0:0:0:0:
64,192,112591,1,0,0:0:0:0:
320,192,112634,1,0,0:0:0:0:
448,192,112676,1,0,0:0:0:0:
64,192,112719,1,0,0:0:0:0:
192,192,112762,1,0,0:0:0:0:
320,192,112804,1,0,0:0:0:0:
64,192,112847,1,0,0:0:0:0:
448,192,112889,1,0,0:0:0:0:
192,192,112932,1,0,0:0:0:0:
320,192,113017,1,0,0:0:0:0:
448,192,113060,1,0,0:0:0:0:
64,192,113102,1,0,0:0:0:0:
192,192,113102,1,0,0:0:0:0:
64,192,113188,1,0,0:0:0:0:
192,192,113188,1,0,0:0:0:0:
448,192,113273,1,0,0:0:0:0:
320,192,113273,1,0,0:0:0:0:
320,192,113358,1,0,0:0:0:0:
448,192,113358,1,0,0:0:0:0:
448,192,113443,1,0,0:0:0:0:
320,192,113443,1,0,0:0:0:0:
192,192,113443,1,0,0:0:0:0:
64,192,114296,1,0,0:0:0:0:
448,192,114296,1,0,0:0:0:0:
320,192,114317,1,0,0:0:0:0:
192,192,114338,1,0,0:0:0:0:
448,192,114807,5,0,0:0:0:0:
320,192,114850,1,0,0:0:0:0:
64,192,114892,1,0,0:0:0:0:
192,191,114935,1,0,0:0:0:0:
448,192,114977,1,0,0:0:0:0:
320,192,115020,1,0,0:0:0:0:
192,191,115148,1,0,0:0:0:0:
64,192,115148,1,0,0:0:0:0:
448,192,115148,1,0,0:0:0:0:
192,191,115276,1,0,0:0:0:0:
320,192,115276,1,0,0:0:0:0:
448,192,115318,1,0,0:0:0:0:
64,192,115361,1,0,0:0:0:0:
192,191,115404,1,0,0:0:0:0:
320,192,115446,1,0,0:0:0:0:
448,192,115489,1,0,0:0:0:0:
64,192,115531,1,0,0:0:0:0:
192,191,115574,1,0,0:0:0:0:
448,192,115659,1,0,0:0:0:0:
320,192,115659,1,0,0:0:0:0:
64,192,115744,1,0,0:0:0:0:
320,192,115830,1,0,0:0:0:0:
192,191,115830,1,0,0:0:0:0:
448,192,115830,1,0,0:0:0:0:
64,192,115915,1,0,0:0:0:0:
320,192,116000,1,0,0:0:0:0:
448,192,116000,1,0,0:0:0:0:
64,192,116085,1,0,0:0:0:0:
192,192,116085,1,0,0:0:0:0:
320,192,116171,1,0,0:0:0:0:
448,192,116171,1,0,0:0:0:0:
192,191,116213,1,0,0:0:0:0:
64,192,116256,1,0,0:0:0:0:
448,192,116298,1,0,0:0:0:0:
320,192,116341,1,0,0:0:0:0:
192,191,116384,1,0,0:0:0:0:
64,192,116426,1,0,0:0:0:0:
192,191,116512,1,0,0:0:0:0:
320,192,116512,1,0,0:0:0:0:
448,192,116512,1,0,0:0:0:0:
320,192,116597,1,0,0:0:0:0:
448,192,116597,1,0,0:0:0:0:
448,192,116682,1,0,0:0:0:0:
64,192,116725,1,0,0:0:0:0:
192,191,116767,1,0,0:0:0:0:
320,192,116810,1,0,0:0:0:0:
64,192,116852,1,0,0:0:0:0:
192,191,116895,1,0,0:0:0:0:
448,192,116938,1,0,0:0:0:0:
192,191,117023,1,0,0:0:0:0:
64,192,117023,1,0,0:0:0:0:
320,192,117108,1,0,0:0:0:0:
448,192,117151,1,0,0:0:0:0:
64,192,117193,1,0,0:0:0:0:
192,192,117236,1,0,0:0:0:0:
320,192,117279,1,0,0:0:0:0:
64,192,117321,1,0,0:0:0:0:
448,192,117364,1,0,0:0:0:0:
192,192,117406,1,0,0:0:0:0:
320,192,117534,1,0,0:0:0:0:
448,192,117534,1,0,0:0:0:0:
192,192,117577,1,0,0:0:0:0:
64,192,117619,1,0,0:0:0:0:
320,192,117662,1,0,0:0:0:0:
448,192,117705,1,0,0:0:0:0:
192,192,117747,1,0,0:0:0:0:
448,192,117875,1,0,0:0:0:0:
192,191,117875,1,0,0:0:0:0:
64,192,117875,1,0,0:0:0:0:
320,192,117960,1,0,0:0:0:0:
448,192,118046,1,0,0:0:0:0:
192,191,118088,1,0,0:0:0:0:
64,192,118131,1,0,0:0:0:0:
320,192,118173,1,0,0:0:0:0:
448,192,118216,1,0,0:0:0:0:
320,192,118301,1,0,0:0:0:0:
192,192,118301,1,0,0:0:0:0:
64,192,118344,1,0,0:0:0:0:
448,192,118387,1,0,0:0:0:0:
320,192,118429,1,0,0:0:0:0:
192,192,118472,1,0,0:0:0:0:
64,192,118514,1,0,0:0:0:0:
320,192,118557,1,0,0:0:0:0:
448,192,118557,1,0,0:0:0:0:
320,192,118685,1,0,0:0:0:0:
448,192,118685,1,0,0:0:0:0:
64,192,118749,1,0,0:0:0:0:
320,192,118813,1,0,0:0:0:0:
448,192,118813,1,0,0:0:0:0:
192,191,118898,1,0,0:0:0:0:
64,192,118898,1,0,0:0:0:0:
320,192,118940,1,0,0:0:0:0:
448,192,118983,1,0,0:0:0:0:
64,192,119026,1,0,0:0:0:0:
192,191,119068,1,0,0:0:0:0:
320,192,119111,1,0,0:0:0:0:
448,192,119154,1,0,0:0:0:0:
64,192,119196,1,0,0:0:0:0:
320,192,119239,1,0,0:0:0:0:
192,191,119239,1,0,0:0:0:0:
320,192,119367,1,0,0:0:0:0:
448,192,119409,1,0,0:0:0:0:
192,191,119452,1,0,0:0:0:0:
64,192,119494,1,0,0:0:0:0:
448,192,119537,1,0,0:0:0:0:
320,192,119580,1,0,0:0:0:0:
192,191,119622,1,0,0:0:0:0:
448,192,119665,1,0,0:0:0:0:
64,192,119708,1,0,0:0:0:0:
320,192,119750,1,0,0:0:0:0:
192,192,119793,1,0,0:0:0:0:
64,192,119835,1,0,0:0:0:0:
448,192,119878,1,0,0:0:0:0:
320,192,119921,1,0,0:0:0:0:
320,192,120006,1,0,0:0:0:0:
192,192,120006,1,0,0:0:0:0:
64,192,120091,1,0,0:0:0:0:
192,192,120176,1,0,0:0:0:0:
64,192,120176,1,0,0:0:0:0:
192,191,120262,1,0,0:0:0:0:
320,192,120262,1,0,0:0:0:0:
64,192,120262,1,0,0:0:0:0:
448,192,120304,1,0,0:0:0:0:
320,192,120347,1,0,0:0:0:0:
192,191,120389,1,0,0:0:0:0:
64,192,120432,1,0,0:0:0:0:
448,192,120475,1,0,0:0:0:0:
320,192,120517,1,0,0:0:0:0:
192,191,120560,1,0,0:0:0:0:
64,192,120602,1,0,0:0:0:0:
448,192,120602,1,0,0:0:0:0:
320,192,120688,1,0,0:0:0:0:
192,192,120688,1,0,0:0:0:0:
64,192,120773,1,0,0:0:0:0:
320,192,120815,1,0,0:0:0:0:
448,192,120858,1,0,0:0:0:0:
192,191,120901,1,0,0:0:0:0:
64,192,120943,1,0,0:0:0:0:
448,192,121029,1,0,0:0:0:0:
320,192,121029,1,0,0:0:0:0:
448,192,121114,1,0,0:0:0:0:
320,192,121114,1,0,0:0:0:0:
64,192,121199,1,0,0:0:0:0:
192,192,121199,1,0,0:0:0:0:
192,191,121284,1,0,0:0:0:0:
64,192,121284,1,0,0:0:0:0:
320,192,121284,1,0,0:0:0:0:
448,192,121369,1,0,0:0:0:0:
448,192,121455,1,0,0:0:0:0:
320,192,121455,1,0,0:0:0:0:
192,191,121540,1,0,0:0:0:0:
64,192,121540,1,0,0:0:0:0:
320,192,121625,1,0,0:0:0:0:
448,192,121625,1,0,0:0:0:0:
192,191,121668,1,0,0:0:0:0:
64,192,121710,1,0,0:0:0:0:
448,192,121753,1,0,0:0:0:0:
320,192,121796,1,0,0:0:0:0:
192,191,121838,1,0,0:0:0:0:
64,192,121881,1,0,0:0:0:0:
448,192,121923,1,0,0:0:0:0:
192,191,121966,1,0,0:0:0:0:
320,192,121966,1,0,0:0:0:0:
448,192,122051,1,0,0:0:0:0:
192,191,122094,1,0,0:0:0:0:
64,192,122137,1,0,0:0:0:0:
320,192,122179,1,0,0:0:0:0:
448,192,122222,1,0,0:0:0:0:
64,192,122264,1,0,0:0:0:0:
192,191,122307,1,0,0:0:0:0:
320,192,122350,1,0,0:0:0:0:
64,192,122392,1,0,0:0:0:0:
448,192,122435,1,0,0:0:0:0:
320,192,122477,1,0,0:0:0:0:
192,192,122520,1,0,0:0:0:0:
448,192,122563,1,0,0:0:0:0:
320,192,122605,1,0,0:0:0:0:
192,191,122648,1,0,0:0:0:0:
64,192,122648,1,0,0:0:0:0:
320,192,122733,1,0,0:0:0:0:
448,192,122733,1,0,0:0:0:0:
192,192,122818,1,0,0:0:0:0:
64,192,122818,1,0,0:0:0:0:
448,192,122904,1,0,0:0:0:0:
320,192,122904,1,0,0:0:0:0:
320,192,122989,1,0,0:0:0:0:
192,191,122989,1,0,0:0:0:0:
448,192,122989,1,0,0:0:0:0:
64,192,123074,1,0,0:0:0:0:
320,192,123117,1,0,0:0:0:0:
448,192,123159,1,0,0:0:0:0:
64,192,123202,1,0,0:0:0:0:
192,191,123244,1,0,0:0:0:0:
320,192,123287,1,0,0:0:0:0:
64,192,123330,1,0,0:0:0:0:
448,192,123330,1,0,0:0:0:0:
192,191,123415,1,0,0:0:0:0:
320,192,123415,1,0,0:0:0:0:
448,192,123500,1,0,0:0:0:0:
192,191,123543,1,0,0:0:0:0:
64,192,123585,1,0,0:0:0:0:
320,192,123628,1,0,0:0:0:0:
448,192,123671,1,0,0:0:0:0:
64,192,123756,1,0,0:0:0:0:
192,191,123841,1,0,0:0:0:0:
64,192,123841,1,0,0:0:0:0:
448,192,123926,1,0,0:0:0:0:
192,191,124012,1,0,0:0:0:0:
320,192,124012,1,0,0:0:0:0:
64,192,124012,1,0,0:0:0:0:
448,192,124097,1,0,0:0:0:0:
192,192,124182,1,0,0:0:0:0:
64,192,124182,1,0,0:0:0:0:
320,192,124267,1,0,0:0:0:0:
448,192,124267,1,0,0:0:0:0:
64,192,124352,1,0,0:0:0:0:
192,191,124352,1,0,0:0:0:0:
320,192,124395,1,0,0:0:0:0:
448,192,124438,1,0,0:0:0:0:
64,192,124480,1,0,0:0:0:0:
192,191,124523,1,0,0:0:0:0:
320,192,124565,1,0,0:0:0:0:
448,192,124608,1,0,0:0:0:0:
64,192,124651,1,0,0:0:0:0:
192,191,124693,1,0,0:0:0:0:
320,192,124693,1,0,0:0:0:0:
320,192,124821,1,0,0:0:0:0:
448,192,124864,1,0,0:0:0:0:
192,191,124906,1,0,0:0:0:0:
64,192,124949,1,0,0:0:0:0:
448,192,124992,1,0,0:0:0:0:
320,192,125034,1,0,0:0:0:0:
192,191,125077,1,0,0:0:0:0:
448,192,125119,1,0,0:0:0:0:
64,192,125162,1,0,0:0:0:0:
320,192,125205,1,0,0:0:0:0:
192,192,125247,1,0,0:0:0:0:
64,192,125290,1,0,0:0:0:0:
448,192,125375,1,0,0:0:0:0:
320,192,125375,1,0,0:0:0:0:
192,192,125375,1,0,0:0:0:0:
448,192,125460,1,0,0:0:0:0:
320,192,125460,1,0,0:0:0:0:
64,192,125546,1,0,0:0:0:0:
192,191,125631,1,0,0:0:0:0:
64,192,125631,1,0,0:0:0:0:
64,192,125716,1,0,0:0:0:0:
320,192,125716,1,0,0:0:0:0:
192,191,125716,1,0,0:0:0:0:
443,146,125801,1,0,0:0:0:0:
194,208,125844,1,0,0:0:0:0:
70,238,125887,1,0,0:0:0:0:
443,146,125929,1,0,0:0:0:0:
319,177,125972,1,0,0:0:0:0:
194,208,126014,1,0,0:0:0:0:
70,238,126057,1,0,0:0:0:0:
443,146,126057,1,0,0:0:0:0:
319,177,126142,1,0,0:0:0:0:
192,192,126142,1,0,0:0:0:0:
70,238,126227,1,0,0:0:0:0:
319,177,126270,1,0,0:0:0:0:
443,146,126313,1,0,0:0:0:0:
194,208,126355,1,0,0:0:0:0:
70,238,126398,1,0,0:0:0:0:
443,146,126483,1,0,0:0:0:0:
443,146,126568,1,0,0:0:0:0:
319,177,126568,1,0,0:0:0:0:
70,238,126654,1,0,0:0:0:0:
194,208,126739,1,0,0:0:0:0:
70,238,126739,1,0,0:0:0:0:
443,146,126824,1,0,0:0:0:0:
320,192,126824,1,0,0:0:0:0:
192,192,126909,1,0,0:0:0:0:
64,192,126909,1,0,0:0:0:0:
320,192,126994,1,0,0:0:0:0:
448,192,126994,1,0,0:0:0:0:
319,177,127080,1,0,0:0:0:0:
443,146,127080,1,0,0:0:0:0:
194,208,127122,1,0,0:0:0:0:
70,238,127165,1,0,0:0:0:0:
443,146,127208,1,0,0:0:0:0:
319,177,127250,1,0,0:0:0:0:
194,208,127293,1,0,0:0:0:0:
70,238,127335,1,0,0:0:0:0:
443,146,127378,1,0,0:0:0:0:
194,208,127421,1,0,0:0:0:0:
319,177,127421,1,0,0:0:0:0:
194,208,127548,1,0,0:0:0:0:
70,238,127591,1,0,0:0:0:0:
319,177,127634,1,0,0:0:0:0:
443,146,127676,1,0,0:0:0:0:
70,238,127719,1,0,0:0:0:0:
194,208,127762,1,0,0:0:0:0:
319,177,127804,1,0,0:0:0:0:
70,238,127847,1,0,0:0:0:0:
443,146,127889,1,0,0:0:0:0:
194,208,127932,1,0,0:0:0:0:
319,177,128017,1,0,0:0:0:0:
194,208,128102,1,0,0:0:0:0:
70,238,128102,1,0,0:0:0:0:
448,192,128145,1,0,0:0:0:0:
320,192,128188,1,0,0:0:0:0:
64,192,128230,1,0,0:0:0:0:
192,192,128273,1,0,0:0:0:0:
443,146,128358,1,0,0:0:0:0:
319,177,128443,1,0,0:0:0:0:
443,146,128443,1,0,0:0:0:0:
192,192,128486,1,0,0:0:0:0:
64,192,128529,1,0,0:0:0:0:
320,192,128571,1,0,0:0:0:0:
448,192,128614,1,0,0:0:0:0:
192,192,128656,1,0,0:0:0:0:
320,192,128699,1,0,0:0:0:0:
64,192,128784,1,0,0:0:0:0:
192,191,128784,1,0,0:0:0:0:
448,192,128784,1,0,0:0:0:0:
320,192,128869,1,0,0:0:0:0:
448,192,128955,1,0,0:0:0:0:
192,191,128997,1,0,0:0:0:0:
64,192,129040,1,0,0:0:0:0:
320,192,129083,1,0,0:0:0:0:
448,192,129125,1,0,0:0:0:0:
64,192,129210,1,0,0:0:0:0:
192,192,129253,1,0,0:0:0:0:
448,192,129296,1,0,0:0:0:0:
320,192,129338,1,0,0:0:0:0:
64,192,129381,1,0,0:0:0:0:
192,191,129466,1,0,0:0:0:0:
448,192,129466,1,0,0:0:0:0:
320,192,129466,1,0,0:0:0:0:
448,192,129594,1,0,0:0:0:0:
320,192,129594,1,0,0:0:0:0:
64,192,129658,1,0,0:0:0:0:
448,192,129722,1,0,0:0:0:0:
320,192,129722,1,0,0:0:0:0:
64,192,129807,1,0,0:0:0:0:
192,191,129807,1,0,0:0:0:0:
320,192,129850,1,0,0:0:0:0:
448,192,129892,1,0,0:0:0:0:
64,192,129935,1,0,0:0:0:0:
192,191,129977,1,0,0:0:0:0:
320,192,130020,1,0,0:0:0:0:
448,192,130063,1,0,0:0:0:0:
64,192,130105,1,0,0:0:0:0:
192,191,130148,1,0,0:0:0:0:
320,192,130148,1,0,0:0:0:0:
320,192,130276,1,0,0:0:0:0:
448,192,130318,1,0,0:0:0:0:
192,191,130361,1,0,0:0:0:0:
64,192,130404,1,0,0:0:0:0:
448,192,130446,1,0,0:0:0:0:
320,192,130489,1,0,0:0:0:0:
192,191,130531,1,0,0:0:0:0:
448,192,130574,1,0,0:0:0:0:
64,192,130617,1,0,0:0:0:0:
192,191,130659,1,0,0:0:0:0:
448,192,130702,1,0,0:0:0:0:
320,192,130744,1,0,0:0:0:0:
64,192,130830,1,0,0:0:0:0:
192,192,130830,1,0,0:0:0:0:
448,192,130915,1,0,0:0:0:0:
320,192,130915,1,0,0:0:0:0:
64,192,131000,1,0,0:0:0:0:
192,191,131085,1,0,0:0:0:0:
64,192,131085,1,0,0:0:0:0:
64,192,131171,1,0,0:0:0:0:
320,192,131171,1,0,0:0:0:0:
192,191,131171,1,0,0:0:0:0:
448,192,131256,1,0,0:0:0:0:
192,191,131298,1,0,0:0:0:0:
64,192,131341,1,0,0:0:0:0:
448,192,131384,1,0,0:0:0:0:
320,193,131426,1,0,0:0:0:0:
192,191,131469,1,0,0:0:0:0:
64,192,131512,1,0,0:0:0:0:
320,193,131512,1,0,0:0:0:0:
448,192,131512,1,0,0:0:0:0:
320,193,131597,1,0,0:0:0:0:
448,192,131597,1,0,0:0:0:0:
64,192,131682,1,0,0:0:0:0:
320,193,131725,1,0,0:0:0:0:
448,192,131767,1,0,0:0:0:0:
192,191,131810,1,0,0:0:0:0:
64,192,131852,1,0,0:0:0:0:
448,192,131938,1,0,0:0:0:0:
448,192,132023,1,0,0:0:0:0:
320,193,132023,1,0,0:0:0:0:
192,191,132108,1,0,0:0:0:0:
64,192,132108,1,0,0:0:0:0:
192,191,132193,1,0,0:0:0:0:
64,192,132193,1,0,0:0:0:0:
320,193,132193,1,0,0:0:0:0:
448,192,132279,1,0,0:0:0:0:
448,192,132364,1,0,0:0:0:0:
320,192,132364,1,0,0:0:0:0:
192,191,132449,1,0,0:0:0:0:
64,192,132449,1,0,0:0:0:0:
320,193,132534,1,0,0:0:0:0:
448,192,132534,1,0,0:0:0:0:
192,191,132577,1,0,0:0:0:0:
64,192,132619,1,0,0:0:0:0:
448,192,132662,1,0,0:0:0:0:
320,193,132705,1,0,0:0:0:0:
192,191,132747,1,0,0:0:0:0:
64,192,132790,1,0,0:0:0:0:
448,192,132833,1,0,0:0:0:0:
192,191,132875,1,0,0:0:0:0:
320,193,132875,1,0,0:0:0:0:
192,191,133003,1,0,0:0:0:0:
64,192,133046,1,0,0:0:0:0:
320,193,133088,1,0,0:0:0:0:
448,192,133131,1,0,0:0:0:0:
64,192,133173,1,0,0:0:0:0:
192,191,133216,1,0,0:0:0:0:
320,193,133259,1,0,0:0:0:0:
64,192,133301,1,0,0:0:0:0:
448,192,133344,1,0,0:0:0:0:
320,193,133387,1,0,0:0:0:0:
192,192,133429,1,0,0:0:0:0:
448,192,133472,1,0,0:0:0:0:
320,192,133514,1,0,0:0:0:0:
192,191,133557,1,0,0:0:0:0:
64,192,133557,1,0,0:0:0:0:
448,192,133642,1,0,0:0:0:0:
320,192,133642,1,0,0:0:0:0:
192,192,133727,1,0,0:0:0:0:
64,192,133727,1,0,0:0:0:0:
448,192,133813,1,0,0:0:0:0:
320,193,133813,1,0,0:0:0:0:
320,193,133898,1,0,0:0:0:0:
192,191,133898,1,0,0:0:0:0:
448,192,133898,1,0,0:0:0:0:
64,192,133940,1,0,0:0:0:0:
192,192,133983,1,0,0:0:0:0:
320,192,134026,1,0,0:0:0:0:
448,192,134068,1,0,0:0:0:0:
64,192,134111,1,0,0:0:0:0:
192,191,134154,1,0,0:0:0:0:
320,192,134196,1,0,0:0:0:0:
64,192,134239,1,0,0:0:0:0:
192,191,134239,1,0,0:0:0:0:
448,192,134239,1,0,0:0:0:0:
320,192,134324,1,0,0:0:0:0:
448,192,134409,1,0,0:0:0:0:
192,191,134452,1,0,0:0:0:0:
64,192,134494,1,0,0:0:0:0:
320,192,134537,1,0,0:0:0:0:
448,192,134580,1,0,0:0:0:0:
192,192,134665,1,0,0:0:0:0:
320,192,134665,1,0,0:0:0:0:
64,192,134750,1,0,0:0:0:0:
448,192,134793,1,0,0:0:0:0:
192,191,134921,1,0,0:0:0:0:
448,192,134921,1,0,0:0:0:0:
320,192,134921,1,0,0:0:0:0:
320,192,135006,1,0,0:0:0:0:
448,192,135006,1,0,0:0:0:0:
64,192,135091,1,0,0:0:0:0:
192,192,135091,1,0,0:0:0:0:
448,192,135176,1,0,0:0:0:0:
320,192,135176,1,0,0:0:0:0:
192,192,135262,1,0,0:0:0:0:
64,192,135262,1,0,0:0:0:0:
64,192,136114,1,0,0:0:0:0:
448,192,136114,1,0,0:0:0:0:
192,192,136135,1,0,0:0:0:0:
320,192,136156,1,0,0:0:0:0:
64,192,136625,5,0,0:0:0:0:
192,192,136668,1,0,0:0:0:0:
448,192,136710,1,0,0:0:0:0:
320,192,136753,1,0,0:0:0:0:
192,192,136796,1,0,0:0:0:0:
64,192,136881,1,0,0:0:0:0:
320,192,136966,1,0,0:0:0:0:
448,192,136966,1,0,0:0:0:0:
192,192,136966,1,0,0:0:0:0:
320,192,137094,1,0,0:0:0:0:
448,192,137094,1,0,0:0:0:0:
64,192,137137,1,0,0:0:0:0:
448,192,137179,1,0,0:0:0:0:
320,192,137222,1,0,0:0:0:0:
192,192,137264,1,0,0:0:0:0:
64,192,137307,1,0,0:0:0:0:
448,192,137350,1,0,0:0:0:0:
320,192,137392,1,0,0:0:0:0:
64,192,137477,1,0,0:0:0:0:
192,192,137520,1,0,0:0:0:0:
448,192,137563,1,0,0:0:0:0:
320,192,137605,1,0,0:0:0:0:
192,192,137648,1,0,0:0:0:0:
64,192,137648,1,0,0:0:0:0:
448,192,137733,1,0,0:0:0:0:
320,192,137776,1,0,0:0:0:0:
64,192,137818,1,0,0:0:0:0:
192,192,137861,1,0,0:0:0:0:
448,192,137904,1,0,0:0:0:0:
192,192,137989,1,0,0:0:0:0:
64,192,137989,1,0,0:0:0:0:
320,192,138031,1,0,0:0:0:0:
448,192,138074,1,0,0:0:0:0:
64,192,138117,1,0,0:0:0:0:
192,192,138159,1,0,0:0:0:0:
320,192,138202,1,0,0:0:0:0:
448,192,138244,1,0,0:0:0:0:
192,192,138330,1,0,0:0:0:0:
64,192,138330,1,0,0:0:0:0:
320,192,138330,1,0,0:0:0:0:
64,192,138415,1,0,0:0:0:0:
192,192,138415,1,0,0:0:0:0:
64,192,138500,1,0,0:0:0:0:
448,192,138543,1,0,0:0:0:0:
320,192,138585,1,0,0:0:0:0:
64,192,138628,1,0,0:0:0:0:
448,192,138671,1,0,0:0:0:0:
320,192,138713,1,0,0:0:0:0:
192,192,138756,1,0,0:0:0:0:
64,192,138841,1,0,0:0:0:0:
320,192,138841,1,0,0:0:0:0:
448,192,138841,1,0,0:0:0:0:
320,192,138926,1,0,0:0:0:0:
448,192,138926,1,0,0:0:0:0:
64,192,139012,1,0,0:0:0:0:
192,192,139012,1,0,0:0:0:0:
320,192,139097,1,0,0:0:0:0:
448,192,139097,1,0,0:0:0:0:
64,192,139182,1,0,0:0:0:0:
192,192,139182,1,0,0:0:0:0:
448,192,139267,1,0,0:0:0:0:
192,192,139352,1,0,0:0:0:0:
64,192,139352,1,0,0:0:0:0:
320,192,139352,1,0,0:0:0:0:
448,192,139438,1,0,0:0:0:0:
192,192,139480,1,0,0:0:0:0:
64,192,139523,1,0,0:0:0:0:
448,192,139565,1,0,0:0:0:0:
320,192,139608,1,0,0:0:0:0:
192,192,139651,1,0,0:0:0:0:
64,192,139693,1,0,0:0:0:0:
448,192,139693,1,0,0:0:0:0:
320,192,139779,1,0,0:0:0:0:
192,192,139821,1,0,0:0:0:0:
64,192,139864,1,0,0:0:0:0:
320,192,139906,1,0,0:0:0:0:
448,192,139949,1,0,0:0:0:0:
192,192,139992,1,0,0:0:0:0:
64,192,140034,1,0,0:0:0:0:
320,192,140119,1,0,0:0:0:0:
64,192,140205,1,0,0:0:0:0:
448,192,140205,1,0,0:0:0:0:
192,192,140247,1,0,0:0:0:0:
320,192,140290,1,0,0:0:0:0:
192,192,140375,1,0,0:0:0:0:
64,192,140375,1,0,0:0:0:0:
448,192,140375,1,0,0:0:0:0:
192,192,140503,1,0,0:0:0:0:
64,192,140503,1,0,0:0:0:0:
448,192,140546,1,0,0:0:0:0:
192,192,140631,1,0,0:0:0:0:
64,192,140631,1,0,0:0:0:0:
320,192,140716,1,0,0:0:0:0:
448,192,140716,1,0,0:0:0:0:
192,192,140759,1,0,0:0:0:0:
64,192,140801,1,0,0:0:0:0:
448,192,140844,1,0,0:0:0:0:
320,192,140887,1,0,0:0:0:0:
192,192,140929,1,0,0:0:0:0:
64,192,140972,1,0,0:0:0:0:
448,192,141014,1,0,0:0:0:0:
192,192,141057,1,0,0:0:0:0:
320,192,141057,1,0,0:0:0:0:
192,192,141185,1,0,0:0:0:0:
64,192,141227,1,0,0:0:0:0:
320,192,141270,1,0,0:0:0:0:
448,192,141313,1,0,0:0:0:0:
64,192,141355,1,0,0:0:0:0:
192,192,141398,1,0,0:0:0:0:
320,192,141440,1,0,0:0:0:0:
64,192,141483,1,0,0:0:0:0:
448,192,141526,1,0,0:0:0:0:
192,192,141568,1,0,0:0:0:0:
320,192,141654,1,0,0:0:0:0:
448,192,141696,1,0,0:0:0:0:
64,192,141739,1,0,0:0:0:0:
192,192,141739,1,0,0:0:0:0:
64,192,141824,1,0,0:0:0:0:
192,192,141824,1,0,0:0:0:0:
448,192,141909,1,0,0:0:0:0:
448,192,141994,1,0,0:0:0:0:
320,192,141994,1,0,0:0:0:0:
320,192,142080,1,0,0:0:0:0:
448,192,142080,1,0,0:0:0:0:
192,192,142080,1,0,0:0:0:0:
63,192,142165,1,0,0:0:0:0:
320,192,142208,1,0,0:0:0:0:
448,192,142250,1,0,0:0:0:0:
63,192,142293,1,0,0:0:0:0:
192,192,142335,1,0,0:0:0:0:
320,192,142378,1,0,0:0:0:0:
448,192,142421,1,0,0:0:0:0:
63,192,142421,1,0,0:0:0:0:
192,192,142506,1,0,0:0:0:0:
320,192,142506,1,0,0:0:0:0:
448,192,142591,1,0,0:0:0:0:
192,192,142634,1,0,0:0:0:0:
63,192,142676,1,0,0:0:0:0:
320,192,142719,1,0,0:0:0:0:
448,192,142762,1,0,0:0:0:0:
63,192,142847,1,0,0:0:0:0:
192,192,142847,1,0,0:0:0:0:
320,192,142932,1,0,0:0:0:0:
192,192,142975,1,0,0:0:0:0:
448,192,143017,1,0,0:0:0:0:
320,192,143102,1,0,0:0:0:0:
64,192,143102,1,0,0:0:0:0:
192,192,143102,1,0,0:0:0:0:
448,192,143230,1,0,0:0:0:0:
320,192,143230,1,0,0:0:0:0:
63,192,143273,1,0,0:0:0:0:
448,192,143358,1,0,0:0:0:0:
320,192,143358,1,0,0:0:0:0:
192,192,143443,1,0,0:0:0:0:
63,192,143443,1,0,0:0:0:0:
320,192,143486,1,0,0:0:0:0:
448,192,143529,1,0,0:0:0:0:
63,192,143571,1,0,0:0:0:0:
192,192,143614,1,0,0:0:0:0:
320,192,143656,1,0,0:0:0:0:
448,192,143699,1,0,0:0:0:0:
63,192,143742,1,0,0:0:0:0:
320,192,143784,1,0,0:0:0:0:
192,192,143784,1,0,0:0:0:0:
320,192,143912,1,0,0:0:0:0:
448,192,143955,1,0,0:0:0:0:
192,192,143997,1,0,0:0:0:0:
63,192,144040,1,0,0:0:0:0:
448,192,144083,1,0,0:0:0:0:
320,192,144125,1,0,0:0:0:0:
192,192,144168,1,0,0:0:0:0:
448,192,144210,1,0,0:0:0:0:
63,192,144253,1,0,0:0:0:0:
320,192,144296,1,0,0:0:0:0:
192,192,144381,1,0,0:0:0:0:
320,192,144466,1,0,0:0:0:0:
448,192,144466,1,0,0:0:0:0:
320,192,144551,1,0,0:0:0:0:
448,192,144551,1,0,0:0:0:0:
64,192,144637,1,0,0:0:0:0:
192,192,144637,1,0,0:0:0:0:
320,192,144722,1,0,0:0:0:0:
448,192,144722,1,0,0:0:0:0:
192,192,144807,1,0,0:0:0:0:
63,192,144807,1,0,0:0:0:0:
448,192,144892,1,0,0:0:0:0:
192,192,144935,1,0,0:0:0:0:
64,192,144977,1,0,0:0:0:0:
448,192,145020,1,0,0:0:0:0:
320,192,145063,1,0,0:0:0:0:
192,192,145105,1,0,0:0:0:0:
448,192,145148,1,0,0:0:0:0:
64,192,145148,1,0,0:0:0:0:
320,192,145233,1,0,0:0:0:0:
192,192,145233,1,0,0:0:0:0:
64,192,145318,1,0,0:0:0:0:
320,192,145361,1,0,0:0:0:0:
448,192,145404,1,0,0:0:0:0:
192,192,145446,1,0,0:0:0:0:
64,192,145489,1,0,0:0:0:0:
320,192,145574,1,0,0:0:0:0:
448,192,145574,1,0,0:0:0:0:
192,192,145659,1,0,0:0:0:0:
320,192,145702,1,0,0:0:0:0:
448,192,145744,1,0,0:0:0:0:
320,192,145830,1,0,0:0:0:0:
64,192,145830,1,0,0:0:0:0:
192,192,145830,1,0,0:0:0:0:
64,192,145958,1,0,0:0:0:0:
192,192,145958,1,0,0:0:0:0:
448,192,146021,1,0,0:0:0:0:
64,192,146085,1,0,0:0:0:0:
192,192,146085,1,0,0:0:0:0:
448,192,146171,1,0,0:0:0:0:
320,192,146171,1,0,0:0:0:0:
192,192,146213,1,0,0:0:0:0:
64,192,146256,1,0,0:0:0:0:
448,192,146298,1,0,0:0:0:0:
320,192,146341,1,0,0:0:0:0:
192,192,146384,1,0,0:0:0:0:
64,192,146426,1,0,0:0:0:0:
448,192,146469,1,0,0:0:0:0:
320,192,146512,1,0,0:0:0:0:
192,192,146512,1,0,0:0:0:0:
192,192,146639,1,0,0:0:0:0:
64,192,146682,1,0,0:0:0:0:
320,192,146725,1,0,0:0:0:0:
448,192,146767,1,0,0:0:0:0:
64,192,146810,1,0,0:0:0:0:
192,192,146852,1,0,0:0:0:0:
320,192,146895,1,0,0:0:0:0:
64,192,146938,1,0,0:0:0:0:
448,192,146980,1,0,0:0:0:0:
192,192,147023,1,0,0:0:0:0:
320,192,147108,1,0,0:0:0:0:
64,192,147193,1,0,0:0:0:0:
192,192,147193,1,0,0:0:0:0:
320,192,147279,1,0,0:0:0:0:
448,192,147279,1,0,0:0:0:0:
192,192,147364,1,0,0:0:0:0:
64,192,147364,1,0,0:0:0:0:
320,192,147449,1,0,0:0:0:0:
448,192,147449,1,0,0:0:0:0:
448,192,147534,1,0,0:0:0:0:
192,192,147534,1,0,0:0:0:0:
320,192,147534,1,0,0:0:0:0:
69,238,147619,1,0,0:0:0:0:
318,176,147662,1,0,0:0:0:0:
442,145,147705,1,0,0:0:0:0:
69,238,147747,1,0,0:0:0:0:
193,207,147790,1,0,0:0:0:0:
318,176,147833,1,0,0:0:0:0:
442,145,147875,1,0,0:0:0:0:
69,238,147875,1,0,0:0:0:0:
193,207,147960,1,0,0:0:0:0:
320,192,147960,1,0,0:0:0:0:
442,145,148046,1,0,0:0:0:0:
193,207,148088,1,0,0:0:0:0:
69,238,148131,1,0,0:0:0:0:
318,176,148173,1,0,0:0:0:0:
442,145,148216,1,0,0:0:0:0:
192,192,148259,1,0,0:0:0:0:
448,192,148387,1,0,0:0:0:0:
192,192,148429,1,0,0:0:0:0:
64,192,148472,1,0,0:0:0:0:
318,176,148557,1,0,0:0:0:0:
442,145,148557,1,0,0:0:0:0:
193,207,148557,1,0,0:0:0:0:
318,176,148685,1,0,0:0:0:0:
442,145,148685,1,0,0:0:0:0:
69,238,148749,1,0,0:0:0:0:
318,176,148813,1,0,0:0:0:0:
442,145,148813,1,0,0:0:0:0:
193,207,148898,1,0,0:0:0:0:
69,238,148898,1,0,0:0:0:0:
318,176,148940,1,0,0:0:0:0:
442,145,148983,1,0,0:0:0:0:
69,238,149026,1,0,0:0:0:0:
193,207,149068,1,0,0:0:0:0:
318,176,149111,1,0,0:0:0:0:
442,145,149154,1,0,0:0:0:0:
69,238,149196,1,0,0:0:0:0:
318,176,149239,1,0,0:0:0:0:
193,207,149239,1,0,0:0:0:0:
318,176,149367,1,0,0:0:0:0:
442,145,149409,1,0,0:0:0:0:
193,207,149452,1,0,0:0:0:0:
69,238,149494,1,0,0:0:0:0:
442,145,149537,1,0,0:0:0:0:
318,176,149580,1,0,0:0:0:0:
193,207,149622,1,0,0:0:0:0:
442,145,149665,1,0,0:0:0:0:
69,238,149708,1,0,0:0:0:0:
318,176,149750,1,0,0:0:0:0:
192,207,149835,1,0,0:0:0:0:
320,145,149921,1,0,0:0:0:0:
448,176,149921,1,0,0:0:0:0:
192,192,150006,1,0,0:0:0:0:
64,192,150006,1,0,0:0:0:0:
320,192,150091,1,0,0:0:0:0:
448,192,150091,1,0,0:0:0:0:
69,238,150176,1,0,0:0:0:0:
193,207,150176,1,0,0:0:0:0:
193,207,150262,1,0,0:0:0:0:
318,176,150262,1,0,0:0:0:0:
69,238,150262,1,0,0:0:0:0:
448,192,150347,1,0,0:0:0:0:
192,192,150389,1,0,0:0:0:0:
64,192,150432,1,0,0:0:0:0:
448,192,150475,1,0,0:0:0:0:
320,192,150517,1,0,0:0:0:0:
192,192,150560,1,0,0:0:0:0:
448,192,150602,1,0,0:0:0:0:
64,192,150602,1,0,0:0:0:0:
192,192,150688,1,0,0:0:0:0:
320,192,150688,1,0,0:0:0:0:
64,192,150773,1,0,0:0:0:0:
320,192,150815,1,0,0:0:0:0:
448,192,150858,1,0,0:0:0:0:
192,192,150901,1,0,0:0:0:0:
64,192,150943,1,0,0:0:0:0:
320,192,151029,1,0,0:0:0:0:
192,192,151029,1,0,0:0:0:0:
448,192,151114,1,0,0:0:0:0:
192,192,151156,1,0,0:0:0:0:
320,192,151199,1,0,0:0:0:0:
448,192,151284,1,0,0:0:0:0:
64,192,151284,1,0,0:0:0:0:
192,192,151284,1,0,0:0:0:0:
64,192,151412,1,0,0:0:0:0:
192,192,151412,1,0,0:0:0:0:
448,192,151476,1,0,0:0:0:0:
64,192,151540,1,0,0:0:0:0:
192,192,151540,1,0,0:0:0:0:
448,192,151625,1,0,0:0:0:0:
320,192,151625,1,0,0:0:0:0:
192,192,151668,1,0,0:0:0:0:
64,192,151710,1,0,0:0:0:0:
448,192,151753,1,0,0:0:0:0:
320,192,151796,1,0,0:0:0:0:
192,192,151838,1,0,0:0:0:0:
64,192,151881,1,0,0:0:0:0:
448,192,151923,1,0,0:0:0:0:
320,192,151966,1,0,0:0:0:0:
192,192,151966,1,0,0:0:0:0:
192,192,152094,1,0,0:0:0:0:
64,192,152137,1,0,0:0:0:0:
320,192,152179,1,0,0:0:0:0:
448,192,152222,1,0,0:0:0:0:
64,192,152264,1,0,0:0:0:0:
192,192,152307,1,0,0:0:0:0:
320,192,152350,1,0,0:0:0:0:
64,192,152392,1,0,0:0:0:0:
448,192,152435,1,0,0:0:0:0:
320,192,152477,1,0,0:0:0:0:
192,192,152477,1,0,0:0:0:0:
320,192,152605,1,0,0:0:0:0:
64,192,152648,1,0,0:0:0:0:
192,192,152648,1,0,0:0:0:0:
448,192,152648,1,0,0:0:0:0:
64,192,152733,1,0,0:0:0:0:
192,192,152733,1,0,0:0:0:0:
448,192,152818,1,0,0:0:0:0:
320,192,152818,1,0,0:0:0:0:
64,192,152904,1,0,0:0:0:0:
192,192,152904,1,0,0:0:0:0:
448,192,152989,1,0,0:0:0:0:
320,192,152989,1,0,0:0:0:0:
64,192,153031,1,0,0:0:0:0:
192,192,153074,1,0,0:0:0:0:
320,192,153117,1,0,0:0:0:0:
448,192,153159,1,0,0:0:0:0:
64,192,153202,1,0,0:0:0:0:
192,191,153244,1,0,0:0:0:0:
320,192,153287,1,0,0:0:0:0:
448,192,153330,1,0,0:0:0:0:
64,192,153330,1,0,0:0:0:0:
192,192,153415,1,0,0:0:0:0:
320,192,153415,1,0,0:0:0:0:
448,192,153500,1,0,0:0:0:0:
192,191,153543,1,0,0:0:0:0:
64,192,153585,1,0,0:0:0:0:
320,192,153628,1,0,0:0:0:0:
448,192,153671,1,0,0:0:0:0:
192,192,153756,1,0,0:0:0:0:
320,192,153756,1,0,0:0:0:0:
448,192,153841,1,0,0:0:0:0:
320,192,153884,1,0,0:0:0:0:
192,192,153926,1,0,0:0:0:0:
64,192,153969,1,0,0:0:0:0:
320,192,154012,1,0,0:0:0:0:
448,192,154012,1,0,0:0:0:0:
192,191,154012,1,0,0:0:0:0:
320,192,154139,1,0,0:0:0:0:
448,192,154139,1,0,0:0:0:0:
64,192,154203,1,0,0:0:0:0:
320,192,154267,1,0,0:0:0:0:
448,192,154267,1,0,0:0:0:0:
192,191,154352,1,0,0:0:0:0:
64,192,154352,1,0,0:0:0:0:
320,192,154395,1,0,0:0:0:0:
448,192,154438,1,0,0:0:0:0:
64,192,154480,1,0,0:0:0:0:
192,191,154523,1,0,0:0:0:0:
320,192,154565,1,0,0:0:0:0:
448,192,154608,1,0,0:0:0:0:
64,192,154651,1,0,0:0:0:0:
320,192,154693,1,0,0:0:0:0:
192,191,154693,1,0,0:0:0:0:
320,192,154821,1,0,0:0:0:0:
448,192,154864,1,0,0:0:0:0:
192,191,154906,1,0,0:0:0:0:
64,192,154949,1,0,0:0:0:0:
448,192,154992,1,0,0:0:0:0:
320,192,155034,1,0,0:0:0:0:
192,191,155077,1,0,0:0:0:0:
448,192,155119,1,0,0:0:0:0:
64,192,155162,1,0,0:0:0:0:
320,192,155205,1,0,0:0:0:0:
192,191,155290,1,0,0:0:0:0:
320,192,155333,1,0,0:0:0:0:
448,192,155375,1,0,0:0:0:0:
320,192,155460,1,0,0:0:0:0:
448,192,155460,1,0,0:0:0:0:
64,192,155546,1,0,0:0:0:0:
64,192,155631,1,0,0:0:0:0:
192,191,155631,1,0,0:0:0:0:
192,191,155716,1,0,0:0:0:0:
320,192,155716,1,0,0:0:0:0:
64,192,155716,1,0,0:0:0:0:
448,192,155801,1,0,0:0:0:0:
192,192,155844,1,0,0:0:0:0:
64,192,155887,1,0,0:0:0:0:
448,192,155929,1,0,0:0:0:0:
320,192,155972,1,0,0:0:0:0:
192,192,156014,1,0,0:0:0:0:
448,192,156057,1,0,0:0:0:0:
64,192,156057,1,0,0:0:0:0:
320,192,156142,1,0,0:0:0:0:
192,192,156142,1,0,0:0:0:0:
64,192,156227,1,0,0:0:0:0:
320,192,156270,1,0,0:0:0:0:
448,192,156313,1,0,0:0:0:0:
192,192,156355,1,0,0:0:0:0:
64,192,156398,1,0,0:0:0:0:
192,192,156483,1,0,0:0:0:0:
320,192,156483,1,0,0:0:0:0:
448,192,156568,1,0,0:0:0:0:
192,192,156611,1,0,0:0:0:0:
320,192,156654,1,0,0:0:0:0:
64,192,156739,1,0,0:0:0:0:
192,192,156739,1,0,0:0:0:0:
448,192,156739,1,0,0:0:0:0:
64,192,156867,1,0,0:0:0:0:
192,192,156867,1,0,0:0:0:0:
448,192,156931,1,0,0:0:0:0:
64,192,156994,1,0,0:0:0:0:
192,192,156994,1,0,0:0:0:0:
448,192,157080,1,0,0:0:0:0:
320,192,157080,1,0,0:0:0:0:
448,192,157932,1,0,0:0:0:0:
320,192,157989,1,0,0:0:0:0:
192,192,158046,1,0,0:0:0:0:
64,192,158102,1,0,0:0:0:0:
448,192,158443,1,0,0:0:0:0:
320,192,158486,5,0,0:0:0:0:
64,191,158529,1,0,0:0:0:0:
192,192,158571,1,0,0:0:0:0:
448,192,158614,1,0,0:0:0:0:
320,192,158699,1,0,0:0:0:0:
192,192,158784,1,0,0:0:0:0:
64,191,158784,1,0,0:0:0:0:
448,192,158784,1,0,0:0:0:0:
320,191,158869,1,0,0:0:0:0:
192,192,158912,1,0,0:0:0:0:
448,192,158955,1,0,0:0:0:0:
64,191,158997,1,0,0:0:0:0:
192,192,159040,1,0,0:0:0:0:
320,192,159083,1,0,0:0:0:0:
448,192,159125,1,0,0:0:0:0:
64,191,159168,1,0,0:0:0:0:
192,192,159210,1,0,0:0:0:0:
448,192,159296,1,0,0:0:0:0:
320,192,159338,1,0,0:0:0:0:
64,192,159381,1,0,0:0:0:0:
192,192,159423,1,0,0:0:0:0:
320,192,159466,1,0,0:0:0:0:
448,192,159466,1,0,0:0:0:0:
64,191,159551,1,0,0:0:0:0:
192,192,159594,1,0,0:0:0:0:
448,192,159637,1,0,0:0:0:0:
320,192,159679,1,0,0:0:0:0:
64,191,159722,1,0,0:0:0:0:
320,192,159807,1,0,0:0:0:0:
448,192,159807,1,0,0:0:0:0:
192,192,159850,1,0,0:0:0:0:
64,191,159892,1,0,0:0:0:0:
448,192,159935,1,0,0:0:0:0:
320,192,159977,1,0,0:0:0:0:
192,192,160020,1,0,0:0:0:0:
64,191,160063,1,0,0:0:0:0:
320,192,160148,1,0,0:0:0:0:
448,192,160148,1,0,0:0:0:0:
64,192,160190,1,0,0:0:0:0:
192,192,160233,1,0,0:0:0:0:
320,192,160276,1,0,0:0:0:0:
448,192,160318,1,0,0:0:0:0:
64,191,160361,1,0,0:0:0:0:
192,192,160404,1,0,0:0:0:0:
448,192,160446,1,0,0:0:0:0:
64,191,160489,1,0,0:0:0:0:
192,192,160531,1,0,0:0:0:0:
320,192,160574,1,0,0:0:0:0:
448,192,160659,1,0,0:0:0:0:
64,191,160659,1,0,0:0:0:0:
320,192,160702,1,0,0:0:0:0:
192,192,160744,1,0,0:0:0:0:
448,192,160787,1,0,0:0:0:0:
64,191,160830,1,0,0:0:0:0:
320,192,160830,1,0,0:0:0:0:
192,191,160915,1,0,0:0:0:0:
448,192,161000,1,0,0:0:0:0:
192,192,161043,1,0,0:0:0:0:
64,192,161085,1,0,0:0:0:0:
320,192,161128,1,0,0:0:0:0:
448,192,161171,1,0,0:0:0:0:
192,192,161171,1,0,0:0:0:0:
64,192,161213,1,0,0:0:0:0:
192,192,161256,1,0,0:0:0:0:
320,192,161298,1,0,0:0:0:0:
448,192,161341,1,0,0:0:0:0:
320,192,161426,1,0,0:0:0:0:
448,192,161512,1,0,0:0:0:0:
192,192,161512,1,0,0:0:0:0:
64,191,161512,1,0,0:0:0:0:
64,192,161597,1,0,0:0:0:0:
448,192,161682,1,0,0:0:0:0:
192,192,161725,1,0,0:0:0:0:
64,191,161767,1,0,0:0:0:0:
320,192,161810,1,0,0:0:0:0:
448,192,161852,1,0,0:0:0:0:
192,192,161938,1,0,0:0:0:0:
64,191,162023,1,0,0:0:0:0:
192,192,162023,1,0,0:0:0:0:
448,192,162108,1,0,0:0:0:0:
320,192,162108,1,0,0:0:0:0:
320,192,162193,1,0,0:0:0:0:
448,192,162193,1,0,0:0:0:0:
192,192,162193,1,0,0:0:0:0:
64,192,162236,1,0,0:0:0:0:
320,192,162279,1,0,0:0:0:0:
448,192,162321,1,0,0:0:0:0:
192,192,162364,1,0,0:0:0:0:
320,192,162449,1,0,0:0:0:0:
192,192,162534,1,0,0:0:0:0:
64,191,162534,1,0,0:0:0:0:
320,192,162577,1,0,0:0:0:0:
448,192,162619,1,0,0:0:0:0:
64,191,162662,1,0,0:0:0:0:
192,192,162705,1,0,0:0:0:0:
320,192,162747,1,0,0:0:0:0:
448,192,162790,1,0,0:0:0:0:
64,191,162833,1,0,0:0:0:0:
320,192,162875,1,0,0:0:0:0:
192,192,162875,1,0,0:0:0:0:
320,192,163003,1,0,0:0:0:0:
448,192,163046,1,0,0:0:0:0:
192,192,163088,1,0,0:0:0:0:
64,191,163131,1,0,0:0:0:0:
448,192,163173,1,0,0:0:0:0:
320,192,163216,1,0,0:0:0:0:
192,192,163259,1,0,0:0:0:0:
448,192,163301,1,0,0:0:0:0:
64,191,163344,1,0,0:0:0:0:
320,192,163387,1,0,0:0:0:0:
448,192,163429,1,0,0:0:0:0:
192,192,163472,1,0,0:0:0:0:
64,192,163514,1,0,0:0:0:0:
320,192,163557,1,0,0:0:0:0:
320,192,163642,1,0,0:0:0:0:
448,192,163642,1,0,0:0:0:0:
64,191,163727,1,0,0:0:0:0:
192,192,163727,1,0,0:0:0:0:
320,191,163813,1,0,0:0:0:0:
448,192,163813,1,0,0:0:0:0:
192,192,163898,1,0,0:0:0:0:
320,192,163898,1,0,0:0:0:0:
64,191,163898,1,0,0:0:0:0:
448,192,163983,1,0,0:0:0:0:
320,192,164026,1,0,0:0:0:0:
64,192,164068,1,0,0:0:0:0:
449,191,164111,1,0,0:0:0:0:
320,192,164154,1,0,0:0:0:0:
192,192,164196,1,0,0:0:0:0:
64,191,164239,1,0,0:0:0:0:
449,191,164239,1,0,0:0:0:0:
320,192,164324,1,0,0:0:0:0:
192,192,164324,1,0,0:0:0:0:
64,191,164409,1,0,0:0:0:0:
320,192,164452,1,0,0:0:0:0:
449,191,164494,1,0,0:0:0:0:
192,192,164537,1,0,0:0:0:0:
64,191,164580,1,0,0:0:0:0:
320,192,164665,1,0,0:0:0:0:
449,191,164665,1,0,0:0:0:0:
192,192,164750,1,0,0:0:0:0:
320,192,164793,1,0,0:0:0:0:
448,192,164878,1,0,0:0:0:0:
192,192,164921,1,0,0:0:0:0:
64,191,164921,1,0,0:0:0:0:
320,192,164921,1,0,0:0:0:0:
192,192,165048,1,0,0:0:0:0:
64,191,165048,1,0,0:0:0:0:
449,191,165112,1,0,0:0:0:0:
192,192,165176,1,0,0:0:0:0:
64,191,165176,1,0,0:0:0:0:
320,192,165262,1,0,0:0:0:0:
449,191,165262,1,0,0:0:0:0:
192,192,165304,1,0,0:0:0:0:
64,191,165347,1,0,0:0:0:0:
449,191,165389,1,0,0:0:0:0:
320,192,165432,1,0,0:0:0:0:
192,192,165475,1,0,0:0:0:0:
64,191,165517,1,0,0:0:0:0:
449,191,165560,1,0,0:0:0:0:
320,192,165602,1,0,0:0:0:0:
192,192,165602,1,0,0:0:0:0:
64,192,165645,1,0,0:0:0:0:
192,192,165688,1,0,0:0:0:0:
320,192,165730,1,0,0:0:0:0:
448,191,165773,1,0,0:0:0:0:
192,192,165815,1,0,0:0:0:0:
320,191,165858,1,0,0:0:0:0:
64,191,165901,1,0,0:0:0:0:
192,192,165943,1,0,0:0:0:0:
320,192,165986,1,0,0:0:0:0:
64,191,166029,1,0,0:0:0:0:
449,191,166071,1,0,0:0:0:0:
320,192,166114,1,0,0:0:0:0:
192,192,166156,1,0,0:0:0:0:
448,192,166199,1,0,0:0:0:0:
320,192,166242,1,0,0:0:0:0:
192,192,166284,1,0,0:0:0:0:
64,191,166284,1,0,0:0:0:0:
320,191,166369,1,0,0:0:0:0:
448,191,166455,1,0,0:0:0:0:
320,192,166497,1,0,0:0:0:0:
64,192,166540,1,0,0:0:0:0:
192,192,166583,1,0,0:0:0:0:
320,192,166625,1,0,0:0:0:0:
449,191,166625,1,0,0:0:0:0:
64,192,166668,1,0,0:0:0:0:
192,192,166710,1,0,0:0:0:0:
448,192,166753,1,0,0:0:0:0:
320,192,166796,1,0,0:0:0:0:
64,191,166838,1,0,0:0:0:0:
192,192,166881,1,0,0:0:0:0:
320,192,166923,1,0,0:0:0:0:
64,191,166966,1,0,0:0:0:0:
192,192,166966,1,0,0:0:0:0:
448,192,166966,1,0,0:0:0:0:
320,191,167051,1,0,0:0:0:0:
448,192,167137,1,0,0:0:0:0:
192,192,167179,1,0,0:0:0:0:
64,191,167222,1,0,0:0:0:0:
320,192,167264,1,0,0:0:0:0:
448,192,167307,1,0,0:0:0:0:
64,191,167392,1,0,0:0:0:0:
192,192,167392,1,0,0:0:0:0:
64,191,167477,1,0,0:0:0:0:
320,192,167520,1,0,0:0:0:0:
448,192,167563,1,0,0:0:0:0:
64,192,167605,1,0,0:0:0:0:
192,192,167648,1,0,0:0:0:0:
448,192,167648,1,0,0:0:0:0:
320,192,167648,1,0,0:0:0:0:
448,192,167776,1,0,0:0:0:0:
320,192,167776,1,0,0:0:0:0:
64,191,167840,1,0,0:0:0:0:
448,192,167904,1,0,0:0:0:0:
320,192,167904,1,0,0:0:0:0:
64,191,167989,1,0,0:0:0:0:
192,192,167989,1,0,0:0:0:0:
320,192,168031,1,0,0:0:0:0:
448,192,168074,1,0,0:0:0:0:
64,191,168117,1,0,0:0:0:0:
192,192,168159,1,0,0:0:0:0:
320,192,168202,1,0,0:0:0:0:
448,192,168244,1,0,0:0:0:0:
64,191,168287,1,0,0:0:0:0:
192,192,168330,1,0,0:0:0:0:
320,192,168330,1,0,0:0:0:0:
320,192,168458,1,0,0:0:0:0:
448,192,168500,1,0,0:0:0:0:
192,192,168543,1,0,0:0:0:0:
64,191,168585,1,0,0:0:0:0:
448,192,168628,1,0,0:0:0:0:
320,192,168671,1,0,0:0:0:0:
192,192,168713,1,0,0:0:0:0:
448,192,168756,1,0,0:0:0:0:
64,191,168798,1,0,0:0:0:0:
320,192,168841,1,0,0:0:0:0:
192,192,168926,1,0,0:0:0:0:
448,192,169012,1,0,0:0:0:0:
320,192,169012,1,0,0:0:0:0:
448,192,169097,1,0,0:0:0:0:
320,192,169097,1,0,0:0:0:0:
192,192,169182,1,0,0:0:0:0:
64,191,169182,1,0,0:0:0:0:
192,192,169267,1,0,0:0:0:0:
64,191,169267,1,0,0:0:0:0:
64,191,169352,1,0,0:0:0:0:
320,192,169352,1,0,0:0:0:0:
192,192,169352,1,0,0:0:0:0:
442,145,169438,1,0,0:0:0:0:
194,208,169480,1,0,0:0:0:0:
70,239,169523,1,0,0:0:0:0:
442,145,169565,1,0,0:0:0:0:
319,177,169608,1,0,0:0:0:0:
194,208,169651,1,0,0:0:0:0:
70,239,169693,1,0,0:0:0:0:
442,145,169693,1,0,0:0:0:0:
319,177,169779,1,0,0:0:0:0:
192,145,169779,1,0,0:0:0:0:
70,239,169864,1,0,0:0:0:0:
319,177,169906,1,0,0:0:0:0:
442,145,169949,1,0,0:0:0:0:
194,208,169992,1,0,0:0:0:0:
70,239,170034,1,0,0:0:0:0:
442,145,170119,1,0,0:0:0:0:
192,177,170205,1,0,0:0:0:0:
320,145,170247,1,0,0:0:0:0:
448,239,170290,1,0,0:0:0:0:
194,208,170375,1,0,0:0:0:0:
70,239,170375,1,0,0:0:0:0:
319,177,170375,1,0,0:0:0:0:
194,208,170503,1,0,0:0:0:0:
70,239,170503,1,0,0:0:0:0:
442,145,170567,1,0,0:0:0:0:
194,208,170631,1,0,0:0:0:0:
70,239,170631,1,0,0:0:0:0:
319,177,170716,1,0,0:0:0:0:
442,145,170716,1,0,0:0:0:0:
194,208,170759,1,0,0:0:0:0:
70,239,170801,1,0,0:0:0:0:
442,145,170844,1,0,0:0:0:0:
319,177,170887,1,0,0:0:0:0:
194,208,170929,1,0,0:0:0:0:
70,239,170972,1,0,0:0:0:0:
442,145,171014,1,0,0:0:0:0:
194,208,171057,1,0,0:0:0:0:
319,177,171057,1,0,0:0:0:0:
64,192,171100,1,0,0:0:0:0:
448,192,171142,1,0,0:0:0:0:
194,208,171185,1,0,0:0:0:0:
70,239,171227,1,0,0:0:0:0:
319,177,171270,1,0,0:0:0:0:
442,145,171313,1,0,0:0:0:0:
70,239,171355,1,0,0:0:0:0:
194,208,171398,1,0,0:0:0:0:
319,177,171440,1,0,0:0:0:0:
70,239,171483,1,0,0:0:0:0:
442,145,171526,1,0,0:0:0:0:
319,177,171568,1,0,0:0:0:0:
194,208,171611,1,0,0:0:0:0:
64,177,171654,1,0,0:0:0:0:
320,239,171739,1,0,0:0:0:0:
448,192,171739,1,0,0:0:0:0:
192,192,171739,1,0,0:0:0:0:
70,239,171824,1,0,0:0:0:0:
442,145,171909,1,0,0:0:0:0:
320,192,171952,1,0,0:0:0:0:
64,192,171994,1,0,0:0:0:0:
192,192,172037,1,0,0:0:0:0:
319,177,172080,1,0,0:0:0:0:
442,145,172080,1,0,0:0:0:0:
64,191,172122,1,0,0:0:0:0:
192,192,172165,1,0,0:0:0:0:
320,192,172208,1,0,0:0:0:0:
448,192,172250,1,0,0:0:0:0:
64,191,172293,1,0,0:0:0:0:
192,192,172335,1,0,0:0:0:0:
320,192,172378,1,0,0:0:0:0:
64,191,172421,1,0,0:0:0:0:
448,192,172421,1,0,0:0:0:0:
320,191,172506,1,0,0:0:0:0:
192,192,172506,1,0,0:0:0:0:
448,192,172591,1,0,0:0:0:0:
192,192,172634,1,0,0:0:0:0:
64,191,172676,1,0,0:0:0:0:
320,192,172719,1,0,0:0:0:0:
448,192,172762,1,0,0:0:0:0:
192,191,172847,1,0,0:0:0:0:
192,192,172932,1,0,0:0:0:0:
64,191,172932,1,0,0:0:0:0:
448,192,173017,1,0,0:0:0:0:
320,192,173017,1,0,0:0:0:0:
192,192,173102,1,0,0:0:0:0:
448,192,173102,1,0,0:0:0:0:
320,192,173102,1,0,0:0:0:0:
64,192,173145,1,0,0:0:0:0:
320,192,173188,1,0,0:0:0:0:
448,192,173230,1,0,0:0:0:0:
64,191,173273,1,0,0:0:0:0:
192,192,173315,1,0,0:0:0:0:
448,192,173358,1,0,0:0:0:0:
320,192,173358,1,0,0:0:0:0:
64,191,173443,1,0,0:0:0:0:
192,192,173443,1,0,0:0:0:0:
320,192,173486,1,0,0:0:0:0:
448,192,173529,1,0,0:0:0:0:
64,191,173571,1,0,0:0:0:0:
192,192,173614,1,0,0:0:0:0:
320,192,173656,1,0,0:0:0:0:
448,192,173699,1,0,0:0:0:0:
64,191,173742,1,0,0:0:0:0:
192,192,173784,1,0,0:0:0:0:
320,192,173784,1,0,0:0:0:0:
320,192,173912,1,0,0:0:0:0:
448,192,173955,1,0,0:0:0:0:
192,192,173997,1,0,0:0:0:0:
64,191,174040,1,0,0:0:0:0:
448,192,174083,1,0,0:0:0:0:
320,192,174125,1,0,0:0:0:0:
192,192,174168,1,0,0:0:0:0:
448,192,174210,1,0,0:0:0:0:
64,191,174253,1,0,0:0:0:0:
320,192,174296,1,0,0:0:0:0:
448,192,174338,1,0,0:0:0:0:
192,192,174381,1,0,0:0:0:0:
64,192,174423,1,0,0:0:0:0:
320,192,174466,1,0,0:0:0:0:
448,192,174466,1,0,0:0:0:0:
448,192,174551,1,0,0:0:0:0:
64,191,174637,1,0,0:0:0:0:
192,192,174637,1,0,0:0:0:0:
320,192,174722,1,0,0:0:0:0:
448,192,174722,1,0,0:0:0:0:
64,191,174807,1,0,0:0:0:0:
192,192,174807,1,0,0:0:0:0:
448,192,174850,1,0,0:0:0:0:
320,192,174892,1,0,0:0:0:0:
64,192,174935,1,0,0:0:0:0:
192,192,174977,1,0,0:0:0:0:
448,192,175020,1,0,0:0:0:0:
320,193,175063,1,0,0:0:0:0:
192,192,175105,1,0,0:0:0:0:
64,191,175148,1,0,0:0:0:0:
448,192,175148,1,0,0:0:0:0:
320,193,175233,1,0,0:0:0:0:
192,192,175233,1,0,0:0:0:0:
64,191,175318,1,0,0:0:0:0:
320,193,175361,1,0,0:0:0:0:
448,192,175404,1,0,0:0:0:0:
192,192,175446,1,0,0:0:0:0:
64,191,175489,1,0,0:0:0:0:
320,193,175574,1,0,0:0:0:0:
448,192,175574,1,0,0:0:0:0:
64,192,175659,1,0,0:0:0:0:
192,192,175702,1,0,0:0:0:0:
448,192,175744,1,0,0:0:0:0:
320,192,175787,1,0,0:0:0:0:
192,192,175830,1,0,0:0:0:0:
64,191,175830,1,0,0:0:0:0:
448,192,175830,1,0,0:0:0:0:
192,192,175958,1,0,0:0:0:0:
64,191,175958,1,0,0:0:0:0:
448,192,176021,1,0,0:0:0:0:
192,192,176085,1,0,0:0:0:0:
64,191,176085,1,0,0:0:0:0:
320,193,176171,1,0,0:0:0:0:
448,192,176171,1,0,0:0:0:0:
192,192,176213,1,0,0:0:0:0:
64,191,176256,1,0,0:0:0:0:
448,192,176298,1,0,0:0:0:0:
320,193,176341,1,0,0:0:0:0:
192,192,176384,1,0,0:0:0:0:
64,191,176426,1,0,0:0:0:0:
448,192,176469,1,0,0:0:0:0:
320,193,176512,1,0,0:0:0:0:
192,192,176512,1,0,0:0:0:0:
64,192,176554,1,0,0:0:0:0:
448,192,176597,1,0,0:0:0:0:
192,192,176639,1,0,0:0:0:0:
64,191,176682,1,0,0:0:0:0:
320,193,176725,1,0,0:0:0:0:
448,192,176767,1,0,0:0:0:0:
64,191,176810,1,0,0:0:0:0:
192,192,176852,1,0,0:0:0:0:
320,193,176895,1,0,0:0:0:0:
64,191,176938,1,0,0:0:0:0:
448,192,176980,1,0,0:0:0:0:
320,193,177023,1,0,0:0:0:0:
64,192,177065,1,0,0:0:0:0:
192,192,177108,1,0,0:0:0:0:
448,192,177151,1,0,0:0:0:0:
192,192,177193,1,0,0:0:0:0:
64,191,177193,1,0,0:0:0:0:
320,192,177193,1,0,0:0:0:0:
192,192,177279,1,0,0:0:0:0:
64,191,177279,1,0,0:0:0:0:
448,192,177364,1,0,0:0:0:0:
320,192,177406,1,0,0:0:0:0:
64,192,177449,1,0,0:0:0:0:
192,192,177492,1,0,0:0:0:0:
320,193,177534,1,0,0:0:0:0:
448,192,177534,1,0,0:0:0:0:
64,191,177577,1,0,0:0:0:0:
192,192,177619,1,0,0:0:0:0:
320,192,177662,1,0,0:0:0:0:
448,192,177705,1,0,0:0:0:0:
64,191,177747,1,0,0:0:0:0:
192,192,177790,1,0,0:0:0:0:
320,192,177833,1,0,0:0:0:0:
64,191,177875,1,0,0:0:0:0:
448,192,177875,1,0,0:0:0:0:
192,192,177960,1,0,0:0:0:0:
320,192,177960,1,0,0:0:0:0:
448,192,178046,1,0,0:0:0:0:
192,192,178088,1,0,0:0:0:0:
64,191,178131,1,0,0:0:0:0:
320,192,178173,1,0,0:0:0:0:
448,192,178216,1,0,0:0:0:0:
64,191,178301,1,0,0:0:0:0:
192,192,178301,1,0,0:0:0:0:
448,192,178387,1,0,0:0:0:0:
320,192,178429,1,0,0:0:0:0:
64,192,178472,1,0,0:0:0:0:
192,192,178514,1,0,0:0:0:0:
320,192,178557,1,0,0:0:0:0:
448,192,178557,1,0,0:0:0:0:
64,192,178642,1,0,0:0:0:0:
192,192,178642,1,0,0:0:0:0:
320,192,178727,1,0,0:0:0:0:
448,192,178727,1,0,0:0:0:0:
192,192,178813,1,0,0:0:0:0:
64,192,178813,1,0,0:0:0:0:
448,192,178898,1,0,0:0:0:0:
320,192,178940,1,0,0:0:0:0:
64,192,178983,1,0,0:0:0:0:
448,192,179026,1,0,0:0:0:0:
192,192,179068,1,0,0:0:0:0:
320,192,179111,1,0,0:0:0:0:
64,192,179154,1,0,0:0:0:0:
448,192,179196,1,0,0:0:0:0:
448,192,179409,1,0,0:0:0:0:
320,192,179452,1,0,0:0:0:0:
64,192,179494,1,0,0:0:0:0:
192,192,179537,1,0,0:0:0:0:
448,192,179580,1,0,0:0:0:0:
320,192,179622,1,0,0:0:0:0:
64,192,179665,1,0,0:0:0:0:
192,192,179708,1,0,0:0:0:0:
448,192,179750,1,0,0:0:0:0:
64,192,179835,1,0,0:0:0:0:
192,192,179835,1,0,0:0:0:0:
448,192,179921,1,0,0:0:0:0:
320,192,179921,1,0,0:0:0:0:
192,192,180006,1,0,0:0:0:0:
64,192,180006,1,0,0:0:0:0:
320,192,180091,1,0,0:0:0:0:
448,192,180091,1,0,0:0:0:0:
64,192,180176,1,0,0:0:0:0:
192,192,180176,1,0,0:0:0:0:
320,192,180262,1,0,0:0:0:0:
448,192,180262,1,0,0:0:0:0:
320,192,202080,5,0,0:0:0:0:
192,192,202080,1,0,0:0:0:0:
64,192,202080,1,0,0:0:0:0:
448,192,202080,1,0,0:0:0:0:
192,192,202421,128,0,202762:0:0:0:0:
64,192,202762,128,0,202932:0:0:0:0:
192,192,202932,128,0,203102:0:0:0:0:
448,192,203102,128,0,203273:0:0:0:0:
320,192,203273,128,0,204807:0:0:0:0:
192,192,203443,1,0,0:0:0:0:
64,192,203443,1,0,0:0:0:0:
192,192,204807,1,0,0:0:0:0:
448,192,204807,1,0,0:0:0:0:
192,192,205148,128,0,205489:0:0:0:0:
320,192,205489,128,0,205659:0:0:0:0:
192,192,205659,128,0,205830:0:0:0:0:
64,192,205830,128,0,206000:0:0:0:0:
448,192,206000,128,0,206171:0:0:0:0:
320,192,206171,128,0,206512:0:0:0:0:
192,192,206171,1,0,0:0:0:0:
64,192,206171,1,0,0:0:0:0:
64,192,206512,128,0,206852:0:0:0:0:
192,192,206852,128,0,207193:0:0:0:0:
320,192,206852,1,0,0:0:0:0:
448,192,206852,1,0,0:0:0:0:
448,192,207193,128,0,207534:0:0:0:0:
320,192,207534,128,0,207705:0:0:0:0:
192,192,207534,1,0,0:0:0:0:
64,192,207534,1,0,0:0:0:0:
192,192,207705,128,0,207875:0:0:0:0:
448,192,207875,128,0,208046:0:0:0:0:
320,192,208046,128,0,208898:0:0:0:0:
64,192,208898,128,0,209068:0:0:0:0:
192,192,208898,1,0,0:0:0:0:
448,192,208898,1,0,0:0:0:0:
192,192,209068,128,0,209239:0:0:0:0:
320,192,209239,128,0,209409:0:0:0:0:
192,192,209409,128,0,210262:0:0:0:0:
64,192,209409,128,0,210262:0:0:0:0:
320,192,210262,1,0,0:0:0:0:
448,192,210262,1,0,0:0:0:0:
448,192,210602,128,0,210943:0:0:0:0:
192,192,210943,128,0,211284:0:0:0:0:
64,192,211284,128,0,211625:0:0:0:0:
192,192,211625,1,0,0:0:0:0:
320,192,211625,128,0,211796:0:0:0:0:
448,192,211625,1,0,0:0:0:0:
192,192,211796,128,0,211966:0:0:0:0:
320,192,211966,128,0,212137:0:0:0:0:
192,192,212137,128,0,212477:0:0:0:0:
320,192,212307,1,0,0:0:0:0:
448,192,212307,1,0,0:0:0:0:
64,192,212477,128,0,212648:0:0:0:0:
192,192,212648,128,0,212989:0:0:0:0:
448,192,212989,1,0,0:0:0:0:
320,192,212989,1,0,0:0:0:0:
448,192,213330,128,0,213671:0:0:0:0:
320,192,213671,128,0,213841:0:0:0:0:
192,192,213841,128,0,214012:0:0:0:0:
64,192,214012,128,0,214182:0:0:0:0:
320,192,214182,128,0,215716:0:0:0:0:
448,192,214182,128,0,215716:0:0:0:0:
192,192,214352,1,0,0:0:0:0:
64,192,214352,1,0,0:0:0:0:
192,192,215716,1,0,0:0:0:0:
64,192,215716,1,0,0:0:0:0:
192,192,216057,128,0,216398:0:0:0:0:
448,192,216398,128,0,216568:0:0:0:0:
320,192,216568,128,0,216739:0:0:0:0:
64,192,216739,128,0,216909:0:0:0:0:
192,192,216909,128,0,217080:0:0:0:0:
320,192,217080,128,0,217421:0:0:0:0:
448,192,217080,1,0,0:0:0:0:
64,192,217080,1,0,0:0:0:0:
192,192,217421,128,0,217762:0:0:0:0:
448,192,217762,128,0,218102:0:0:0:0:
320,192,218102,128,0,218443:0:0:0:0:
192,192,218443,128,0,218614:0:0:0:0:
64,192,218443,128,0,218614:0:0:0:0:
448,192,218443,1,0,0:0:0:0:
448,192,218614,128,0,218784:0:0:0:0:
320,192,218784,128,0,218955:0:0:0:0:
192,192,218955,128,0,219637:0:0:0:0:
64,192,218955,128,0,219637:0:0:0:0:
320,192,219125,1,0,0:0:0:0:
448,192,219125,1,0,0:0:0:0:
320,192,219637,128,0,219807:0:0:0:0:
448,192,219807,128,0,219977:0:0:0:0:
192,192,219807,1,0,0:0:0:0:
64,192,219807,1,0,0:0:0:0:
192,192,219977,128,0,220148:0:0:0:0:
64,192,220148,128,0,220318:0:0:0:0:
320,192,220318,128,0,221171:0:0:0:0:
192,192,220489,1,0,0:0:0:0:
64,192,220489,1,0,0:0:0:0:
448,192,220489,128,0,221171:0:0:0:0:
192,192,221171,1,0,0:0:0:0:
64,192,221171,1,0,0:0:0:0:
448,192,221341,128,0,221512:0:0:0:0:
320,192,221512,128,0,221682:0:0:0:0:
192,192,221682,128,0,221852:0:0:0:0:
64,192,221852,128,0,222193:0:0:0:0:
320,192,221852,1,0,0:0:0:0:
448,192,221852,1,0,0:0:0:0:
192,192,222193,128,0,222364:0:0:0:0:
448,192,222364,128,0,223557:0:0:0:0:
320,192,222534,1,0,0:0:0:0:
192,192,222534,1,0,0:0:0:0:
320,192,223557,1,0,0:0:0:0:
192,192,223614,1,0,0:0:0:0:
64,192,223671,1,0,0:0:0:0:
448,192,223671,1,0,0:0:0:0:
320,192,223727,1,0,0:0:0:0:
192,192,223784,1,0,0:0:0:0:
64,192,223841,1,0,0:0:0:0:
320,192,223898,1,0,0:0:0:0:
448,192,223898,1,0,0:0:0:0:
192,192,224068,1,0,0:0:0:0:
64,192,224068,1,0,0:0:0:0:
192,192,224239,128,0,224324:0:0:0:0:
320,192,224239,1,0,0:0:0:0:
448,192,224239,1,0,0:0:0:0:
320,192,224409,1,0,0:0:0:0:
192,192,224409,1,0,0:0:0:0:
64,192,224580,128,0,224665:0:0:0:0:
320,192,224580,1,0,0:0:0:0:
192,192,224580,1,0,0:0:0:0:
192,192,224750,128,0,224835:0:0:0:0:
320,192,224750,1,0,0:0:0:0:
320,192,224921,128,0,225006:0:0:0:0:
192,192,224921,1,0,0:0:0:0:
448,192,224921,1,0,0:0:0:0:
448,192,225091,128,0,225176:0:0:0:0:
192,192,225091,1,0,0:0:0:0:
64,192,225091,1,0,0:0:0:0:
320,192,225262,1,0,0:0:0:0:
448,192,225262,1,0,0:0:0:0:
64,192,225432,1,0,0:0:0:0:
192,192,225432,1,0,0:0:0:0:
448,192,225432,1,0,0:0:0:0:
320,192,225602,1,0,0:0:0:0:
192,192,225602,1,0,0:0:0:0:
320,192,225773,1,0,0:0:0:0:
448,192,225773,1,0,0:0:0:0:
64,192,225773,1,0,0:0:0:0:
448,192,225943,128,0,226029:0:0:0:0:
320,192,225943,1,0,0:0:0:0:
192,192,225943,1,0,0:0:0:0:
192,192,226114,1,0,0:0:0:0:
64,192,226114,1,0,0:0:0:0:
192,192,226284,128,0,226369:0:0:0:0:
64,192,226284,1,0,0:0:0:0:
320,192,226284,1,0,0:0:0:0:
320,192,226455,1,0,0:0:0:0:
192,192,226455,1,0,0:0:0:0:
320,192,226625,128,0,226710:0:0:0:0:
64,192,226625,1,0,0:0:0:0:
448,192,226625,1,0,0:0:0:0:
320,192,226796,1,0,0:0:0:0:
448,192,226796,1,0,0:0:0:0:
192,192,226966,1,0,0:0:0:0:
64,192,226966,128,0,227051:0:0:0:0:
448,192,226966,1,0,0:0:0:0:
192,192,227137,1,0,0:0:0:0:
320,192,227137,1,0,0:0:0:0:
320,192,227307,128,0,227392:0:0:0:0:
192,192,227307,1,0,0:0:0:0:
64,192,227307,1,0,0:0:0:0:
448,192,227477,1,0,0:0:0:0:
320,192,227477,1,0,0:0:0:0:
192,192,227648,128,0,227733:0:0:0:0:
320,192,227648,1,0,0:0:0:0:
64,192,227648,1,0,0:0:0:0:
64,192,227818,128,0,227904:0:0:0:0:
192,192,227818,1,0,0:0:0:0:
448,192,227818,1,0,0:0:0:0:
320,192,227989,1,0,0:0:0:0:
448,192,227989,1,0,0:0:0:0:
192,192,228159,1,0,0:0:0:0:
64,192,228159,1,0,0:0:0:0:
320,192,228159,1,0,0:0:0:0:
192,192,228330,128,0,228415:0:0:0:0:
320,192,228330,1,0,0:0:0:0:
448,192,228330,1,0,0:0:0:0:
320,192,228500,1,0,0:0:0:0:
192,192,228500,1,0,0:0:0:0:
320,192,228671,128,0,228756:0:0:0:0:
64,192,228671,1,0,0:0:0:0:
192,192,228671,1,0,0:0:0:0:
320,192,228841,1,0,0:0:0:0:
448,192,228841,1,0,0:0:0:0:
448,192,229012,128,0,229097:0:0:0:0:
192,192,229012,1,0,0:0:0:0:
64,192,229012,1,0,0:0:0:0:
320,192,229182,1,0,0:0:0:0:
64,192,229182,1,0,0:0:0:0:
192,192,229352,1,0,0:0:0:0:
448,192,229352,128,0,229438:0:0:0:0:
320,192,229352,1,0,0:0:0:0:
320,192,229523,128,0,229608:0:0:0:0:
192,192,229523,1,0,0:0:0:0:
192,192,229693,128,0,229779:0:0:0:0:
64,192,229693,1,0,0:0:0:0:
448,192,229693,1,0,0:0:0:0:
64,192,229864,128,0,229949:0:0:0:0:
192,192,229864,1,0,0:0:0:0:
320,192,230034,1,0,0:0:0:0:
448,192,230034,1,0,0:0:0:0:
192,192,230205,1,0,0:0:0:0:
64,192,230205,1,0,0:0:0:0:
320,192,230205,1,0,0:0:0:0:
448,192,230375,1,0,0:0:0:0:
192,192,230375,1,0,0:0:0:0:
64,192,230546,1,0,0:0:0:0:
192,192,230546,1,0,0:0:0:0:
448,192,230546,1,0,0:0:0:0:
192,192,230716,128,0,230801:0:0:0:0:
320,192,230716,1,0,0:0:0:0:
448,192,230716,1,0,0:0:0:0:
320,192,230887,128,0,230972:0:0:0:0:
192,192,230887,1,0,0:0:0:0:
192,192,231057,128,0,231142:0:0:0:0:
64,192,231057,1,0,0:0:0:0:
448,192,231057,1,0,0:0:0:0:
64,192,231227,128,0,231313:0:0:0:0:
320,192,231227,1,0,0:0:0:0:
448,192,231227,1,0,0:0:0:0:
192,192,231398,1,0,0:0:0:0:
320,192,231398,1,0,0:0:0:0:
448,192,231568,1,0,0:0:0:0:
192,192,231568,1,0,0:0:0:0:
64,192,231568,1,0,0:0:0:0:
64,192,231739,1,0,0:0:0:0:
448,192,231739,1,0,0:0:0:0:
192,192,231909,1,0,0:0:0:0:
320,192,231909,1,0,0:0:0:0:
448,192,231909,1,0,0:0:0:0:
192,192,232080,1,0,0:0:0:0:
448,192,232080,1,0,0:0:0:0:
192,192,232250,1,0,0:0:0:0:
64,192,232250,1,0,0:0:0:0:
448,192,232250,1,0,0:0:0:0:
192,192,232421,128,0,232506:0:0:0:0:
320,192,232421,1,0,0:0:0:0:
448,192,232421,1,0,0:0:0:0:
64,192,232591,1,0,0:0:0:0:
320,192,232591,1,0,0:0:0:0:
320,192,232762,128,0,232847:0:0:0:0:
64,192,232762,1,0,0:0:0:0:
448,192,232762,1,0,0:0:0:0:
192,192,232932,1,0,0:0:0:0:
320,192,232932,1,0,0:0:0:0:
448,192,233102,128,0,233188:0:0:0:0:
192,192,233102,1,0,0:0:0:0:
64,192,233102,1,0,0:0:0:0:
320,192,233273,1,0,0:0:0:0:
448,192,233273,1,0,0:0:0:0:
192,192,233443,128,0,233529:0:0:0:0:
320,192,233443,1,0,0:0:0:0:
64,192,233443,1,0,0:0:0:0:
64,192,233614,128,0,233699:0:0:0:0:
320,192,233614,1,0,0:0:0:0:
448,192,233614,1,0,0:0:0:0:
320,192,233784,128,0,233869:0:0:0:0:
192,192,233784,1,0,0:0:0:0:
448,192,233784,1,0,0:0:0:0:
192,192,233955,128,0,234040:0:0:0:0:
64,192,233955,1,0,0:0:0:0:
320,192,233955,1,0,0:0:0:0:
320,192,234125,1,0,0:0:0:0:
448,192,234125,1,0,0:0:0:0:
320,192,234296,128,0,234381:0:0:0:0:
192,192,234296,1,0,0:0:0:0:
64,192,234296,1,0,0:0:0:0:
448,192,234466,128,0,234551:0:0:0:0:
192,192,234466,1,0,0:0:0:0:
320,192,234466,1,0,0:0:0:0:
320,192,234637,1,0,0:0:0:0:
64,192,234637,1,0,0:0:0:0:
448,192,234807,1,0,0:0:0:0:
320,192,234807,1,0,0:0:0:0:
192,192,234892,1,0,0:0:0:0:
64,192,234977,1,0,0:0:0:0:
448,192,235063,1,0,0:0:0:0:
320,192,235148,1,0,0:0:0:0:
192,192,235148,1,0,0:0:0:0:
64,192,235148,1,0,0:0:0:0:
448,192,235233,1,0,0:0:0:0:
64,192,235318,1,0,0:0:0:0:
320,192,235404,1,0,0:0:0:0:
192,192,235489,1,0,0:0:0:0:
64,192,235489,1,0,0:0:0:0:
448,192,235489,1,0,0:0:0:0:
320,192,235574,1,0,0:0:0:0:
192,192,235659,1,0,0:0:0:0:
64,192,235744,1,0,0:0:0:0:
192,192,235830,1,0,0:0:0:0:
320,192,235830,1,0,0:0:0:0:
448,192,235830,1,0,0:0:0:0:
64,192,235915,1,0,0:0:0:0:
192,192,236000,1,0,0:0:0:0:
320,192,236085,1,0,0:0:0:0:
448,192,236171,1,0,0:0:0:0:
192,192,236171,1,0,0:0:0:0:
64,192,236171,1,0,0:0:0:0:
320,192,236256,1,0,0:0:0:0:
64,192,236341,1,0,0:0:0:0:
192,192,236426,1,0,0:0:0:0:
320,192,236512,1,0,0:0:0:0:
448,192,236512,1,0,0:0:0:0:
64,192,236512,1,0,0:0:0:0:
192,192,236597,1,0,0:0:0:0:
448,192,236682,1,0,0:0:0:0:
64,192,236767,1,0,0:0:0:0:
192,192,236852,1,0,0:0:0:0:
320,192,236852,1,0,0:0:0:0:
448,192,236852,1,0,0:0:0:0:
64,192,236938,1,0,0:0:0:0:
192,192,237023,1,0,0:0:0:0:
448,192,237108,1,0,0:0:0:0:
320,192,237193,1,0,0:0:0:0:
192,192,237193,1,0,0:0:0:0:
64,192,237193,1,0,0:0:0:0:
448,192,237279,1,0,0:0:0:0:
320,192,237364,1,0,0:0:0:0:
192,192,237449,1,0,0:0:0:0:
320,192,237534,1,0,0:0:0:0:
448,192,237534,1,0,0:0:0:0:
64,192,237534,1,0,0:0:0:0:
192,192,237619,1,0,0:0:0:0:
448,192,237705,1,0,0:0:0:0:
320,192,237790,1,0,0:0:0:0:
192,192,237875,1,0,0:0:0:0:
64,192,237875,1,0,0:0:0:0:
448,192,237875,1,0,0:0:0:0:
320,192,237960,1,0,0:0:0:0:
64,192,238046,1,0,0:0:0:0:
448,192,238131,1,0,0:0:0:0:
320,192,238216,1,0,0:0:0:0:
192,192,238216,1,0,0:0:0:0:
64,192,238216,1,0,0:0:0:0:
448,192,238301,1,0,0:0:0:0:
192,192,238387,1,0,0:0:0:0:
320,192,238472,1,0,0:0:0:0:
64,192,238557,1,0,0:0:0:0:
192,192,238557,1,0,0:0:0:0:
448,192,238557,1,0,0:0:0:0:
320,192,238642,1,0,0:0:0:0:
64,192,238727,1,0,0:0:0:0:
192,192,238813,1,0,0:0:0:0:
448,192,238898,1,0,0:0:0:0:
320,192,238898,1,0,0:0:0:0:
64,192,238898,1,0,0:0:0:0:
192,192,238983,1,0,0:0:0:0:
448,192,239068,1,0,0:0:0:0:
320,192,239154,1,0,0:0:0:0:
64,192,239239,1,0,0:0:0:0:
192,192,239239,1,0,0:0:0:0:
448,192,239239,1,0,0:0:0:0:
320,192,239324,1,0,0:0:0:0:
64,192,239409,1,0,0:0:0:0:
192,192,239494,1,0,0:0:0:0:
320,192,239580,1,0,0:0:0:0:
448,192,239580,1,0,0:0:0:0:
64,192,239580,1,0,0:0:0:0:
192,192,239665,1,0,0:0:0:0:
448,192,239750,1,0,0:0:0:0:
64,192,239835,1,0,0:0:0:0:
192,192,239921,1,0,0:0:0:0:
320,192,239921,1,0,0:0:0:0:
448,192,239921,1,0,0:0:0:0:
64,192,240006,1,0,0:0:0:0:
320,192,240091,1,0,0:0:0:0:
448,192,240176,1,0,0:0:0:0:
320,192,240262,1,0,0:0:0:0:
192,192,240262,1,0,0:0:0:0:
64,192,240262,1,0,0:0:0:0:
448,192,240347,1,0,0:0:0:0:
320,192,240432,1,0,0:0:0:0:
64,192,240517,1,0,0:0:0:0:
192,192,240602,1,0,0:0:0:0:
320,192,240602,1,0,0:0:0:0:
448,192,240602,1,0,0:0:0:0:
64,192,240688,1,0,0:0:0:0:
320,192,240773,1,0,0:0:0:0:
448,192,240858,1,0,0:0:0:0:
320,192,240943,1,0,0:0:0:0:
192,192,240943,1,0,0:0:0:0:
64,192,240943,1,0,0:0:0:0:
448,192,241029,1,0,0:0:0:0:
192,192,241114,1,0,0:0:0:0:
320,192,241199,1,0,0:0:0:0:
192,192,241284,1,0,0:0:0:0:
64,192,241284,1,0,0:0:0:0:
448,192,241284,1,0,0:0:0:0:
320,192,241369,1,0,0:0:0:0:
64,192,241455,1,0,0:0:0:0:
448,192,241540,1,0,0:0:0:0:
320,192,241625,1,0,0:0:0:0:
192,192,241625,1,0,0:0:0:0:
64,192,241625,1,0,0:0:0:0:
320,192,241796,1,0,0:0:0:0:
448,192,241796,1,0,0:0:0:0:
192,192,241796,1,0,0:0:0:0:
64,192,241966,1,0,0:0:0:0:
320,192,241966,1,0,0:0:0:0:
448,192,241966,1,0,0:0:0:0:
192,192,242137,1,0,0:0:0:0:
64,192,242137,1,0,0:0:0:0:
448,192,242137,1,0,0:0:0:0:
320,192,242307,1,0,0:0:0:0:
192,192,242307,1,0,0:0:0:0:
64,192,242307,1,0,0:0:0:0:
192,192,242477,5,0,0:0:0:0:
448,192,242477,1,0,0:0:0:0:
64,192,242477,1,0,0:0:0:0:
192,192,242648,1,0,0:0:0:0:
320,192,242648,1,0,0:0:0:0:
448,192,242648,1,0,0:0:0:0:
64,192,242818,1,0,0:0:0:0:
448,192,242818,1,0,0:0:0:0:
320,192,242818,1,0,0:0:0:0:
64,192,242989,5,0,0:0:0:0:
192,192,242989,1,0,0:0:0:0:
320,192,243074,1,0,0:0:0:0:
448,192,243074,1,0,0:0:0:0:
192,192,243159,1,0,0:0:0:0:
64,192,243159,1,0,0:0:0:0:
320,192,243244,1,0,0:0:0:0:
448,192,243244,1,0,0:0:0:0:
192,192,243330,1,0,0:0:0:0:
64,192,243330,1,0,0:0:0:0:
320,192,243415,1,0,0:0:0:0:
448,192,243415,1,0,0:0:0:0:
192,192,243500,1,0,0:0:0:0:
64,192,243500,1,0,0:0:0:0:
320,192,243585,1,0,0:0:0:0:
448,192,243585,1,0,0:0:0:0:
192,192,243671,1,0,0:0:0:0:
64,192,243671,1,0,0:0:0:0:
320,192,243756,1,0,0:0:0:0:
448,192,243756,1,0,0:0:0:0:
192,192,243841,1,0,0:0:0:0:
64,192,243841,1,0,0:0:0:0:
448,192,243926,1,0,0:0:0:0:
320,192,243926,1,0,0:0:0:0:
192,192,244012,1,0,0:0:0:0:
64,192,244012,1,0,0:0:0:0:
320,192,244097,1,0,0:0:0:0:
448,192,244097,1,0,0:0:0:0:
192,192,244182,1,0,0:0:0:0:
64,192,244182,1,0,0:0:0:0:
320,192,244267,1,0,0:0:0:0:
448,192,244267,1,0,0:0:0:0:
192,192,244352,1,0,0:0:0:0:
64,192,244352,1,0,0:0:0:0:
448,192,244438,1,0,0:0:0:0:
192,192,244523,1,0,0:0:0:0:
448,192,244608,1,0,0:0:0:0:
192,192,244693,1,0,0:0:0:0:
320,192,244779,1,0,0:0:0:0:
64,192,244864,1,0,0:0:0:0:
320,192,244949,1,0,0:0:0:0:
64,192,245034,1,0,0:0:0:0:
320,192,245119,1,0,0:0:0:0:
192,192,245205,5,0,0:0:0:0:
320,192,245290,1,0,0:0:0:0:
192,192,245375,1,0,0:0:0:0:
192,192,245716,128,0,245801:0:0:0:0:
320,192,245801,128,0,245972:0:0:0:0:
448,192,245887,128,0,246142:0:0:0:0:
64,192,245887,128,0,245972:0:0:0:0:
192,192,245972,128,0,246057:0:0:0:0:
320,192,246057,128,0,246142:0:0:0:0:
64,192,246057,128,0,246313:0:0:0:0:
192,192,246227,128,0,246398:0:0:0:0:
320,192,246227,128,0,246313:0:0:0:0:
448,192,246313,128,0,246398:0:0:0:0:
320,192,246398,128,0,246568:0:0:0:0:
64,192,246398,128,0,246483:0:0:0:0:
192,192,246483,128,0,246568:0:0:0:0:
64,192,246568,128,0,246739:0:0:0:0:
448,192,246568,128,0,246654:0:0:0:0:
320,192,246654,128,0,246824:0:0:0:0:
192,192,246739,128,0,246994:0:0:0:0:
448,192,246739,128,0,246824:0:0:0:0:
64,192,246824,128,0,246909:0:0:0:0:
320,192,246909,128,0,247080:0:0:0:0:
448,192,246994,128,0,247165:0:0:0:0:
192,192,247080,128,0,247165:0:0:0:0:
64,192,247080,128,0,247250:0:0:0:0:
320,192,247165,128,0,247250:0:0:0:0:
448,192,247250,128,0,247421:0:0:0:0:
192,192,247250,128,0,247335:0:0:0:0:
320,192,247335,128,0,247506:0:0:0:0:
64,192,247335,128,0,247421:0:0:0:0:
192,192,247506,128,0,247676:0:0:0:0:
448,192,247506,128,0,247591:0:0:0:0:
64,192,247591,128,0,247676:0:0:0:0:
320,192,247676,128,0,247847:0:0:0:0:
448,192,247676,128,0,247762:0:0:0:0:
64,192,247762,128,0,247847:0:0:0:0:
192,192,247847,128,0,248017:0:0:0:0:
448,192,247847,128,0,247932:0:0:0:0:
64,192,248017,128,0,248102:0:0:0:0:
320,192,248017,128,0,248188:0:0:0:0:
448,192,248102,128,0,248273:0:0:0:0:
192,192,248102,128,0,248188:0:0:0:0:
64,192,248273,128,0,248443:0:0:0:0:
320,192,248273,128,0,248358:0:0:0:0:
192,192,248358,128,0,248529:0:0:0:0:
448,192,248443,128,0,248614:0:0:0:0:
320,192,248443,128,0,248529:0:0:0:0:
64,192,248529,128,0,248614:0:0:0:0:
320,192,248614,128,0,248784:0:0:0:0:
192,192,248614,128,0,248699:0:0:0:0:
448,192,248699,128,0,248784:0:0:0:0:
64,192,248699,128,0,248955:0:0:0:0:
192,192,248784,128,0,248869:0:0:0:0:
320,192,248869,128,0,248955:0:0:0:0:
448,192,248955,128,0,249125:0:0:0:0:
192,192,248955,128,0,249040:0:0:0:0:
320,192,249040,128,0,249210:0:0:0:0:
64,192,249125,128,0,249210:0:0:0:0:
192,192,249210,128,0,249381:0:0:0:0:
64,192,249296,128,0,249381:0:0:0:0:
320,192,249296,128,0,249466:0:0:0:0:
448,192,249381,128,0,249551:0:0:0:0:
192,192,249466,128,0,249637:0:0:0:0:
64,192,249551,128,0,249722:0:0:0:0:
320,192,249551,128,0,249637:0:0:0:0:
448,192,249637,128,0,249807:0:0:0:0:
320,192,249722,128,0,249892:0:0:0:0:
64,192,249807,128,0,249977:0:0:0:0:
192,192,249807,128,0,249892:0:0:0:0:
448,192,249892,128,0,249977:0:0:0:0:
320,192,249977,128,0,250148:0:0:0:0:
192,192,249977,128,0,250063:0:0:0:0:
448,192,250063,128,0,250148:0:0:0:0:
64,192,250063,128,0,250233:0:0:0:0:
192,192,250148,128,0,250233:0:0:0:0:
448,192,250233,128,0,250318:0:0:0:0:
320,192,250318,128,0,250489:0:0:0:0:
64,192,250318,128,0,250404:0:0:0:0:
192,192,250404,128,0,250489:0:0:0:0:
64,192,250489,128,0,250659:0:0:0:0:
448,192,250489,128,0,250574:0:0:0:0:
320,192,250574,128,0,250659:0:0:0:0:
192,192,250659,128,0,250830:0:0:0:0:
320,192,250744,128,0,250830:0:0:0:0:
448,192,250830,128,0,251000:0:0:0:0:
64,192,250830,128,0,250915:0:0:0:0:
192,192,250915,128,0,251085:0:0:0:0:
320,192,251000,128,0,251085:0:0:0:0:
448,192,251085,128,0,251171:0:0:0:0:
64,192,251171,128,0,251341:0:0:0:0:
320,192,251171,128,0,251256:0:0:0:0:
192,192,251256,128,0,251341:0:0:0:0:
448,192,251256,128,0,251426:0:0:0:0:
320,192,251341,128,0,251512:0:0:0:0:
64,192,251426,128,0,251597:0:0:0:0:
192,192,251426,128,0,251512:0:0:0:0:
448,192,251512,128,0,251682:0:0:0:0:
192,192,251597,128,0,251767:0:0:0:0:
320,192,251682,128,0,251852:0:0:0:0:
64,192,251767,128,0,251852:0:0:0:0:
192,192,251852,128,0,251938:0:0:0:0:
448,192,251852,128,0,252023:0:0:0:0:
320,192,251938,128,0,252108:0:0:0:0:
64,192,252023,128,0,252108:0:0:0:0:
192,192,252108,128,0,252193:0:0:0:0:
448,192,252108,128,0,252193:0:0:0:0:
320,192,252193,128,0,252364:0:0:0:0:
64,192,252279,128,0,252364:0:0:0:0:
192,192,252364,128,0,252534:0:0:0:0:
448,192,252364,128,0,252449:0:0:0:0:
320,192,252449,128,0,252619:0:0:0:0:
64,192,252534,128,0,252705:0:0:0:0:
448,192,252534,128,0,252619:0:0:0:0:
192,192,252619,128,0,252790:0:0:0:0:
320,192,252705,128,0,252875:0:0:0:0:
448,192,252705,128,0,252790:0:0:0:0:
64,192,252790,128,0,252960:0:0:0:0:
448,192,252875,128,0,252960:0:0:0:0:
192,192,252875,128,0,252960:0:0:0:0:
320,192,252960,128,0,253131:0:0:0:0:
64,192,253046,128,0,253216:0:0:0:0:
192,192,253046,128,0,253131:0:0:0:0:
448,192,253131,128,0,253301:0:0:0:0:
192,192,253216,128,0,253387:0:0:0:0:
320,192,253301,128,0,253472:0:0:0:0:
64,192,253301,128,0,253387:0:0:0:0:
448,192,253472,128,0,253557:0:0:0:0:
64,192,253472,128,0,253642:0:0:0:0:
192,192,253557,128,0,253642:0:0:0:0:
320,192,253642,128,0,253727:0:0:0:0:
448,192,253642,128,0,253727:0:0:0:0:
192,192,253727,128,0,253898:0:0:0:0:
64,192,253727,128,0,253813:0:0:0:0:
448,192,253813,128,0,253898:0:0:0:0:
320,192,253898,128,0,253983:0:0:0:0:
64,192,253898,128,0,254068:0:0:0:0:
448,192,253983,128,0,254068:0:0:0:0:
192,192,253983,128,0,254154:0:0:0:0:
320,192,254068,128,0,254154:0:0:0:0:
448,192,254154,128,0,254324:0:0:0:0:
64,192,254154,128,0,254239:0:0:0:0:
320,192,254239,128,0,254324:0:0:0:0:
192,192,254324,128,0,254494:0:0:0:0:
64,192,254409,128,0,254494:0:0:0:0:
320,192,254409,128,0,254580:0:0:0:0:
448,192,254494,128,0,254580:0:0:0:0:
64,192,254580,128,0,254665:0:0:0:0:
192,192,254665,128,0,254835:0:0:0:0:
448,192,254665,128,0,254750:0:0:0:0:
320,192,254750,128,0,254835:0:0:0:0:
64,192,254835,128,0,254921:0:0:0:0:
448,192,254835,128,0,255006:0:0:0:0:
192,192,254921,128,0,255006:0:0:0:0:
320,192,255006,128,0,255176:0:0:0:0:
64,192,255006,128,0,255091:0:0:0:0:
448,192,255091,128,0,255176:0:0:0:0:
192,192,255091,128,0,255262:0:0:0:0:
64,192,255262,128,0,255347:0:0:0:0:
448,192,255262,128,0,255432:0:0:0:0:
320,192,255262,1,0,0:0:0:0:
320,192,255347,128,0,255432:0:0:0:0:
192,192,255347,128,0,255517:0:0:0:0:
64,192,255432,128,0,255517:0:0:0:0:
448,192,255517,128,0,255602:0:0:0:0:
320,192,255517,128,0,255602:0:0:0:0:
64,192,255602,128,0,255688:0:0:0:0:
192,192,255688,128,0,255858:0:0:0:0:
320,192,255688,128,0,255773:0:0:0:0:
448,192,255773,128,0,255858:0:0:0:0:
320,192,255858,128,0,256029:0:0:0:0:
64,192,255858,128,0,255943:0:0:0:0:
192,192,255943,128,0,256114:0:0:0:0:
448,192,256029,128,0,256114:0:0:0:0:
320,192,256114,128,0,256284:0:0:0:0:
64,192,256114,128,0,256199:0:0:0:0:
192,192,256199,128,0,256284:0:0:0:0:
448,192,256284,128,0,256369:0:0:0:0:
64,192,256284,128,0,256369:0:0:0:0:
320,192,256369,128,0,256455:0:0:0:0:
192,192,256455,128,0,256625:0:0:0:0:
64,192,256455,128,0,256540:0:0:0:0:
64,192,256625,5,0,0:0:0:0:
320,192,256625,1,0,0:0:0:0:
448,192,256625,1,0,0:0:0:0:
192,192,256710,1,0,0:0:0:0:
448,192,256796,1,0,0:0:0:0:
64,192,256796,1,0,0:0:0:0:
320,192,256881,1,0,0:0:0:0:
192,192,256966,1,0,0:0:0:0:
448,192,256966,1,0,0:0:0:0:
320,192,256966,1,0,0:0:0:0:
64,192,256966,1,0,0:0:0:0:
320,192,257051,1,0,0:0:0:0:
192,192,257137,1,0,0:0:0:0:
64,192,257137,1,0,0:0:0:0:
448,192,257222,1,0,0:0:0:0:
64,192,257307,1,0,0:0:0:0:
192,192,257307,1,0,0:0:0:0:
320,192,257307,1,0,0:0:0:0:
448,192,257307,1,0,0:0:0:0:
192,192,257392,1,0,0:0:0:0:
320,192,257477,1,0,0:0:0:0:
448,192,257477,1,0,0:0:0:0:
64,192,257563,1,0,0:0:0:0:
192,192,257648,1,0,0:0:0:0:
64,192,257648,1,0,0:0:0:0:
320,192,257648,1,0,0:0:0:0:
448,192,257648,1,0,0:0:0:0:
192,192,257733,1,0,0:0:0:0:
64,192,257818,1,0,0:0:0:0:
320,192,257818,1,0,0:0:0:0:
448,192,257904,1,0,0:0:0:0:
64,192,257989,1,0,0:0:0:0:
192,192,257989,1,0,0:0:0:0:
320,192,257989,1,0,0:0:0:0:
448,192,257989,1,0,0:0:0:0:
320,192,258074,1,0,0:0:0:0:
192,192,258159,1,0,0:0:0:0:
448,192,258159,1,0,0:0:0:0:
64,192,258244,1,0,0:0:0:0:
64,192,258330,1,0,0:0:0:0:
192,192,258330,1,0,0:0:0:0:
320,192,258330,1,0,0:0:0:0:
448,192,258330,1,0,0:0:0:0:
320,192,258415,1,0,0:0:0:0:
64,192,258500,1,0,0:0:0:0:
448,192,258500,1,0,0:0:0:0:
192,192,258585,1,0,0:0:0:0:
64,192,258671,1,0,0:0:0:0:
192,192,258671,1,0,0:0:0:0:
320,192,258671,1,0,0:0:0:0:
448,192,258671,1,0,0:0:0:0:
192,192,258756,1,0,0:0:0:0:
64,192,258841,1,0,0:0:0:0:
448,192,258841,1,0,0:0:0:0:
320,192,258926,1,0,0:0:0:0:
64,192,259012,1,0,0:0:0:0:
192,192,259012,1,0,0:0:0:0:
320,192,259012,1,0,0:0:0:0:
448,192,259012,1,0,0:0:0:0:
320,192,259097,1,0,0:0:0:0:
192,192,259182,1,0,0:0:0:0:
64,192,259182,1,0,0:0:0:0:
448,192,259267,1,0,0:0:0:0:
64,192,259352,1,0,0:0:0:0:
192,192,259352,1,0,0:0:0:0:
320,192,259352,1,0,0:0:0:0:
448,192,259352,1,0,0:0:0:0:
192,192,259438,1,0,0:0:0:0:
320,192,259523,1,0,0:0:0:0:
448,192,259523,1,0,0:0:0:0:
64,192,259608,1,0,0:0:0:0:
64,192,259693,1,0,0:0:0:0:
192,192,259693,1,0,0:0:0:0:
320,192,259693,1,0,0:0:0:0:
448,192,259693,1,0,0:0:0:0:
448,192,259779,1,0,0:0:0:0:
320,192,259864,1,0,0:0:0:0:
192,192,259864,1,0,0:0:0:0:
64,192,259949,1,0,0:0:0:0:
64,192,260034,1,0,0:0:0:0:
192,192,260034,1,0,0:0:0:0:
320,192,260034,1,0,0:0:0:0:
448,192,260034,1,0,0:0:0:0:
64,192,260119,1,0,0:0:0:0:
192,192,260205,1,0,0:0:0:0:
320,192,260205,1,0,0:0:0:0:
448,192,260290,1,0,0:0:0:0:
64,192,260375,1,0,0:0:0:0:
192,192,260375,1,0,0:0:0:0:
320,192,260375,1,0,0:0:0:0:
448,192,260375,1,0,0:0:0:0:
448,192,260460,1,0,0:0:0:0:
320,192,260546,1,0,0:0:0:0:
64,192,260546,1,0,0:0:0:0:
192,192,260631,1,0,0:0:0:0:
64,192,260716,1,0,0:0:0:0:
192,192,260716,1,0,0:0:0:0:
320,192,260716,1,0,0:0:0:0:
448,192,260716,1,0,0:0:0:0:
64,192,260801,1,0,0:0:0:0:
192,192,260887,1,0,0:0:0:0:
448,192,260887,1,0,0:0:0:0:
320,192,260972,1,0,0:0:0:0:
64,192,261057,1,0,0:0:0:0:
192,192,261057,1,0,0:0:0:0:
320,192,261057,1,0,0:0:0:0:
448,192,261057,1,0,0:0:0:0:
64,192,261142,1,0,0:0:0:0:
320,192,261227,1,0,0:0:0:0:
448,192,261227,1,0,0:0:0:0:
192,192,261313,1,0,0:0:0:0:
64,192,261398,1,0,0:0:0:0:
192,192,261398,1,0,0:0:0:0:
320,192,261398,1,0,0:0:0:0:
448,192,261398,1,0,0:0:0:0:
448,192,261483,1,0,0:0:0:0:
192,192,261568,1,0,0:0:0:0:
64,192,261568,1,0,0:0:0:0:
320,192,261654,1,0,0:0:0:0:
64,192,261739,1,0,0:0:0:0:
192,192,261739,1,0,0:0:0:0:
320,192,261739,1,0,0:0:0:0:
448,192,261739,1,0,0:0:0:0:
320,192,261824,1,0,0:0:0:0:
448,192,261909,1,0,0:0:0:0:
64,192,261909,1,0,0:0:0:0:
192,192,261994,1,0,0:0:0:0:
64,192,262080,1,0,0:0:0:0:
192,192,262080,1,0,0:0:0:0:
320,192,262080,1,0,0:0:0:0:
448,192,262080,1,0,0:0:0:0:
192,192,262165,1,0,0:0:0:0:
448,192,262250,1,0,0:0:0:0:
64,192,262250,1,0,0:0:0:0:
320,192,262335,1,0,0:0:0:0:
64,192,262421,1,0,0:0:0:0:
192,192,262421,1,0,0:0:0:0:
320,192,262421,1,0,0:0:0:0:
448,192,262421,1,0,0:0:0:0:
448,192,262506,1,0,0:0:0:0:
192,192,262591,1,0,0:0:0:0:
64,192,262591,1,0,0:0:0:0:
320,192,262676,1,0,0:0:0:0:
64,192,262762,1,0,0:0:0:0:
192,192,262762,1,0,0:0:0:0:
320,192,262762,1,0,0:0:0:0:
448,192,262762,1,0,0:0:0:0:
64,192,262847,1,0,0:0:0:0:
320,192,262932,1,0,0:0:0:0:
448,192,262932,1,0,0:0:0:0:
192,192,263017,1,0,0:0:0:0:
64,192,263102,1,0,0:0:0:0:
192,192,263102,1,0,0:0:0:0:
320,192,263102,1,0,0:0:0:0:
448,192,263102,1,0,0:0:0:0:
320,192,263188,1,0,0:0:0:0:
192,192,263273,1,0,0:0:0:0:
64,192,263273,1,0,0:0:0:0:
448,192,263358,1,0,0:0:0:0:
64,192,263443,1,0,0:0:0:0:
192,192,263443,1,0,0:0:0:0:
320,192,263443,1,0,0:0:0:0:
448,192,263443,1,0,0:0:0:0:
448,192,263529,1,0,0:0:0:0:
320,192,263614,1,0,0:0:0:0:
192,192,263614,1,0,0:0:0:0:
64,192,263699,1,0,0:0:0:0:
64,192,263784,1,0,0:0:0:0:
192,192,263784,1,0,0:0:0:0:
320,192,263784,1,0,0:0:0:0:
448,192,263784,1,0,0:0:0:0:
64,192,263869,1,0,0:0:0:0:
192,192,263955,1,0,0:0:0:0:
320,192,263955,1,0,0:0:0:0:
448,192,264040,1,0,0:0:0:0:
192,192,264125,1,0,0:0:0:0:
64,192,264125,1,0,0:0:0:0:
320,192,264125,1,0,0:0:0:0:
448,192,264125,1,0,0:0:0:0:
448,192,264210,1,0,0:0:0:0:
320,192,264296,1,0,0:0:0:0:
64,192,264296,1,0,0:0:0:0:
192,192,264381,1,0,0:0:0:0:
64,192,264466,1,0,0:0:0:0:
192,192,264466,1,0,0:0:0:0:
320,192,264466,1,0,0:0:0:0:
448,192,264466,1,0,0:0:0:0:
64,192,264551,1,0,0:0:0:0:
192,192,264637,1,0,0:0:0:0:
448,192,264637,1,0,0:0:0:0:
320,192,264722,1,0,0:0:0:0:
320,192,264807,1,0,0:0:0:0:
192,192,264807,1,0,0:0:0:0:
64,192,264807,1,0,0:0:0:0:
448,192,264807,1,0,0:0:0:0:
448,192,264977,1,0,0:0:0:0:
320,192,264977,1,0,0:0:0:0:
192,192,265063,1,0,0:0:0:0:
64,192,265063,1,0,0:0:0:0:
320,192,265148,1,0,0:0:0:0:
448,192,265148,1,0,0:0:0:0:
192,192,265233,1,0,0:0:0:0:
64,192,265233,1,0,0:0:0:0:
320,192,265318,1,0,0:0:0:0:
448,192,265318,1,0,0:0:0:0:
320,192,265489,1,0,0:0:0:0:
448,192,265489,1,0,0:0:0:0:
192,192,265574,1,0,0:0:0:0:
64,192,265574,1,0,0:0:0:0:
320,192,265659,1,0,0:0:0:0:
448,192,265659,1,0,0:0:0:0:
192,192,265744,1,0,0:0:0:0:
64,192,265744,1,0,0:0:0:0:
320,192,265830,1,0,0:0:0:0:
448,192,265830,1,0,0:0:0:0:
192,192,265915,1,0,0:0:0:0:
64,192,265915,1,0,0:0:0:0:
320,192,266000,1,0,0:0:0:0:
448,192,266000,1,0,0:0:0:0:
192,192,266085,1,0,0:0:0:0:
64,192,266085,1,0,0:0:0:0:
320,192,266171,1,0,0:0:0:0:
448,192,266171,1,0,0:0:0:0:
192,192,266256,1,0,0:0:0:0:
64,192,266256,1,0,0:0:0:0:
320,192,266341,1,0,0:0:0:0:
448,192,266341,1,0,0:0:0:0:
192,192,266426,1,0,0:0:0:0:
64,192,266426,1,0,0:0:0:0:
320,192,266512,1,0,0:0:0:0:
448,192,266512,1,0,0:0:0:0:
192,192,266597,1,0,0:0:0:0:
64,192,266597,1,0,0:0:0:0:
320,192,266682,1,0,0:0:0:0:
448,192,266682,1,0,0:0:0:0:
192,192,266767,1,0,0:0:0:0:
64,192,266767,1,0,0:0:0:0:
320,192,266852,1,0,0:0:0:0:
448,192,266852,1,0,0:0:0:0:
192,192,266938,1,0,0:0:0:0:
64,192,266938,1,0,0:0:0:0:
320,192,267023,1,0,0:0:0:0:
448,192,267023,1,0,0:0:0:0:
192,192,267108,1,0,0:0:0:0:
64,192,267108,1,0,0:0:0:0:
320,192,267193,1,0,0:0:0:0:
448,192,267193,1,0,0:0:0:0:
192,192,267534,5,0,0:0:0:0:
64,192,267534,1,0,0:0:0:0:
320,192,267591,1,0,0:0:0:0:
448,192,267648,1,0,0:0:0:0:
64,192,267648,1,0,0:0:0:0:
192,192,267705,1,0,0:0:0:0:
448,192,267762,1,0,0:0:0:0:
320,192,267818,1,0,0:0:0:0:
192,192,267875,1,0,0:0:0:0:
448,192,267875,1,0,0:0:0:0:
64,192,267932,1,0,0:0:0:0:
320,192,267989,1,0,0:0:0:0:
448,192,268046,1,0,0:0:0:0:
192,192,268102,1,0,0:0:0:0:
64,192,268159,1,0,0:0:0:0:
320,192,268216,1,0,0:0:0:0:
448,192,268216,1,0,0:0:0:0:
192,192,268273,1,0,0:0:0:0:
448,192,268330,1,0,0:0:0:0:
64,192,268387,1,0,0:0:0:0:
320,192,268443,1,0,0:0:0:0:
448,192,268500,1,0,0:0:0:0:
320,192,268557,1,0,0:0:0:0:
192,192,268557,1,0,0:0:0:0:
64,192,268614,1,0,0:0:0:0:
320,192,268671,1,0,0:0:0:0:
448,192,268727,1,0,0:0:0:0:
192,192,268784,1,0,0:0:0:0:
64,192,268841,1,0,0:0:0:0:
320,192,268898,1,0,0:0:0:0:
448,192,268898,1,0,0:0:0:0:
192,192,268955,1,0,0:0:0:0:
64,192,269012,1,0,0:0:0:0:
448,192,269068,1,0,0:0:0:0:
320,192,269125,1,0,0:0:0:0:
192,192,269182,1,0,0:0:0:0:
64,192,269239,1,0,0:0:0:0:
320,192,269239,1,0,0:0:0:0:
448,192,269296,1,0,0:0:0:0:
64,192,269352,1,0,0:0:0:0:
320,192,269409,1,0,0:0:0:0:
192,192,269466,1,0,0:0:0:0:
448,192,269523,1,0,0:0:0:0:
320,192,269580,1,0,0:0:0:0:
64,192,269580,1,0,0:0:0:0:
192,192,269637,1,0,0:0:0:0:
448,192,269693,1,0,0:0:0:0:
320,192,269750,1,0,0:0:0:0:
192,192,269807,1,0,0:0:0:0:
64,192,269864,1,0,0:0:0:0:
192,192,269921,1,0,0:0:0:0:
320,192,269921,1,0,0:0:0:0:
448,192,269977,1,0,0:0:0:0:
64,192,270034,1,0,0:0:0:0:
192,192,270091,1,0,0:0:0:0:
448,192,270148,1,0,0:0:0:0:
320,192,270205,1,0,0:0:0:0:
64,192,270262,1,0,0:0:0:0:
192,192,270262,1,0,0:0:0:0:
320,192,270318,1,0,0:0:0:0:
448,192,270375,1,0,0:0:0:0:
64,192,270432,1,0,0:0:0:0:
192,192,270489,1,0,0:0:0:0:
448,192,270546,1,0,0:0:0:0:
192,192,270602,1,0,0:0:0:0:
320,192,270602,1,0,0:0:0:0:
64,192,270659,1,0,0:0:0:0:
448,192,270716,1,0,0:0:0:0:
320,192,270773,1,0,0:0:0:0:
64,192,270830,1,0,0:0:0:0:
192,192,270887,1,0,0:0:0:0:
320,192,270943,1,0,0:0:0:0:
448,192,270943,1,0,0:0:0:0:
192,192,271000,1,0,0:0:0:0:
64,192,271057,1,0,0:0:0:0:
448,192,271114,1,0,0:0:0:0:
320,192,271171,1,0,0:0:0:0:
192,192,271227,1,0,0:0:0:0:
320,192,271284,1,0,0:0:0:0:
64,192,271284,1,0,0:0:0:0:
448,192,271341,1,0,0:0:0:0:
64,192,271398,1,0,0:0:0:0:
192,192,271455,1,0,0:0:0:0:
320,192,271512,1,0,0:0:0:0:
64,192,271568,1,0,0:0:0:0:
448,192,271625,1,0,0:0:0:0:
192,192,271625,1,0,0:0:0:0:
320,192,271682,1,0,0:0:0:0:
64,192,271739,1,0,0:0:0:0:
448,192,271796,1,0,0:0:0:0:
320,192,271852,1,0,0:0:0:0:
192,192,271909,1,0,0:0:0:0:
448,192,271966,1,0,0:0:0:0:
64,192,271966,1,0,0:0:0:0:
192,192,272023,1,0,0:0:0:0:
320,192,272080,1,0,0:0:0:0:
448,192,272137,1,0,0:0:0:0:
64,192,272193,1,0,0:0:0:0:
192,192,272250,1,0,0:0:0:0:
320,192,272307,1,0,0:0:0:0:
448,192,272307,1,0,0:0:0:0:
64,192,272364,1,0,0:0:0:0:
192,192,272421,1,0,0:0:0:0:
448,192,272477,1,0,0:0:0:0:
64,192,272534,1,0,0:0:0:0:
192,192,272591,1,0,0:0:0:0:
320,192,272648,1,0,0:0:0:0:
64,192,272648,1,0,0:0:0:0:
448,192,272705,1,0,0:0:0:0:
192,192,272762,1,0,0:0:0:0:
64,192,272818,1,0,0:0:0:0:
448,192,272875,1,0,0:0:0:0:
320,192,272932,1,0,0:0:0:0:
192,192,272989,1,0,0:0:0:0:
64,192,272989,1,0,0:0:0:0:
448,192,273046,1,0,0:0:0:0:
320,192,273102,1,0,0:0:0:0:
64,192,273159,1,0,0:0:0:0:
192,192,273216,1,0,0:0:0:0:
448,192,273273,1,0,0:0:0:0:
192,192,273330,1,0,0:0:0:0:
320,192,273330,1,0,0:0:0:0:
64,192,273387,1,0,0:0:0:0:
448,192,273443,1,0,0:0:0:0:
320,192,273500,1,0,0:0:0:0:
64,192,273557,1,0,0:0:0:0:
192,192,273614,1,0,0:0:0:0:
320,192,273671,1,0,0:0:0:0:
448,192,273671,1,0,0:0:0:0:
64,192,273727,1,0,0:0:0:0:
192,192,273784,1,0,0:0:0:0:
448,192,273841,1,0,0:0:0:0:
320,192,273898,1,0,0:0:0:0:
64,192,273955,1,0,0:0:0:0:
192,192,274012,1,0,0:0:0:0:
448,192,274012,1,0,0:0:0:0:
320,192,274068,1,0,0:0:0:0:
64,192,274125,1,0,0:0:0:0:
448,192,274182,1,0,0:0:0:0:
192,192,274239,1,0,0:0:0:0:
64,192,274296,1,0,0:0:0:0:
192,192,274352,1,0,0:0:0:0:
320,192,274352,1,0,0:0:0:0:
448,192,274409,1,0,0:0:0:0:
64,192,274466,1,0,0:0:0:0:
192,192,274523,1,0,0:0:0:0:
448,192,274580,1,0,0:0:0:0:
320,192,274637,1,0,0:0:0:0:
192,192,274693,1,0,0:0:0:0:
64,192,274693,1,0,0:0:0:0:
448,192,274750,1,0,0:0:0:0:
320,192,274807,1,0,0:0:0:0:
64,192,274864,1,0,0:0:0:0:
192,192,274921,1,0,0:0:0:0:
448,192,274977,1,0,0:0:0:0:
320,192,275034,1,0,0:0:0:0:
192,192,275034,1,0,0:0:0:0:
64,192,275091,1,0,0:0:0:0:
448,192,275148,1,0,0:0:0:0:
320,192,275205,1,0,0:0:0:0:
64,192,275262,1,0,0:0:0:0:
192,192,275318,1,0,0:0:0:0:
320,192,275375,1,0,0:0:0:0:
448,192,275375,1,0,0:0:0:0:
64,192,275432,1,0,0:0:0:0:
192,192,275489,1,0,0:0:0:0:
448,192,275546,1,0,0:0:0:0:
64,192,275602,1,0,0:0:0:0:
320,192,275659,1,0,0:0:0:0:
448,192,275716,1,0,0:0:0:0:
192,192,275716,1,0,0:0:0:0:
64,192,275773,1,0,0:0:0:0:
192,192,275830,1,0,0:0:0:0:
448,192,275887,1,0,0:0:0:0:
320,192,275943,1,0,0:0:0:0:
192,192,276000,1,0,0:0:0:0:
320,192,276057,1,0,0:0:0:0:
64,192,276057,1,0,0:0:0:0:
448,192,276114,1,0,0:0:0:0:
192,192,276171,1,0,0:0:0:0:
64,192,276227,1,0,0:0:0:0:
320,192,276284,1,0,0:0:0:0:
448,192,276341,1,0,0:0:0:0:
64,192,276398,1,0,0:0:0:0:
192,192,276398,1,0,0:0:0:0:
320,192,276455,1,0,0:0:0:0:
448,192,276512,1,0,0:0:0:0:
192,192,276568,1,0,0:0:0:0:
64,192,276625,1,0,0:0:0:0:
320,192,276682,1,0,0:0:0:0:
192,192,276739,1,0,0:0:0:0:
64,192,276739,1,0,0:0:0:0:
448,192,276796,1,0,0:0:0:0:
320,192,276852,1,0,0:0:0:0:
64,192,276909,1,0,0:0:0:0:
192,192,276966,1,0,0:0:0:0:
320,192,277023,1,0,0:0:0:0:
448,192,277080,1,0,0:0:0:0:
192,192,277080,1,0,0:0:0:0:
64,192,277137,1,0,0:0:0:0:
320,192,277193,1,0,0:0:0:0:
448,192,277250,1,0,0:0:0:0:
192,192,277307,1,0,0:0:0:0:
320,192,277364,1,0,0:0:0:0:
192,192,277421,1,0,0:0:0:0:
64,192,277421,1,0,0:0:0:0:
448,192,277477,1,0,0:0:0:0:
320,192,277534,1,0,0:0:0:0:
192,192,277591,1,0,0:0:0:0:
448,192,277648,1,0,0:0:0:0:
64,192,277705,1,0,0:0:0:0:
320,192,277762,1,0,0:0:0:0:
192,192,277762,1,0,0:0:0:0:
448,192,277818,1,0,0:0:0:0:
192,192,277875,1,0,0:0:0:0:
64,192,277932,1,0,0:0:0:0:
320,192,277989,1,0,0:0:0:0:
448,192,278046,1,0,0:0:0:0:
192,192,278102,1,0,0:0:0:0:
64,192,278102,1,0,0:0:0:0:
320,192,278159,1,0,0:0:0:0:
448,192,278216,1,0,0:0:0:0:
64,192,278273,1,0,0:0:0:0:
192,192,278330,1,0,0:0:0:0:
448,192,278387,1,0,0:0:0:0:
192,192,278443,1,0,0:0:0:0:
320,192,278443,1,0,0:0:0:0:
64,192,278500,1,0,0:0:0:0:
448,192,278557,1,0,0:0:0:0:
192,192,278614,1,0,0:0:0:0:
64,192,278671,1,0,0:0:0:0:
448,192,278727,1,0,0:0:0:0:
320,192,278784,1,0,0:0:0:0:
64,192,278784,1,0,0:0:0:0:
192,192,278841,1,0,0:0:0:0:
448,192,278898,1,0,0:0:0:0:
64,192,278955,1,0,0:0:0:0:
192,192,279012,1,0,0:0:0:0:
320,192,279068,1,0,0:0:0:0:
192,192,279125,1,0,0:0:0:0:
448,192,279125,1,0,0:0:0:0:
64,192,279182,1,0,0:0:0:0:
320,192,279239,1,0,0:0:0:0:
448,192,279296,1,0,0:0:0:0:
64,192,279352,1,0,0:0:0:0:
192,192,279409,1,0,0:0:0:0:
320,192,279466,1,0,0:0:0:0:
448,192,279466,1,0,0:0:0:0:
64,192,279523,1,0,0:0:0:0:
192,192,279580,1,0,0:0:0:0:
448,192,279637,1,0,0:0:0:0:
320,192,279693,1,0,0:0:0:0:
64,192,279750,1,0,0:0:0:0:
448,192,279807,1,0,0:0:0:0:
192,192,279807,1,0,0:0:0:0:
320,192,279864,1,0,0:0:0:0:
448,192,279921,1,0,0:0:0:0:
64,192,279977,1,0,0:0:0:0:
320,192,280034,1,0,0:0:0:0:
448,192,280091,1,0,0:0:0:0:
192,192,280148,1,0,0:0:0:0:
64,192,280148,1,0,0:0:0:0:
448,192,280205,1,0,0:0:0:0:
192,192,280262,1,0,0:0:0:0:
64,192,280318,1,0,0:0:0:0:
320,192,280375,1,0,0:0:0:0:
448,192,280432,1,0,0:0:0:0:
320,192,280489,1,0,0:0:0:0:
192,192,280489,1,0,0:0:0:0:
64,192,280546,1,0,0:0:0:0:
448,192,280602,1,0,0:0:0:0:
192,192,280659,1,0,0:0:0:0:
64,192,280716,1,0,0:0:0:0:
320,192,280773,1,0,0:0:0:0:
192,192,280830,1,0,0:0:0:0:
448,192,280830,1,0,0:0:0:0:
64,192,280887,1,0,0:0:0:0:
320,192,280943,1,0,0:0:0:0:
448,192,281000,1,0,0:0:0:0:
64,192,281057,1,0,0:0:0:0:
192,192,281114,1,0,0:0:0:0:
448,192,281171,1,0,0:0:0:0:
320,192,281171,1,0,0:0:0:0:
64,192,281227,1,0,0:0:0:0:
192,192,281284,1,0,0:0:0:0:
448,192,281341,1,0,0:0:0:0:
64,192,281398,1,0,0:0:0:0:
320,192,281455,1,0,0:0:0:0:
192,192,281512,1,0,0:0:0:0:
448,192,281512,1,0,0:0:0:0:
64,192,281568,1,0,0:0:0:0:
320,192,281625,1,0,0:0:0:0:
192,192,281682,1,0,0:0:0:0:
64,192,281739,1,0,0:0:0:0:
448,192,281796,1,0,0:0:0:0:
192,192,281852,1,0,0:0:0:0:
64,192,281852,1,0,0:0:0:0:
320,192,281909,1,0,0:0:0:0:
448,192,281966,1,0,0:0:0:0:
64,192,282023,1,0,0:0:0:0:
192,192,282080,1,0,0:0:0:0:
448,192,282137,1,0,0:0:0:0:
192,192,282193,1,0,0:0:0:0:
320,192,282193,1,0,0:0:0:0:
64,192,282250,1,0,0:0:0:0:
448,192,282307,1,0,0:0:0:0:
192,192,282364,1,0,0:0:0:0:
64,192,282421,1,0,0:0:0:0:
320,192,282477,1,0,0:0:0:0:
448,192,282534,1,0,0:0:0:0:
192,192,282534,1,0,0:0:0:0:
64,192,282591,1,0,0:0:0:0:
320,192,282648,1,0,0:0:0:0:
448,192,282705,1,0,0:0:0:0:
64,192,282762,1,0,0:0:0:0:
192,192,282818,1,0,0:0:0:0:
320,192,282875,1,0,0:0:0:0:
448,192,282875,1,0,0:0:0:0:
64,192,282932,1,0,0:0:0:0:
320,192,282989,1,0,0:0:0:0:
448,192,283046,1,0,0:0:0:0:
192,192,283102,1,0,0:0:0:0:
320,192,283159,1,0,0:0:0:0:
192,192,283216,1,0,0:0:0:0:
64,192,283216,1,0,0:0:0:0:
448,192,283273,1,0,0:0:0:0:
320,192,283330,1,0,0:0:0:0:
64,192,283387,1,0,0:0:0:0:
192,192,283443,1,0,0:0:0:0:
448,192,283500,1,0,0:0:0:0:
320,192,283557,1,0,0:0:0:0:
192,192,283557,1,0,0:0:0:0:
64,192,283614,1,0,0:0:0:0:
320,192,283671,1,0,0:0:0:0:
448,192,283727,1,0,0:0:0:0:
64,192,283784,1,0,0:0:0:0:
192,192,283841,1,0,0:0:0:0:
320,192,283898,1,0,0:0:0:0:
64,192,283898,1,0,0:0:0:0:
448,192,283983,1,0,0:0:0:0:
192,192,284068,1,0,0:0:0:0:
64,192,284068,1,0,0:0:0:0:
320,192,284068,1,0,0:0:0:0:
448,192,284154,1,0,0:0:0:0:
320,192,284239,1,0,0:0:0:0:
192,192,284239,1,0,0:0:0:0:
64,192,284239,1,0,0:0:0:0:
448,192,284324,1,0,0:0:0:0:
320,192,284409,1,0,0:0:0:0:
192,192,284409,1,0,0:0:0:0:
64,192,284409,1,0,0:0:0:0:
448,192,284494,1,0,0:0:0:0:
192,192,284580,1,0,0:0:0:0:
64,192,284580,1,0,0:0:0:0:
320,192,284580,1,0,0:0:0:0:
448,192,284665,1,0,0:0:0:0:
192,192,284750,1,0,0:0:0:0:
64,192,284750,1,0,0:0:0:0:
320,192,284750,1,0,0:0:0:0:
448,192,284835,1,0,0:0:0:0:
192,192,284921,1,0,0:0:0:0:
320,192,284921,1,0,0:0:0:0:
64,192,284921,1,0,0:0:0:0:
448,192,285006,1,0,0:0:0:0:
192,192,285091,1,0,0:0:0:0:
320,192,285091,1,0,0:0:0:0:
64,192,285176,1,0,0:0:0:0:
192,192,285262,1,0,0:0:0:0:
320,192,285262,1,0,0:0:0:0:
448,192,285262,1,0,0:0:0:0:
64,192,285347,1,0,0:0:0:0:
320,192,285432,1,0,0:0:0:0:
192,192,285432,1,0,0:0:0:0:
448,192,285432,1,0,0:0:0:0:
64,192,285517,1,0,0:0:0:0:
448,192,285602,1,0,0:0:0:0:
320,192,285602,1,0,0:0:0:0:
192,192,285602,1,0,0:0:0:0:
64,192,285688,1,0,0:0:0:0:
192,192,285773,1,0,0:0:0:0:
320,192,285773,1,0,0:0:0:0:
448,192,285773,1,0,0:0:0:0:
64,192,285858,1,0,0:0:0:0:
448,192,285943,1,0,0:0:0:0:
192,192,285943,1,0,0:0:0:0:
320,192,285943,1,0,0:0:0:0:
64,192,286029,1,0,0:0:0:0:
192,192,286114,1,0,0:0:0:0:
320,192,286114,1,0,0:0:0:0:
448,192,286114,1,0,0:0:0:0:
64,192,286199,1,0,0:0:0:0:
320,192,286284,1,0,0:0:0:0:
448,192,286284,1,0,0:0:0:0:
192,192,286284,1,0,0:0:0:0:
64,192,286369,1,0,0:0:0:0:
192,192,286455,1,0,0:0:0:0:
320,192,286455,1,0,0:0:0:0:
448,192,286540,1,0,0:0:0:0:
192,192,286625,1,0,0:0:0:0:
64,192,286625,1,0,0:0:0:0:
320,192,286710,1,0,0:0:0:0:
448,192,286710,1,0,0:0:0:0:
192,192,286796,1,0,0:0:0:0:
64,192,286796,1,0,0:0:0:0:
320,192,286881,1,0,0:0:0:0:
448,192,286881,1,0,0:0:0:0:
192,192,286966,1,0,0:0:0:0:
64,192,286966,1,0,0:0:0:0:
320,192,287051,1,0,0:0:0:0:
448,192,287051,1,0,0:0:0:0:
192,192,287137,1,0,0:0:0:0:
64,192,287137,1,0,0:0:0:0:
320,192,287222,1,0,0:0:0:0:
448,192,287222,1,0,0:0:0:0:
192,192,287307,1,0,0:0:0:0:
64,192,287307,1,0,0:0:0:0:
320,192,287392,1,0,0:0:0:0:
448,192,287392,1,0,0:0:0:0:
192,192,287477,1,0,0:0:0:0:
64,192,287477,1,0,0:0:0:0:
320,192,287563,1,0,0:0:0:0:
448,192,287563,1,0,0:0:0:0:
192,192,287648,1,0,0:0:0:0:
64,192,287648,1,0,0:0:0:0:
320,192,287733,1,0,0:0:0:0:
448,192,287733,1,0,0:0:0:0:
192,192,287818,1,0,0:0:0:0:
64,192,287818,1,0,0:0:0:0:
320,192,287904,1,0,0:0:0:0:
448,192,287904,1,0,0:0:0:0:
192,192,287989,1,0,0:0:0:0:
64,192,287989,1,0,0:0:0:0:
448,192,288074,1,0,0:0:0:0:
192,192,288159,1,0,0:0:0:0:
448,192,288244,1,0,0:0:0:0:
192,192,288330,1,0,0:0:0:0:
320,192,288415,1,0,0:0:0:0:
64,192,288500,1,0,0:0:0:0:
320,192,288585,1,0,0:0:0:0:
64,192,288671,1,0,0:0:0:0:
320,192,288756,1,0,0:0:0:0:
192,192,288841,1,0,0:0:0:0:
320,192,288926,1,0,0:0:0:0:
192,192,289012,1,0,0:0:0:0:
64,192,289012,1,0,0:0:0:0:
192,192,289352,1,0,0:0:0:0:
64,192,289352,1,0,0:0:0:0:
448,192,289352,1,0,0:0:0:0:
320,192,289438,1,0,0:0:0:0:
192,192,289523,1,0,0:0:0:0:
448,192,289523,1,0,0:0:0:0:
320,192,289608,1,0,0:0:0:0:
192,192,289693,1,0,0:0:0:0:
64,192,289693,1,0,0:0:0:0:
320,192,289779,1,0,0:0:0:0:
448,192,289864,1,0,0:0:0:0:
64,192,289864,1,0,0:0:0:0:
192,192,289949,1,0,0:0:0:0:
320,192,290034,1,0,0:0:0:0:
448,192,290034,1,0,0:0:0:0:
192,192,290119,1,0,0:0:0:0:
64,192,290205,1,0,0:0:0:0:
448,192,290205,1,0,0:0:0:0:
320,192,290290,1,0,0:0:0:0:
64,192,290375,128,0,290546:0:0:0:0:
448,192,290375,128,0,290546:0:0:0:0:
320,192,290460,128,0,290631:0:0:0:0:
192,192,290546,128,0,290716:0:0:0:0:
64,192,290631,128,0,290716:0:0:0:0:
320,192,290716,1,0,0:0:0:0:
448,192,290716,1,0,0:0:0:0:
64,192,290801,1,0,0:0:0:0:
192,192,290887,1,0,0:0:0:0:
448,192,290887,1,0,0:0:0:0:
320,192,290972,1,0,0:0:0:0:
192,192,291057,1,0,0:0:0:0:
64,192,291057,1,0,0:0:0:0:
320,192,291142,1,0,0:0:0:0:
448,192,291227,1,0,0:0:0:0:
64,192,291227,1,0,0:0:0:0:
192,192,291313,1,0,0:0:0:0:
320,192,291398,1,0,0:0:0:0:
448,192,291398,1,0,0:0:0:0:
64,192,291483,1,0,0:0:0:0:
192,192,291568,1,0,0:0:0:0:
448,192,291568,1,0,0:0:0:0:
320,192,291654,1,0,0:0:0:0:
192,192,291739,128,0,291909:0:0:0:0:
64,192,291739,128,0,291824:0:0:0:0:
448,192,291824,128,0,291994:0:0:0:0:
64,192,291909,128,0,291994:0:0:0:0:
320,192,291909,128,0,291994:0:0:0:0:
192,192,291994,128,0,292080:0:0:0:0:
320,192,292080,1,0,0:0:0:0:
448,192,292080,1,0,0:0:0:0:
64,192,292165,1,0,0:0:0:0:
192,192,292250,1,0,0:0:0:0:
320,192,292250,1,0,0:0:0:0:
448,192,292335,1,0,0:0:0:0:
192,192,292421,1,0,0:0:0:0:
64,192,292421,1,0,0:0:0:0:
320,192,292506,1,0,0:0:0:0:
448,192,292591,1,0,0:0:0:0:
64,192,292591,1,0,0:0:0:0:
192,192,292676,1,0,0:0:0:0:
320,192,292762,1,0,0:0:0:0:
64,192,292762,1,0,0:0:0:0:
448,192,292847,1,0,0:0:0:0:
320,192,292932,1,0,0:0:0:0:
192,192,292932,1,0,0:0:0:0:
64,192,293017,1,0,0:0:0:0:
64,192,293102,128,0,293273:0:0:0:0:
320,192,293102,128,0,293188:0:0:0:0:
192,192,293188,128,0,293358:0:0:0:0:
448,192,293188,128,0,293273:0:0:0:0:
320,192,293273,128,0,293443:0:0:0:0:
448,192,293358,128,0,293443:0:0:0:0:
192,192,293443,1,0,0:0:0:0:
64,192,293443,1,0,0:0:0:0:
448,192,293529,1,0,0:0:0:0:
64,192,293614,1,0,0:0:0:0:
320,192,293614,1,0,0:0:0:0:
192,192,293699,1,0,0:0:0:0:
320,192,293784,1,0,0:0:0:0:
448,192,293784,1,0,0:0:0:0:
192,192,293869,1,0,0:0:0:0:
64,192,293955,1,0,0:0:0:0:
448,192,293955,1,0,0:0:0:0:
192,192,294040,1,0,0:0:0:0:
320,192,294125,1,0,0:0:0:0:
64,192,294125,1,0,0:0:0:0:
448,192,294210,1,0,0:0:0:0:
320,192,294296,1,0,0:0:0:0:
192,192,294296,1,0,0:0:0:0:
64,192,294381,1,0,0:0:0:0:
320,192,294466,128,0,294637:0:0:0:0:
192,192,294551,128,0,294722:0:0:0:0:
448,192,294551,128,0,294637:0:0:0:0:
64,192,294637,128,0,294722:0:0:0:0:
448,192,294722,128,0,294807:0:0:0:0:
320,192,294722,128,0,294807:0:0:0:0:
192,192,294807,1,0,0:0:0:0:
64,192,294892,1,0,0:0:0:0:
192,192,294977,1,0,0:0:0:0:
320,192,294977,1,0,0:0:0:0:
448,192,295063,1,0,0:0:0:0:
192,192,295148,1,0,0:0:0:0:
64,192,295148,1,0,0:0:0:0:
448,192,295233,1,0,0:0:0:0:
320,192,295318,1,0,0:0:0:0:
64,192,295318,1,0,0:0:0:0:
192,192,295404,1,0,0:0:0:0:
320,192,295489,1,0,0:0:0:0:
448,192,295489,1,0,0:0:0:0:
192,192,295574,1,0,0:0:0:0:
64,192,295659,1,0,0:0:0:0:
448,192,295659,1,0,0:0:0:0:
320,192,295744,1,0,0:0:0:0:
64,192,295830,128,0,296000:0:0:0:0:
192,192,295830,128,0,295915:0:0:0:0:
320,192,295915,128,0,296085:0:0:0:0:
448,192,295915,128,0,296000:0:0:0:0:
192,192,296000,128,0,296171:0:0:0:0:
64,192,296085,128,0,296171:0:0:0:0:
448,192,296171,1,0,0:0:0:0:
320,192,296256,1,0,0:0:0:0:
448,192,296341,1,0,0:0:0:0:
192,192,296341,1,0,0:0:0:0:
64,192,296426,1,0,0:0:0:0:
192,192,296512,1,0,0:0:0:0:
320,192,296512,1,0,0:0:0:0:
448,192,296597,1,0,0:0:0:0:
320,192,296682,1,0,0:0:0:0:
64,192,296682,1,0,0:0:0:0:
192,192,296767,1,0,0:0:0:0:
320,192,296852,1,0,0:0:0:0:
448,192,296852,1,0,0:0:0:0:
64,192,296938,1,0,0:0:0:0:
448,192,297023,5,0,0:0:0:0:
192,192,297023,1,0,0:0:0:0:
320,192,297108,1,0,0:0:0:0:
192,192,297193,128,0,297364:0:0:0:0:
448,192,297193,128,0,297279:0:0:0:0:
320,192,297279,128,0,297449:0:0:0:0:
448,192,297364,128,0,297449:0:0:0:0:
64,192,297364,128,0,297534:0:0:0:0:
192,192,297449,128,0,297534:0:0:0:0:
448,192,297534,1,0,0:0:0:0:
320,192,297619,1,0,0:0:0:0:
448,192,297705,1,0,0:0:0:0:
64,192,297705,1,0,0:0:0:0:
320,192,297790,1,0,0:0:0:0:
64,192,297875,1,0,0:0:0:0:
192,192,297875,1,0,0:0:0:0:
320,192,297960,1,0,0:0:0:0:
64,192,298046,1,0,0:0:0:0:
448,192,298046,1,0,0:0:0:0:
192,192,298131,1,0,0:0:0:0:
448,192,298216,1,0,0:0:0:0:
320,192,298216,1,0,0:0:0:0:
192,192,298301,1,0,0:0:0:0:
448,192,298387,1,0,0:0:0:0:
64,192,298387,1,0,0:0:0:0:
320,192,298472,1,0,0:0:0:0:
192,192,298557,128,0,298727:0:0:0:0:
64,192,298557,128,0,298642:0:0:0:0:
448,192,298642,128,0,298813:0:0:0:0:
320,192,298727,128,0,298813:0:0:0:0:
64,192,298727,128,0,298898:0:0:0:0:
192,192,298813,128,0,298898:0:0:0:0:
320,192,298898,1,0,0:0:0:0:
448,192,298898,1,0,0:0:0:0:
64,192,298983,1,0,0:0:0:0:
448,192,299068,1,0,0:0:0:0:
192,192,299068,1,0,0:0:0:0:
320,192,299154,1,0,0:0:0:0:
64,192,299239,1,0,0:0:0:0:
192,192,299239,1,0,0:0:0:0:
320,192,299324,1,0,0:0:0:0:
64,192,299409,1,0,0:0:0:0:
448,192,299409,1,0,0:0:0:0:
192,192,299494,1,0,0:0:0:0:
448,192,299580,1,0,0:0:0:0:
320,192,299580,1,0,0:0:0:0:
64,192,299665,1,0,0:0:0:0:
448,192,299750,1,0,0:0:0:0:
192,192,299750,1,0,0:0:0:0:
320,192,299835,1,0,0:0:0:0:
64,192,299921,1,0,0:0:0:0:
192,192,299921,1,0,0:0:0:0:
448,192,300006,1,0,0:0:0:0:
320,192,300091,1,0,0:0:0:0:
64,192,300091,1,0,0:0:0:0:
192,192,300176,1,0,0:0:0:0:
320,192,300262,128,0,300347:0:0:0:0:
448,192,300262,128,0,300347:0:0:0:0:
64,192,300347,128,0,300432:0:0:0:0:
192,192,300432,128,0,300517:0:0:0:0:
320,192,300432,128,0,300517:0:0:0:0:
448,192,300517,128,0,300602:0:0:0:0:
192,192,300602,128,0,300688:0:0:0:0:
64,192,300602,128,0,300688:0:0:0:0:
320,192,300688,128,0,300773:0:0:0:0:
448,192,300773,128,0,300858:0:0:0:0:
64,192,300773,128,0,300858:0:0:0:0:
192,192,300858,128,0,300943:0:0:0:0:
320,192,300943,128,0,301029:0:0:0:0:
64,192,300943,128,0,301029:0:0:0:0:
448,192,301029,128,0,301114:0:0:0:0:
320,192,301114,128,0,301199:0:0:0:0:
192,192,301114,128,0,301199:0:0:0:0:
64,192,301199,128,0,301284:0:0:0:0:
320,192,301284,128,0,301369:0:0:0:0:
448,192,301284,128,0,301369:0:0:0:0:
192,192,301369,128,0,301455:0:0:0:0:
64,192,301455,128,0,301540:0:0:0:0:
448,192,301455,128,0,301540:0:0:0:0:
320,192,301540,128,0,301625:0:0:0:0:
192,192,301625,128,0,301710:0:0:0:0:
64,192,301625,128,0,301710:0:0:0:0:
448,192,301710,128,0,301796:0:0:0:0:
320,192,301796,128,0,301881:0:0:0:0:
64,192,301796,128,0,301881:0:0:0:0:
192,192,301881,128,0,301966:0:0:0:0:
320,192,301966,128,0,302051:0:0:0:0:
448,192,301966,128,0,302051:0:0:0:0:
192,192,302051,128,0,302137:0:0:0:0:
64,192,302137,128,0,302222:0:0:0:0:
448,192,302137,128,0,302222:0:0:0:0:
192,192,302222,128,0,302307:0:0:0:0:
320,192,302307,128,0,302392:0:0:0:0:
64,192,302307,128,0,302392:0:0:0:0:
448,192,302392,128,0,302477:0:0:0:0:
320,192,302477,128,0,302563:0:0:0:0:
192,192,302477,128,0,302563:0:0:0:0:
64,192,302563,128,0,302648:0:0:0:0:
320,192,302648,128,0,302733:0:0:0:0:
448,192,302648,128,0,302733:0:0:0:0:
192,192,302733,128,0,302818:0:0:0:0:
64,192,302818,128,0,302904:0:0:0:0:
448,192,302818,128,0,302904:0:0:0:0:
320,192,302904,128,0,302989:0:0:0:0:
192,192,302989,128,0,303074:0:0:0:0:
448,192,302989,128,0,303074:0:0:0:0:
64,192,303074,128,0,303159:0:0:0:0:
192,192,303159,128,0,303244:0:0:0:0:
320,192,303159,128,0,303244:0:0:0:0:
448,192,303244,128,0,303330:0:0:0:0:
192,192,303330,128,0,303415:0:0:0:0:
64,192,303330,128,0,303415:0:0:0:0:
448,192,303415,128,0,303500:0:0:0:0:
320,192,303500,128,0,303585:0:0:0:0:
64,192,303500,128,0,303585:0:0:0:0:
192,192,303585,128,0,303671:0:0:0:0:
320,192,303671,128,0,303756:0:0:0:0:
448,192,303671,128,0,303756:0:0:0:0:
192,192,303756,128,0,303841:0:0:0:0:
64,192,303841,128,0,303926:0:0:0:0:
448,192,303841,128,0,303926:0:0:0:0:
320,192,303926,128,0,304012:0:0:0:0:
448,192,304012,128,0,304097:0:0:0:0:
192,192,304012,128,0,304097:0:0:0:0:
64,192,304097,128,0,304182:0:0:0:0:
192,192,304182,128,0,304267:0:0:0:0:
448,192,304182,128,0,304267:0:0:0:0:
320,192,304267,128,0,304352:0:0:0:0:
192,192,304352,128,0,304438:0:0:0:0:
64,192,304352,128,0,304438:0:0:0:0:
320,192,304438,128,0,304523:0:0:0:0:
448,192,304523,128,0,304608:0:0:0:0:
192,192,304523,128,0,304608:0:0:0:0:
64,192,304608,128,0,304693:0:0:0:0:
192,192,304693,128,0,304779:0:0:0:0:
320,192,304693,128,0,304779:0:0:0:0:
448,192,304779,128,0,304864:0:0:0:0:
64,192,304864,128,0,304949:0:0:0:0:
320,192,304864,128,0,304949:0:0:0:0:
192,192,304949,128,0,305034:0:0:0:0:
320,192,305034,128,0,305119:0:0:0:0:
448,192,305034,128,0,305119:0:0:0:0:
64,192,305119,128,0,305205:0:0:0:0:
192,192,305205,128,0,305290:0:0:0:0:
448,192,305205,128,0,305290:0:0:0:0:
320,192,305290,128,0,305375:0:0:0:0:
192,192,305375,128,0,305546:0:0:0:0:
64,192,305375,128,0,305546:0:0:0:0:
320,192,305546,1,0,0:0:0:0:
448,192,305546,1,0,0:0:0:0:
64,192,305716,1,0,0:0:0:0:
192,192,305716,1,0,0:0:0:0:
320,192,305716,1,0,0:0:0:0:
448,192,305801,1,0,0:0:0:0:
320,192,305887,1,0,0:0:0:0:
192,192,305887,1,0,0:0:0:0:
64,192,305972,1,0,0:0:0:0:
192,192,306057,1,0,0:0:0:0:
320,192,306057,1,0,0:0:0:0:
448,192,306057,1,0,0:0:0:0:
64,192,306142,1,0,0:0:0:0:
192,192,306227,1,0,0:0:0:0:
448,192,306227,1,0,0:0:0:0:
320,192,306313,1,0,0:0:0:0:
192,192,306398,1,0,0:0:0:0:
64,192,306398,1,0,0:0:0:0:
448,192,306398,1,0,0:0:0:0:
320,192,306483,1,0,0:0:0:0:
192,192,306568,1,0,0:0:0:0:
64,192,306568,1,0,0:0:0:0:
320,192,306654,1,0,0:0:0:0:
192,192,306739,1,0,0:0:0:0:
64,192,306739,1,0,0:0:0:0:
448,192,306739,1,0,0:0:0:0:
320,192,306824,1,0,0:0:0:0:
192,192,306909,1,0,0:0:0:0:
448,192,306909,1,0,0:0:0:0:
64,192,306994,1,0,0:0:0:0:
192,192,307080,1,0,0:0:0:0:
320,192,307080,1,0,0:0:0:0:
448,192,307080,1,0,0:0:0:0:
64,192,307165,1,0,0:0:0:0:
192,192,307250,1,0,0:0:0:0:
320,192,307250,1,0,0:0:0:0:
448,192,307335,1,0,0:0:0:0:
320,192,307421,1,0,0:0:0:0:
192,192,307421,1,0,0:0:0:0:
64,192,307421,1,0,0:0:0:0:
448,192,307506,1,0,0:0:0:0:
320,192,307591,1,0,0:0:0:0:
64,192,307591,1,0,0:0:0:0:
192,192,307676,1,0,0:0:0:0:
64,192,307762,1,0,0:0:0:0:
320,192,307762,1,0,0:0:0:0:
448,192,307762,1,0,0:0:0:0:
192,192,307847,1,0,0:0:0:0:
64,192,307932,1,0,0:0:0:0:
320,192,307932,1,0,0:0:0:0:
448,192,308017,1,0,0:0:0:0:
320,192,308102,1,0,0:0:0:0:
192,192,308102,1,0,0:0:0:0:
64,192,308102,1,0,0:0:0:0:
448,192,308188,1,0,0:0:0:0:
320,192,308273,1,0,0:0:0:0:
192,192,308273,1,0,0:0:0:0:
64,192,308358,1,0,0:0:0:0:
320,192,308443,1,0,0:0:0:0:
448,192,308443,1,0,0:0:0:0:
192,192,308529,1,0,0:0:0:0:
64,192,308529,1,0,0:0:0:0:
448,192,308614,1,0,0:0:0:0:
320,192,308614,1,0,0:0:0:0:
192,192,308699,1,0,0:0:0:0:
64,192,308699,1,0,0:0:0:0:
320,192,308784,1,0,0:0:0:0:
448,192,308784,1,0,0:0:0:0:
192,192,308869,1,0,0:0:0:0:
64,192,308869,1,0,0:0:0:0:
320,192,308955,1,0,0:0:0:0:
448,192,308955,1,0,0:0:0:0:
192,192,309040,1,0,0:0:0:0:
64,192,309040,1,0,0:0:0:0:
320,192,309125,1,0,0:0:0:0:
448,192,309125,1,0,0:0:0:0:
192,192,309210,1,0,0:0:0:0:
64,192,309210,1,0,0:0:0:0:
320,192,309296,1,0,0:0:0:0:
448,192,309296,1,0,0:0:0:0:
192,192,309381,1,0,0:0:0:0:
64,192,309381,1,0,0:0:0:0:
320,192,309466,1,0,0:0:0:0:
448,192,309466,1,0,0:0:0:0:
192,192,309551,1,0,0:0:0:0:
64,192,309551,1,0,0:0:0:0:
320,192,309637,1,0,0:0:0:0:
448,192,309637,1,0,0:0:0:0:
192,192,309722,1,0,0:0:0:0:
64,192,309722,1,0,0:0:0:0:
320,192,309807,1,0,0:0:0:0:
448,192,309807,1,0,0:0:0:0:
192,192,309892,1,0,0:0:0:0:
64,192,309892,1,0,0:0:0:0:
320,192,309977,1,0,0:0:0:0:
448,192,309977,1,0,0:0:0:0:
192,192,310063,1,0,0:0:0:0:
64,192,310063,1,0,0:0:0:0:
320,192,310148,1,0,0:0:0:0:
448,192,310148,1,0,0:0:0:0:
192,192,310233,1,0,0:0:0:0:
64,192,310233,1,0,0:0:0:0:
320,192,310318,1,0,0:0:0:0:
448,192,310318,1,0,0:0:0:0:
192,192,310404,1,0,0:0:0:0:
64,192,310404,1,0,0:0:0:0:
320,192,310489,1,0,0:0:0:0:
448,192,310489,1,0,0:0:0:0:
192,192,310574,1,0,0:0:0:0:
64,192,310574,1,0,0:0:0:0:
320,192,310659,1,0,0:0:0:0:
448,192,310659,1,0,0:0:0:0:
192,192,310744,1,0,0:0:0:0:
64,192,310744,1,0,0:0:0:0:
320,192,310830,128,0,311171:0:0:0:0:
448,192,310830,128,0,311171:0:0:0:0:
192,193,311171,1,0,0:0:0:0:
64,193,311171,1,0,0:0:0:0:
448,193,311256,1,0,0:0:0:0:
64,193,311341,1,0,0:0:0:0:
320,193,311341,1,0,0:0:0:0:
192,193,311426,1,0,0:0:0:0:
448,193,311512,1,0,0:0:0:0:
320,193,311512,1,0,0:0:0:0:
64,193,311597,1,0,0:0:0:0:
320,193,311682,1,0,0:0:0:0:
192,193,311682,1,0,0:0:0:0:
448,193,311767,1,0,0:0:0:0:
64,193,311852,1,0,0:0:0:0:
320,193,311852,1,0,0:0:0:0:
192,193,311938,1,0,0:0:0:0:
448,193,312023,1,0,0:0:0:0:
64,193,312023,1,0,0:0:0:0:
320,193,312108,1,0,0:0:0:0:
64,193,312193,1,0,0:0:0:0:
192,193,312193,1,0,0:0:0:0:
320,193,312279,1,0,0:0:0:0:
64,193,312364,1,0,0:0:0:0:
448,193,312364,1,0,0:0:0:0:
192,193,312449,1,0,0:0:0:0:
448,193,312534,1,0,0:0:0:0:
320,193,312534,1,0,0:0:0:0:
64,193,312619,1,0,0:0:0:0:
448,193,312705,1,0,0:0:0:0:
192,193,312705,1,0,0:0:0:0:
320,193,312790,1,0,0:0:0:0:
64,193,312875,1,0,0:0:0:0:
192,193,312875,1,0,0:0:0:0:
448,193,312960,1,0,0:0:0:0:
320,193,313046,1,0,0:0:0:0:
192,193,313046,1,0,0:0:0:0:
64,193,313131,1,0,0:0:0:0:
448,193,313216,1,0,0:0:0:0:
192,193,313216,1,0,0:0:0:0:
320,193,313301,1,0,0:0:0:0:
64,193,313387,1,0,0:0:0:0:
192,193,313387,1,0,0:0:0:0:
320,193,313472,1,0,0:0:0:0:
192,193,313557,1,0,0:0:0:0:
448,193,313557,1,0,0:0:0:0:
64,193,313642,1,0,0:0:0:0:
320,193,313727,1,0,0:0:0:0:
192,193,313727,1,0,0:0:0:0:
448,193,313813,1,0,0:0:0:0:
64,193,313898,1,0,0:0:0:0:
320,193,313898,1,0,0:0:0:0:
192,193,313983,1,0,0:0:0:0:
448,193,314068,1,0,0:0:0:0:
320,193,314068,1,0,0:0:0:0:
192,193,314154,1,0,0:0:0:0:
448,193,314239,1,0,0:0:0:0:
64,193,314239,1,0,0:0:0:0:
320,193,314324,1,0,0:0:0:0:
64,193,314409,1,0,0:0:0:0:
192,193,314409,1,0,0:0:0:0:
320,193,314494,1,0,0:0:0:0:
192,193,314580,1,0,0:0:0:0:
448,193,314580,1,0,0:0:0:0:
64,193,314665,1,0,0:0:0:0:
320,193,314750,1,0,0:0:0:0:
192,193,314750,1,0,0:0:0:0:
448,193,314835,1,0,0:0:0:0:
64,193,314921,1,0,0:0:0:0:
320,193,314921,1,0,0:0:0:0:
192,193,315006,1,0,0:0:0:0:
448,193,315091,1,0,0:0:0:0:
320,193,315091,1,0,0:0:0:0:
64,193,315176,1,0,0:0:0:0:
320,193,315262,1,0,0:0:0:0:
192,193,315262,1,0,0:0:0:0:
448,193,315347,1,0,0:0:0:0:
64,193,315432,1,0,0:0:0:0:
320,193,315432,1,0,0:0:0:0:
192,193,315517,1,0,0:0:0:0:
448,193,315602,1,0,0:0:0:0:
320,193,315602,1,0,0:0:0:0:
192,193,315688,1,0,0:0:0:0:
448,193,315773,1,0,0:0:0:0:
64,193,315773,1,0,0:0:0:0:
320,193,315858,1,0,0:0:0:0:
64,193,315943,1,0,0:0:0:0:
192,193,315943,1,0,0:0:0:0:
320,193,316029,1,0,0:0:0:0:
192,193,316114,1,0,0:0:0:0:
448,193,316114,1,0,0:0:0:0:
64,193,316199,1,0,0:0:0:0:
320,193,316284,1,0,0:0:0:0:
192,193,316284,1,0,0:0:0:0:
448,193,316369,1,0,0:0:0:0:
64,193,316455,1,0,0:0:0:0:
320,193,316455,1,0,0:0:0:0:
192,193,316540,1,0,0:0:0:0:
448,193,316625,1,0,0:0:0:0:
320,193,316625,1,0,0:0:0:0:
64,193,316710,1,0,0:0:0:0:
320,193,316796,1,0,0:0:0:0:
192,193,316796,1,0,0:0:0:0:
448,193,316881,1,0,0:0:0:0:
64,193,316966,1,0,0:0:0:0:
320,193,316966,1,0,0:0:0:0:
192,193,317051,1,0,0:0:0:0:
448,193,317137,1,0,0:0:0:0:
320,193,317137,1,0,0:0:0:0:
64,193,317222,1,0,0:0:0:0:
320,193,317307,1,0,0:0:0:0:
192,193,317307,1,0,0:0:0:0:
448,193,317392,1,0,0:0:0:0:
320,193,317477,1,0,0:0:0:0:
192,193,317477,1,0,0:0:0:0:
64,193,317563,1,0,0:0:0:0:
448,193,317648,1,0,0:0:0:0:
320,193,317648,1,0,0:0:0:0:
64,193,317733,1,0,0:0:0:0:
448,193,317818,1,0,0:0:0:0:
192,193,317818,1,0,0:0:0:0:
320,193,317904,1,0,0:0:0:0:
64,193,317989,1,0,0:0:0:0:
192,193,317989,1,0,0:0:0:0:
320,193,318074,1,0,0:0:0:0:
192,193,318159,1,0,0:0:0:0:
448,193,318159,1,0,0:0:0:0:
64,193,318244,1,0,0:0:0:0:
320,193,318330,1,0,0:0:0:0:
192,193,318330,1,0,0:0:0:0:
448,193,318415,1,0,0:0:0:0:
64,193,318500,1,0,0:0:0:0:
320,193,318500,1,0,0:0:0:0:
192,193,318585,1,0,0:0:0:0:
448,193,318671,1,0,0:0:0:0:
320,193,318671,1,0,0:0:0:0:
64,193,318756,1,0,0:0:0:0:
448,193,318841,1,0,0:0:0:0:
192,193,318841,1,0,0:0:0:0:
320,193,318926,1,0,0:0:0:0:
192,193,319012,1,0,0:0:0:0:
64,193,319012,1,0,0:0:0:0:
320,192,319097,1,0,0:0:0:0:
448,192,319182,1,0,0:0:0:0:
192,192,319182,1,0,0:0:0:0:
64,192,319267,1,0,0:0:0:0:
320,192,319352,1,0,0:0:0:0:
448,192,319352,1,0,0:0:0:0:
192,192,319438,1,0,0:0:0:0:
64,192,319523,1,0,0:0:0:0:
448,192,319523,1,0,0:0:0:0:
320,192,319608,1,0,0:0:0:0:
192,192,319693,1,0,0:0:0:0:
64,192,319693,1,0,0:0:0:0:
320,192,319779,1,0,0:0:0:0:
448,192,319864,1,0,0:0:0:0:
64,192,319864,1,0,0:0:0:0:
192,192,319949,1,0,0:0:0:0:
448,192,320034,1,0,0:0:0:0:
320,192,320034,1,0,0:0:0:0:
64,192,320119,1,0,0:0:0:0:
192,192,320205,1,0,0:0:0:0:
448,192,320205,1,0,0:0:0:0:
320,192,320290,1,0,0:0:0:0:
192,192,320375,1,0,0:0:0:0:
64,192,320375,1,0,0:0:0:0:
448,192,320460,1,0,0:0:0:0:
320,192,320546,1,0,0:0:0:0:
64,192,320546,1,0,0:0:0:0:
192,192,320631,1,0,0:0:0:0:
320,192,320716,1,0,0:0:0:0:
448,192,320716,1,0,0:0:0:0:
192,192,320801,1,0,0:0:0:0:
64,192,320887,1,0,0:0:0:0:
448,192,320887,1,0,0:0:0:0:
320,192,320972,1,0,0:0:0:0:
192,192,321057,1,0,0:0:0:0:
64,192,321057,1,0,0:0:0:0:
448,192,321142,1,0,0:0:0:0:
320,192,321227,1,0,0:0:0:0:
64,192,321227,1,0,0:0:0:0:
192,192,321313,1,0,0:0:0:0:
320,192,321398,1,0,0:0:0:0:
448,192,321398,1,0,0:0:0:0:
64,192,321483,1,0,0:0:0:0:
448,192,321568,1,0,0:0:0:0:
192,192,321568,1,0,0:0:0:0:
320,192,321654,1,0,0:0:0:0:
192,192,321739,1,0,0:0:0:0:
64,192,321739,1,0,0:0:0:0:
448,192,321824,1,0,0:0:0:0:
320,192,321909,1,0,0:0:0:0:
192,192,321909,1,0,0:0:0:0:
64,192,321994,1,0,0:0:0:0:
320,192,322080,1,0,0:0:0:0:
448,192,322080,1,0,0:0:0:0:
192,192,322080,1,0,0:0:0:0:
64,192,322165,1,0,0:0:0:0:
192,192,322250,1,0,0:0:0:0:
320,192,322335,1,0,0:0:0:0:
192,192,322421,1,0,0:0:0:0:
448,192,322421,1,0,0:0:0:0:
64,192,322421,1,0,0:0:0:0:
320,192,322506,1,0,0:0:0:0:
64,192,322591,1,0,0:0:0:0:
448,192,322676,1,0,0:0:0:0:
192,192,322762,1,0,0:0:0:0:
64,192,322762,1,0,0:0:0:0:
320,192,322762,1,0,0:0:0:0:
448,192,322847,1,0,0:0:0:0:
64,192,322932,1,0,0:0:0:0:
192,192,323017,1,0,0:0:0:0:
320,192,323102,1,0,0:0:0:0:
448,192,323102,1,0,0:0:0:0:
64,192,323102,1,0,0:0:0:0:
192,192,323188,1,0,0:0:0:0:
448,192,323273,1,0,0:0:0:0:
320,192,323358,1,0,0:0:0:0:
192,192,323443,1,0,0:0:0:0:
64,192,323443,1,0,0:0:0:0:
448,192,323443,1,0,0:0:0:0:
320,192,323529,1,0,0:0:0:0:
192,192,323614,1,0,0:0:0:0:
64,192,323699,1,0,0:0:0:0:
192,192,323784,1,0,0:0:0:0:
448,192,323784,1,0,0:0:0:0:
320,192,323784,1,0,0:0:0:0:
64,192,323869,1,0,0:0:0:0:
448,192,323955,1,0,0:0:0:0:
192,192,324040,1,0,0:0:0:0:
64,192,324125,1,0,0:0:0:0:
320,192,324125,1,0,0:0:0:0:
448,192,324125,1,0,0:0:0:0:
192,192,324210,1,0,0:0:0:0:
448,192,324296,1,0,0:0:0:0:
320,192,324381,1,0,0:0:0:0:
64,192,324466,1,0,0:0:0:0:
448,192,324466,1,0,0:0:0:0:
192,192,324466,1,0,0:0:0:0:
320,192,324551,1,0,0:0:0:0:
192,192,324637,1,0,0:0:0:0:
64,192,324722,1,0,0:0:0:0:
320,192,324807,1,0,0:0:0:0:
448,192,324807,1,0,0:0:0:0:
192,192,324807,1,0,0:0:0:0:
64,192,324892,1,0,0:0:0:0:
448,192,324977,1,0,0:0:0:0:
320,192,325063,1,0,0:0:0:0:
192,192,325148,1,0,0:0:0:0:
64,192,325148,1,0,0:0:0:0:
448,192,325148,1,0,0:0:0:0:
320,192,325233,1,0,0:0:0:0:
64,192,325318,1,0,0:0:0:0:
192,192,325404,1,0,0:0:0:0:
320,192,325489,1,0,0:0:0:0:
64,192,325489,1,0,0:0:0:0:
448,192,325489,1,0,0:0:0:0:
192,192,325574,1,0,0:0:0:0:
448,192,325659,1,0,0:0:0:0:
192,192,325744,1,0,0:0:0:0:
320,192,325830,1,0,0:0:0:0:
448,192,325830,1,0,0:0:0:0:
64,192,325830,1,0,0:0:0:0:
192,192,325915,1,0,0:0:0:0:
64,192,326000,1,0,0:0:0:0:
448,192,326085,1,0,0:0:0:0:
320,192,326171,1,0,0:0:0:0:
192,192,326171,1,0,0:0:0:0:
64,192,326171,1,0,0:0:0:0:
448,192,326256,1,0,0:0:0:0:
320,192,326341,1,0,0:0:0:0:
192,192,326426,1,0,0:0:0:0:
64,192,326512,1,0,0:0:0:0:
320,192,326512,1,0,0:0:0:0:
448,192,326512,1,0,0:0:0:0:
192,192,326597,1,0,0:0:0:0:
64,192,326682,5,0,0:0:0:0:
320,192,326767,1,0,0:0:0:0:
448,192,326852,1,0,0:0:0:0:
64,192,326852,1,0,0:0:0:0:
192,192,326852,1,0,0:0:0:0:
320,192,326938,1,0,0:0:0:0:
64,192,327023,1,0,0:0:0:0:
320,192,327108,1,0,0:0:0:0:
192,192,327193,1,0,0:0:0:0:
448,192,327193,1,0,0:0:0:0:
64,192,327193,1,0,0:0:0:0:
320,192,327279,1,0,0:0:0:0:
192,192,327364,1,0,0:0:0:0:
64,192,327449,1,0,0:0:0:0:
448,192,327534,1,0,0:0:0:0:
320,192,327534,1,0,0:0:0:0:
192,192,327534,1,0,0:0:0:0:
64,192,327619,1,0,0:0:0:0:
192,192,327705,1,0,0:0:0:0:
320,192,327705,1,0,0:0:0:0:
448,192,327705,1,0,0:0:0:0:
64,192,327790,1,0,0:0:0:0:
320,192,327875,1,0,0:0:0:0:
192,192,327875,1,0,0:0:0:0:
448,192,327875,1,0,0:0:0:0:
64,192,327960,1,0,0:0:0:0:
448,192,328046,1,0,0:0:0:0:
192,192,328046,1,0,0:0:0:0:
320,192,328046,1,0,0:0:0:0:
64,192,328131,1,0,0:0:0:0:
320,192,328216,1,0,0:0:0:0:
448,192,328216,1,0,0:0:0:0:
192,192,328216,1,0,0:0:0:0:
64,192,328301,1,0,0:0:0:0:
192,192,328387,1,0,0:0:0:0:
320,192,328387,1,0,0:0:0:0:
448,192,328387,1,0,0:0:0:0:
64,192,328472,1,0,0:0:0:0:
320,192,328557,1,0,0:0:0:0:
448,192,328557,1,0,0:0:0:0:
192,192,328557,1,0,0:0:0:0:
64,192,328642,1,0,0:0:0:0:
192,192,328727,1,0,0:0:0:0:
320,192,328727,1,0,0:0:0:0:
448,192,328813,1,0,0:0:0:0:
64,192,328898,1,0,0:0:0:0:
192,192,328898,1,0,0:0:0:0:
320,192,328898,1,0,0:0:0:0:
448,192,328983,1,0,0:0:0:0:
192,192,329068,1,0,0:0:0:0:
64,192,329068,1,0,0:0:0:0:
320,192,329068,1,0,0:0:0:0:
448,192,329154,1,0,0:0:0:0:
192,192,329239,1,0,0:0:0:0:
320,192,329239,1,0,0:0:0:0:
64,192,329239,1,0,0:0:0:0:
448,192,329324,1,0,0:0:0:0:
64,192,329409,1,0,0:0:0:0:
320,192,329409,1,0,0:0:0:0:
192,192,329409,1,0,0:0:0:0:
448,192,329494,1,0,0:0:0:0:
192,192,329580,1,0,0:0:0:0:
64,192,329580,1,0,0:0:0:0:
320,192,329580,1,0,0:0:0:0:
448,192,329665,1,0,0:0:0:0:
320,192,329750,1,0,0:0:0:0:
192,192,329750,1,0,0:0:0:0:
64,192,329750,1,0,0:0:0:0:
448,192,329835,1,0,0:0:0:0:
192,192,329921,1,0,0:0:0:0:
320,192,329921,1,0,0:0:0:0:
64,192,329921,1,0,0:0:0:0:
448,192,330006,1,0,0:0:0:0:
64,192,330091,1,0,0:0:0:0:
192,192,330091,1,0,0:0:0:0:
320,192,330091,1,0,0:0:0:0:
448,192,330176,1,0,0:0:0:0:
192,192,330262,1,0,0:0:0:0:
64,192,330262,1,0,0:0:0:0:
320,192,330347,1,0,0:0:0:0:
448,192,330347,1,0,0:0:0:0:
192,192,330432,1,0,0:0:0:0:
64,192,330432,1,0,0:0:0:0:
320,192,330517,1,0,0:0:0:0:
448,192,330517,1,0,0:0:0:0:
192,192,330602,1,0,0:0:0:0:
64,192,330602,1,0,0:0:0:0:
320,192,330688,1,0,0:0:0:0:
448,192,330688,1,0,0:0:0:0:
192,192,330773,1,0,0:0:0:0:
64,192,330773,1,0,0:0:0:0:
320,192,330858,1,0,0:0:0:0:
448,192,330858,1,0,0:0:0:0:
192,192,330943,1,0,0:0:0:0:
64,192,330943,1,0,0:0:0:0:
320,192,331029,1,0,0:0:0:0:
448,192,331029,1,0,0:0:0:0:
192,192,331114,1,0,0:0:0:0:
64,192,331114,1,0,0:0:0:0:
320,192,331199,1,0,0:0:0:0:
448,192,331199,1,0,0:0:0:0:
192,192,331284,1,0,0:0:0:0:
64,192,331284,1,0,0:0:0:0:
320,192,331369,1,0,0:0:0:0:
448,192,331369,1,0,0:0:0:0:
192,192,331455,1,0,0:0:0:0:
64,192,331455,1,0,0:0:0:0:
320,192,331540,1,0,0:0:0:0:
448,192,331540,1,0,0:0:0:0:
192,192,331625,1,0,0:0:0:0:
64,192,331625,1,0,0:0:0:0:
320,192,331710,1,0,0:0:0:0:
448,192,331710,1,0,0:0:0:0:
192,192,331796,1,0,0:0:0:0:
64,192,331796,1,0,0:0:0:0:
320,192,331881,1,0,0:0:0:0:
448,192,331881,1,0,0:0:0:0:
192,192,331966,1,0,0:0:0:0:
64,192,331966,1,0,0:0:0:0:
320,192,332051,1,0,0:0:0:0:
448,192,332051,1,0,0:0:0:0:
192,192,332137,1,0,0:0:0:0:
64,192,332137,1,0,0:0:0:0:
320,192,332222,1,0,0:0:0:0:
448,192,332222,1,0,0:0:0:0:
192,192,332307,1,0,0:0:0:0:
64,192,332307,1,0,0:0:0:0:
320,192,332392,1,0,0:0:0:0:
448,192,332392,1,0,0:0:0:0:
192,192,332477,1,0,0:0:0:0:
64,192,332477,1,0,0:0:0:0:
320,192,332563,1,0,0:0:0:0:
448,192,332563,1,0,0:0:0:0:
192,192,332648,1,0,0:0:0:0:
64,192,332648,1,0,0:0:0:0:
320,192,332733,1,0,0:0:0:0:
448,192,332733,1,0,0:0:0:0:
192,192,332818,1,0,0:0:0:0:
64,192,332818,1,0,0:0:0:0:
320,192,332904,1,0,0:0:0:0:
448,192,332904,1,0,0:0:0:0:
192,192,332989,1,0,0:0:0:0:
64,192,332989,1,0,0:0:0:0:
