osu file format v14

[General]
AudioFilename: audio.mp3
AudioLeadIn: 0
PreviewTime: 130873
Countdown: 0
SampleSet: Soft
StackLeniency: 0.6
Mode: 0
LetterboxInBreaks: 0
WidescreenStoryboard: 0
SamplesMatchPlaybackRate: 1

[Editor]
Bookmarks: 10873,21661,43234,54020,62110,72896,80986,91773,132221,151099,153795,172672,175368,191548,198290,226604,248177,269750,291323,312896,334470,356043
DistanceSpacing: 1.5
BeatDivisor: 4
GridSize: 32
TimelineZoom: 2

[Metadata]
Title:1/(40-n)
TitleUnicode:1/(40-n)
Artist:kamome sano
ArtistUnicode:kamome sano
Creator:Itasha_S13
Version:Duel Master
Source:遊☆戯☆王 デュエルモンスターズ
Tags:Okui Masami Shuffle 奥井雅美 A-Remix Nation 12 For you sounds Drum and bass dubstep Yu Gi Oh! Duel Monsters
BeatmapID:1346180
BeatmapSetID:615414

[Difficulty]
HPDrainRate:5.9
CircleSize:4.2
OverallDifficulty:9
ApproachRate:9.6
SliderMultiplier:1.8
SliderTickRate:1

[Events]
//Background and Video events
0,0,"BG.jpg",0,0
//Break Periods
2,175568,185629
//Storyboard Layer 0 (Background)
//Storyboard Layer 1 (Fail)
//Storyboard Layer 2 (Pass)
//Storyboard Layer 3 (Foreground)
//Storyboard Sound Samples

[TimingPoints]
88,337.078651685393,4,2,5,40,1,0
256,-100,4,2,1,40,0,0
2616,-100,4,2,5,30,0,0
2784,-100,4,2,1,40,0,0
5312,-100,4,2,5,30,0,0
5480,-100,4,2,1,40,0,0
8009,-100,4,2,5,30,0,0
8177,-100,4,2,1,40,0,0
10705,-100,4,2,5,30,0,0
10873,-100,4,2,1,40,0,0
13402,-100,4,2,5,30,0,0
13570,-100,4,2,1,40,0,0
16099,-100,4,2,5,30,0,0
16267,-100,4,2,1,40,0,0
18795,-100,4,2,5,30,0,0
18963,-100,4,2,1,40,0,0
21661,-83.3333333333333,4,2,5,50,0,0
21829,-83.3333333333333,4,2,1,50,0,0
41885,-125,4,2,1,40,0,0
42896,-100,4,2,1,30,0,0
43149,-100,4,2,1,5,0,0
43234,-83.3333333333333,4,2,5,50,0,0
43402,-83.3333333333333,4,2,1,50,0,0
54020,-125,4,2,1,60,0,0
54694,-83.3333333333333,4,2,1,60,0,0
54779,-100,4,2,1,5,0,0
54863,-83.3333333333333,4,2,1,60,0,0
54947,-100,4,2,1,5,0,0
55031,-83.3333333333333,4,2,1,60,0,0
55116,-100,4,2,1,5,0,0
55200,-125,4,2,1,60,0,0
55537,-100,4,2,1,5,0,0
55705,-100,4,2,1,60,0,0
55874,-100,4,2,1,5,0,0
55958,-100,4,2,1,60,0,0
56043,-83.3333333333333,4,2,1,60,0,0
56127,-100,4,2,1,5,0,0
56211,-83.3333333333333,4,2,1,60,0,0
56295,-100,4,2,1,5,0,0
56380,-83.3333333333333,4,2,1,60,0,0
56548,-83.3333333333333,4,2,1,60,0,0
56632,-100,4,2,1,5,0,0
56717,-125,4,2,1,60,0,0
57559,-83.3333333333333,4,2,1,60,0,0
57644,-100,4,2,1,5,0,0
57728,-83.3333333333333,4,2,1,60,0,0
57812,-100,4,2,3,60,0,0
57896,-125,4,2,1,60,0,0
58823,-125,4,2,1,5,0,0
58908,-125,4,2,1,60,0,0
58992,-125,4,2,1,5,0,0
59076,-125,4,2,1,60,0,0
59413,-100,4,2,1,60,0,0
62110,-83.3333333333333,4,2,5,60,0,0
62279,-83.3333333333333,4,2,1,60,0,0
72896,-125,4,2,1,60,0,0
73571,-83.3333333333333,4,2,1,60,0,0
73655,-100,4,2,1,5,0,0
73739,-83.3333333333333,4,2,1,60,0,0
73823,-100,4,2,1,5,0,0
73908,-83.3333333333333,4,2,1,60,0,0
73992,-100,4,2,1,5,0,0
74076,-125,4,2,1,60,0,0
74750,-83.3333333333333,4,2,1,60,0,0
74835,-100,4,2,1,5,0,0
74919,-83.3333333333333,4,2,1,60,0,0
75003,-100,4,2,1,5,0,0
75087,-83.3333333333333,4,2,1,60,0,0
75172,-100,4,2,1,5,0,0
75256,-83.3333333333333,4,2,1,60,0,0
75340,-100,4,2,1,5,0,0
75425,-83.3333333333333,4,2,1,60,0,0
75509,-100,4,2,1,5,0,0
75593,-125,4,2,1,60,0,0
76436,-100,4,2,1,60,0,0
76520,-100,4,2,1,5,0,0
76604,-100,4,2,1,60,0,0
76689,-100,4,2,1,5,0,0
76773,-125,4,2,1,60,0,0
77616,-83.3333333333333,4,2,1,60,0,0
77700,-100,4,2,1,5,0,0
77784,-83.3333333333333,4,2,1,60,0,0
77868,-100,4,2,1,5,0,0
77953,-83.3333333333333,4,2,1,60,0,0
78037,-100,4,2,1,5,0,0
78121,-83.3333333333333,4,2,1,60,0,0
78205,-100,4,2,1,5,0,0
78290,-100,4,2,1,60,0,0
85537,-125,4,2,1,60,0,0
85790,-100,4,2,1,5,0,0
85874,-100,4,2,1,60,0,0
89245,-100,4,2,3,60,0,0
89413,-100,4,2,1,60,0,0
89582,-100,4,2,3,60,0,0
90256,-200,4,2,1,60,0,0
91436,-200,4,2,2,70,0,0
91773,-200,4,2,1,40,0,0
101885,-200,4,2,1,55,0,0
102559,-200,4,2,1,60,0,0
105593,-166.666666666667,4,2,1,65,0,0
105930,-142.857142857143,4,2,1,70,0,0
106267,-125,4,2,1,75,0,0
106604,-125,4,2,1,60,0,0
106941,-125,4,2,1,65,0,0
107279,-125,4,2,1,70,0,0
107616,-125,4,2,1,75,0,0
107953,-166.666666666667,4,2,1,80,0,0
108290,-133.333333333333,4,2,1,80,0,0
108627,-111.111111111111,4,2,1,80,0,0
108964,-95.2380952380952,4,2,1,80,0,0
109470,-125,4,2,1,80,0,0
110649,-166.666666666667,4,2,1,60,0,0
116043,-142.857142857143,4,2,1,60,0,0
120087,-111.111111111111,4,2,1,60,0,0
120930,-100,4,2,1,65,0,0
121099,-100,4,2,1,70,0,0
121267,-100,4,2,1,75,0,0
121436,-111.111111111111,4,2,1,80,0,0
126829,-142.857142857143,4,2,1,80,0,0
126998,-142.857142857143,4,2,3,80,0,0
127166,-125,4,2,1,80,0,0
127335,-142.857142857143,4,2,3,80,0,0
127503,-111.111111111111,4,2,1,80,0,0
127672,-142.857142857143,4,2,3,80,0,0
127840,-100,4,2,1,80,0,0
128009,-142.857142857143,4,2,3,80,0,0
128177,-90.9090909090909,4,2,1,80,0,0
128346,-142.857142857143,4,2,3,80,0,0
128514,-83.3333333333333,4,2,1,80,0,0
128683,-142.857142857143,4,2,3,80,0,0
128852,-76.9230769230769,4,2,1,80,0,0
129020,-142.857142857143,4,2,3,80,0,0
129189,-71.4285714285714,4,2,1,80,0,0
129357,-142.857142857143,4,2,3,80,0,0
129526,-100,4,2,3,80,0,0
130874,-100,4,2,7,80,0,0
131211,-100,4,2,5,80,0,0
131380,-100,4,2,7,80,0,0
131717,-100,4,2,5,80,0,0
131885,-76.9230769230769,4,2,1,80,0,0
132138,-100,4,2,1,5,0,0
132222,-62.5,4,2,5,80,0,0
132812,-100,4,2,1,5,0,0
132896,-58.8235294117647,4,2,1,90,0,0
132981,-100,4,2,1,5,0,0
133065,-58.8235294117647,4,2,1,90,0,0
133149,-100,4,2,1,5,0,0
133234,-100,4,2,1,85,0,0
133571,-71.4285714285714,4,2,1,90,0,0
133655,-100,4,2,1,5,0,0
133739,-71.4285714285714,4,2,1,90,0,0
133823,-100,4,2,1,5,0,0
133908,-71.4285714285714,4,2,1,90,0,0
134076,-58.8235294117647,4,2,1,90,0,0
134161,-100,4,2,1,5,0,0
134245,-58.8235294117647,4,2,1,90,0,0
134329,-100,4,2,1,5,0,0
134413,-58.8235294117647,4,2,1,90,0,0
134498,-100,4,2,1,5,0,0
134582,-71.4285714285714,4,2,1,90,0,0
134835,-100,4,2,1,5,0,0
134919,-58.8235294117647,4,2,1,90,0,0
135003,-100,4,2,1,5,0,0
135087,-58.8235294117647,4,2,1,90,0,0
135172,-100,4,2,1,5,0,0
135256,-58.8235294117647,4,2,1,90,0,0
135340,-100,4,2,1,5,0,0
135425,-66.6666666666667,4,2,1,90,0,0
135509,-100,4,2,1,5,0,0
135593,-66.6666666666667,4,2,1,90,0,0
135677,-100,4,2,1,5,0,0
135762,-66.6666666666667,4,2,1,90,0,0
135846,-100,4,2,1,5,0,0
135930,-66.6666666666667,4,2,1,90,0,0
136014,-100,4,2,1,5,0,0
136099,-66.6666666666667,4,2,1,90,0,0
136183,-100,4,2,1,5,0,0
136267,-71.4285714285714,4,2,1,90,0,0
137531,-100,4,2,1,5,0,0
137616,-64.5161290322581,4,2,1,80,0,0
138121,-58.8235294117647,4,2,1,80,0,0
138205,-100,4,2,1,5,0,0
138290,-58.8235294117647,4,2,1,80,0,0
138374,-100,4,2,1,5,0,0
138458,-58.8235294117647,4,2,1,80,0,0
138543,-100,4,2,1,5,0,0
138627,-76.9230769230769,4,2,1,80,0,0
138964,-71.4285714285714,4,2,1,80,0,0
139048,-100,4,2,1,5,0,0
139132,-71.4285714285714,4,2,1,80,0,0
139217,-100,4,2,1,5,0,0
139301,-71.4285714285714,4,2,1,80,0,0
139470,-71.4285714285714,4,2,1,80,0,0
139554,-100,4,2,1,5,0,0
139638,-71.4285714285714,4,2,1,80,0,0
139722,-100,4,2,1,5,0,0
139807,-71.4285714285714,4,2,1,80,0,0
139975,-66.6666666666667,4,2,1,80,0,0
140228,-100,4,2,1,5,0,0
140312,-76.9230769230769,4,2,1,80,0,0
140396,-100,4,2,1,5,0,0
140481,-76.9230769230769,4,2,1,80,0,0
140565,-100,4,2,1,5,0,0
140649,-76.9230769230769,4,2,1,80,0,0
141323,-66.6666666666667,4,2,1,80,0,0
141661,-76.9230769230769,4,2,1,80,0,0
142166,-74.0740740740741,4,2,1,80,0,0
142419,-100,4,2,1,5,0,0
142503,-100,4,2,1,80,0,0
143009,-62.5,4,2,1,80,0,0
144020,-58.8235294117647,4,2,1,80,0,0
144104,-100,4,2,1,5,0,0
144189,-58.8235294117647,4,2,1,80,0,0
144273,-100,4,2,1,5,0,0
144357,-58.8235294117647,4,2,1,80,0,0
144441,-100,4,2,1,5,0,0
144526,-58.8235294117647,4,2,1,80,0,0
144610,-100,4,2,1,5,0,0
144694,-58.8235294117647,4,2,1,80,0,0
144779,-100,4,2,1,5,0,0
144863,-58.8235294117647,4,2,1,80,0,0
144947,-100,4,2,1,5,0,0
145031,-58.8235294117647,4,2,1,80,0,0
145116,-100,4,2,1,5,0,0
145200,-58.8235294117647,4,2,1,80,0,0
145284,-100,4,2,1,5,0,0
145368,-71.4285714285714,4,2,1,80,0,0
145705,-58.8235294117647,4,2,1,80,0,0
145790,-100,4,2,1,5,0,0
145874,-58.8235294117647,4,2,1,80,0,0
145958,-100,4,2,1,5,0,0
146043,-58.8235294117647,4,2,1,80,0,0
146127,-100,4,2,1,5,0,0
146211,-66.6666666666667,4,2,1,80,0,0
146295,-100,4,2,1,5,0,0
146380,-66.6666666666667,4,2,1,80,0,0
146464,-100,4,2,1,5,0,0
146548,-66.6666666666667,4,2,1,80,0,0
146632,-100,4,2,1,5,0,0
146717,-66.6666666666667,4,2,1,80,0,0
146801,-100,4,2,1,5,0,0
146885,-66.6666666666667,4,2,1,80,0,0
146970,-100,4,2,1,5,0,0
147054,-71.4285714285714,4,2,1,80,0,0
148318,-100,4,2,1,5,0,0
148402,-64.5161290322581,4,2,1,80,0,0
148908,-58.8235294117647,4,2,1,80,0,0
148992,-100,4,2,1,5,0,0
149076,-58.8235294117647,4,2,1,80,0,0
149161,-100,4,2,1,5,0,0
149245,-58.8235294117647,4,2,1,80,0,0
149329,-100,4,2,1,5,0,0
149413,-76.9230769230769,4,2,1,80,0,0
149750,-71.4285714285714,4,2,1,80,0,0
149835,-100,4,2,1,5,0,0
149919,-71.4285714285714,4,2,1,80,0,0
150003,-100,4,2,1,5,0,0
150087,-71.4285714285714,4,2,1,80,0,0
150256,-71.4285714285714,4,2,1,80,0,0
150340,-100,4,2,1,5,0,0
150425,-71.4285714285714,4,2,1,80,0,0
150509,-100,4,2,1,5,0,0
150593,-71.4285714285714,4,2,1,80,0,0
150762,-66.6666666666667,4,2,1,80,0,0
151014,-100,4,2,1,5,0,0
151099,-66.6666666666667,4,2,1,70,0,0
151773,-76.9230769230769,4,2,1,80,0,0
151941,-100,4,2,1,5,0,0
152026,-66.6666666666667,4,2,1,80,0,0
152194,-100,4,2,1,5,0,0
152279,-58.8235294117647,4,2,1,80,0,0
152363,-58.8235294117647,4,2,1,5,0,0
152447,-100,4,2,1,80,0,0
153795,-62.5,4,2,5,80,0,0
154132,-62.5,4,2,1,80,0,0
154807,-58.8235294117647,4,2,1,80,0,0
154891,-100,4,2,1,5,0,0
154975,-58.8235294117647,4,2,1,80,0,0
155059,-100,4,2,1,5,0,0
155144,-58.8235294117647,4,2,1,80,0,0
155228,-100,4,2,1,5,0,0
155312,-58.8235294117647,4,2,1,80,0,0
155396,-100,4,2,1,5,0,0
155481,-58.8235294117647,4,2,1,80,0,0
155565,-100,4,2,1,5,0,0
155649,-58.8235294117647,4,2,1,80,0,0
155734,-100,4,2,1,5,0,0
155818,-58.8235294117647,4,2,1,80,0,0
155902,-100,4,2,1,5,0,0
155986,-58.8235294117647,4,2,1,80,0,0
156071,-100,4,2,1,5,0,0
156155,-58.8235294117647,4,2,1,80,0,0
156492,-58.8235294117647,4,2,1,80,0,0
156576,-100,4,2,1,5,0,0
156661,-58.8235294117647,4,2,1,80,0,0
156745,-100,4,2,1,5,0,0
156829,-58.8235294117647,4,2,1,80,0,0
156913,-100,4,2,1,5,0,0
156998,-58.8235294117647,4,2,1,80,0,0
157082,-100,4,2,1,5,0,0
157166,-58.8235294117647,4,2,1,80,0,0
157250,-100,4,2,1,5,0,0
157335,-58.8235294117647,4,2,1,80,0,0
157419,-100,4,2,1,5,0,0
157503,-58.8235294117647,4,2,1,80,0,0
157587,-100,4,2,1,5,0,0
157672,-58.8235294117647,4,2,1,80,0,0
157756,-100,4,2,1,5,0,0
157840,-71.4285714285714,4,2,1,80,0,0
159104,-100,4,2,1,5,0,0
159189,-64.5161290322581,4,2,1,80,0,0
159694,-58.8235294117647,4,2,1,80,0,0
159779,-100,4,2,1,5,0,0
159863,-58.8235294117647,4,2,1,80,0,0
159947,-100,4,2,1,5,0,0
160031,-58.8235294117647,4,2,1,80,0,0
160116,-100,4,2,1,5,0,0
160200,-76.9230769230769,4,2,1,80,0,0
160537,-71.4285714285714,4,2,1,80,0,0
160621,-100,4,2,1,5,0,0
160705,-71.4285714285714,4,2,1,80,0,0
160790,-100,4,2,1,5,0,0
160874,-71.4285714285714,4,2,1,80,0,0
161043,-71.4285714285714,4,2,1,80,0,0
161127,-100,4,2,1,5,0,0
161211,-71.4285714285714,4,2,1,80,0,0
161295,-100,4,2,1,5,0,0
161380,-71.4285714285714,4,2,1,80,0,0
161548,-66.6666666666667,4,2,1,80,0,0
161801,-100,4,2,1,5,0,0
161885,-76.9230769230769,4,2,1,80,0,0
161970,-100,4,2,1,5,0,0
162054,-76.9230769230769,4,2,1,80,0,0
162138,-100,4,2,1,5,0,0
162222,-76.9230769230769,4,2,1,80,0,0
162896,-66.6666666666667,4,2,1,80,0,0
163234,-76.9230769230769,4,2,1,80,0,0
163739,-74.0740740740741,4,2,1,80,0,0
164582,-62.5,4,2,1,80,0,0
165593,-58.8235294117647,4,2,1,80,0,0
165677,-100,4,2,1,5,0,0
165762,-58.8235294117647,4,2,1,80,0,0
165846,-100,4,2,1,5,0,0
165930,-58.8235294117647,4,2,1,80,0,0
166014,-100,4,2,1,5,0,0
166099,-58.8235294117647,4,2,1,80,0,0
166183,-100,4,2,1,5,0,0
166267,-58.8235294117647,4,2,1,80,0,0
166352,-100,4,2,1,5,0,0
166436,-58.8235294117647,4,2,1,80,0,0
166520,-100,4,2,1,5,0,0
166604,-58.8235294117647,4,2,1,80,0,0
166689,-100,4,2,1,5,0,0
166773,-58.8235294117647,4,2,1,80,0,0
166857,-100,4,2,1,5,0,0
166941,-71.4285714285714,4,2,1,80,0,0
167279,-58.8235294117647,4,2,1,80,0,0
167363,-100,4,2,1,5,0,0
167447,-58.8235294117647,4,2,1,80,0,0
167531,-100,4,2,1,5,0,0
167616,-58.8235294117647,4,2,1,80,0,0
167700,-100,4,2,1,5,0,0
167784,-58.8235294117647,4,2,1,80,0,0
167868,-100,4,2,1,5,0,0
167953,-58.8235294117647,4,2,1,80,0,0
168037,-100,4,2,1,5,0,0
168121,-58.8235294117647,4,2,1,80,0,0
168205,-100,4,2,1,5,0,0
168290,-58.8235294117647,4,2,1,80,0,0
168374,-100,4,2,1,5,0,0
168458,-58.8235294117647,4,2,1,80,0,0
168543,-100,4,2,1,5,0,0
168627,-71.4285714285714,4,2,1,80,0,0
169891,-100,4,2,1,5,0,0
169975,-64.5161290322581,4,2,1,80,0,0
170481,-58.8235294117647,4,2,1,80,0,0
170565,-100,4,2,1,5,0,0
170649,-58.8235294117647,4,2,1,80,0,0
170734,-100,4,2,1,5,0,0
170818,-58.8235294117647,4,2,1,80,0,0
170902,-100,4,2,1,5,0,0
170986,-76.9230769230769,4,2,1,80,0,0
171323,-71.4285714285714,4,2,1,80,0,0
171408,-100,4,2,1,5,0,0
171492,-71.4285714285714,4,2,1,80,0,0
171576,-100,4,2,1,5,0,0
171661,-71.4285714285714,4,2,1,80,0,0
171829,-71.4285714285714,4,2,1,80,0,0
171913,-100,4,2,1,5,0,0
171998,-71.4285714285714,4,2,1,80,0,0
172082,-100,4,2,1,5,0,0
172166,-71.4285714285714,4,2,1,80,0,0
172335,-76.9230769230769,4,2,1,80,0,0
172587,-100,4,2,1,5,0,0
172672,-76.9230769230769,4,2,1,70,0,0
173346,-76.9230769230769,4,2,1,80,0,0
173514,-100,4,2,1,5,0,0
173599,-66.6666666666667,4,2,1,80,0,0
173767,-100,4,2,1,5,0,0
173852,-58.8235294117647,4,2,1,80,0,0
173936,-100,4,2,1,5,0,0
174020,-58.8235294117647,4,2,1,80,0,0
175284,-100,4,2,1,5,0,0
175368,-58.8235294117647,4,2,4,80,0,0
186155,-58.8235294117647,4,2,1,20,0,0
190200,-58.8235294117647,4,2,1,30,0,0
190874,-58.8235294117647,4,2,1,40,0,0
191211,-58.8235294117647,4,2,1,50,0,0
191548,-100,4,2,1,60,0,0
194413,-100,4,2,3,60,0,0
194582,-100,4,2,1,60,0,0
194750,-100,4,2,3,60,0,0
194919,-100,4,2,1,60,0,0
195087,-100,4,2,3,60,0,0
195256,-100,4,2,3,60,0,0
195425,-100,4,2,1,60,0,0
196941,-76.9230769230769,4,2,1,50,0,0
197953,-90.9090909090909,4,2,2,60,0,0
198290,-83.3333333333333,4,2,5,60,0,0
198458,-83.3333333333333,4,2,1,60,0,0
207728,-125,4,2,1,60,0,0
208402,-83.3333333333333,4,2,1,60,0,0
208486,-100,4,2,1,5,0,0
208571,-83.3333333333333,4,2,1,60,0,0
208655,-100,4,2,1,5,0,0
208739,-83.3333333333333,4,2,1,60,0,0
208823,-100,4,2,1,5,0,0
208908,-125,4,2,1,60,0,0
209413,-100,4,2,1,60,0,0
209750,-83.3333333333333,4,2,1,60,0,0
209835,-100,4,2,1,5,0,0
209919,-83.3333333333333,4,2,1,60,0,0
210003,-100,4,2,1,5,0,0
210087,-83.3333333333333,4,2,1,60,0,0
210340,-100,4,2,1,5,0,0
210425,-125,4,2,1,60,0,0
211267,-83.3333333333333,4,2,1,60,0,0
211352,-100,4,2,1,5,0,0
211436,-83.3333333333333,4,2,1,60,0,0
211520,-100,4,2,3,60,0,0
211604,-125,4,2,1,60,0,0
212026,-100,4,2,1,5,0,0
212110,-125,4,2,1,60,0,0
212531,-125,4,2,1,5,0,0
212616,-125,4,2,1,60,0,0
212700,-125,4,2,1,5,0,0
212784,-125,4,2,1,60,0,0
213121,-100,4,2,1,60,0,0
220368,-125,4,2,1,60,0,0
220621,-100,4,2,1,5,0,0
220705,-100,4,2,1,60,0,0
224076,-100,4,2,3,60,0,0
224245,-100,4,2,1,60,0,0
224413,-100,4,2,3,60,0,0
224582,-100,4,2,1,60,0,0
224919,-100,4,2,3,60,0,0
225003,-100,4,2,1,5,0,0
225087,-90.9090909090909,4,2,1,50,0,0
225930,-90.9090909090909,4,2,1,60,0,0
226267,-90.9090909090909,4,2,2,60,0,0
226604,-83.3333333333333,4,2,1,60,0,0
242953,-83.3333333333333,4,2,3,60,0,0
243458,-83.3333333333333,4,2,1,60,0,0
243627,-83.3333333333333,4,2,3,60,0,0
244132,-83.3333333333333,4,2,1,60,0,0
244301,-83.3333333333333,4,2,3,60,0,0
244807,-83.3333333333333,4,2,1,60,0,0
244975,-83.3333333333333,4,2,3,60,0,0
245481,-83.3333333333333,4,2,1,50,0,0
246829,-100,4,2,1,60,0,0
248177,-90.9090909090909,4,2,5,60,0,0
248346,-90.9090909090909,4,2,1,60,0,0
267054,-90.9090909090909,4,2,3,60,0,0
268402,-90.9090909090909,4,2,1,60,0,0
269413,-166.666666666666,4,2,2,60,0,0
269666,-111.111111111111,4,2,1,5,0,0
269750,-83.3333333333333,4,2,5,60,0,0
269919,-83.3333333333333,4,2,1,60,0,0
288795,-83.3333333333333,4,2,3,60,0,0
288964,-83.3333333333333,4,2,1,60,0,0
289132,-83.3333333333333,4,2,3,60,0,0
289301,-83.3333333333333,4,2,1,60,0,0
289470,-83.3333333333333,4,2,3,60,0,0
289638,-83.3333333333333,4,2,1,60,0,0
289807,-83.3333333333333,4,2,3,60,0,0
289975,-83.3333333333333,4,2,1,60,0,0
290986,-125,4,2,2,60,0,0
291239,-125,4,2,1,5,0,0
291323,-76.9230769230769,4,2,5,70,0,1
291492,-76.9230769230769,4,2,1,70,0,1
307672,-76.9230769230769,4,2,3,70,0,1
308177,-76.9230769230769,4,2,1,70,0,1
308346,-76.9230769230769,4,2,3,70,0,1
308852,-76.9230769230769,4,2,1,70,0,1
309020,-76.9230769230769,4,2,3,70,0,1
309526,-76.9230769230769,4,2,1,70,0,1
309694,-76.9230769230769,4,2,3,70,0,1
310200,-76.9230769230769,4,2,1,70,0,1
312896,-83.3333333333333,4,2,5,60,0,0
313065,-83.3333333333333,4,2,1,60,0,0
334470,-100,4,2,5,60,0,0
334638,-100,4,2,1,60,0,0
353346,-100,4,2,3,60,0,0
354694,-100,4,2,1,60,0,0
356043,-100,4,2,4,60,0,0

[Colours]
Combo1 : 255,34,150
Combo2 : 21,203,255
Combo3 : 200,70,255
Combo4 : 143,135,250

[HitObjects]
200,337,88,6,0,P|158:310|140:267,1,90,4|0,1:2|0:0,0:0:0:0:
233,147,425,1,8,0:0:0:0:
117,252,593,1,0,0:0:0:0:
85,240,677,1,0,0:0:0:0:
59,219,761,1,0,0:0:0:0:
42,190,845,1,0,0:0:0:0:
36,157,930,1,0,1:0:0:0:
136,36,1099,1,8,0:0:0:0:
233,147,1267,1,0,0:0:0:0:
233,147,1352,1,0,0:0:0:0:
233,147,1436,6,0,P|269:173|320:172,1,90,0|0,1:0|0:0,0:0:0:0:
364,25,1773,1,8,0:0:0:0:
463,139,1941,2,0,L|526:195,1,45
395,182,2110,2,0,L|414:246,1,45
313,174,2279,1,0,1:0:0:0:
334,330,2447,1,8,0:0:0:0:
207,257,2616,1,8,0:0:0:0:
207,257,2700,1,8,0:0:0:0:
207,257,2784,6,0,P|173:318|146:333,1,90,0|0,1:0|0:0,0:0:0:0:
0,325,3121,1,8,0:0:0:0:
33,171,3290,1,0,0:0:0:0:
45,140,3374,1,0,0:0:0:0:
66,113,3458,1,0,0:0:0:0:
95,96,3542,1,0,0:0:0:0:
128,90,3627,1,0,1:0:0:0:
99,243,3795,1,8,0:0:0:0:
208,148,3964,1,0,0:0:0:0:
208,148,4048,1,0,0:0:0:0:
208,148,4132,6,0,P|248:118|291:112,1,90,0|0,1:0|0:0,0:0:0:0:
366,246,4470,1,8,0:0:0:0:
315,98,4638,2,0,L|296:53,1,45
398,95,4807,2,0,L|412:45,1,45
464,147,4975,1,0,1:0:0:0:
421,0,5144,1,8,0:0:0:0:
381,174,5312,1,8,0:0:0:0:
381,174,5396,1,8,0:0:0:0:
381,174,5481,6,0,P|348:213|284:217,1,90,0|0,1:0|0:0,0:0:0:0:
201,111,5818,1,8,0:0:0:0:
226,264,5986,1,0,0:0:0:0:
247,289,6070,1,0,0:0:0:0:
276,307,6154,1,0,0:0:0:0:
309,314,6238,1,0,0:0:0:0:
342,310,6323,1,0,1:0:0:0:
463,212,6492,1,8,0:0:0:0:
311,222,6661,1,0,0:0:0:0:
311,222,6745,1,0,0:0:0:0:
311,222,6829,6,0,P|338:174|336:122,1,90,0|0,1:0|0:0,0:0:0:0:
267,0,7166,1,8,0:0:0:0:
238,153,7335,2,0,L|219:209,1,45
154,122,7503,2,0,L|103:164,1,45
118,44,7672,1,0,1:0:0:0:
56,200,7840,1,8,0:0:0:0:
215,245,8009,1,8,0:0:0:0:
215,245,8093,1,8,0:0:0:0:
215,245,8177,6,0,P|263:296|301:303,1,90,0|0,1:0|0:0,0:0:0:0:
437,322,8514,1,8,0:0:0:0:
387,172,8683,1,0,0:0:0:0:
375,141,8767,1,0,0:0:0:0:
354,114,8851,1,0,0:0:0:0:
325,97,8935,1,0,0:0:0:0:
292,91,9020,1,0,1:0:0:0:
340,240,9189,1,8,0:0:0:0:
211,144,9357,1,0,0:0:0:0:
211,144,9441,1,0,0:0:0:0:
211,144,9526,6,0,P|175:110|124:101,1,90,0|0,1:0|0:0,0:0:0:0:
0,179,9863,1,8,0:0:0:0:
97,289,10031,2,0,L|41:338,1,45
183,332,10200,2,0,L|175:389,1,45
276,320,10368,1,0,1:0:0:0:
198,207,10537,1,8,0:0:0:0:
220,28,10705,2,8,L|215:72,1,45
213,93,10874,6,0,B|254:62|254:62|310:62,1,90,0|0,1:0|0:0,0:0:0:0:
449,63,11211,1,8,0:0:0:0:
398,208,11380,1,0,0:0:0:0:
366,219,11464,1,0,0:0:0:0:
334,230,11548,1,0,0:0:0:0:
301,222,11632,1,0,0:0:0:0:
269,213,11717,1,0,1:0:0:0:
333,71,11885,2,0,L|335:203,1,90,8|0,0:0|0:0,0:0:0:0:
333,212,12138,1,0,0:0:0:0:
334,230,12222,5,0,1:0:0:0:
223,129,12391,1,0,0:0:0:0:
420,129,12559,1,8,0:0:0:0:
332,26,12728,1,0,0:0:0:0:
332,26,12812,1,0,0:0:0:0:
332,26,12896,2,0,L|333:85,1,45
333,148,13065,1,0,1:0:0:0:
232,30,13234,6,0,L|138:46,1,90,8|8,0:0|0:0,0:0:0:0:
101,59,13486,1,8,0:0:0:0:
101,59,13571,1,0,1:0:0:0:
223,152,13739,1,0,0:0:0:0:
27,184,13908,1,8,0:0:0:0:
156,287,14076,1,0,0:0:0:0:
188,298,14160,1,0,0:0:0:0:
220,309,14244,1,0,0:0:0:0:
253,301,14328,1,0,0:0:0:0:
285,292,14413,1,0,1:0:0:0:
223,152,14582,2,0,L|220:277,1,90,8|0,0:0|0:0,0:0:0:0:
220,291,14835,1,0,0:0:0:0:
220,309,14919,5,0,1:0:0:0:
115,194,15087,1,0,0:0:0:0:
102,384,15256,1,8,0:0:0:0:
8,277,15425,1,0,0:0:0:0:
8,277,15509,1,0,0:0:0:0:
8,277,15593,2,0,L|79:284,1,45
139,286,15762,1,0,1:0:0:0:
10,150,15930,6,0,L|6:37,1,90,8|8,0:0|0:0,0:0:0:0:
9,8,16183,1,8,0:0:0:0:
9,8,16267,1,0,1:0:0:0:
118,146,16436,1,0,0:0:0:0:
122,0,16604,1,8,0:0:0:0:
219,94,16773,1,0,0:0:0:0:
251,105,16857,1,0,0:0:0:0:
283,116,16941,1,0,0:0:0:0:
316,108,17025,1,0,0:0:0:0:
348,99,17110,1,0,1:0:0:0:
278,215,17279,2,0,L|273:332,1,90,8|0,0:0|0:0,0:0:0:0:
275,354,17531,1,0,0:0:0:0:
275,354,17616,5,0,1:0:0:0:
379,268,17784,1,0,0:0:0:0:
348,99,17953,1,8,0:0:0:0:
500,154,18121,1,0,0:0:0:0:
500,154,18205,1,0,0:0:0:0:
500,154,18290,2,0,L|423:175,1,45
374,187,18458,1,0,1:0:0:0:
199,95,18627,6,0,L|178:204,1,90,8|8,0:0|0:0,0:0:0:0:
177,229,18880,1,8,0:0:0:0:
177,229,18964,1,0,1:0:0:0:
80,129,19132,1,0,0:0:0:0:
211,18,19301,1,8,0:0:0:0:
287,169,19470,1,0,0:0:0:0:
319,180,19554,1,0,0:0:0:0:
351,191,19638,1,0,0:0:0:0:
384,183,19722,1,0,0:0:0:0:
416,174,19807,1,0,1:0:0:0:
360,31,19975,2,0,L|354:156,1,90,8|0,0:0|0:0,0:0:0:0:
351,172,20228,1,0,0:0:0:0:
351,191,20312,5,0,1:0:0:0:
512,214,20481,1,0,0:0:0:0:
360,31,20649,1,8,0:0:0:0:
346,327,20818,1,0,1:0:0:0:
360,31,21155,5,8,0:0:0:0:
219,180,21323,1,8,0:0:0:0:
214,231,21407,1,8,0:0:0:0:
209,283,21492,1,8,0:0:0:0:
373,357,21661,6,0,P|433:314|447:270,1,107.999996704102,4|0,1:2|0:0,0:0:0:0:
377,109,21998,1,8,0:0:0:0:
219,180,22166,2,0,P|201:235|217:298,1,107.999996704102
378,214,22503,1,0,1:0:0:0:
273,80,22672,2,0,P|209:66|156:86,1,107.999996704102,8|0,0:0|0:0,0:0:0:0:
166,279,23009,6,0,P|230:293|283:273,2,107.999996704102,0|0|8,1:0|0:0|0:0,0:0:0:0:
146,92,23514,2,0,P|226:59|357:115,1,215.999993408203,0|0,0:0|1:0,0:0:0:0:
233,250,24020,1,8,0:0:0:0:
343,99,24189,1,0,0:0:0:0:
338,294,24357,6,0,P|295:354|251:368,1,107.999996704102,0|0,1:0|0:0,0:0:0:0:
103,304,24694,1,8,0:0:0:0:
174,146,24862,2,0,P|246:133|287:155,1,107.999996704102
208,305,25199,1,0,1:0:0:0:
74,199,25368,2,0,P|60:135|80:82,1,107.999996704102,8|0,0:0|0:0,0:0:0:0:
273,93,25705,6,0,P|287:157|267:209,2,107.999996704102,0|0|8,1:0|0:0|0:0,0:0:0:0:
86,73,26211,2,0,P|53:153|109:284,1,215.999993408203,0|0,0:0|1:0,0:0:0:0:
203,145,26716,1,8,0:0:0:0:
93,270,26885,1,0,0:0:0:0:
278,283,27054,6,0,P|338:240|352:196,1,107.999996704102,0|0,1:0|0:0,0:0:0:0:
298,45,27391,1,8,0:0:0:0:
133,94,27559,2,0,P|120:166|142:207,1,107.999996704102
291,139,27896,1,0,1:0:0:0:
191,17,28065,2,0,P|127:3|74:23,1,107.999996704102,8|0,0:0|0:0,0:0:0:0:
84,216,28402,6,0,P|148:230|201:210,2,107.999996704102,0|0|8,1:0|0:0|0:0,0:0:0:0:
63,29,28907,2,0,P|146:2|275:61,1,215.999993408203,0|0,0:0|1:0,0:0:0:0:
156,202,29413,1,8,0:0:0:0:
261,46,29582,1,0,0:0:0:0:
315,223,29750,6,0,P|381:221|417:193,1,107.999996704102,0|0,1:0|0:0,0:0:0:0:
373,36,30087,1,8,0:0:0:0:
244,150,30256,2,0,P|260:188|323:224,1,107.999996704102
437,100,30593,1,0,1:0:0:0:
261,46,30762,2,0,P|199:52|152:98,1,107.999996704102,8|0,0:0|0:0,0:0:0:0:
96,250,31099,6,0,P|52:280|0:283,2,107.999996704102,0|0|8,1:0|0:0|0:0,0:0:0:0:
244,150,31604,2,0,P|297:126|451:185,1,215.999993408203,0|0,0:0|1:0,0:0:0:0:
330,279,32110,1,8,0:0:0:0:
440,171,32279,1,0,0:0:0:0:
240,361,32447,6,0,P|185:361|130:310,1,107.999996704102,4|0,1:0|0:0,1:0:0:0:
166,145,32784,1,8,0:0:0:0:
47,272,32953,2,0,P|96:296|168:276,1,107.999996704102,0|0,0:0|0:0,1:0:0:0:
170,113,33290,1,0,1:0:0:0:
248,287,33458,2,0,P|193:287|138:236,1,107.999996704102,8|0,0:0|0:0,1:0:0:0:
175,79,33795,5,0,1:0:0:0:
150,257,33964,1,0,0:0:0:0:
272,120,34132,1,8,0:0:0:0:
70,89,34301,2,0,B|61:146|8:176|8:176|52:217|58:289,1,215.999993408203,0|0,0:0|1:0,0:0:0:0:
161,186,34807,2,0,L|177:61,1,107.999996704102,8|0,0:0|0:0,0:0:0:0:
161,287,35144,6,0,P|228:275|260:232,1,107.999996704102,0|0,1:0|0:0,0:0:0:0:
174,78,35481,1,8,0:0:0:0:
253,247,35649,2,0,P|320:235|352:192,1,107.999996704102
274,47,35986,1,0,1:0:0:0:
161,186,36155,2,0,P|146:248|167:295,1,107.999996704102,8|0,0:0|0:0,0:0:0:0:
345,207,36492,5,0,1:0:0:0:
249,344,36661,1,0,0:0:0:0:
266,146,36829,1,8,0:0:0:0:
352,323,36998,2,0,B|297:309|249:345|249:345|212:303|155:300,1,215.999993408203,0|0,0:0|1:0,0:0:0:0:
266,146,37503,2,0,L|254:294,1,107.999996704102,8|0,0:0|0:0,0:0:0:0:
151,378,37840,6,0,P|189:377|250:343,1,107.999996704102,0|0,1:0|0:0,0:0:0:0:
266,146,38177,1,8,0:0:0:0:
331,288,38346,1,0,0:0:0:0:
253,115,38514,1,8,0:0:0:0:
228,310,38683,1,0,1:0:0:0:
238,78,38852,1,8,0:0:0:0:
311,246,39020,1,0,0:0:0:0:
138,210,39189,6,0,P|166:248|234:267,1,107.999996704102,0|0,1:0|0:0,0:0:0:0:
443,151,39526,1,8,0:0:0:0:
358,294,39695,1,0,0:0:0:0:
456,128,39863,1,8,0:0:0:0:
460,324,40032,1,0,1:0:0:0:
471,103,40200,1,8,0:0:0:0:
378,260,40368,1,0,0:0:0:0:
277,124,40537,5,0,1:0:0:0:
420,384,40705,1,8,0:0:0:0:
217,198,40874,1,8,0:0:0:0:
460,324,41043,1,8,0:0:0:0:
164,265,41211,1,8,0:0:0:0:
378,260,41380,1,0,1:0:0:0:
110,336,41548,1,8,0:0:0:0:
277,124,41717,1,8,0:0:0:0:
328,339,41885,6,0,P|293:337|263:318,1,72
164,265,42222,1,0,0:0:0:0:
320,203,42391,2,0,P|387:239|416:311,1,144
262,317,42896,2,0,P|323:303|303:353,1,135
415,299,43234,6,0,P|437:246|422:160,1,107.999996704102,4|0,1:2|0:0,0:0:0:0:
269,148,43571,1,8,0:0:0:0:
207,339,43739,2,0,P|248:355|326:341,1,107.999996704102
359,166,44076,1,0,1:0:0:0:
174,163,44245,2,0,P|162:208|177:267,1,107.999996704102,8|0,0:0|0:0,0:0:0:0:
269,148,44582,6,0,P|244:95|198:70,2,107.999996704102,0|0|8,1:0|0:0|0:0,0:0:0:0:
176,329,45087,2,0,P|117:250|190:159,1,215.999993408203,0|0,0:0|1:0,0:0:0:0:
267,346,45593,1,8,0:0:0:0:
305,168,45762,1,0,0:0:0:0:
369,339,45930,6,0,P|321:357|248:332,1,107.999996704102,0|0,1:0|0:0,0:0:0:0:
305,168,46267,1,8,0:0:0:0:
459,190,46435,2,0,P|457:249|431:295,1,107.999996704102
268,248,46773,1,0,1:0:0:0:
218,56,46941,2,0,L|294:160,1,107.999996704102,8|0,0:0|0:0,0:0:0:0:
81,57,47279,6,0,L|157:161,1,107.999996704102,0|0,1:0|0:0,0:0:0:0:
190,295,47616,1,8,0:0:0:0:
230,143,47784,2,0,P|282:115|341:120,1,107.999996704102
314,251,48121,1,0,1:0:0:0:
424,188,48290,2,0,P|443:241|428:305,1,107.999996704102,8|0,0:0|0:0,0:0:0:0:
297,370,48627,6,0,P|243:354|202:309,1,107.999996704102,0|0,1:0|0:0,0:0:0:0:
138,158,48964,1,8,0:0:0:0:
77,344,49132,2,0,P|140:328|171:299,1,107.999996704102
130,137,49470,1,0,1:0:0:0:
286,237,49638,2,0,P|236:280|195:288,1,107.999996704102,8|0,0:0|0:0,0:0:0:0:
124,114,49975,5,0,1:0:0:0:
196,287,50144,1,0,0:0:0:0:
56,191,50312,1,8,0:0:0:0:
157,367,50481,2,0,P|117:323|185:202,1,215.999993408203,0|0,0:0|1:0,0:0:0:0:
317,273,50986,2,0,L|357:374,1,107.999996704102,8|0,0:0|0:0,0:0:0:0:
423,162,51323,5,0,1:0:0:0:
317,273,51492,1,0,0:0:0:0:
284,102,51661,2,0,P|223:85|167:110,1,107.999996704102,8|0,0:0|0:0,0:0:0:0:
118,276,51998,1,0,0:0:0:0:
53,71,52166,1,0,1:0:0:0:
230,194,52335,1,8,0:0:0:0:
18,193,52503,1,0,0:0:0:0:
189,68,52672,6,0,P|250:51|306:76,1,107.999996704102,0|0,1:0|0:0,0:0:0:0:
405,227,53009,1,8,0:0:0:0:
230,194,53177,2,0,B|219:290|303:339|303:339|353:306,1,215.999993408203,0|0,0:0|1:0,0:0:0:0:
340,142,53683,1,8,0:0:0:0:
461,297,53852,1,0,0:0:0:0:
506,178,54020,6,0,B|454:132|473:45|473:45|424:26|375:48,1,216,4|0,1:0|0:0,0:0:0:0:
397,169,54694,6,0,L|334:210,1,53.9999983520508,8|0,0:0|0:0,0:0:0:0:
295,108,54863,2,0,L|247:135,1,53.9999983520508,0|0,1:0|0:0,0:0:0:0:
275,239,55031,2,0,L|212:280,1,53.9999983520508
156,210,55200,6,0,P|119:168|125:71,1,144,0|0,1:0|0:0,0:0:0:0:
213,2,55705,2,0,L|195:113,1,90,0|0,1:0|0:0,0:0:0:0:
230,170,55958,1,0,1:0:0:0:
253,140,56043,6,0,B|271:117|271:117|315:101,1,53.9999983520508,8|0,0:0|0:0,0:0:0:0:
341,223,56211,2,0,B|372:228|372:228|390:240,1,53.9999983520508,0|0,1:0|0:0,0:0:0:0:
375,95,56380,2,0,B|407:101|407:101|440:126,1,53.9999983520508,0|0,0:0|1:0,0:0:0:0:
477,174,56548,2,0,B|487:203|487:203|484:227,1,53.9999983520508,0|0,0:0|1:0,0:0:0:0:
375,95,56717,6,0,B|352:38|295:12|295:12|315:67|286:126,1,216,0|0,1:0|1:0,0:0:0:0:
241,268,57391,1,8,0:0:0:0:
116,162,57559,6,0,P|93:147|67:148,1,53.9999983520508,0|0,1:0|0:0,0:0:0:0:
138,90,57728,2,0,P|115:75|89:76,1,53.9999983520508
75,225,57896,6,0,B|88:300|172:300|172:300|188:331|215:337,1,180,0|0,1:0|0:0,0:0:0:0:
241,268,58402,5,0,1:0:0:0:
247,223,58486,1,0,1:0:0:0:
253,178,58570,1,0,1:0:0:0:
259,133,58654,1,0,1:0:0:0:
266,89,58739,2,0,P|247:76|215:73,1,36,8|0,0:0|0:0,0:0:0:0:
116,162,58908,2,0,P|135:175|167:178,1,36
336,149,59076,1,8,0:0:0:0:
330,194,59160,1,8,0:0:0:0:
324,239,59244,1,8,0:0:0:0:
133,316,59413,6,0,P|89:304|60:267,1,90,0|0,1:0|0:0,0:0:0:0:
29,181,59750,2,0,P|30:137|53:97,1,90,0|0,1:0|0:0,0:0:0:0:
244,107,60087,2,0,P|261:148|256:194,1,90,0|0,1:0|0:0,0:0:0:0:
219,271,60424,2,0,P|187:301|145:317,1,90,0|0,1:0|0:0,0:0:0:0:
159,76,60762,5,8,0:0:0:0:
145,318,60930,1,0,1:0:0:0:
37,252,61099,1,0,1:0:0:0:
159,76,61267,5,8,0:0:0:0:
260,265,61436,1,0,1:0:0:0:
145,318,61605,1,0,1:0:0:0:
159,76,61773,1,8,0:0:0:0:
205,76,61857,1,8,0:0:0:0:
252,75,61941,1,8,0:0:0:0:
260,265,62110,5,4,1:2:0:0:
385,114,62279,1,0,0:0:0:0:
470,299,62447,2,0,P|409:292|364:252,1,107.999996704102,8|0,0:0|0:0,0:0:0:0:
389,78,62784,1,0,0:0:0:0:
273,225,62953,2,0,P|322:245|374:237,1,107.999996704102,0|8,1:0|0:0,0:0:0:0:
392,48,63290,1,0,0:0:0:0:
477,244,63459,6,0,B|420:241|420:241|377:207,1,107.999996704102,0|0,1:0|0:0,0:0:0:0:
257,57,63795,1,8,0:0:0:0:
273,225,63964,2,0,P|199:260|65:192,1,215.999993408203,0|0,0:0|1:0,0:0:0:0:
117,25,64470,1,8,0:0:0:0:
263,139,64638,1,0,0:0:0:0:
80,214,64807,6,0,P|44:261|37:318,1,107.999996704102,0|0,1:0|0:0,0:0:0:0:
185,358,65144,1,8,0:0:0:0:
210,195,65312,2,0,P|151:187|98:209,1,107.999996704102
158,356,65649,1,0,1:0:0:0:
306,293,65818,2,0,B|289:241|289:241|237:203,1,107.999996704102,8|0,0:0|0:0,0:0:0:0:
403,295,66155,5,0,1:0:0:0:
246,210,66323,1,0,0:0:0:0:
401,215,66492,1,8,0:0:0:0:
261,125,66661,2,0,P|282:52|407:0,1,215.999993408203,0|0,0:0|1:0,0:0:0:0:
401,215,67166,1,8,0:0:0:0:
488,70,67335,1,0,0:0:0:0:
504,214,67503,6,0,P|446:228|393:210,1,107.999996704102,0|0,1:0|0:0,0:0:0:0:
380,46,67840,1,8,0:0:0:0:
367,224,68008,2,0,P|309:238|256:220,1,107.999996704102
249,62,68346,1,0,1:0:0:0:
228,223,68514,2,0,P|170:237|117:219,1,107.999996704102,8|0,0:0|0:0,0:0:0:0:
41,65,68852,5,0,1:0:0:0:
124,223,69020,1,0,0:0:0:0:
149,51,69189,1,8,0:0:0:0:
228,223,69357,2,0,P|210:291|162:324,2,107.999996704102,0|0|0,0:0|0:0|1:0,0:0:0:0:
154,28,69863,1,8,0:0:0:0:
120,250,70031,1,0,0:0:0:0:
327,173,70200,6,0,P|304:128|254:96,1,107.999996704102,0|0,1:0|0:0,0:0:0:0:
277,280,70537,1,8,0:0:0:0:
425,195,70705,2,0,P|420:151|366:91,1,107.999996704102
274,256,71042,1,0,1:0:0:0:
255,70,71211,1,8,0:0:0:0:
142,229,71380,1,0,0:0:0:0:
252,51,71548,5,0,1:0:0:0:
271,228,71717,1,0,0:0:0:0:
249,30,71885,1,8,0:0:0:0:
155,215,72054,2,0,B|94:285|94:285|168:304|191:371,1,215.999993408203,0|0,0:0|1:0,0:0:0:0:
288,363,72559,1,8,0:0:0:0:
269,204,72728,1,0,0:0:0:0:
388,343,72896,6,0,B|447:280|448:225|448:225|389:224|367:171,1,216,4|0,1:0|0:0,0:0:0:0:
443,139,73571,6,0,L|449:85,1,53.9999983520508,8|0,0:0|0:0,0:0:0:0:
329,99,73739,2,0,L|335:45,1,53.9999983520508
220,54,73908,2,0,L|226:0,1,53.9999983520508
155,201,74076,6,0,B|224:207|248:143|248:143|283:147|310:122,1,180,0|0,1:0|0:0,0:0:0:0:
329,99,74582,1,0,1:0:0:0:
174,126,74750,6,0,B|149:102|149:102|101:82,1,53.9999983520508
144,277,74919,2,0,B|176:277|176:277|226:257,1,53.9999983520508,8|0,0:0|0:0,0:0:0:0:
118,127,75087,2,0,B|83:128|83:128|36:147,1,53.9999983520508,0|0,1:0|0:0,0:0:0:0:
90,282,75256,2,0,B|113:309|113:309|162:325,1,53.9999983520508
223,135,75425,2,0,B|223:102|223:102|208:61,1,53.9999983520508
55,239,75593,6,0,B|68:286|68:286|38:338|38:338|92:378|138:342,1,216,0|0,1:0|0:0,0:0:0:0:
268,210,76267,1,8,0:0:0:0:
108,142,76436,6,0,P|121:169|120:203,1,45
40,197,76604,2,0,P|53:224|52:258,1,45
108,322,76773,6,0,B|130:271|172:259|172:259|199:289|199:289|255:268|309:306|309:306|346:277,1,288,0|0,1:0|1:0,0:0:0:0:
391,233,77531,5,0,1:0:0:0:
406,209,77616,2,0,P|401:182|387:160,1,53.9999983520508,8|0,0:0|0:0,0:0:0:0:
309,306,77784,2,0,P|304:279|290:257,1,53.9999983520508,0|0,1:0|0:0,0:0:0:0:
274,124,77953,2,0,P|274:160|287:184,1,53.9999983520508
174,250,78121,2,0,P|169:223|154:202,1,53.9999983520508
126,117,78290,6,0,P|85:145|65:193,1,90,0|0,1:0|0:0,0:0:0:0:
65,281,78627,2,0,P|79:328|117:362,1,90,0|0,1:0|0:0,0:0:0:0:
301,358,78964,2,0,P|338:334|361:295,1,90,0|0,1:0|0:0,0:0:0:0:
365,191,79301,2,0,P|351:148|319:117,1,90,0|0,1:0|0:0,0:0:0:0:
105,229,79638,5,8,0:0:0:0:
301,358,79807,1,0,1:0:0:0:
364,242,79975,1,0,1:0:0:0:
105,229,80144,5,8,0:0:0:0:
364,242,80312,1,0,1:0:0:0:
319,117,80480,1,0,1:0:0:0:
109,185,80649,1,8,0:0:0:0:
105,229,80733,1,8,0:0:0:0:
100,274,80817,1,8,0:0:0:0:
206,51,80986,6,0,P|275:112|275:211,1,180,4|8,1:0|0:0,0:0:0:0:
225,356,81492,1,0,0:0:0:0:
314,209,81661,2,0,P|366:190|426:200,1,90,0|0,0:0|1:0,0:0:0:0:
407,349,81998,1,8,0:0:0:0:
240,270,82166,1,0,0:0:0:0:
398,147,82335,6,0,B|367:71|367:71|266:32,1,180,0|8,1:0|0:0,0:0:0:0:
78,0,82840,2,0,B|109:76|109:76|210:115,1,180,0|0,0:0|1:0,0:0:0:0:
392,164,83346,1,8,0:0:0:0:
255,273,83514,1,0,0:0:0:0:
142,108,83683,6,0,P|76:153|51:259,1,180,0|8,1:0|0:0,0:0:0:0:
197,334,84189,2,0,P|238:310|254:254,2,90,0|0|0,0:0|0:0|1:0,0:0:0:0:
54,384,84694,1,8,0:0:0:0:
82,204,84863,1,0,0:0:0:0:
254,272,85031,6,0,B|277:296|283:326|283:326|347:346|398:308,1,180,0|8,1:0|0:0,0:0:0:0:
301,97,85537,2,0,P|257:98|204:145,1,108,0|0,1:0|0:0,0:0:0:0:
283,185,85874,2,0,B|316:187|338:168|338:168|389:210|389:210|421:191|465:207,1,180,8|0,0:0|0:0,0:0:0:0:
386,74,86380,5,0,1:0:0:0:
342,274,86548,1,0,0:0:0:0:
463,121,86717,1,8,0:0:0:0:
437,266,86885,1,0,0:0:0:0:
301,97,87054,2,0,L|280:200,1,90,0|0,0:0|1:0,0:0:0:0:
250,332,87391,1,8,0:0:0:0:
180,172,87559,1,0,0:0:0:0:
120,358,87728,6,0,B|151:282|151:282|252:243,1,180,0|8,1:0|0:0,0:0:0:0:
429,183,88234,2,0,B|398:259|398:259|297:298,1,180,0|0,0:0|1:0,0:0:0:0:
180,172,88739,1,8,0:0:0:0:
376,236,88907,1,0,0:0:0:0:
376,48,89076,5,0,1:0:0:0:
242,246,89245,1,0,0:0:0:0:
457,94,89413,5,0,1:0:0:0:
205,214,89582,1,0,0:0:0:0:
484,192,89750,5,0,1:0:0:0:
478,225,89834,1,0,0:0:0:0:
463,255,89918,1,0,0:0:0:0:
442,281,90002,1,0,0:0:0:0:
415,301,90087,1,0,1:0:0:0:
304,182,90256,6,0,B|268:149|268:149|303:69|413:88|440:195|360:242,1,315,0|8,1:0|0:0,0:0:0:0:
229,299,91773,6,0,L|222:346,1,45
144,298,92110,2,0,L|114:335,1,45
69,255,92447,2,0,L|24:272,1,45
6,183,92784,1,0,0:0:0:0:
54,107,92953,1,0,0:0:0:0:
147,181,93121,6,0,L|143:118,1,45
226,99,93458,2,0,L|267:139,1,45
339,90,93795,2,0,L|336:45,1,45
252,13,94132,1,0,0:0:0:0:
226,99,94301,1,0,0:0:0:0:
91,52,94470,6,0,L|148:75,1,45
212,142,94807,2,0,L|228:90,1,45
252,13,95144,2,0,L|234:73,1,45
198,193,95481,1,0,0:0:0:0:
285,173,95649,1,0,0:0:0:0:
139,128,95818,5,0,0:0:0:0:
195,202,95986,1,0,0:0:0:0:
95,204,96155,1,0,0:0:0:0:
191,211,96323,1,0,0:0:0:0:
258,283,96492,1,0,0:0:0:0:
188,220,96661,1,0,0:0:0:0:
148,304,96829,1,0,0:0:0:0:
184,229,96998,1,0,0:0:0:0:
283,217,97166,6,0,L|260:273,1,45
348,294,97503,2,0,L|325:350,1,45
436,318,97840,2,2,L|453:276,1,45,0|0,0:0|0:0,0:0:0:0:
385,210,98177,1,0,0:0:0:0:
348,294,98346,1,0,0:0:0:0:
309,158,98514,5,0,0:0:0:0:
255,282,98683,1,0,0:0:0:0:
305,167,98851,1,0,0:0:0:0:
183,227,99020,1,0,0:0:0:0:
302,176,99189,1,0,0:0:0:0:
170,145,99357,1,0,0:0:0:0:
298,185,99526,1,0,0:0:0:0:
212,81,99694,1,0,0:0:0:0:
227,218,99863,6,0,L|173:229,1,45
142,313,100200,2,0,L|196:302,1,45
257,290,100537,2,0,L|301:281,1,45
331,129,100874,1,0,0:0:0:0:
262,206,101043,1,0,0:0:0:0:
240,99,101211,5,0,0:0:0:0:
232,90,101295,1,0,0:0:0:0:
222,85,101379,1,0,0:0:0:0:
212,82,101463,1,0,0:0:0:0:
193,143,101548,5,0,0:0:0:0:
188,159,101632,1,0,0:0:0:0:
179,173,101716,1,0,0:0:0:0:
167,184,101800,1,0,0:0:0:0:
106,211,101885,5,0,0:0:0:0:
112,226,101969,1,0,0:0:0:0:
127,241,102053,1,0,0:0:0:0:
144,249,102137,1,0,0:0:0:0:
167,184,102222,5,0,0:0:0:0:
155,153,102306,1,0,0:0:0:0:
130,131,102390,1,0,0:0:0:0:
98,114,102474,1,0,0:0:0:0:
65,120,102559,6,0,P|43:135|30:168,2,45
118,49,103065,1,0,0:0:0:0:
192,97,103234,2,0,P|217:104|236:124,1,45
166,178,103571,2,0,P|169:205|163:226,1,45
128,320,103908,5,0,0:0:0:0:
164,222,104076,1,0,0:0:0:0:
210,311,104245,1,0,0:0:0:0:
168,210,104413,1,0,0:0:0:0:
65,258,104582,1,0,0:0:0:0:
168,199,104750,1,0,0:0:0:0:
273,224,104919,1,0,0:0:0:0:
167,187,105087,1,0,0:0:0:0:
206,105,105256,6,0,P|224:128|229:150,1,45
297,86,105593,2,0,P|305:133|298:160,1,53.9999983520508
393,94,105930,2,0,P|389:136|364:176,1,62.9999980773926
484,150,106267,2,0,P|458:192|423:213,1,72
351,233,106604,5,0,0:0:0:0:
380,154,106773,1,0,0:0:0:0:
257,217,106941,1,0,0:0:0:0:
306,123,107110,1,0,0:0:0:0:
157,185,107279,1,0,0:0:0:0:
241,79,107447,1,0,0:0:0:0:
59,142,107616,1,0,0:0:0:0:
184,23,107784,1,0,0:0:0:0:
257,217,107953,6,0,P|230:264|210:277,1,53.9999983520508
146,76,108290,2,0,P|171:31|213:12,1,67.5000025749208
157,185,108627,2,0,P|110:212|68:213,1,80.9999975280763
268,98,108964,2,0,P|314:70|374:75,1,94.499997116089
311,265,109301,5,0,0:0:0:0:
134,222,109470,2,0,P|120:160|190:151,1,144
185,349,109975,1,8,0:0:0:0:
311,265,110649,6,0,B|230:271|185:349|185:349|115:295|26:325|26:325|64:296|77:266|75:215|134:222|134:222|88:178|95:98|160:52|241:67|284:131|257:199,1,809.999975280762,4|0,1:0|0:0,0:0:0:0:
187,166,113346,6,0,B|201:102|281:82|321:129|321:129|359:168|426:149|441:89|441:89|490:220|374:157|258:283|334:402|427:433|510:403|525:311|449:242|396:300|428:332,1,809.999975280762
303,344,116043,6,0,B|264:358|228:335|225:296|225:296|181:288|149:308|149:308|157:238|100:181|29:195,1,377.999988464356
50,292,117222,6,0,B|123:285|136:214|136:214|160:252|160:252|171:177|272:158|274:265|350:232|417:163|365:88,1,503.999984619141
299,133,118739,6,0,B|270:194|336:243|336:243|272:261|253:327|253:327|224:267|224:267|177:287|123:253|138:198,1,440.999986541748
39,173,120087,6,0,B|55:128|15:77|15:77|123:118|116:37|181:24|232:58,1,323.999990112305
123,186,120930,5,0,0:0:0:0:
123,211,121014,1,0,0:0:0:0:
128,236,121099,1,0,0:0:0:0:
144,264,121183,1,0,0:0:0:0:
170,291,121267,1,0,0:0:0:0:
214,306,121352,1,0,0:0:0:0:
264,305,121436,6,0,L|366:271,1,80.9999975280763,8|0,0:0|0:0,0:0:0:0:
239,213,121773,2,0,L|310:132,1,80.9999975280763,8|0,0:0|0:0,0:0:0:0:
172,133,122110,2,0,L|193:27,1,80.9999975280763,8|0,0:0|0:0,0:0:0:0:
75,98,122447,2,0,L|40:-3,1,80.9999975280763,8|0,0:0|0:0,0:0:0:0:
263,113,122784,6,0,P|262:163|244:194,1,80.9999975280763,8|0,0:0|0:0,0:0:0:0:
392,141,123121,2,0,P|366:183|335:201,1,80.9999975280763,8|0,0:0|0:0,0:0:0:0:
480,229,123458,2,0,P|436:253|400:253,1,80.9999975280763,8|0,0:0|0:0,0:0:0:0:
511,352,123795,2,0,P|461:350|430:333,1,80.9999975280763,8|0,0:0|0:0,0:0:0:0:
457,117,124132,6,0,L|473:216,1,80.9999975280763,8|0,0:0|0:0,0:0:0:0:
346,118,124469,2,0,L|338:216,1,80.9999975280763,8|0,0:0|0:0,0:0:0:0:
243,87,124807,2,0,L|205:172,1,80.9999975280763,8|0,0:0|0:0,0:0:0:0:
161,22,125144,2,0,L|91:91,1,80.9999975280763,8|0,0:0|0:0,0:0:0:0:
78,214,125481,6,0,P|47:181|-3:166,1,80.9999975280763,8|0,0:0|0:0,0:0:0:0:
155,280,125818,2,0,P|109:282|66:311,1,80.9999975280763,8|0,0:0|0:0,0:0:0:0:
263,262,126155,2,0,P|235:298|229:350,1,80.9999975280763,8|0,0:0|0:0,0:0:0:0:
321,185,126492,2,0,P|331:229|374:265,1,80.9999975280763,8|0,0:0|0:0,0:0:0:0:
379,128,126745,1,8,0:0:0:0:
358,107,126829,6,0,P|321:92|286:97,1,62.9999980773926,0|0,1:0|0:0,0:0:0:0:
196,244,127166,2,0,P|238:263|273:258,1,72,0|0,1:0|0:0,0:0:0:0:
298,93,127503,6,0,P|248:92|206:115,1,80.9999975280763,0|0,1:0|0:0,0:0:0:0:
262,261,127840,2,0,P|311:261|357:232,1,90,0|0,1:0|0:0,0:0:0:0:
220,104,128177,6,0,P|173:120|137:165,1,99.0000030212403,0|0,1:0|0:0,0:0:0:0:
346,242,128514,2,0,P|392:225|431:174,1,107.999996704102,0|0,1:0|0:0,0:0:0:0:
141,156,128852,6,0,P|121:207|144:281,1,116.999994644165,0|0,1:0|0:0,0:0:0:0:
428,180,129189,2,0,P|449:128|432:48,1,125.999996154785,0|0,1:0|0:0,0:0:0:0:
233,229,129526,5,0,1:0:0:0:
249,236,129610,1,0,0:0:0:0:
270,240,129694,1,0,0:0:0:0:
287,238,129778,1,0,0:0:0:0:
275,160,129863,5,0,1:0:0:0:
254,133,129947,1,0,0:0:0:0:
228,112,130031,1,0,0:0:0:0:
199,100,130115,1,0,0:0:0:0:
148,166,130200,5,0,1:0:0:0:
137,213,130284,1,0,0:0:0:0:
149,262,130368,1,0,0:0:0:0:
181,301,130452,1,0,0:0:0:0:
267,280,130537,5,0,1:3:0:0:
319,254,130621,1,0,0:3:0:0:
357,208,130705,1,0,0:3:0:0:
371,149,130789,1,0,0:3:0:0:
362,89,130874,5,0,0:3:0:0:
148,166,131043,1,0,0:0:0:0:
164,233,131127,1,0,0:0:0:0:
181,301,131212,1,8,0:0:0:0:
339,36,131380,5,0,0:0:0:0:
52,118,131548,1,0,0:0:0:0:
68,185,131632,1,0,0:0:0:0:
85,253,131717,1,8,0:0:0:0:
362,89,131885,6,0,P|412:59|338:40,1,175.499991966248
272,56,132222,6,0,B|280:64|280:64|272:72|272:72|280:80|280:80|272:88|272:88|288:96|288:96|272:104|272:104|280:112|280:112|272:120|272:120|280:128|280:128|272:136|272:136|288:144|288:144|272:152|272:152|280:160|280:160|272:168|272:168|288:176|288:176|356:146|445:202|422:304|370:351|280:343|267:289,1,504,4|0,1:2|0:0,0:0:0:0:
185,337,132896,6,0,B|168:261,1,76.5000014591217,8|0,0:0|0:0,0:0:0:0:
184,69,133065,2,0,B|197:153,1,76.5000014591217
24,179,133234,1,0,2:0:0:0:
24,245,133318,1,0,2:0:0:0:
59,301,133402,1,0,2:0:0:0:
118,334,133486,1,0,2:0:0:0:
185,337,133571,6,0,P|218:350|257:326,1,62.9999980773926,0|0,1:0|0:0,0:0:0:0:
380,278,133739,2,0,P|350:269|321:281,1,62.9999980773926
189,215,133908,1,8,0:0:0:0:
380,48,134076,6,0,B|395:83|395:83|389:127,1,76.5000014591217
321,280,134245,2,0,B|306:245|306:245|312:201,1,76.5000014591217
254,48,134413,2,0,B|269:83|269:83|263:127,1,76.5000014591217,0|0,1:0|0:0,0:0:0:0:
74,184,134582,6,0,P|14:120|79:74,1,188.999994232178,8|0,0:0|0:0,0:0:0:0:
129,65,134919,6,0,L|149:166,1,76.5000014591217,0|0,1:0|0:0,0:0:0:0:
380,48,135087,2,0,L|373:142,1,76.5000014591217
143,140,135256,2,0,L|162:235,1,76.5000014591217,8|0,0:0|0:0,0:0:0:0:
321,281,135425,6,0,P|345:239|344:202,1,67.5000025749208
208,132,135593,2,0,P|159:132|128:151,1,67.5000025749208
180,296,135762,2,0,P|204:337|236:355,1,67.5000025749208,0|0,1:0|0:0,0:0:0:0:
285,165,135930,2,0,B|296:129|296:129|320:91,1,67.5000025749208,8|0,0:0|0:0,0:0:0:0:
107,256,136099,2,0,B|95:297|95:297|69:331,1,67.5000025749208
159,106,136267,6,0,B|187:85|190:53|190:53|230:55|253:35,1,125.999996154785,0|0,1:0|0:0,0:0:0:0:
346,258,136604,1,8,0:0:0:0:
177,197,136773,2,0,B|228:160|218:81|218:81|291:107|350:57,1,251.999992309571,0|0,0:0|1:0,0:0:0:0:
398,253,137279,2,0,P|355:310|301:234,1,188.999994232178,8|0,0:0|0:0,0:0:0:0:
307,195,137616,6,0,P|280:133|217:100,1,139.500001064301,0|0,1:0|0:0,0:0:0:0:
29,131,137953,1,8,0:0:0:0:
83,369,138121,6,0,B|72:329|72:329|80:295,1,76.5000014591217
168,204,138290,2,0,B|176:238|176:238|165:278,1,76.5000014591217
247,371,138458,2,0,B|258:331|258:331|250:297,1,76.5000014591217,0|0,1:0|0:0,0:0:0:0:
224,143,138627,2,0,P|170:119|109:146,1,116.999994644165,8|0,0:0|0:0,0:0:0:0:
335,285,138964,6,0,L|402:299,1,62.9999980773926,0|0,1:0|0:0,0:0:0:0:
378,212,139132,2,0,L|448:226,1,62.9999980773926
424,132,139301,1,8,0:0:0:0:
264,48,139470,6,0,L|266:121,1,62.9999980773926
343,91,139638,2,0,L|345:165,1,62.9999980773926
424,132,139807,1,0,1:0:0:0:
256,254,139975,2,0,P|172:231|234:190,1,202.500007724762,8|0,0:0|0:0,0:0:0:0:
263,123,140312,6,0,P|236:135|208:130,1,58.4999973220826,0|0,1:0|0:0,0:0:0:0:
263,47,140481,2,0,P|236:38|208:42,1,58.4999973220826,0|0,1:0|0:0,0:0:0:0:
76,47,140649,1,8,0:0:0:0:
65,104,140733,1,0,0:0:0:0:
54,162,140818,2,0,P|100:249|123:169,1,233.999989288331,0|0,0:0|1:0,0:0:0:0:
18,304,141323,6,0,B|84:282|84:282|157:315,1,135.000005149842,8|0,0:0|0:0,0:0:0:0:
288,378,141661,6,0,B|228:349|255:271|317:275|317:275|274:237|299:175,1,233.999989288331,0|8,1:0|0:0,0:0:0:0:
447,106,142166,2,0,P|428:210|357:215,1,182.250000695229
290,204,142503,5,0,1:0:0:0:
328,158,142587,1,0,0:0:0:0:
386,147,142672,1,8,0:0:0:0:
438,176,142755,1,0,0:0:0:0:
460,232,142840,1,0,0:0:0:0:
441,288,142924,1,0,0:0:0:0:
396,324,143009,6,0,B|364:360|364:360|332:292|332:292|268:320|180:280|200:180,1,288,4|8,1:0|0:0,0:0:0:0:
290,204,143514,2,0,B|330:188|330:188|344:146|344:146|415:115|401:26|401:26|316:77,1,288,0|0,0:0|1:0,0:0:0:0:
126,30,144020,6,0,P|157:71|190:80,1,76.5000014591217,8|0,0:0|0:0,0:0:0:0:
353,54,144189,2,0,P|322:13|289:4,1,76.5000014591217
139,96,144357,2,0,P|170:137|203:146,1,76.5000014591217,0|0,1:0|0:0,0:0:0:0:
340,124,144526,2,0,P|309:83|276:74,1,76.5000014591217
154,165,144694,2,0,P|185:206|218:215,1,76.5000014591217,8|0,0:0|0:0,0:0:0:0:
353,54,144863,6,0,B|399:57|399:57|423:90,1,76.5000014591217
352,258,145031,2,0,B|396:255|396:255|432:219,1,76.5000014591217
489,96,145200,2,0,B|488:56|488:56|457:16,1,76.5000014591217,0|0,1:0|0:0,0:0:0:0:
489,204,145368,2,0,B|486:263|486:263|425:322|425:322|363:326,1,188.999994232178,8|0,0:0|0:0,0:0:0:0:
288,331,145705,6,0,L|200:302,1,76.5000014591217,0|0,1:0|0:0,0:0:0:0:
267,109,145874,2,0,L|194:85,1,76.5000014591217
214,306,146043,2,0,L|142:283,1,76.5000014591217,8|0,0:0|0:0,0:0:0:0:
401,292,146211,6,0,P|435:268|454:228,1,67.5000025749208
234,178,146380,2,0,P|237:219|262:255,1,67.5000025749208
409,113,146548,2,0,P|371:95|327:98,1,67.5000025749208,0|0,1:0|0:0,0:0:0:0:
328,258,146717,2,0,B|319:300|319:300|321:333,1,67.5000025749208,8|0,0:0|0:0,0:0:0:0:
479,147,146885,2,0,B|488:113|488:113|488:72,1,67.5000025749208
272,86,147054,6,0,B|251:57|220:38|220:38|182:51|147:73,1,125.999996154785,0|0,1:0|0:0,0:0:0:0:
29,239,147391,1,8,0:0:0:0:
184,167,147559,2,0,B|249:171|305:201|305:201|333:256|326:332,1,251.999992309571,0|0,0:0|1:0,0:0:0:0:
230,262,148065,2,0,P|266:188|364:220,1,188.999994232178,8|0,0:0|0:0,0:0:0:0:
402,264,148402,6,0,P|466:233|476:145,1,139.500001064301,0|0,1:0|0:0,0:0:0:0:
402,36,148739,1,8,0:0:0:0:
227,188,148908,6,0,B|219:222|219:222|230:262,1,76.5000014591217
317,73,149077,2,0,B|329:33|329:33|320:-1,1,76.5000014591217
405,190,149245,2,0,B|413:224|413:224|402:264,1,76.5000014591217,0|0,1:0|0:0,0:0:0:0:
320,315,149413,2,0,P|249:296|227:246,1,116.999994644165,8|0,0:0|0:0,0:0:0:0:
396,71,149750,6,0,L|445:114,1,62.9999980773926,0|0,1:0|0:0,0:0:0:0:
354,151,149919,2,0,L|413:196,1,62.9999980773926
310,222,150087,1,8,0:0:0:0:
155,148,150256,6,0,L|142:220,1,62.9999980773926
230,191,150425,2,0,L|217:263,1,62.9999980773926
310,222,150593,1,0,1:0:0:0:
296,79,150762,6,0,B|226:60|226:13|226:13|250:54|201:142,1,202.500007724762,8|0,0:0|0:0,0:0:0:0:
155,148,151099,1,0,1:0:0:0:
310,222,151267,1,0,0:0:0:0:
49,201,151436,1,0,0:0:0:0:
80,212,151520,1,0,0:0:0:0:
112,224,151604,1,0,0:0:0:0:
417,224,151773,6,0,P|366:243|305:217,1,116.999994644165,8|0,0:0|1:0,0:0:0:0:
410,254,152026,6,0,P|356:316|266:321,1,135.000005149842
429,269,152279,6,0,P|432:316|402:370,1,76.5000014591217,0|0,0:0|1:0,0:0:0:0:
307,328,152447,6,0,B|267:322|267:322|244:277|244:277|199:254|199:254|190:211,1,180,0|8,1:0|0:0,0:0:0:0:
5,102,152953,2,0,B|43:111|43:111|62:158|62:158|105:184|105:184|112:230,1,180,0|0,1:0|1:0,0:0:0:0:
141,303,153374,1,0,0:0:0:0:
184,295,153458,1,8,0:0:0:0:
206,258,153542,1,8,0:0:0:0:
191,216,153626,1,8,0:0:0:0:
150,202,153711,1,0,0:0:0:0:
112,223,153795,6,0,B|154:250|190:216|190:216|247:200|311:241|311:241|285:183|341:134,1,288,4|8,1:2|0:0,0:0:0:0:
465,138,154301,2,0,B|542:175|502:303|374:258|393:177|393:177|374:225,1,288,0|0,0:0|1:0,0:0:0:0:
112,223,154807,6,0,P|97:265|120:312,1,76.5000014591217,8|0,0:0|0:0,0:0:0:0:
272,304,154975,2,0,P|286:261|263:214,1,76.5000014591217
165,168,155144,2,0,P|201:159|237:174,1,76.5000014591217,0|0,1:0|0:0,0:0:0:0:
219,357,155312,2,0,P|181:364|146:350,1,76.5000014591217
73,217,155481,2,0,P|58:259|81:306,1,76.5000014591217,8|0,0:0|0:0,0:0:0:0:
272,304,155649,6,0,B|301:277|301:277|310:235,1,76.5000014591217,0|0,0:0|0:0,1:0:0:0:
363,102,155818,2,0,B|392:129|392:129|399:165,1,76.5000014591217
461,322,155986,2,0,B|432:295|432:295|423:253,1,76.5000014591217,0|0,1:0|0:0,1:0:0:0:
463,103,156155,2,0,P|435:32|284:42,1,229.500004377365,8|0,0:0|0:0,0:0:0:0:
242,49,156492,6,0,L|165:58,1,76.5000014591217,0|0,1:0|0:0,0:0:0:0:
168,277,156661,2,0,L|243:266,1,76.5000014591217
166,57,156829,2,0,L|91:68,1,76.5000014591217,8|0,0:0|0:0,0:0:0:0:
94,251,156998,6,0,P|90:289|116:333,1,76.5000014591217
313,291,157166,2,0,P|317:253|291:209,1,76.5000014591217
222,137,157335,2,0,P|184:132|139:157,1,76.5000014591217,0|0,1:0|0:0,0:0:0:0:
175,359,157503,2,0,B|215:357|215:357|257:338,1,76.5000014591217,8|0,0:0|0:0,0:0:0:0:
118,165,157672,2,0,B|74:167|74:167|35:185,1,76.5000014591217
249,342,157840,22,0,B|288:284|288:284|261:219,1,125.999996154785,0|0,1:0|0:0,0:0:0:0:
45,181,158177,1,8,0:0:0:0:
266,232,158346,2,0,B|299:193|274:143|274:143|315:70|315:70|273:68|239:23,1,251.999992309571,0|0,0:0|1:0,0:0:0:0:
169,230,158852,2,0,B|217:209|265:232|265:232|279:208|279:208|304:249|353:251,1,188.999994232178,8|0,0:0|0:0,0:0:0:0:
357,154,159189,6,0,B|397:70|397:70|388:106|403:133,1,139.500001064301,0|0,1:0|0:0,0:0:0:0:
512,241,159526,1,8,0:0:0:0:
269,299,159694,6,0,B|280:259|280:259|272:225,1,76.5000014591217
191,101,159863,2,0,B|183:135|183:135|194:175,1,76.5000014591217
117,295,160031,2,0,B|106:255|106:255|114:221,1,76.5000014591217,0|0,1:0|0:0,0:0:0:0:
84,100,160200,2,0,B|138:76|138:76|192:101,1,116.999994644165,8|0,0:0|0:0,0:0:0:0:
117,295,160537,6,0,L|188:295,1,62.9999980773926,0|0,1:0|0:0,0:0:0:0:
153,200,160705,2,0,L|225:200,1,62.9999980773926
191,101,160874,1,8,0:0:0:0:
401,94,161043,6,0,L|383:166,1,62.9999980773926
297,96,161211,2,0,L|279:168,1,62.9999980773926
191,101,161380,1,0,1:0:0:0:
246,338,161548,2,0,P|249:248|329:291,1,202.500007724762,8|0,0:0|0:0,0:0:0:0:
325,347,161885,6,0,P|361:341|384:318,1,58.4999973220826,0|0,1:0|0:0,0:0:0:0:
379,259,162054,2,0,P|350:261|326:278,1,58.4999973220826,0|0,1:0|0:0,0:0:0:0:
448,356,162222,1,8,0:0:0:0:
459,299,162306,1,0,0:0:0:0:
470,241,162391,2,0,P|445:173|385:264,1,233.999989288331,0|0,0:0|1:0,0:0:0:0:
448,99,162896,6,0,B|376:97|376:97|306:153,1,135.000005149842,8|0,0:0|0:0,0:0:0:0:
320,293,163234,6,0,B|376:256|350:175|280:180|280:180|329:158|332:109,1,233.999989288331,0|8,1:0|0:0,0:0:0:0:
103,73,163739,2,0,B|185:96|197:178|197:178|204:128|248:101,1,243.000000926971,0|0,0:0|1:0,0:0:0:0:
326,135,164161,5,0,0:0:0:0:
346,190,164245,1,8,0:0:0:0:
320,243,164329,1,0,0:0:0:0:
264,261,164413,1,0,0:0:0:0:
212,232,164498,1,0,0:0:0:0:
197,177,164582,6,0,B|197:110|265:117|241:61|241:61|174:134|97:67,1,288,4|8,1:0|0:0,0:0:0:0:
308,34,165087,2,0,B|322:65|318:96|318:96|397:33|473:93|473:93|457:116|394:112,1,288,0|0,0:0|1:0,0:0:0:0:
240,65,165593,6,0,P|199:60|157:72,1,76.5000014591217,8|0,0:0|0:0,0:0:0:0:
148,211,165762,2,0,P|173:183|208:167,1,76.5000014591217
82,105,165930,2,0,P|53:133|32:174,1,76.5000014591217,0|0,1:0|0:0,0:0:0:0:
133,283,166099,2,0,P|131:245|147:210,1,76.5000014591217
16,255,166267,2,0,P|17:306|33:344,1,76.5000014591217,8|0,0:0|0:0,0:0:0:0:
225,182,166436,6,0,B|233:148|233:148|222:108,1,76.5000014591217
127,356,166604,2,0,B|142:316|142:316|133:283,1,76.5000014591217
79,179,166773,2,0,B|71:145|71:145|82:105,1,76.5000014591217,0|0,1:0|0:0,0:0:0:0:
193,377,166941,2,0,B|209:336|209:336|250:319|250:319|297:358|361:339,1,188.999994232178,8|0,0:0|0:0,0:0:0:0:
399,324,167279,6,0,L|482:291,1,76.5000014591217,0|0,1:0|0:0,0:0:0:0:
360,95,167447,2,0,L|431:66,1,76.5000014591217
279,306,167616,2,0,L|207:337,1,76.5000014591217,8|0,0:0|0:0,0:0:0:0:
159,154,167784,6,0,P|145:99|161:65,1,76.5000014591217
360,95,167953,2,0,P|374:150|358:184,1,76.5000014591217
234,36,168121,2,0,P|289:22|323:37,1,76.5000014591217,0|0,1:0|0:0,0:0:0:0:
283,216,168290,2,0,B|239:223|239:223|192:218,1,76.5000014591217,8|0,0:0|0:0,0:0:0:0:
73,83,168458,2,0,B|112:77|112:77|149:81,1,76.5000014591217
62,312,168627,6,0,P|112:278|209:308,1,125.999996154785,0|0,1:0|0:0,0:0:0:0:
368,336,168964,1,8,0:0:0:0:
256,174,169132,2,0,B|246:144|215:132|215:132|226:102|224:69|224:69|151:39|103:82,1,251.999992309571,0|0,0:0|1:0,0:0:0:0:
176,199,169638,2,0,B|181:241|226:253|226:253|290:265|276:349,1,188.999994232178,8|0,0:0|0:0,0:0:0:0:
242,258,169975,6,0,P|268:202|361:201,1,139.500001064301,0|0,1:0|0:0,0:0:0:0:
432,345,170312,1,8,0:0:0:0:
387,129,170481,6,0,B|412:163|412:163|412:203,1,76.5000014591217
242,258,170649,2,0,B|217:224|217:224|217:184,1,76.5000014591217
270,90,170818,2,0,B|270:55|270:55|295:21,1,76.5000014591217,0|0,1:0|0:0,0:0:0:0:
145,217,170986,2,0,B|149:156|149:156|195:114,1,116.999994644165,8|0,0:0|0:0,0:0:0:0:
385,191,171323,6,0,L|386:129,1,62.9999980773926,0|0,1:0|0:0,0:0:0:0:
466,249,171492,2,0,L|466:186,1,62.9999980773926
471,69,171661,1,8,0:0:0:0:
270,38,171829,6,0,L|336:44,1,62.9999980773926
324,123,171998,2,0,L|386:128,1,62.9999980773926
471,69,172166,1,0,1:0:0:0:
244,107,172335,6,0,P|255:171|356:199,1,175.499991966248,8|0,0:0|0:0,0:0:0:0:
385,191,172672,1,0,1:0:0:0:
270,38,172840,1,0,0:0:0:0:
208,250,173009,1,0,0:0:0:0:
226,222,173093,1,0,0:0:0:0:
245,194,173177,1,0,0:0:0:0:
119,331,173346,6,0,B|165:260|165:260|106:277,1,116.999994644165,8|0,0:0|1:0,0:0:0:0:
132,194,173599,6,0,B|61:148|61:148|76:195,1,135.000005149842
134,269,173852,6,0,L|237:244,1,76.5000014591217
468,198,174020,5,8,0:0:0:0:
145,80,174189,1,0,1:0:0:0:
134,269,174357,1,0,1:0:0:0:
382,29,174526,5,8,0:0:0:0:
134,269,174694,1,0,1:0:0:0:
329,341,174863,1,0,1:0:0:0:
400,358,174947,1,0,0:0:0:0:
457,311,175031,1,8,0:0:0:0:
454,237,175115,1,8,0:0:0:0:
394,195,175200,2,0,P|350:199|310:239,1,76.5000014591217,8|0,0:0|0:0,0:0:0:0:
382,277,175368,5,0,0:0:0:0:
256,192,186155,12,0,191211,0:0:0:0:
99,290,191548,6,0,L|170:355,1,90,8|0,0:0|0:0,0:0:0:0:
196,218,191885,2,0,L|218:308,1,90,8|0,0:0|0:0,0:0:0:0:
316,218,192222,2,0,L|293:305,1,90,8|0,0:0|0:0,0:0:0:0:
413,290,192559,2,0,L|346:350,1,90,8|0,0:0|0:0,0:0:0:0:
443,121,192896,6,0,L|372:186,1,90,8|0,0:0|0:0,0:0:0:0:
327,39,193233,2,0,L|298:130,1,90,8|0,0:0|0:0,0:0:0:0:
183,39,193570,2,0,L|210:124,1,90,8|0,0:0|0:0,0:0:0:0:
67,121,193907,2,0,L|133:181,1,90,8|0,0:0|0:0,0:0:0:0:
172,316,194245,5,0,1:0:0:0:
133,181,194413,1,0,0:0:0:0:
340,316,194582,1,0,1:0:0:0:
379,181,194750,1,0,0:0:0:0:
256,288,194919,1,0,1:0:0:0:
256,64,195087,1,0,0:0:0:0:
299,332,195256,6,0,P|260:350|207:326,1,90,8|0,0:0|0:0,0:0:0:0:
256,64,195593,5,8,0:0:0:0:
392,278,195761,1,0,1:0:0:0:
256,344,195930,1,0,1:0:0:0:
256,64,196099,5,8,0:0:0:0:
256,344,196267,1,0,1:0:0:0:
119,279,196436,1,0,1:0:0:0:
211,64,196604,1,8,0:0:0:0:
256,64,196688,1,8,0:0:0:0:
301,64,196772,1,8,0:0:0:0:
256,161,196941,6,0,B|256:65|256:65|336:66|405:137|383:264|290:314|192:293|122:222|157:131|185:87|185:87|128:99|111:147,1,701.999967864992,0|8,0:0|0:0,0:0:0:0:
125,305,198290,6,0,P|156:361|203:385,1,107.999996704102,4|0,1:2|0:0,0:0:0:0:
255,210,198627,1,8,0:0:0:0:
336,377,198795,2,0,P|380:347|403:299,2,107.999996704102,0|0|0,0:0|0:0|1:0,0:0:0:0:
255,210,199301,1,8,0:0:0:0:
162,359,199470,1,0,0:0:0:0:
29,247,199638,6,0,P|26:176|53:129,1,107.999996704102,0|0,1:0|0:0,0:0:0:0:
163,247,199975,1,8,0:0:0:0:
133,87,200144,2,0,P|191:77|248:109,1,107.999996704102
163,247,200481,1,0,1:0:0:0:
310,181,200649,2,0,P|320:238|288:296,1,107.999996704102,8|0,0:0|0:0,0:0:0:0:
101,183,200986,6,0,P|107:129|141:88,1,107.999996704102,0|0,1:0|0:0,0:0:0:0:
239,218,201323,1,8,0:0:0:0:
288,69,201492,2,0,P|336:83|375:134,2,107.999996704102,0|0|0,0:0|0:0|1:0,0:0:0:0:
239,218,201998,1,8,0:0:0:0:
204,49,202166,1,0,0:0:0:0:
45,85,202335,6,0,P|15:129|14:183,1,107.999996704102,0|0,1:0|0:0,0:0:0:0:
76,279,202672,1,8,0:0:0:0:
99,148,202840,2,0,P|118:197|161:229,1,107.999996704102
277,235,203177,1,0,1:0:0:0:
193,140,203346,2,0,P|244:152|295:135,1,107.999996704102,8|0,0:0|0:0,0:0:0:0:
359,25,203683,5,0,1:0:0:0:
386,183,203852,1,0,0:0:0:0:
245,65,204020,1,8,0:0:0:0:
277,235,204189,2,0,P|264:299|226:335,2,107.999996704102,0|0|0,0:0|0:0|1:0,0:0:0:0:
135,116,204694,1,8,0:0:0:0:
177,264,204863,1,0,0:0:0:0:
28,209,205031,6,0,L|100:307,1,107.999996704102,0|0,1:0|0:0,0:0:0:0:
203,356,205368,1,8,0:0:0:0:
261,246,205537,2,0,L|253:124,1,107.999996704102
177,264,205874,1,0,1:0:0:0:
135,116,206043,1,8,0:0:0:0:
62,288,206211,1,0,0:0:0:0:
127,92,206380,6,0,P|209:88|238:110,1,107.999996704102,0|0,1:0|0:0,0:0:0:0:
316,270,206717,1,8,0:0:0:0:
395,120,206885,2,0,B|278:114|337:17|208:14,1,215.999993408203,0|0,0:0|1:0,0:0:0:0:
189,249,207391,1,8,0:0:0:0:
227,100,207559,1,0,0:0:0:0:
333,311,207728,6,0,B|336:286|370:269|370:269|348:217|376:181|376:181|399:152|395:121,1,216,4|0,1:0|0:0,0:0:0:0:
487,207,208402,6,0,L|433:230,1,53.9999983520508,8|0,0:0|0:0,0:0:0:0:
443,96,208571,2,0,L|390:122,1,53.9999983520508
357,18,208739,2,0,L|303:41,1,53.9999983520508
199,142,208908,6,0,P|252:163|284:255,1,144,0|0,1:0|0:0,1:0:0:0:
184,321,209413,6,0,L|196:189,1,90,0|0,1:0|0:0,0:0:0:0:
199,142,209666,1,0,1:0:0:0:
204,107,209750,6,0,B|215:78|215:78|210:44,1,53.9999983520508,8|0,0:0|0:0,0:0:0:0:
128,53,209919,2,0,B|125:22|125:22|134:-10,1,53.9999983520508,0|0,1:0|0:0,0:0:0:0:
113,201,210087,2,0,B|124:172|124:172|119:138,1,53.9999983520508,0|0,0:0|1:0,0:0:0:0:
37,147,210256,2,0,B|33:117|33:117|43:84,1,53.9999983520508
97,328,210425,6,0,B|135:273|191:291|191:291|210:254|210:254|230:288|265:290,1,216,0|0,1:0|1:0,1:0:0:0:
447,318,211099,1,8,0:0:0:0:
305,178,211267,6,0,P|283:200|273:221,1,53.9999983520508
227,141,211436,2,0,P|208:160|197:184,1,53.9999983520508
364,244,211604,6,0,B|398:213|392:166|392:166|448:166|467:113,1,180,0|0,1:0|0:0,0:0:0:0:
388,85,212110,5,0,1:0:0:0:
340,72,212194,1,0,1:0:0:0:
293,60,212278,1,0,1:0:0:0:
245,49,212362,1,0,1:0:0:0:
198,36,212447,2,0,P|189:60|188:91,1,36
305,178,212616,2,0,P|314:154|315:123,1,36
130,233,212784,1,8,0:0:0:0:
182,246,212869,1,8,0:0:0:0:
235,260,212953,1,8,0:0:0:0:
59,169,213121,6,0,L|40:257,1,90,0|0,1:0|0:0,0:0:0:0:
198,36,213458,2,0,L|122:84,1,90,0|0,1:0|0:0,0:0:0:0:
293,210,213795,2,0,L|311:121,1,90,0|0,1:0|0:0,0:0:0:0:
160,344,214132,2,0,L|235:295,1,90,0|0,1:0|0:0,0:0:0:0:
208,92,214470,5,8,0:0:0:0:
0,200,214638,1,0,1:0:0:0:
84,333,214807,1,0,1:0:0:0:
130,58,214975,5,8,0:0:0:0:
236,295,215144,1,0,1:0:0:0:
84,333,215312,1,0,1:0:0:0:
208,92,215481,1,8,0:0:0:0:
249,110,215565,1,8,0:0:0:0:
289,129,215649,1,8,0:0:0:0:
379,348,215818,6,0,P|314:296|312:186,1,180,4|8,1:0|0:0,0:0:0:0:
366,14,216323,1,0,0:0:0:0:
289,129,216492,2,0,L|257:220,1,90,0|0,0:0|1:0,0:0:0:0:
407,242,216829,1,8,0:0:0:0:
466,98,216998,1,0,0:0:0:0:
487,308,217166,6,0,B|429:364|354:330|354:330|318:380,1,180,0|8,1:0|0:0,0:0:0:0:
216,183,217672,2,0,B|265:125|339:159|339:159|371:115,1,180,0|0,0:0|1:0,0:0:0:0:
500,229,218177,1,8,0:0:0:0:
364,123,218346,1,0,0:0:0:0:
351,331,218514,6,0,P|301:372|180:346,1,180,0|8,1:0|0:0,0:0:0:0:
145,176,219020,1,0,0:0:0:0:
55,320,219189,2,0,L|121:387,1,90,0|0,0:0|1:0,0:0:0:0:
231,260,219526,1,8,0:0:0:0:
39,234,219694,1,0,0:0:0:0:
163,103,219863,6,0,P|196:68|250:52,2,90,0|0|8,1:0|0:0|0:0,0:0:0:0:
135,239,220368,2,0,P|142:309|165:335,1,108,0|0,1:0|0:0,0:0:0:0:
222,296,220705,2,0,B|186:282|154:319|154:319|87:321|58:253,1,180,8|0,0:0|0:0,0:0:0:0:
109,66,221211,5,0,1:0:0:0:
83,192,221380,1,0,0:0:0:0:
235,45,221548,1,8,0:0:0:0:
209,171,221717,1,0,0:0:0:0:
355,16,221885,2,0,L|330:137,1,90,0|0,0:0|1:0,0:0:0:0:
299,280,222222,1,8,0:0:0:0:
420,218,222391,1,0,0:0:0:0:
209,171,222559,6,0,B|157:117|157:117|109:110|109:110|102:77|84:55,1,180,0|8,1:0|0:0,0:0:0:0:
107,223,223065,2,0,B|159:277|159:277|206:283|206:283|212:319|239:337,1,180,0|0,0:0|1:0,0:0:0:0:
419,154,223571,1,8,0:0:0:0:
307,287,223739,1,0,0:0:0:0:
433,63,223908,5,0,1:0:0:0:
397,308,224076,1,0,0:0:0:0:
297,114,224245,5,0,1:0:0:0:
479,288,224413,1,0,0:0:0:0:
226,198,224582,5,0,1:0:0:0:
193,199,224666,1,0,1:0:0:0:
161,210,224750,1,0,1:0:0:0:
136,232,224834,1,0,1:0:0:0:
119,261,224919,2,0,P|109:294|112:327,1,45
234,305,225087,6,0,B|259:261|156:220|128:341|166:417|303:403|377:358|401:248|357:123|297:114|297:114|287:219|419:212,1,693.000021148682,0|8,1:0|0:0,0:0:0:0:
265,158,226604,6,0,B|193:174|145:102|145:102|57:126,1,215.999993408203,4|8,1:0|0:0,0:0:0:0:
176,323,227110,2,0,P|169:248|274:158,1,215.999993408203,0|0,0:0|1:0,0:0:0:0:
375,294,227616,1,8,0:0:0:0:
407,100,227784,1,0,0:0:0:0:
279,281,227953,6,0,B|215:269|176:324|176:324|76:301,1,215.999993408203,0|8,1:0|0:0,0:0:0:0:
24,130,228458,2,0,P|64:64|195:52,1,215.999993408203,0|0,0:0|1:0,0:0:0:0:
245,219,228964,1,8,0:0:0:0:
292,16,229132,1,0,0:0:0:0:
349,252,229301,6,0,P|400:223|419:174,1,107.999996704102,0|0,1:0|0:0,0:0:0:0:
267,118,229638,1,8,0:0:0:0:
280,326,229807,2,0,P|342:276|344:214,1,107.999996704102
292,16,230144,1,0,1:0:0:0:
245,219,230312,1,8,0:0:0:0:
374,110,230481,1,0,0:0:0:0:
178,61,230649,6,0,P|81:95|62:224,1,215.999993408203,0|8,1:0|0:0,0:0:0:0:
246,298,231155,2,0,P|322:247|225:256,1,215.999993408203,0|0,0:0|1:0,0:0:0:0:
136,352,231661,1,8,0:0:0:0:
178,140,231829,1,0,0:0:0:0:
261,374,231998,5,0,1:0:0:0:
309,127,232166,1,0,0:0:0:0:
388,367,232335,1,8,0:0:0:0:
416,192,232503,1,0,0:0:0:0:
192,284,232672,2,0,P|123:285|67:241,1,107.999996704102,0|0,0:0|1:0,0:0:0:0:
208,110,233009,2,0,P|277:109|333:153,1,107.999996704102,8|0,0:0|0:0,0:0:0:0:
92,183,233346,6,0,L|114:77,1,107.999996704102,0|0,1:0|0:0,0:0:0:0:
261,221,233683,1,8,0:0:0:0:
312,35,233852,2,0,B|390:10|390:10|421:81|388:139,1,215.999993408203,0|0,0:0|1:0,0:0:0:0:
261,221,234357,2,0,P|238:169|154:130,1,107.999996704102,8|0,0:0|0:0,0:0:0:0:
86,332,234694,6,0,B|145:292|204:325|204:325|231:312|231:312|264:329|264:329|294:315,1,215.999993408203,0|8,1:0|0:0,0:0:0:0:
386,159,235200,1,0,0:0:0:0:
214,129,235368,1,0,0:0:0:0:
410,269,235537,1,0,1:0:0:0:
143,223,235705,1,8,0:0:0:0:
308,117,235874,1,0,0:0:0:0:
239,353,236043,6,0,B|171:352|171:352|134:310|134:310|63:298|54:215,1,215.999993408203,0|8,1:0|0:0,0:0:0:0:
134,20,236548,2,0,B|200:20|200:20|237:62|237:62|290:69|307:116,1,215.999993408203,0|8,1:0|0:0,0:0:0:0:
53,169,237054,1,8,0:0:0:0:
54,115,237138,1,8,0:0:0:0:
56,61,237222,1,8,0:0:0:0:
47,281,237391,6,0,P|104:302|158:274,1,107.999996704102,0|0,1:0|0:0,0:0:0:0:
151,104,237728,1,8,0:0:0:0:
180,282,237896,2,0,P|237:303|291:275,1,107.999996704102
282,77,238234,1,0,1:0:0:0:
414,239,238402,1,8,0:0:0:0:
403,30,238571,1,0,0:0:0:0:
289,206,238739,5,0,1:0:0:0:
484,131,238908,1,0,0:0:0:0:
282,77,239076,1,8,0:0:0:0:
414,239,239245,2,0,P|363:316|237:326,1,215.999993408203,0|0,0:0|1:0,0:0:0:0:
125,120,239750,1,8,0:0:0:0:
110,328,239919,1,0,0:0:0:0:
219,149,240087,6,0,P|217:84|177:37,1,107.999996704102,0|0,1:0|0:0,0:0:0:0:
187,273,240425,1,8,0:0:0:0:
388,143,240593,2,0,B|405:87|384:35|384:35|326:46|296:88,1,215.999993408203,0|0,0:0|1:0,0:0:0:0:
342,314,241099,1,8,0:0:0:0:
388,143,241267,1,0,0:0:0:0:
187,273,241436,6,0,B|143:240|91:266|91:266|81:214|81:214|30:179,1,215.999993408203,0|8,1:0|0:0,0:0:0:0:
128,13,241941,2,0,B|171:45|223:19|223:19|233:71|233:71|284:106,1,215.999993408203,0|0,0:0|1:0,0:0:0:0:
114,223,242447,2,0,L|166:110,1,107.999996704102,8|0,0:0|0:0,0:0:0:0:
230,255,242784,5,0,1:0:0:0:
179,80,242953,1,0,0:0:0:0:
114,301,243121,1,8,0:0:0:0:
133,76,243290,1,0,0:0:0:0:
279,216,243458,5,0,1:0:0:0:
133,76,243627,1,0,0:0:0:0:
193,322,243795,1,8,0:0:0:0:
91,91,243964,1,0,0:0:0:0:
304,152,244132,5,0,1:0:0:0:
91,91,244301,1,0,0:0:0:0:
279,299,244469,1,8,0:0:0:0:
59,124,244638,1,0,0:0:0:0:
292,77,244807,5,0,1:0:0:0:
59,124,244976,1,0,0:0:0:0:
349,230,245144,1,8,0:0:0:0:
48,168,245313,1,0,0:0:0:0:
326,310,245481,6,0,P|385:309|423:271,1,107.999996704102,0|0,1:0|0:3,0:3:0:0:
445,191,245818,2,0,P|442:138|409:97,1,107.999996704102,0|0,1:0|0:0,0:0:0:0:
236,47,246155,2,0,P|183:48|143:83,1,107.999996704102,0|0,1:0|0:0,0:0:0:0:
115,167,246492,2,0,P|116:220|151:260,1,107.999996704102,0|0,1:0|0:0,0:0:0:0:
370,67,246829,5,8,0:0:0:0:
151,260,246998,1,0,1:0:0:0:
317,316,247166,1,0,1:0:0:0:
270,30,247335,5,8,0:0:0:0:
225,318,247504,1,0,1:0:0:0:
392,270,247672,1,0,1:0:0:0:
167,164,247840,1,8,0:0:0:0:
158,212,247924,1,8,0:0:0:0:
151,260,248008,1,8,0:0:0:0:
378,191,248177,6,0,P|398:140|379:78,1,99.0000030212403,4|0,1:2|0:0,0:0:0:0:
292,23,248514,1,8,0:0:0:0:
273,206,248683,1,0,0:0:0:0:
168,68,248852,2,0,P|148:119|167:181,1,99.0000030212403,0|0,0:0|1:0,0:0:0:0:
265,286,249189,1,8,0:0:0:0:
283,109,249357,1,0,0:0:0:0:
162,232,249526,6,0,P|142:283|161:345,2,99.0000030212403,0|0|8,1:0|0:0|0:0,0:0:0:0:
369,161,250031,2,0,P|362:243|256:283,1,198.000006042481,0|0,0:0|1:0,0:0:0:0:
191,143,250537,1,8,0:0:0:0:
165,316,250705,1,0,0:0:0:0:
98,129,250874,6,0,P|155:123|199:152,1,99.0000030212403,0|0,1:0|0:0,0:0:0:0:
79,298,251211,1,8,0:0:0:0:
191,143,251380,1,0,0:0:0:0:
259,332,251548,2,0,P|200:335|155:306,1,99.0000030212403,0|0,0:0|1:0,0:0:0:0:
289,155,251885,1,8,0:0:0:0:
338,333,252054,1,0,0:0:0:0:
370,110,252222,6,0,P|344:140|289:155,1,99.0000030212403,0|0,1:0|0:0,0:0:0:0:
132,56,252559,1,8,0:0:0:0:
210,239,252728,2,0,P|248:276|307:283,2,99.0000030212403,0|0|0,0:0|0:0|1:0,0:0:0:0:
132,56,253234,1,8,0:0:0:0:
110,227,253402,1,0,0:0:0:0:
229,101,253571,6,0,P|265:77|329:78,1,99.0000030212403,0|0,1:0|0:0,0:0:0:0:
210,239,253908,1,8,0:0:0:0:
132,56,254076,1,0,0:0:0:0:
320,75,254245,2,0,P|333:116|316:177,1,99.0000030212403,0|0,0:0|1:0,0:0:0:0:
205,292,254582,1,8,0:0:0:0:
229,101,254750,1,0,0:0:0:0:
368,276,254919,6,0,B|300:333|300:333|262:284|196:292,1,198.000006042481,0|8,1:0|0:0,0:0:0:0:
229,101,255425,2,0,B|286:108|324:59|324:59|378:144,1,198.000006042481,0|0,0:0|1:0,0:0:0:0:
469,296,255930,1,8,0:0:0:0:
371,133,256099,1,0,0:0:0:0:
285,312,256267,6,0,P|238:312|181:261,1,99.0000030212403,0|0,1:0|0:0,0:0:0:0:
156,99,256604,1,8,0:0:0:0:
264,217,256773,1,0,0:0:0:0:
60,150,256941,2,0,P|48:103|59:55,1,99.0000030212403,0|0,0:0|1:0,0:0:0:0:
145,219,257279,1,8,0:0:0:0:
275,75,257447,1,0,0:0:0:0:
55,178,257616,6,0,B|21:248|79:298|79:298|65:372,1,198.000006042481,0|8,1:0|0:0,0:0:0:0:
291,257,258121,2,0,B|321:185|262:139|262:139|277:59,1,198.000006042481,0|8,1:0|0:0,0:0:0:0:
156,171,258627,1,0,0:0:0:0:
145,219,258711,1,0,0:0:0:0:
136,268,258795,1,0,0:0:0:0:
322,148,258964,6,0,P|290:104|239:80,1,99.0000030212403,0|0,1:0|0:0,0:0:0:0:
232,273,259301,1,8,0:0:0:0:
156,124,259470,1,0,0:0:0:0:
136,315,259638,2,0,P|98:365|40:380,2,99.0000030212403,0|0|8,0:0|1:0|0:0,0:0:0:0:
53,162,260144,1,0,0:0:0:0:
232,273,260312,6,0,P|297:321|408:273,1,198.000006042481,0|8,1:0|0:0,0:0:0:0:
326,137,260818,2,0,P|256:89|145:138,1,198.000006042481,0|0,0:0|1:0,0:0:0:0:
232,273,261323,1,8,0:0:0:0:
392,205,261492,1,0,0:0:0:0:
343,12,261661,6,0,P|300:59|299:108,1,99.0000030212403,0|0,1:0|0:0,0:0:0:0:
321,255,261998,1,8,0:0:0:0:
458,162,262166,1,0,0:0:0:0:
295,92,262335,2,0,P|239:78|196:93,1,99.0000030212403,0|0,0:0|1:0,0:0:0:0:
166,259,262672,1,8,0:0:0:0:
321,255,262840,1,0,0:0:0:0:
200,90,263009,6,0,P|157:58|101:57,2,99.0000030212403,0|0|8,1:0|0:0|0:0,0:0:0:0:
90,267,263514,2,0,P|18:205|21:90,1,198.000006042481,0|0,0:0|1:0,0:0:0:0:
125,150,264020,1,8,0:0:0:0:
80,314,264189,1,0,0:0:0:0:
91,73,264357,6,0,P|149:67|189:93,1,99.0000030212403,0|0,1:0|0:0,0:0:0:0:
235,312,264694,2,0,P|199:342|197:302,1,99.0000030212403,8|0,0:0|0:0,0:0:0:0:
260,62,265031,2,0,P|308:98|316:146,1,99.0000030212403,0|0,1:0|0:0,0:0:0:0:
190,310,265368,2,0,P|168:325|172:278,1,99.0000030212403,8|0,0:0|0:0,0:0:0:0:
400,123,265705,6,0,P|375:196|347:214,1,99.0000030212403,0|0,1:0|0:0,0:0:0:0:
126,144,266043,2,0,P|87:145|113:175,1,99.0000030212403,8|0,0:0|0:0,0:0:0:0:
366,309,266380,2,0,P|326:338|277:340,1,99.0000030212403,0|0,1:0|0:0,0:0:0:0:
156,132,266718,2,0,P|127:104|126:144,1,99.0000030212403,8|0,0:0|0:0,0:0:0:0:
330,126,267054,5,0,1:0:0:0:
353,115,267138,1,0,0:0:0:0:
377,115,267222,1,0,0:0:0:0:
400,123,267306,1,0,0:0:0:0:
368,194,267391,5,0,1:0:0:0:
358,223,267475,1,0,0:0:0:0:
339,249,267559,1,0,0:0:0:0:
311,267,267643,1,0,0:0:0:0:
246,230,267728,5,0,1:0:0:0:
220,183,267812,1,0,0:0:0:0:
216,134,267896,1,0,0:0:0:0:
229,85,267980,1,0,0:0:0:0:
309,88,268065,5,0,1:0:0:0:
357,97,268149,1,0,0:0:0:0:
400,123,268233,1,0,0:0:0:0:
431,161,268317,1,0,0:0:0:0:
447,207,268402,6,0,P|423:237|393:250,1,49.5000015106202,8|0,0:0|0:0,0:0:0:0:
249,301,268571,1,0,1:0:0:0:
199,292,268655,1,0,0:0:0:0:
157,266,268739,2,0,P|159:240|172:203,1,49.5000015106202,0|0,1:0|0:0,0:0:0:0:
150,26,268908,6,0,P|138:49|131:88,1,49.5000015106202,8|0,0:0|0:0,0:0:0:0:
63,204,269076,1,0,1:0:0:0:
43,259,269160,1,0,0:0:0:0:
43,317,269244,2,0,P|75:329|105:328,1,49.5000015106202,0|0,1:0|0:0,0:0:0:0:
259,161,269413,6,0,P|232:138|186:136,1,80.9999975280763,8|0,0:0|0:0,0:0:0:0:
278,198,269750,6,0,B|321:205|358:179|358:179|401:233|401:233|467:237,1,215.999993408203,4|8,1:2|0:0,0:0:0:0:
495,71,270256,2,0,P|428:21|310:77,1,215.999993408203,0|0,0:0|1:0,0:0:0:0:
336,288,270762,1,8,0:0:0:0:
405,123,270930,1,0,0:0:0:0:
423,320,271099,6,0,P|377:375|326:384,1,107.999996704102,0|0,1:0|0:0,0:0:0:0:
309,102,271436,1,8,0:0:0:0:
255,300,271604,2,0,P|183:306|141:276,1,107.999996704102
234,47,271941,1,0,1:0:0:0:
118,208,272110,2,0,P|62:162|53:112,1,107.999996704102,8|0,0:0|0:0,0:0:0:0:
205,203,272447,6,0,P|188:264|135:295,2,107.999996704102,0|0|8,1:0|0:0|0:0,0:0:0:0:
81,60,272953,2,0,P|3:126|2:239,1,215.999993408203,0|0,0:0|1:0,0:0:0:0:
93,367,273458,1,8,0:0:0:0:
118,208,273627,1,0,0:0:0:0:
334,257,273795,6,0,B|375:272|339:327|281:324|260:280|255:229|278:189|317:172,1,215.999993408203,0|8,1:0|0:0,0:0:0:0:
453,95,274301,2,0,P|494:135|388:204,1,215.999993408203,0|0,0:0|1:0,0:0:0:0:
373,12,274807,1,8,0:0:0:0:
303,220,274975,1,0,0:0:0:0:
188,57,275144,6,0,P|230:22|294:27,1,107.999996704102,0|0,1:0|0:0,0:0:0:0:
303,220,275481,1,8,0:0:0:0:
430,83,275649,1,0,0:0:0:0:
322,304,275818,2,0,P|258:296|224:254,1,107.999996704102,0|0,0:0|1:0,0:0:0:0:
188,57,276155,2,0,P|213:116|193:166,1,107.999996704102,8|0,0:0|0:0,3:0:0:0:
85,219,276492,6,0,P|32:232|-5:284,2,107.999996704102,0|0|8,1:0|0:0|0:0,0:0:0:0:
278,243,276998,2,0,P|305:307|199:288,1,215.999993408203,0|0,0:0|1:0,0:0:0:0:
192,111,277503,2,0,P|214:55|252:30,1,107.999996704102,8|0,0:0|0:0,0:0:0:0:
278,243,277840,6,0,P|373:222|418:108,1,215.999993408203,0|8,1:0|0:0,0:0:0:0:
252,29,278346,2,0,P|209:60|192:111,2,107.999996704102,0|0|0,0:0|0:0|1:0,0:0:0:0:
278,243,278852,1,8,0:0:0:0:
191,111,279020,1,0,0:0:0:0:
191,304,279189,6,0,B|159:305|134:329|134:329|81:328|51:287|51:287|-24:316,1,215.999993408203,0|8,1:0|0:0,0:0:0:0:
53,87,279694,2,0,B|88:93|118:63|118:63|161:75|191:111|191:111|254:68,1,215.999993408203,0|8,1:0|0:0,1:0:0:0:
130,217,280200,1,8,0:0:0:0:
116,269,280284,1,8,0:0:0:0:
99,319,280368,1,8,0:0:0:0:
315,256,280537,6,0,P|338:197|332:152,1,107.999996704102,0|0,1:0|0:0,0:0:0:0:
202,27,280874,1,8,0:0:0:0:
130,217,281043,2,0,P|198:276|333:239,1,215.999993408203,0|0,0:0|1:0,0:0:0:0:
347,70,281548,1,8,0:0:0:0:
160,128,281717,1,0,0:0:0:0:
315,256,281885,6,0,P|324:305|372:351,2,107.999996704102,0|0|8,1:0|0:0|0:0,0:0:0:0:
347,70,282391,2,0,P|425:68|508:173,1,215.999993408203,0|0,0:0|1:0,0:0:0:0:
362,346,282896,1,8,0:0:0:0:
281,140,283065,1,0,0:0:0:0:
426,243,283234,6,0,L|509:317,2,107.999996704102,0|0|8,1:0|0:0|0:0,0:0:0:0:
223,80,283739,2,0,P|209:180|303:220,1,215.999993408203,0|0,0:0|1:0,0:0:0:0:
96,232,284245,1,8,0:0:0:0:
281,140,284413,1,0,0:0:0:0:
82,23,284582,6,0,L|57:142,1,107.999996704102,0|0,1:0|0:0,0:0:0:0:
160,297,284919,1,8,0:0:0:0:
281,140,285087,2,0,L|303:34,1,107.999996704102
59,128,285425,1,0,1:0:0:0:
227,278,285593,1,8,0:0:0:0:
19,214,285762,1,0,0:0:0:0:
238,196,285930,6,0,P|292:226|309:279,1,107.999996704102,0|0,1:0|0:0,0:0:0:0:
50,265,286267,2,0,P|8:265|36:214,1,107.999996704102,8|0,0:0|0:0,0:0:0:0:
281,140,286604,1,0,1:0:0:0:
195,351,286773,1,0,0:0:0:0:
59,128,286941,2,0,P|58:80|104:89,1,107.999996704102,8|0,0:0|0:0,0:0:0:0:
284,301,287279,6,0,P|242:341|185:350,1,107.999996704102,0|0,1:0|0:0,0:0:0:0:
232,108,287616,2,0,P|265:88|280:140,1,107.999996704102,8|0,0:0|0:0,0:0:0:0:
69,230,287953,2,0,P|49:172|61:123,1,107.999996704102,0|0,1:0|0:0,0:0:0:0:
297,243,288290,2,0,P|326:281|274:293,1,107.999996704102,8|0,0:0|0:0,0:0:0:0:
397,115,288627,5,0,1:0:0:0:
336,372,288795,1,0,0:0:0:0:
387,135,288964,5,0,1:0:0:0:
179,337,289132,1,0,0:0:0:0:
380,155,289301,5,0,1:0:0:0:
112,222,289470,1,0,0:0:0:0:
373,175,289638,5,0,1:0:0:0:
143,103,289807,1,0,0:0:0:0:
365,197,289975,5,0,1:0:0:0:
356,57,290144,1,0,1:0:0:0:
289,194,290312,1,0,1:0:0:0:
248,82,290481,1,0,1:0:0:0:
213,189,290649,1,0,1:0:0:0:
143,103,290818,1,0,1:0:0:0:
139,189,290986,6,0,P|119:227|77:192,1,108,8|0,0:0|0:0,0:0:0:0:
178,277,291323,6,0,P|127:304|52:283,1,116.999994644165,4|0,1:2|0:0,0:0:0:0:
0,114,291661,1,8,0:0:0:0:
197,8,291829,2,0,P|256:30|290:79,1,116.999994644165
178,277,292166,1,0,1:0:0:0:
442,214,292335,1,8,0:0:0:0:
287,71,292503,1,0,0:0:0:0:
375,358,292672,6,0,B|317:305|246:329|246:329|219:284|219:284|154:272,1,233.999989288331,0|8,1:0|0:0,0:0:0:0:
287,71,293177,1,0,0:0:0:0:
21,221,293346,1,0,0:0:0:0:
298,177,293514,1,0,1:0:0:0:
0,122,293683,1,8,0:0:0:0:
247,257,293852,1,0,0:0:0:0:
61,35,294020,6,0,P|101:81|104:153,1,116.999994644165,0|0,1:0|0:0,0:0:0:0:
23,364,294357,1,8,0:0:0:0:
187,183,294526,2,0,P|252:163|315:190,1,116.999994644165
398,353,294863,1,0,1:0:0:0:
164,362,295031,1,8,0:0:0:0:
253,109,295200,1,0,0:0:0:0:
468,226,295368,6,0,B|413:262|413:262|367:248|367:248|336:285|336:285|265:280,1,233.999989288331,0|8,1:0|0:0,0:0:0:0:
144,53,295874,2,0,B|209:45|248:-2|248:-2|230:56|257:119,1,233.999989288331,0|0,0:0|1:0,0:0:0:0:
388,322,296379,1,8,0:0:0:0:
446,71,296548,1,0,0:0:0:0:
170,198,296717,6,0,P|207:243|262:262,1,116.999994644165,0|0,1:0|0:0,0:0:0:0:
346,30,297054,1,8,0:0:0:0:
143,52,297222,1,0,0:0:0:0:
262,262,297391,2,0,B|236:319|236:319|156:337,1,116.999994644165,0|0,0:0|1:0,0:0:0:0:
64,121,297728,2,0,B|90:64|90:64|170:46,1,116.999994644165,8|0,0:0|0:0,0:0:0:0:
43,334,298065,5,0,1:0:0:0:
220,95,298234,1,0,0:0:0:0:
21,252,298402,1,8,0:0:0:0:
291,136,298571,2,0,B|336:197|336:197|330:279|330:279|394:354,1,233.999989288331,0|0,0:0|1:0,0:0:0:0:
415,82,299076,1,8,0:0:0:0:
180,221,299245,1,0,0:0:0:0:
500,228,299413,6,0,B|437:230|415:292|415:292|393:352|320:353,1,233.999989288331,0|8,1:0|0:0,0:0:0:0:
291,136,299919,1,0,0:0:0:0:
90,264,300087,1,0,0:0:0:0:
350,238,300256,1,0,1:0:0:0:
0,203,300425,1,8,0:0:0:0:
252,286,300593,1,0,0:0:0:0:
122,23,300762,6,0,B|59:68|59:68|56:125|56:125|9:148|-2:209,1,233.999989288331,0|8,1:0|0:0,0:0:0:0:
204,343,301267,2,0,B|252:287|252:287|252:227|252:227|290:193|291:130,1,233.999989288331,0|8,1:0|0:0,0:0:0:0:
70,34,301773,1,8,0:0:0:0:
51,99,301857,1,8,0:0:0:0:
34,165,301941,1,8,0:0:0:0:
115,303,302110,6,0,P|198:305|229:283,1,116.999994644165,0|0,1:0|0:0,0:0:0:0:
151,66,302447,1,8,0:0:0:0:
303,246,302616,2,0,P|353:219|379:167,1,116.999994644165
152,202,302953,1,0,1:0:0:0:
369,61,303121,1,8,0:0:0:0:
224,288,303290,1,0,0:0:0:0:
151,66,303458,6,0,B|196:18|196:18|270:18,1,116.999994644165,0|0,1:0|0:0,0:0:0:0:
371,272,303795,1,8,0:0:0:0:
262,64,303964,2,0,B|202:65|202:65|157:113,1,116.999994644165
274,341,304301,1,0,1:0:0:0:
382,132,304470,1,8,0:0:0:0:
453,364,304638,1,0,0:0:0:0:
196,212,304807,6,0,P|162:159|167:96,1,116.999994644165,0|0,1:0|0:0,0:0:0:0:
384,19,305144,1,8,0:0:0:0:
467,260,305312,2,0,B|444:296|389:283|389:283|373:343|312:363|260:334,1,233.999989288331,0|0,0:0|1:0,0:0:0:0:
236,90,305818,1,8,0:0:0:0:
390,283,305986,1,0,0:0:0:0:
432,20,306155,6,0,B|379:-1|319:30|306:87|306:87|266:71|230:94,1,233.999989288331,0|8,1:0|0:0,0:0:0:0:
324,335,306661,2,0,P|424:359|462:247,1,233.999989288331,0|0,0:0|1:0,0:0:0:0:
345,100,307166,1,8,0:0:0:0:
390,283,307335,1,0,0:0:0:0:
188,206,307503,5,0,1:0:0:0:
338,18,307672,1,0,0:0:0:0:
314,263,307840,1,8,0:0:0:0:
383,31,308009,1,0,0:0:0:0:
462,273,308177,5,0,1:0:0:0:
383,31,308346,1,0,0:0:0:0:
319,292,308514,1,0,0:0:0:0:
429,43,308683,1,0,0:0:0:0:
188,206,308852,5,0,1:0:0:0:
429,43,309021,1,0,0:0:0:0:
302,328,309189,1,0,0:0:0:0:
473,63,309358,1,0,0:0:0:0:
467,353,309526,5,0,1:0:0:0:
473,63,309695,1,0,0:0:0:0:
284,362,309863,1,0,0:0:0:0:
512,90,310032,1,0,0:0:0:0:
200,210,310200,5,0,1:0:0:0:
242,190,310537,1,0,1:0:0:0:
271,153,310874,1,0,1:0:0:0:
275,105,311211,1,0,1:0:0:0:
28,310,311548,5,8,0:0:0:0:
324,189,311717,1,0,1:0:0:0:
181,75,311885,1,0,1:0:0:0:
116,384,312054,5,8,0:0:0:0:
275,105,312223,1,0,1:0:0:0:
91,93,312391,1,0,1:0:0:0:
244,320,312559,1,8,0:0:0:0:
309,339,312643,1,8,0:0:0:0:
374,356,312727,1,8,0:0:0:0:
399,89,312896,6,0,P|342:92|297:128,1,107.999996704102,4|0,1:2|0:0,0:0:0:0:
244,320,313234,1,8,0:0:0:0:
376,232,313402,1,0,0:0:0:0:
180,183,313571,2,0,P|156:127|169:64,1,107.999996704102,0|0,0:0|1:0,0:0:0:0:
327,32,313908,1,8,0:0:0:0:
278,212,314076,1,0,0:0:0:0:
161,81,314245,6,0,B|117:78|92:51|92:51|108:151|-1:196,1,215.999993408203,0|8,1:0|0:0,0:0:0:0:
15,329,314750,2,0,B|59:332|84:359|84:359|68:259|177:214,1,215.999993408203,0|0,0:0|1:0,0:0:0:0:
278,212,315256,1,8,0:0:0:0:
118,105,315425,1,0,0:0:0:0:
362,45,315593,6,0,B|397:39|420:60|419:91|419:91|374:137|296:119,1,215.999993408203,0|8,1:0|0:0,0:0:0:0:
118,105,316099,1,0,0:0:0:0:
202,249,316267,1,0,0:0:0:0:
219,83,316436,1,0,1:0:0:0:
83,225,316604,1,8,0:0:0:0:
216,112,316773,1,0,0:0:0:0:
313,255,316941,6,0,B|367:228|367:228|448:246|448:246|515:211,1,215.999993408203,0|8,1:0|0:0,0:0:0:0:
425,10,317447,2,0,B|371:37|371:37|290:19|290:19|223:54,1,215.999993408203,0|0,0:0|1:0,0:0:0:0:
313,255,317953,1,8,0:0:0:0:
282,46,318121,1,0,0:0:0:0:
215,240,318290,6,0,P|262:264|338:235,1,107.999996704102,0|0,1:0|0:0,0:0:0:0:
282,46,318627,1,8,0:0:0:0:
425,200,318795,1,0,0:0:0:0:
192,143,318964,2,0,P|187:195|242:255,1,107.999996704102,0|0,0:0|1:0,0:0:0:0:
405,88,319301,1,8,0:0:0:0:
326,271,319470,1,0,0:0:0:0:
282,46,319638,6,0,B|189:6|124:73|124:73|176:131,1,215.999993408203,0|8,1:0|0:0,0:0:0:0:
326,271,320144,2,0,P|376:216|339:82,1,215.999993408203,0|0,0:0|1:0,0:0:0:0:
208,233,320649,1,8,0:0:0:0:
282,46,320818,1,0,0:0:0:0:
326,271,320986,6,0,P|288:336|243:356,1,107.999996704102,0|0,1:0|0:0,0:0:0:0:
246,140,321323,1,8,0:0:0:0:
163,344,321492,1,0,0:0:0:0:
113,171,321661,2,0,P|93:243|111:289,1,107.999996704102,0|0,0:0|1:0,0:0:0:0:
252,336,321998,1,8,0:0:0:0:
246,140,322166,1,0,0:0:0:0:
346,325,322335,6,0,B|390:328|415:355|415:355|499:320|493:237,1,215.999993408203,0|8,1:0|0:0,0:0:0:0:
404,71,322840,2,0,B|360:68|335:41|335:41|238:80|242:186,1,215.999993408203,0|8,1:0|0:0,0:0:0:0:
397,188,323346,1,8,0:0:0:0:
446,165,323430,1,8,0:0:0:0:
495,144,323514,1,8,0:0:0:0:
416,291,323683,6,0,P|355:282|309:233,1,107.999996704102,4|0,1:0|0:0,0:0:0:0:
282,75,324020,1,8,0:0:0:0:
205,239,324189,1,0,0:0:0:0:
163,50,324357,2,0,P|120:17|67:12,1,107.999996704102,0|0,0:0|1:0,0:0:0:0:
59,215,324694,1,8,0:0:0:0:
163,50,324863,1,0,0:0:0:0:
205,239,325031,6,0,B|241:263|249:299|249:299|285:204|402:220,1,215.999993408203,0|8,1:0|0:0,0:0:0:0:
470,100,325536,2,0,B|433:75|425:39|425:39|389:134|272:118,1,215.999993408203,0|0,0:0|1:0,0:0:0:0:
163,50,326043,1,8,0:0:0:0:
205,239,326211,1,0,0:0:0:0:
65,88,326380,6,0,L|64:202,1,107.999996704102,0|0,1:0|0:0,0:0:0:0:
210,262,326717,1,8,0:0:0:0:
169,81,326885,1,0,0:0:0:0:
116,278,327054,2,0,P|140:332|200:359,2,107.999996704102,0|0|8,0:0|1:0|0:0,0:0:0:0:
289,208,327559,6,0,P|309:256|298:308,1,107.999996704102,0|0,0:0|1:0,0:0:0:0:
243,133,327896,2,0,P|274:90|325:74,1,107.999996704102,0|8,0:0|0:0,0:0:0:0:
189,208,328233,2,0,P|136:201|96:165,1,107.999996704102
231,22,328571,1,0,1:0:0:0:
289,208,328739,1,8,0:0:0:0:
96,165,328908,1,0,0:0:0:0:
309,99,329076,6,0,P|376:91|436:123,1,107.999996704102,0|0,1:0|0:0,0:0:0:0:
355,300,329413,1,8,0:0:0:0:
412,104,329582,1,0,0:0:0:0:
498,265,329750,1,0,0:0:0:0:
420,77,329919,1,0,1:0:0:0:
365,270,330087,2,0,P|298:278|238:246,1,107.999996704102,8|0,0:0|0:0,0:0:0:0:
266,39,330425,6,0,B|354:6|421:77|421:77|367:134,1,215.999993408203,0|8,1:0|0:0,0:0:0:0:
261,264,330930,2,0,P|196:208|208:78,1,215.999993408203,0|0,0:0|1:0,0:0:0:0:
330,199,331436,1,8,0:0:0:0:
266,39,331604,1,0,0:0:0:0:
118,140,331773,6,0,P|110:199|144:257,1,107.999996704102,0|0,1:0|0:0,0:0:0:0:
264,65,332110,1,8,0:0:0:0:
261,264,332279,1,0,0:0:0:0:
411,158,332447,2,0,P|419:217|385:275,1,107.999996704102,0|0,0:0|1:0,0:0:0:0:
263,146,332784,1,8,0:0:0:0:
259,351,332953,1,0,0:0:0:0:
263,146,333121,5,0,1:0:0:0:
261,119,333205,1,0,0:0:0:0:
251,94,333289,1,0,0:0:0:0:
234,73,333373,1,0,0:0:0:0:
184,130,333458,5,8,0:0:0:0:
158,155,333542,1,0,0:0:0:0:
143,187,333626,1,0,1:0:0:0:
142,223,333710,1,0,0:0:0:0:
211,260,333795,5,0,0:0:0:0:
245,271,333879,1,0,0:0:0:0:
284,272,333963,1,8,0:0:0:0:
322,261,334047,1,0,0:0:0:0:
349,184,334132,5,8,0:0:0:0:
349,139,334216,1,8,0:0:0:0:
340,96,334300,1,8,0:0:0:0:
321,56,334384,1,0,0:0:0:0:
294,21,334470,6,8,B|252:46|204:21|204:21|198:73|122:99,1,180,4|8,1:2|0:0,0:0:0:0:
21,202,334975,1,0,0:0:0:0:
153,85,335144,2,0,P|188:123|199:192,1,90,0|0,0:0|1:0,0:0:0:0:
157,309,335481,1,8,0:0:0:0:
199,158,335649,1,0,0:0:0:0:
311,281,335818,6,0,P|386:270|472:323,1,180,0|8,1:0|0:0,0:0:0:0:
504,175,336323,2,0,P|429:186|343:133,1,180,0|0,0:0|1:0,0:0:0:0:
458,32,336829,1,8,0:0:0:0:
419,184,336998,1,0,0:0:0:0:
291,73,337166,6,0,P|250:38|177:36,1,90,0|0,1:0|0:0,0:0:0:0:
222,245,337503,2,0,P|272:226|311:164,1,90,8|0,0:0|0:0,0:0:0:0:
124,102,337840,2,0,P|114:155|148:219,1,90,0|0,0:0|1:0,0:0:0:0:
291,73,338177,1,8,0:0:0:0:
222,245,338346,1,0,0:0:0:0:
394,205,338514,6,0,P|363:249|315:273,1,90,0|0,1:0|0:0,0:0:0:0:
286,95,338852,1,8,0:0:0:0:
222,245,339020,2,0,P|191:289|143:313,1,90
116,126,339358,1,0,1:0:0:0:
55,314,339526,1,8,0:0:0:0:
222,245,339694,1,0,0:0:0:0:
37,116,339863,6,0,P|54:75|91:51,1,90,0|0,1:0|0:0,0:0:0:0:
123,231,340200,1,8,0:0:0:0:
247,114,340368,1,0,0:0:0:0:
305,258,340537,2,0,P|288:299|252:324,1,90,0|0,0:0|1:0,0:0:0:0:
142,215,340874,1,8,0:0:0:0:
273,88,341042,1,0,0:0:0:0:
335,261,341211,6,0,B|430:269|430:269|498:206,1,180,0|8,1:0|0:0,0:0:0:0:
430,38,341717,2,0,B|335:30|335:30|267:93,1,180,0|0,0:0|1:0,0:0:0:0:
142,215,342222,1,8,0:0:0:0:
339,250,342391,1,0,0:0:0:0:
272,87,342559,6,0,L|250:216,1,90,0|0,1:0|0:0,0:0:0:0:
234,328,342896,1,8,0:0:0:0:
142,215,343065,1,0,0:0:0:0:
354,161,343234,2,0,L|336:263,1,90,0|0,0:0|1:0,0:0:0:0:
150,308,343571,1,8,0:0:0:0:
183,126,343739,1,0,0:0:0:0:
0,259,343908,6,0,B|57:323|57:323|164:305,1,180,0|8,1:0|0:0,0:0:0:0:
183,126,344413,2,0,B|126:62|126:62|19:80,1,180,0|8,1:0|0:0,0:0:0:0:
132,210,344919,1,8,0:0:0:0:
167,216,345003,1,8,0:0:0:0:
202,223,345087,1,8,0:0:0:0:
87,142,345256,6,0,P|53:191|57:239,1,90,0|0,1:0|0:0,0:0:0:0:
184,308,345593,1,8,0:0:0:0:
209,150,345762,1,0,0:0:0:0:
308,259,345930,6,0,P|363:252|398:220,1,90,0|0,0:0|1:0,0:0:0:0:
351,76,346267,1,8,0:0:0:0:
209,150,346436,1,0,0:0:0:0:
390,232,346604,6,0,B|350:205|357:153|357:153|295:153|275:93,1,180,0|8,1:0|0:0,0:0:0:0:
164,218,347110,2,0,B|201:249|198:298|198:298|251:298|287:345,1,180,0|0,0:0|1:0,0:0:0:0:
390,232,347616,1,8,0:0:0:0:
283,111,347784,1,0,0:0:0:0:
231,261,347953,6,0,B|207:306|207:306|140:327,1,90,0|0,1:0|0:0,0:0:0:0:
222,171,348290,2,0,B|195:127|195:127|210:59,1,90,8|0,0:0|0:0,0:0:0:0:
310,207,348627,2,0,B|360:205|360:205|412:252,1,90,0|0,0:0|1:0,0:0:0:0:
285,346,348964,1,8,0:0:0:0:
164,218,349132,1,0,0:0:0:0:
280,96,349301,6,0,B|206:111|181:44|181:44|118:26,1,180,0|8,1:0|0:0,0:0:0:0:
58,184,349807,2,0,B|90:244|164:217|164:217|222:249,1,180,0|0,0:0|1:0,0:0:0:0:
280,96,350312,1,8,0:0:0:0:
326,256,350481,1,0,0:0:0:0:
126,84,350649,6,0,L|170:176,1,90,0|0,1:0|0:0,0:0:0:0:
326,256,350986,2,0,B|315:299|315:299|270:295,1,90,8|0,0:0|0:0,0:0:0:0:
277,50,351323,2,0,L|283:158,1,90,0|0,1:0|0:0,0:0:0:0:
269,294,351660,2,0,B|235:329|235:329|201:299,1,90,8|0,0:0|0:0,0:0:0:0:
118,208,351998,6,0,L|231:230,1,90,0|0,1:0|0:0,0:0:0:0:
384,225,352335,2,0,B|422:194|422:194|397:158,1,90,8|0,0:0|0:0,0:0:0:0:
152,79,352672,2,0,L|218:174,1,90,0|0,1:0|0:0,0:0:0:0:
340,277,353009,2,0,B|386:268|386:268|384:225,1,90,8|0,0:0|0:0,0:0:0:0:
203,152,353346,5,0,1:0:0:0:
212,166,353430,1,0,0:0:0:0:
215,184,353514,1,0,0:0:0:0:
212,201,353598,1,0,0:0:0:0:
137,219,353683,5,0,1:0:0:0:
113,224,353767,1,0,0:0:0:0:
88,223,353851,1,0,0:0:0:0:
65,215,353935,1,0,0:0:0:0:
91,139,354020,5,0,1:0:0:0:
109,113,354104,1,0,0:0:0:0:
134,95,354188,1,0,0:0:0:0:
164,86,354272,1,0,0:0:0:0:
232,139,354357,5,0,1:0:0:0:
248,180,354441,1,0,0:0:0:0:
250,224,354525,1,0,0:0:0:0:
238,267,354609,1,0,0:0:0:0:
216,304,354694,5,8,0:0:0:0:
353,135,354863,1,0,1:0:0:0:
243,50,355031,1,0,1:0:0:0:
216,304,355199,5,8,0:0:0:0:
243,50,355368,1,0,1:0:0:0:
118,113,355537,1,0,1:0:0:0:
216,304,355705,1,8,0:0:0:0:
261,309,355789,1,8,0:0:0:0:
308,316,355873,1,8,0:0:0:0:
232,139,356043,5,0,0:0:0:0:
