osu file format v14

[General]
AudioFilename: audio.mp3
AudioLeadIn: 0
PreviewTime: 45004
Countdown: 0
SampleSet: None
StackLeniency: 1
Mode: 0
LetterboxInBreaks: 0
WidescreenStoryboard: 1

[Editor]
Bookmarks: 4899,9952,15320,20057,25425,29689,35215,40268,45004,50373,55425,60004,65689,70583,75636,85110,90794,95531,100425,105636,110531,110610,115583,135636,146215,156162,166268,176215,179215
DistanceSpacing: 0.8
BeatDivisor: 4
GridSize: 4
TimelineZoom: 2.050004

[Metadata]
Title:Juusou
TitleUnicode:銃爽
Artist:kalon.
ArtistUnicode:kalon.
Creator:Miu_R
Version:AR10
Source:
Tags:kantai collection suzuya 鈴谷 juu kalon tom jun kinema 106
BeatmapID:2628762
BeatmapSetID:444668

[Difficulty]
HPDrainRate:6
CircleSize:4
OverallDifficulty:9
ApproachRate:10
SliderMultiplier:1.8
SliderTickRate:1

[Events]
//Background and Video events
0,0,"42979880_p0.jpg",0,0
//Break Periods
2,136625,145627
//Storyboard Layer 0 (Background)
//Storyboard Layer 1 (Fail)
//Storyboard Layer 2 (Pass)
//Storyboard Layer 3 (Foreground)
//Storyboard Layer 4 (Overlay)
//Storyboard Sound Samples

[TimingPoints]
1268,315.789473684211,4,2,1,80,1,0
45004,-200,4,2,1,80,0,0
45320,-100,4,2,1,80,0,1
52899,-100,4,2,1,80,0,1
53136,-166.666666666667,4,2,1,5,0,1
53215,-100,4,2,1,80,0,1
53294,-100,4,2,1,5,0,1
53373,-133.333333333333,4,2,1,80,0,1
53531,-100,4,2,1,80,0,1
53846,-100,4,2,1,80,0,1
54399,-100,4,2,1,5,0,1
54478,-100,4,2,1,80,0,1
62679,-100,4,2,1,5,0,1
62758,-100,4,2,1,80,0,1
62915,-100,4,2,1,5,0,1
62994,-100,4,2,1,80,0,1
65531,-100,4,2,1,80,0,0
75162,-100,4,2,1,50,0,0
78162,-100,4,2,1,30,0,0
79583,-100,4,2,1,80,0,0
81547,-100,4,2,1,5,0,0
81626,-100,4,2,1,80,0,0
90715,-100,4,2,1,5,0,0
90794,-100,4,2,1,80,0,0
95531,-200,4,2,1,80,0,0
95689,-100,4,2,1,80,0,0
95846,-100,4,2,1,80,0,1
103662,-100,4,2,1,5,0,1
103741,-133.333333333333,4,2,1,80,0,1
103820,-133.333333333333,4,2,1,5,0,1
103899,-133.333333333333,4,2,1,80,0,1
104057,-100,4,2,1,80,0,1
104925,-100,4,2,1,5,0,1
105004,-100,4,2,1,80,0,1
113215,-100,4,2,1,5,0,1
113294,-100,4,2,1,80,0,1
113452,-100,4,2,1,5,0,1
113531,-100,4,2,1,80,0,1
116057,-100,4,2,1,80,0,0
135004,-125,4,2,1,80,0,0
146215,-166.666666666667,4,2,1,50,0,0
154110,-166.666666666667,4,2,1,60,0,0
154346,-166.666666666667,4,2,1,5,0,0
154425,-125,4,2,1,73,0,0
154662,-142.857142857143,4,2,1,5,0,0
154741,-100,4,2,1,86,0,0
154978,-100,4,2,1,5,0,0
155057,-83.3333333333333,4,2,1,100,0,0
155294,-83.3333333333333,4,2,1,5,0,0
155373,-83.3333333333333,4,2,1,80,0,0
156952,-50,4,2,1,80,0,1
157268,-100,4,2,1,80,0,1
173846,-100,4,2,1,5,0,1
173925,-100,4,2,1,80,0,1
174083,-100,4,2,1,5,0,1
174162,-100,4,2,1,80,0,1
176215,-100,4,2,1,80,0,0
182136,-100,4,2,1,5,0,0
182215,-100,4,2,1,80,0,0
184978,-100,4,2,1,5,0,0
185057,-100,4,2,1,80,0,0

[HitObjects]
407,114,4899,6,0,P|299:136|225:142,1,180,4|0,0:0|0:0,0:0:0:0:
45,118,5373,2,0,L|34:210,1,90,8|0,0:0|0:0,0:0:0:0:
262,343,5689,2,0,P|344:323|355:239,1,180,0|8,0:0|0:0,0:0:0:0:
173,280,6162,2,0,L|162:391,1,90,4|0,0:0|0:0,0:0:0:0:
225,83,6478,5,2,0:0:0:0:
312,288,6636,1,10,0:0:0:0:
104,204,6794,1,2,0:0:0:0:
348,200,6952,1,2,0:0:0:0:
204,340,7110,1,2,0:0:0:0:
252,136,7268,1,10,0:0:0:0:
51,206,7425,6,0,P|67:114|127:30,1,180,2|0,0:0|0:0,0:0:0:0:
188,300,7899,1,8,0:0:0:0:
388,212,8057,2,0,P|432:184|476:156,1,90,4|0,0:0|0:0,0:0:0:0:
190,142,8373,1,8,1:0:0:0:
190,142,8452,1,8,1:0:0:0:
190,142,8531,2,0,L|208:248,1,90,8|0,0:0|0:0,0:0:0:0:
396,310,8846,2,0,L|341:228,1,90,0|8,0:0|1:0,0:0:0:0:
100,168,9162,1,8,2:2:0:0:
171,347,9320,2,0,L|265:316,1,90
430,119,9636,1,8,1:0:0:0:
430,119,9715,1,8,1:0:0:0:
430,119,9794,2,0,L|449:159,1,45,8|0,2:2|0:0,0:0:0:0:
239,81,9952,6,0,P|215:206|216:261,1,180,4|0,0:0|0:0,0:0:0:0:
217,279,10425,1,8,0:0:0:0:
305,145,10583,1,0,0:0:0:0:
120,196,10741,2,0,P|105:225|166:330,1,135
165,333,11057,2,0,L|251:298,1,90,8|0,0:0|0:0,0:0:0:0:
370,173,11373,5,2,0:0:0:0:
124,152,11531,1,2,0:0:0:0:
280,336,11689,5,10,0:0:0:0:
312,88,11846,1,2,0:0:0:0:
116,244,12004,5,2,0:0:0:0:
360,192,12162,1,2,0:0:0:0:
124,140,12320,5,10,0:0:0:0:
388,120,12478,2,0,B|436:160|436:160|424:216|452:276,1,180,6|0,0:0|0:0,0:0:0:0:
451,274,12873,1,0,0:0:0:0:
451,274,12952,1,8,0:0:0:0:
173,252,13110,1,0,0:0:0:0:
173,252,13189,1,0,0:0:0:0:
173,252,13268,1,8,0:0:0:0:
412,112,13425,1,0,0:0:0:0:
412,112,13504,1,0,0:0:0:0:
412,112,13583,1,8,0:0:0:0:
172,68,13741,5,4,0:0:0:0:
172,68,14057,1,0,0:0:0:0:
320,204,14215,1,8,0:0:0:0:
68,172,14373,1,0,0:0:0:0:
288,272,14531,5,8,1:0:0:0:
264,300,14610,1,8,1:0:0:0:
232,320,14689,1,8,1:0:0:0:
196,328,14768,1,8,1:0:0:0:
160,320,14846,1,8,0:0:0:0:
412,100,15004,1,4,0:0:0:0:
412,100,15320,6,0,P|368:108|316:104,1,90,0|8,0:0|0:0,0:0:0:0:
92,160,15636,1,0,0:0:0:0:
316,184,15794,1,2,1:0:0:0:
160,320,15952,2,0,P|160:276|164:224,1,90,0|8,0:0|0:0,0:0:0:0:
364,292,16268,1,0,0:0:0:0:
300,76,16425,1,2,1:0:0:0:
108,224,16583,2,8,P|160:232|208:240,1,90,2|8,1:0|0:0,0:0:0:0:
340,192,16899,1,0,0:0:0:0:
152,124,17057,1,2,1:0:0:0:
152,312,17215,1,0,0:0:0:0:
280,156,17373,1,8,0:0:0:0:
184,328,17531,2,0,B|148:312|128:292|128:292|104:244|96:168,1,180
316,268,18004,5,8,0:0:0:0:
168,112,18162,1,0,0:0:0:0:
176,316,18320,1,2,1:0:0:0:
392,208,18478,2,0,P|344:196|272:200,1,90,0|8,0:0|0:0,0:0:0:0:
84,304,18794,1,0,0:0:0:0:
240,120,18952,1,2,1:0:0:0:
56,160,19110,2,0,P|100:192|140:208,1,90,2|8,1:0|0:0,0:0:0:0:
368,96,19425,2,0,B|412:136|412:136|416:196|412:256,1,180
192,312,19899,1,8,0:0:0:0:
240,72,20057,6,0,P|148:88|72:176,1,180,4|0,0:0|0:0,0:0:0:0:
336,192,20531,1,8,0:0:0:0:
80,236,20689,2,0,P|156:292|244:308,1,180
84,148,21162,1,8,0:0:0:0:
324,84,21320,2,0,P|228:112|176:188,1,180
436,188,21794,1,8,0:0:0:0:
176,252,21952,2,0,P|252:312|332:320,1,180
116,188,22425,1,8,0:0:0:0:
340,72,22583,2,0,P|352:120|352:164,1,90
112,76,22899,5,2,0:0:0:0:
172,320,23057,1,10,0:0:0:0:
256,84,23215,1,2,0:0:0:0:
48,212,23373,1,2,1:0:0:0:
256,84,23531,1,2,0:0:0:0:
256,328,23689,1,10,0:0:0:0:
256,88,23846,2,0,P|308:164|328:264,1,180,2|0,0:0|0:0,0:0:0:0:
144,88,24320,1,8,0:0:0:0:
172,328,24478,2,0,P|96:272|56:192,1,180
280,296,24952,1,8,0:0:0:0:
280,52,25110,2,0,P|240:84|200:104,1,90,4|0,0:0|1:0,0:0:0:0:
440,172,25425,5,2,0:0:0:0:
200,204,25583,1,10,0:0:0:0:
416,96,25741,1,2,0:0:0:0:
248,272,25899,1,2,0:0:0:0:
276,64,26057,2,0,P|312:100|336:136,1,90,2|8,0:0|0:0,0:0:0:0:
376,280,26373,1,0,0:0:0:0:
176,140,26531,1,2,1:0:0:0:
144,320,26689,2,0,B|196:308|240:320,1,90,2|8,1:0|0:0,0:0:0:0:
56,152,27004,2,0,B|92:156|128:156|128:156|180:152|236:112,1,180,2|0,1:0|0:0,0:0:0:0:
84,320,27478,1,8,0:0:0:0:
312,232,27636,2,0,P|312:184|300:128,1,90
68,76,27952,6,0,P|64:136|72:188,1,90,2|10,0:0|0:0,0:0:0:0:
256,320,28268,1,0,0:0:0:0:
60,248,28425,1,2,1:0:0:0:
288,160,28583,2,0,P|300:216|324:260,1,90,2|8,1:0|0:0,0:0:0:0:
80,76,28899,2,0,P|136:152|176:244,1,180,2|0,1:0|0:0,0:0:0:0:
356,84,29373,2,0,P|300:80|260:84,1,90,8|0,0:0|0:0,0:0:0:0:
428,268,29689,5,2,1:0:0:0:
268,84,29846,1,0,0:0:0:0:
428,268,30004,1,8,0:0:0:0:
196,216,30162,2,0,B|244:264|208:276|208:276|160:260|80:260,1,180,4|0,0:0|0:0,0:0:0:0:
368,168,30636,1,8,0:0:0:0:
308,328,30794,2,0,B|296:236|296:236|252:132,1,180,2|0,0:0|0:0,0:0:0:0:
104,288,31268,1,8,0:0:0:0:
144,80,31425,6,0,B|192:32|204:68|204:68|188:116|188:196,1,180,2|0,0:0|0:0,0:0:0:0:
384,76,31899,1,8,0:0:0:0:
248,244,32057,2,0,B|320:196|320:196|412:172,1,180,2|0,0:0|0:0,0:0:0:0:
168,280,32531,1,8,0:0:0:0:
96,76,32689,2,0,B|120:140|176:180|224:160|272:124,1,180,4|0,0:0|0:0,0:0:0:0:
84,292,33162,5,8,0:0:0:0:
100,164,33320,1,8,1:0:0:0:
296,228,33478,5,2,0:0:0:0:
196,136,33636,1,0,0:0:0:0:
196,136,33715,1,0,0:0:0:0:
196,136,33794,1,8,0:0:0:0:
264,296,33952,6,0,B|292:220|340:180|340:180|340:128,1,180,4|8,0:0|1:0,1:0:0:0:
326,132,34425,1,8,3:0:0:0:
139,203,34583,6,8,B|85:229|85:229|93:287|141:337,1,180,8|8,1:0|1:0,1:0:0:0:
138,343,35057,1,8,3:0:0:0:
179,72,35215,6,0,B|202:164|255:240,1,180,4|0,0:0|3:0,0:0:0:0:
251,235,35610,1,0,3:0:0:0:
251,235,35689,1,8,3:2:0:0:
284,96,35846,1,0,0:0:0:0:
436,252,36004,1,0,0:0:0:0:
240,324,36162,1,0,3:0:0:0:
247,332,36241,1,0,3:0:0:0:
247,332,36320,1,8,3:2:0:0:
268,212,36478,6,0,L|288:116,1,90
52,188,36794,1,0,3:0:0:0:
96,180,36873,1,0,3:0:0:0:
140,172,36952,1,8,3:2:0:0:
150,308,37110,1,0,0:0:0:0:
303,145,37268,6,0,L|274:181,1,45,0|0,3:0|3:0,3:0:0:0:
249,343,37425,1,0,3:0:0:0:
249,343,37504,1,0,3:0:0:0:
249,343,37583,2,0,L|260:294,1,45,8|0,3:2|0:0,0:0:0:0:
87,196,37741,6,0,L|169:315,1,135,4|0,0:0|0:0,0:0:0:0:
181,333,38057,1,0,0:0:0:0:
193,154,38215,1,8,0:0:0:0:
415,137,38373,6,0,L|273:83,1,135,4|0,0:0|0:0,0:0:0:0:
273,95,38689,1,0,0:0:0:0:
298,297,38846,1,8,0:0:0:0:
116,295,39004,6,0,P|121:237|132:160,1,135,4|0,0:0|0:0,0:0:0:0:
162,140,39320,1,0,3:0:0:0:
231,323,39478,1,8,2:0:0:0:
79,245,39636,1,0,0:0:0:0:
372,283,39794,1,0,0:0:0:0:
384,239,39873,1,0,0:0:0:0:
376,195,39952,1,0,3:0:0:0:
352,159,40031,1,0,3:0:0:0:
312,142,40110,1,8,3:2:0:0:
116,276,40268,6,0,P|180:196|252:148,1,180,4|0,0:0|3:0,0:0:0:0:
364,176,40662,1,0,3:0:0:0:
352,212,40741,2,0,L|284:304,1,90,8|0,3:2|3:0,0:0:0:0:
180,260,40978,1,0,3:0:0:0:
144,252,41057,2,0,P|100:240|44:216,1,90,8|0,3:2|3:0,0:0:0:0:
152,124,41294,1,0,3:0:0:0:
184,104,41373,2,0,P|232:88|280:80,1,90,8|0,3:2|3:0,0:0:0:0:
84,296,41689,5,8,0:0:0:0:
264,148,41846,1,0,3:0:0:0:
84,296,42004,1,8,0:0:0:0:
344,168,42162,1,0,3:0:0:0:
88,300,42320,1,8,0:0:0:0:
420,180,42478,1,8,1:0:0:0:
428,188,42557,1,8,1:0:0:0:
428,188,42636,1,8,0:0:0:0:
272,264,42794,5,4,0:0:0:0:
244,92,42952,1,0,0:0:0:0:
72,144,43110,1,0,0:0:0:0:
88,176,43189,1,0,0:0:0:0:
112,204,43268,1,8,2:0:0:0:
144,216,43346,1,0,0:0:0:0:
180,208,43425,1,0,0:0:0:0:
204,180,43504,1,0,0:0:0:0:
224,148,43583,1,8,0:0:0:0:
264,160,43662,1,0,0:0:0:0:
308,172,43741,1,0,0:0:0:0:
356,188,43820,1,0,0:0:0:0:
408,208,43899,1,8,0:0:0:0:
388,264,43978,1,0,0:0:0:0:
360,320,44057,1,2,1:2:0:0:
112,148,45004,6,4,B|120:188|120:188|136:192,1,45,2|2,1:0|1:0,1:0:0:0:
188,72,45320,6,0,B|264:60|316:104|296:204,1,180,4|0,0:0|0:0,0:0:0:0:
88,260,45794,2,0,P|136:260|184:252,1,90,8|0,0:0|0:0,0:0:0:0:
416,168,46110,1,0,0:0:0:0:
356,340,46268,1,0,0:0:0:0:
320,136,46425,1,8,0:0:0:0:
448,284,46583,2,0,P|400:256|360:240,1,90,4|0,0:0|0:0,0:0:0:0:
188,328,46899,1,0,0:0:0:0:
344,168,47057,1,8,0:0:0:0:
120,168,47215,1,0,0:0:0:0:
424,168,47373,2,0,P|376:176|320:200,1,90
240,332,47689,5,8,0:0:0:0:
312,60,47846,2,0,P|412:92|468:180,1,180,6|2,0:0|0:0,0:0:0:0:
168,184,48320,1,10,0:0:0:0:
408,300,48478,1,2,0:0:0:0:
372,72,48636,1,2,0:0:0:0:
256,324,48794,1,2,0:0:0:0:
180,64,48952,1,10,0:0:0:0:
416,196,49110,2,0,P|304:212|232:240,1,180,2|0,0:0|0:0,0:0:0:0:
92,308,49583,2,0,P|88:260|96:220,1,90,8|0,0:0|0:0,0:0:0:0:
232,63,49899,6,0,P|240:107|240:155,1,90,8|0,3:0|3:0,0:0:0:0:
128,132,50215,1,8,0:0:0:0:
276,300,50373,2,0,P|320:212|376:148,1,180,4|0,0:0|0:0,0:0:0:0:
144,220,50846,1,8,0:0:0:0:
408,220,51004,1,0,0:0:0:0:
180,112,51162,2,0,P|116:104|76:108,1,90
172,320,51478,1,8,0:0:0:0:
312,112,51636,6,0,P|216:176|144:240,1,180,4|0,0:0|0:0,0:0:0:0:
416,172,52110,1,8,0:0:0:0:
320,336,52268,1,0,0:0:0:0:
100,240,52425,1,8,0:0:0:0:
320,176,52583,2,0,P|328:220|316:264,1,90,0|8,0:0|0:0,0:0:0:0:
88,152,52899,6,0,B|153:184|212:225,1,135,2|0,1:0|0:0,0:0:0:0:
140,232,53215,1,0,0:0:0:0:
296,72,53373,6,0,L|294:36,1,33.7500012874604,8|0,0:0|0:0,0:0:0:0:
360,152,53531,2,0,B|402:245|416:332,1,180,2|0,1:0|3:0,0:0:0:0:
406,333,53925,1,0,3:0:0:0:
399,344,54004,1,8,0:0:0:0:
196,308,54162,6,0,P|200:264|244:184,1,135,4|0,0:0|0:0,0:0:0:0:
276,156,54478,2,0,P|264:112|240:68,1,90,0|8,0:0|3:2,0:0:0:0:
208,72,54715,1,8,3:2:0:0:
198,87,54794,1,8,3:2:0:0:
188,102,54873,1,0,3:0:0:0:
178,117,54952,1,0,3:0:0:0:
168,132,55031,1,0,3:0:0:0:
158,147,55110,5,0,3:0:0:0:
190,179,55189,1,0,3:0:0:0:
226,207,55268,1,0,3:0:0:0:
266,227,55346,1,0,3:0:0:0:
310,243,55425,6,0,B|362:271|362:271|322:307|262:303|230:295,1,180,4|0,3:2|0:0,0:0:0:0:
92,120,55899,2,0,P|132:168|144:200,1,90,8|0,0:0|0:0,0:0:0:0:
368,120,56215,2,0,P|296:128|264:128,1,90
392,308,56531,1,8,0:0:0:0:
136,236,56689,2,0,P|176:228|192:276,1,90,4|0,0:0|0:0,0:0:0:0:
396,128,57004,1,2,1:0:0:0:
160,132,57162,1,10,1:2:0:0:
380,56,57320,1,2,1:0:0:0:
300,284,57478,2,2,P|260:264|208:252,1,90,2|2,1:0|1:0,1:0:0:0:
444,160,57794,1,10,1:2:0:0:
140,244,57952,6,2,P|188:128|252:96,1,180
272,332,58425,1,10,0:0:0:0:
76,124,58583,1,6,0:0:0:0:
388,160,58741,1,2,0:0:0:0:
100,248,58899,1,2,3:0:0:0:
96,252,58978,1,0,3:0:0:0:
92,256,59057,1,8,0:0:0:0:
312,256,59215,2,0,B|232:204|180:128,1,180,2|0,1:0|3:0,0:0:0:0:
176,120,59610,1,0,3:0:0:0:
172,108,59689,1,8,0:0:0:0:
172,316,59846,1,4,3:0:0:0:
396,256,60004,5,0,3:0:0:0:
224,232,60162,1,0,3:0:0:0:
220,236,60241,1,0,3:0:0:0:
216,240,60320,1,8,0:0:0:0:
328,88,60478,2,0,P|340:140|336:176,2,90,4|0|0,0:0|0:0|0:0,0:0:0:0:
128,132,60952,1,8,0:0:0:0:
416,124,61110,1,0,0:0:0:0:
368,328,61268,1,0,0:0:0:0:
236,116,61425,2,0,P|236:160|240:212,1,90,0|8,0:0|0:0,0:0:0:0:
76,76,61741,1,2,0:0:0:0:
76,76,62057,5,0,0:0:0:0:
348,76,62215,1,8,0:0:0:0:
88,156,62373,1,0,0:0:0:0:
284,168,62531,2,2,P|236:172|188:180,1,90,2|0,1:0|0:0,1:0:0:0:
152,192,62768,2,2,P|232:208|260:216,1,90,2|0,1:0|0:0,1:0:0:0:
284,240,63004,2,0,B|208:264|160:268|160:268,1,90,6|0,1:2|0:0,0:0:0:0:
360,188,63320,5,0,3:0:0:0:
360,188,63399,1,0,3:0:0:0:
360,188,63478,1,8,0:0:0:0:
108,60,63636,5,4,1:0:0:0:
76,276,63794,1,8,0:0:0:0:
192,76,63952,5,4,1:0:0:0:
204,336,64110,1,8,0:0:0:0:
300,92,64268,5,4,2:0:0:0:
160,312,64425,1,0,0:0:0:0:
440,248,64583,5,0,3:0:0:0:
440,248,64662,1,0,3:0:0:0:
440,248,64741,1,8,0:0:0:0:
214,214,64899,5,0,0:0:0:0:
158,198,64978,1,0,0:0:0:0:
130,146,65057,1,8,1:0:0:0:
166,98,65136,1,8,1:0:0:0:
226,102,65215,1,8,1:0:0:0:
274,142,65294,1,8,1:0:0:0:
334,138,65373,1,8,1:0:0:0:
308,342,65531,1,4,0:0:0:0:
308,342,65846,6,0,L|188:307,1,90,2|8,0:0|0:0,0:0:0:0:
395,264,66162,1,0,0:0:0:0:
256,148,66320,2,0,P|208:143|154:146,1,90,2|0,0:0|0:0,0:0:0:0:
92,278,66636,1,8,0:0:0:0:
279,323,66794,5,2,0:0:0:0:
200,129,66952,1,2,0:0:0:0:
157,341,67110,1,2,0:0:0:0:
94,207,67268,1,8,0:0:0:0:
256,246,67425,2,0,P|303:232|350:214,1,90,2|0,0:0|0:0,0:0:0:0:
223,59,67741,2,0,L|208:156,2,90,0|8|0,0:0|0:0|0:0,0:0:0:0:
79,90,68215,5,0,0:0:0:0:
69,245,68373,2,0,L|161:254,1,90,2|8,0:0|0:0,0:0:0:0:
328,183,68689,1,0,0:0:0:0:
166,152,68846,5,2,0:0:0:0:
173,284,69004,1,2,0:0:0:0:
247,95,69162,1,8,0:0:0:0:
75,184,69320,1,0,0:0:0:0:
284,227,69478,1,2,0:0:0:0:
233,123,69636,2,0,P|283:112|321:101,1,90,2|8,0:0|0:0,0:0:0:0:
40,92,69952,1,2,0:0:0:0:
129,264,70110,2,0,L|125:353,2,90,0|0|8,0:0|0:0|0:0,0:0:0:0:
194,51,70583,6,0,B|232:135|232:135|316:217,1,180,4|0,0:0|0:0,0:0:0:0:
68,161,71057,1,8,0:0:0:0:
208,346,71215,2,0,B|131:308|131:308|35:299,1,180
257,183,71689,1,8,0:0:0:0:
42,136,71846,6,0,B|136:105|136:105|196:45,1,180
92,261,72320,1,8,0:0:0:0:
329,284,72478,2,0,B|245:310|245:310|177:372,1,180
249,143,72952,1,8,0:0:0:0:
55,170,73110,2,0,L|66:79,1,90
117,312,73425,5,0,0:0:0:0:
135,160,73583,1,8,0:0:0:0:
152,331,73741,1,0,0:0:0:0:
287,230,73899,5,8,0:0:0:0:
109,268,74057,1,0,3:0:0:0:
306,294,74215,1,8,0:0:0:0:
168,187,74373,2,0,B|161:256|161:256|168:327,1,135,4|0,0:0|0:0,0:0:0:0:
136,326,74689,2,0,L|95:244,2,90,0|8|0,0:0|0:0|0:0,0:0:0:0:
194,184,75162,5,8,0:0:0:0:
275,168,75320,1,0,3:0:0:0:
326,234,75478,1,8,0:0:0:0:
292,310,75636,1,4,0:0:0:0:
344,220,78162,6,2,L|360:236,4,22.5,2|2|2|2|2,1:0|1:0|1:0|1:0|1:0,1:0:0:0:
180,284,79425,6,2,L|192:304,4,22.5,2|2|2|2|2,1:0|1:0|1:0|1:0|1:0,1:0:0:0:
288,168,79741,6,8,L|256:204,2,45,8|8|8,1:0|1:0|1:0,1:0:0:0:
164,184,80057,1,8,1:0:0:0:
348,112,80215,1,8,1:0:0:0:
180,272,80373,1,8,1:0:0:0:
260,60,80531,1,0,3:0:0:0:
280,304,80689,6,0,P|340:240|412:172,1,180,4|8,0:0|1:0,0:0:0:0:
184,156,81162,1,0,0:0:0:0:
404,104,81320,2,0,P|312:96|232:88,1,135
248,88,81636,1,8,1:0:0:0:
432,248,81794,1,0,0:0:0:0:
272,336,81952,2,0,B|244:204|244:204|264:160,1,180,4|8,0:0|1:0,0:0:0:0:
144,216,82425,1,0,0:0:0:0:
132,60,82583,1,0,0:0:0:0:
372,104,82741,2,0,P|364:152|348:208,1,90,0|8,0:0|1:0,0:0:0:0:
348,212,82978,1,8,1:0:0:0:
344,228,83057,1,8,0:0:0:0:
124,216,83215,6,0,P|140:264|156:304,1,90,4|0,0:0|0:0,0:0:0:0:
256,216,83531,1,0,0:0:0:0:
160,304,83689,1,8,0:0:0:0:
332,340,83846,1,0,0:0:0:0:
260,220,84004,1,0,0:0:0:0:
332,340,84162,1,0,0:0:0:0:
332,340,84241,1,0,0:0:0:0:
332,340,84320,1,8,0:0:0:0:
100,256,84478,1,4,0:0:0:0:
448,100,84794,5,0,1:0:0:0:
448,100,84873,1,8,1:0:0:0:
448,100,84952,1,8,0:0:0:0:
404,236,85110,1,0,0:0:0:0:
88,72,85425,5,8,1:0:0:0:
88,72,85504,1,8,1:0:0:0:
88,72,85583,1,8,0:0:0:0:
120,224,85741,1,4,0:0:0:0:
120,224,85899,2,0,P|160:296|180:320,1,90
316,88,86215,2,0,P|272:76|224:68,1,90,8|0,0:0|0:0,0:0:0:0:
400,280,86531,2,0,P|416:236|428:184,1,90,8|0,0:0|0:0,0:0:0:0:
160,72,86846,2,0,P|120:100|72:144,1,90,8|0,0:0|0:0,0:0:0:0:
332,104,87162,6,0,P|392:120|436:136,1,90,8|0,0:0|0:0,0:0:0:0:
136,260,87478,2,0,P|124:204|120:160,1,90,8|0,0:0|0:0,0:0:0:0:
388,328,87794,2,0,P|396:276|400:236,1,90,8|0,0:0|0:0,0:0:0:0:
196,60,88110,1,8,0:0:0:0:
248,240,88268,6,0,P|276:192|292:160,1,90,4|0,0:0|0:0,0:0:0:0:
432,108,88583,2,0,P|428:152|420:200,1,90,0|8,0:0|1:0,0:0:0:0:
160,92,88899,2,0,L|252:152,1,90
204,288,89215,1,0,3:0:0:0:
236,284,89294,1,0,3:0:0:0:
272,280,89373,1,8,0:0:0:0:
48,156,89531,2,0,B|68:104|104:68|104:68|124:104|152:136,1,180
192,132,89925,1,0,0:0:0:0:
200,96,90004,1,8,1:0:0:0:
312,296,90162,1,0,0:0:0:0:
184,264,90320,2,0,L|220:236,1,45,0|0,3:0|3:0,3:0:0:0:
352,116,90478,1,0,3:0:0:0:
352,128,90557,1,0,3:0:0:0:
352,140,90636,2,0,L|360:192,1,45,8|0,3:2|3:0,0:0:0:0:
256,64,90794,6,0,B|192:64|192:64|100:96,1,135,4|0,0:0|0:0,0:0:0:0:
108,96,91110,1,0,0:0:0:0:
460,136,91268,1,8,0:0:0:0:
80,248,91425,5,0,1:0:0:0:
436,256,91583,1,8,0:0:0:0:
68,108,91741,5,0,1:0:0:0:
364,324,91899,1,8,0:0:0:0:
168,48,92057,5,0,1:0:0:0:
212,332,92215,1,8,0:0:0:0:
320,64,92373,5,0,1:0:0:0:
308,340,92531,1,8,0:0:0:0:
52,152,92689,5,0,1:0:0:0:
420,272,92846,1,8,0:0:0:0:
84,320,93004,5,0,1:0:0:0:
376,48,93162,1,8,0:0:0:0:
64,64,93320,5,4,0:0:0:0:
172,300,93478,1,0,0:0:0:0:
324,124,93636,1,0,0:0:0:0:
316,144,93715,1,0,0:0:0:0:
308,164,93794,1,8,0:0:0:0:
300,184,93873,1,0,0:0:0:0:
292,204,93952,1,0,0:0:0:0:
284,224,94031,1,0,0:0:0:0:
276,244,94110,1,8,0:0:0:0:
244,252,94189,1,0,0:0:0:0:
208,256,94268,1,0,0:0:0:0:
168,260,94346,1,0,0:0:0:0:
124,264,94425,1,8,0:0:0:0:
76,268,94504,1,0,0:0:0:0:
88,216,94583,1,2,1:2:0:0:
188,264,95531,6,2,P|168:244|160:212,1,45,2|2,1:0|1:0,1:0:0:0:
224,272,95846,6,0,B|204:200|200:148|200:148|252:112,1,180,4|0,0:0|0:0,0:0:0:0:
64,156,96320,1,8,0:0:0:0:
100,324,96478,2,0,L|136:232,1,90
332,152,96794,2,0,L|224:180,1,90,0|8,0:0|0:0,0:0:0:0:
64,108,97110,2,0,P|68:136|116:116,1,90,4|0,0:0|0:0,0:0:0:0:
120,276,97425,5,0,0:0:0:0:
192,132,97583,1,8,0:0:0:0:
220,340,97741,1,0,0:0:0:0:
224,68,97899,1,0,0:0:0:0:
156,244,98057,2,0,L|232:188,1,90,0|8,0:0|0:0,0:0:0:0:
343,335,98373,6,0,P|415:287|415:171,1,180,6|2,0:0|0:0,0:0:0:0:
120,256,98846,1,10,0:0:0:0:
428,200,99004,1,2,0:0:0:0:
116,172,99162,1,2,0:0:0:0:
268,336,99320,1,2,0:0:0:0:
296,80,99478,1,10,0:0:0:0:
120,284,99636,2,0,L|100:192,1,90,2|0,0:0|0:0,0:0:0:0:
264,232,99952,6,0,P|300:260|336:300,2,90,0|8|0,0:0|0:0|0:0,0:0:0:0:
160,152,100425,1,8,3:0:0:0:
348,144,100583,2,0,P|304:164|244:200,1,90,0|8,3:0|0:0,0:0:0:0:
140,316,100899,6,0,B|132:248|112:200|112:200|140:144,1,180,4|0,0:0|0:0,0:0:0:0:
288,316,101373,1,8,0:0:0:0:
208,104,101531,1,0,0:0:0:0:
204,332,101689,2,0,P|228:288|244:240,1,90
76,308,102004,1,8,0:0:0:0:
88,100,102162,6,0,B|128:136|180:144|180:144|192:184|216:224,1,180,4|0,0:0|0:0,0:0:0:0:
212,64,102636,1,8,0:0:0:0:
108,232,102794,1,0,0:0:0:0:
208,60,102952,1,8,0:0:0:0:
272,248,103110,2,0,L|320:168,1,90,0|8,0:0|0:0,0:0:0:0:
88,132,103425,6,0,L|224:164,1,135,2|0,1:0|0:0,0:0:0:0:
196,100,103741,1,0,0:0:0:0:
156,312,103899,6,0,L|160:348,1,33.7500012874604,8|0,0:0|0:0,0:0:0:0:
84,260,104057,2,0,B|40:200|36:88,1,180,2|0,1:0|3:0,0:0:0:0:
40,84,104452,1,0,3:0:0:0:
45,80,104531,1,8,0:0:0:0:
220,64,104689,6,0,P|206:127|170:189,1,135,4|0,0:0|0:0,0:0:0:0:
132,225,105004,2,0,P|143:275|165:327,1,90,0|8,0:0|3:2,0:0:0:0:
182,343,105241,1,8,3:2:0:0:
221,352,105320,1,8,3:2:0:0:
259,345,105399,1,0,3:0:0:0:
292,320,105478,1,0,3:0:0:0:
311,284,105557,1,0,3:0:0:0:
320,244,105636,5,0,3:0:0:0:
369,237,105715,1,0,3:0:0:0:
405,203,105794,1,0,3:0:0:0:
418,155,105873,1,0,3:0:0:0:
404,107,105952,6,0,B|376:47|376:47|336:87|316:171,1,180,4|0,3:2|0:0,0:0:0:0:
148,280,106425,2,0,P|172:232|188:180,1,90,8|0,0:0|0:0,0:0:0:0:
60,112,106741,1,0,0:0:0:0:
268,200,106899,1,0,0:0:0:0:
120,48,107057,1,8,0:0:0:0:
116,284,107215,1,4,0:0:0:0:
116,284,107531,5,2,1:0:0:0:
352,272,107689,1,10,1:2:0:0:
116,288,107846,1,2,1:0:0:0:
236,88,108004,1,2,1:0:0:0:
228,316,108162,2,2,L|208:228,1,90,2|10,1:0|1:2,1:0:0:0:
368,320,108478,6,2,P|420:220|412:136,1,180
192,292,108952,1,8,0:0:0:0:
360,92,109110,1,4,0:0:0:0:
100,72,109268,1,0,0:0:0:0:
256,236,109425,1,0,3:0:0:0:
256,236,109504,1,0,3:0:0:0:
256,236,109583,1,8,0:0:0:0:
240,56,109741,5,0,0:0:0:0:
416,180,109899,1,0,0:0:0:0:
140,220,110057,1,0,3:0:0:0:
140,220,110136,1,0,3:0:0:0:
140,220,110215,1,8,0:0:0:0:
270,81,110373,1,0,0:0:0:0:
315,253,110531,6,0,P|317:304|321:345,1,90
264,96,110846,1,8,0:0:0:0:
264,96,111004,2,0,P|252:168|160:228,1,180,4|0,0:0|0:0,0:0:0:0:
100,128,111478,1,8,0:0:0:0:
180,300,111636,1,0,0:0:0:0:
200,56,111794,1,0,0:0:0:0:
372,212,111952,6,0,L|260:224,2,90,0|8|2,0:0|0:0|0:0,0:0:0:0:
128,288,112583,5,0,0:0:0:0:
308,224,112741,1,8,0:0:0:0:
188,84,112899,1,0,0:0:0:0:
176,280,113057,2,0,B|140:260|116:240|116:240|100:208,1,90,2|0,0:0|0:0,0:0:0:0:
200,256,113294,2,0,B|176:232|156:200|156:200|148:164,1,90,2|0,0:0|0:0,0:0:0:0:
232,240,113531,2,0,B|204:176|192:120|192:120|200:64,1,180,6|0,0:0|0:0,0:0:0:0:
304,308,114004,5,8,0:0:0:0:
344,52,114162,1,0,0:0:0:0:
396,308,114320,1,8,0:0:0:0:
144,236,114478,1,0,0:0:0:0:
420,192,114636,1,8,0:0:0:0:
164,144,114794,2,0,B|248:96|248:96|280:120|296:168,1,180,4|0,0:0|0:0,0:0:0:0:
88,268,115268,5,8,0:0:0:0:
320,264,115425,1,0,0:0:0:0:
140,120,115583,1,0,3:0:0:0:
144,144,115662,1,0,3:0:0:0:
148,168,115741,1,0,3:0:0:0:
152,188,115820,1,0,3:0:0:0:
156,212,115899,1,8,0:0:0:0:
320,132,116057,6,0,B|368:108|412:80|412:80|432:132|432:132|420:172,1,180,4|0,0:0|0:0,0:0:0:0:
272,320,116531,2,0,P|304:272|324:236,1,90,8|0,0:0|0:0,0:0:0:0:
108,96,116846,2,0,P|144:156|168:184,1,90
300,96,117162,1,8,0:0:0:0:
212,248,117320,2,0,L|236:144,1,90
124,304,117636,5,0,0:0:0:0:
348,292,117794,1,8,0:0:0:0:
124,304,117952,1,0,0:0:0:0:
228,104,118110,1,0,0:0:0:0:
344,296,118268,1,0,0:0:0:0:
152,180,118425,1,8,0:0:0:0:
376,208,118583,6,0,P|340:132|240:108,1,180,4|0,0:0|0:0,0:0:0:0:
76,220,119057,2,0,P|84:260|144:312,1,90,8|0,0:0|0:0,0:0:0:0:
176,92,119373,1,0,0:0:0:0:
340,204,119531,1,0,0:0:0:0:
148,160,119689,1,8,0:0:0:0:
248,340,119846,2,0,B|240:272|220:244|220:244|272:228|272:228|224:172|224:120,1,270,0|8,0:0|0:0,0:0:0:0:
420,308,120636,5,8,1:0:0:0:
192,308,120794,1,8,1:0:0:0:
188,308,121110,6,0,B|144:256|128:224|132:144,1,180,4|0,0:0|0:0,0:0:0:0:
384,164,121583,2,0,P|320:192|272:208,1,90,8|0,0:0|0:0,0:0:0:0:
96,256,121899,1,0,0:0:0:0:
296,292,122057,2,0,P|356:300|400:304,1,90,0|8,0:0|0:0,0:0:0:0:
172,204,122373,6,0,P|132:136|128:120,1,90
364,144,122689,2,0,L|276:160,1,90,0|8,0:0|0:0,0:0:0:0:
88,228,123004,2,0,L|160:296,1,90,0|4,0:0|3:0,0:0:0:0:
196,100,123320,1,0,0:0:0:0:
244,320,123478,1,8,0:0:0:0:
88,160,123636,6,0,P|176:184|264:192,1,180,4|0,0:0|0:0,0:0:0:0:
60,80,124110,1,8,0:0:0:0:
308,116,124268,1,0,0:0:0:0:
180,332,124425,1,0,0:0:0:0:
176,80,124583,1,0,0:0:0:0:
64,308,124741,1,8,0:0:0:0:
276,168,124899,2,0,B|180:180|180:180|148:216|152:256,1,180,4|0,0:0|0:0,0:0:0:0:
304,312,125373,5,8,0:0:0:0:
324,284,125452,1,0,3:0:0:0:
352,260,125531,1,0,3:0:0:0:
384,240,125610,1,0,3:0:0:0:
352,224,125689,1,0,3:0:0:0:
320,204,125768,1,0,3:0:0:0:
296,180,125846,1,0,3:0:0:0:
288,144,125925,1,0,3:0:0:0:
288,108,126004,1,8,0:0:0:0:
180,312,126162,6,0,B|208:256|212:200|212:200|148:216,1,180,4|0,0:0|0:0,0:0:0:0:
360,168,126636,2,0,B|392:132|392:132|420:80,1,90,8|0,0:0|0:0,0:0:0:0:
236,140,126952,1,0,0:0:0:0:
412,96,127110,1,0,0:0:0:0:
240,44,127268,1,8,0:0:0:0:
244,224,127425,2,0,L|132:176,1,90
332,332,127741,1,0,0:0:0:0:
192,304,127899,2,0,P|296:268|312:260,1,90,8|0,0:0|0:0,0:0:0:0:
80,196,128215,1,0,0:0:0:0:
288,188,128373,1,0,0:0:0:0:
144,40,128531,1,8,0:0:0:0:
164,248,128689,6,0,P|216:168|280:112,1,180,4|0,0:0|0:0,0:0:0:0:
108,180,129162,2,0,P|164:104|228:48,1,180,8|0,0:0|0:0,0:0:0:0:
148,260,129636,1,0,0:0:0:0:
312,164,129794,1,8,0:0:0:0:
252,320,129952,2,0,P|240:272|216:232,1,90,2|0,0:0|0:0,0:0:0:0:
376,88,130268,2,0,P|384:144|404:180,1,90,2|8,0:0|0:0,0:0:0:0:
176,172,130583,2,0,P|140:148|84:136,1,90,2|0,0:0|0:0,0:0:0:0:
352,260,130899,2,0,P|392:292|432:308,1,90,2|8,0:0|0:0,0:0:0:0:
276,124,131215,6,0,B|264:188|264:188|236:232|236:232|228:300,1,180,4|0,0:0|0:0,0:0:0:0:
72,248,131689,1,8,0:0:0:0:
212,48,131846,1,0,0:0:0:0:
308,272,132004,1,0,0:0:0:0:
84,160,132162,1,0,0:0:0:0:
336,160,132320,1,8,0:0:0:0:
108,216,132478,2,0,L|164:128,1,90
168,320,132794,5,0,0:0:0:0:
280,76,132952,1,8,0:0:0:0:
172,320,133110,1,0,0:0:0:0:
432,240,133268,1,0,0:0:0:0:
156,252,133425,1,0,0:0:0:0:
432,240,133583,1,8,0:0:0:0:
156,176,133741,6,0,L|204:256,1,90,4|0,0:0|0:0,0:0:0:0:
260,60,134057,1,0,0:0:0:0:
328,236,134215,2,0,L|232:280,1,90,8|0,0:0|0:0,0:0:0:0:
68,200,134531,2,0,L|168:156,1,90,8|0,0:0|0:0,0:0:0:0:
416,116,134846,1,8,0:0:0:0:
419,334,135004,6,0,B|348:340|348:340|241:334|153:256|153:256|217:221|217:221|168:169|168:169|234:140|234:140|161:84|133:32,1,648,4|4,0:0|1:0,0:0:0:0:
216,208,146215,6,0,P|224:248|224:264,1,53.9999983520508,2|2,0:0|0:0,0:0:0:0:
312,156,146531,1,8,1:0:0:0:
312,156,146846,1,8,1:0:0:0:
160,160,147162,2,8,P|188:144|212:136,1,53.9999983520508,8|8,1:0|1:0,1:0:0:0:
320,224,147478,2,8,P|308:272|296:296,1,53.9999983520508,8|8,1:0|1:0,1:0:0:0:
180,152,147794,5,8,1:0:0:0:
180,152,148110,1,8,1:0:0:0:
316,104,148425,2,8,L|352:92,2,35.9999989013672,8|8|8,1:0|1:0|1:0,1:0:0:0:
212,236,148741,2,8,L|192:272,2,35.9999989013672,8|8|8,1:0|1:0|1:0,1:0:0:0:
372,200,149057,5,8,1:0:0:0:
372,200,149373,1,8,1:0:0:0:
232,140,149689,2,8,P|216:136|176:116,1,53.9999983520508,8|8,1:0|1:0,1:0:0:0:
180,256,150004,2,8,P|152:296|144:304,1,53.9999983520508,8|8,1:0|1:0,1:0:0:0:
304,124,150320,5,8,1:0:0:0:
252,236,150636,1,8,1:0:0:0:
384,260,150952,1,8,1:0:0:0:
388,264,151057,2,8,P|406:273|424:280,1,35.9999989013672,8|8,1:0|1:0,1:0:0:0:
404,176,151268,1,8,1:0:0:0:
404,176,151373,2,8,P|424:168|436:160,1,35.9999989013672,8|8,1:0|1:0,1:0:0:0:
236,152,151583,5,8,1:0:0:0:
180,300,151899,1,8,1:0:0:0:
92,212,152215,6,8,L|152:212,1,53.9999983520508,8|8,1:0|1:0,1:0:0:0:
280,212,152531,2,8,L|232:264,1,53.9999983520508,8|8,1:0|1:0,1:0:0:0:
256,96,152846,5,8,1:0:0:0:
400,168,153162,1,8,1:0:0:0:
224,188,153478,1,8,1:0:0:0:
216,188,153596,2,8,P|192:184|168:176,1,35.9999989013672,8|8,1:0|1:0,1:0:0:0:
368,276,153794,1,8,1:0:0:0:
376,280,153912,2,8,P|392:288|408:300,1,35.9999989013672,8|8,1:0|1:0,1:0:0:0:
224,256,154110,6,2,P|200:224|180:188,1,80.9999975280763,2|2,1:0|0:0,0:0:0:0:
224,256,154425,6,2,P|196:200|184:132,1,108,2|2,1:0|0:0,0:0:0:0:
224,256,154741,6,2,P|204:192|192:100,1,135,2|2,1:0|0:0,0:0:0:0:
224,256,155057,6,2,P|208:168|204:84,1,161.999995056153,2|0,1:0|1:0,0:0:0:0:
225,84,155373,5,8,0:0:0:0:
317,83,155478,1,8,1:0:0:0:
398,126,155583,1,8,1:0:0:0:
412,210,155689,5,8,1:0:0:0:
326,233,155794,1,8,1:0:0:0:
245,190,155899,1,8,1:0:0:0:
206,112,156004,1,8,1:0:0:0:
84,260,156162,5,2,1:0:0:0:
296,128,156320,1,2,1:0:0:0:
296,336,156478,1,2,1:0:0:0:
296,336,156952,6,0,P|264:272|210:172,1,180,4|0,0:0|0:0,0:0:0:0:
100,68,157268,2,0,L|92:160,1,90
188,336,157583,1,8,0:0:0:0:
332,168,157741,2,0,B|288:180|288:180|248:132,1,90
432,320,158057,1,0,0:0:0:0:
148,324,158215,1,8,0:0:0:0:
424,248,158373,1,0,0:0:0:0:
232,344,158531,1,0,0:0:0:0:
296,128,158689,1,0,0:0:0:0:
232,336,158846,5,8,0:0:0:0:
224,88,159004,2,0,B|268:56|268:56|356:48|356:48|372:92,1,180,4|0,0:0|0:0,0:0:0:0:
196,228,159478,1,8,0:0:0:0:
136,68,159636,1,0,0:0:0:0:
336,156,159794,1,0,0:0:0:0:
278,341,159952,1,0,0:0:0:0:
268,100,160110,1,8,0:0:0:0:
176,312,160268,2,0,B|109:260|109:260|36:188,1,180,4|0,0:0|0:0,0:0:0:0:
303,213,160741,2,0,P|347:209|399:209,1,90,8|0,0:0|0:0,0:0:0:0:
171,140,161057,5,8,3:0:0:0:
233,273,161215,1,0,3:0:0:0:
318,110,161373,1,8,0:0:0:0:
72,140,161531,2,0,P|120:144|256:188,1,180,4|0,0:0|0:0,0:0:0:0:
88,260,162004,1,8,0:0:0:0:
360,208,162162,1,0,0:0:0:0:
196,328,162320,2,0,B|186:277|186:277|180:240|228:156,1,180,0|8,0:0|0:0,0:0:0:0:
420,184,162794,6,0,L|260:92,1,180,4|0,0:0|0:0,0:0:0:0:
88,220,163268,2,0,P|92:268|100:312,1,90,8|0,0:0|0:0,0:0:0:0:
276,216,163583,1,4,3:0:0:0:
112,120,163741,1,0,3:0:0:0:
112,120,163820,1,0,0:0:0:0:
112,120,163899,1,8,0:0:0:0:
168,248,164057,6,0,B|192:188|216:144|252:132|252:132|288:120,1,180,2|0,1:0|0:0,0:0:0:0:
416,272,164531,1,8,0:0:0:0:
188,88,164689,2,0,B|224:48|224:48|284:40|352:56,1,180,2|0,1:0|3:0,0:0:0:0:
380,64,165083,1,0,3:0:0:0:
380,64,165162,1,8,0:0:0:0:
176,152,165320,2,0,B|128:212|104:256|104:256|100:288|104:336,1,180,4|0,0:0|0:0,0:0:0:0:
368,192,165794,5,8,3:2:0:0:
352,204,165873,1,8,3:2:0:0:
340,224,165952,1,8,3:2:0:0:
332,248,166031,1,0,3:0:0:0:
336,272,166110,1,0,3:0:0:0:
348,292,166189,1,0,3:0:0:0:
364,308,166268,1,0,3:0:0:0:
324,288,166346,1,0,3:0:0:0:
284,276,166425,1,0,3:2:0:0:
240,288,166504,1,0,3:0:0:0:
204,308,166583,6,0,B|164:344|100:344|100:344|116:304|116:264,1,180,4|0,3:2|0:0,0:0:0:0:
304,68,167057,2,0,P|324:124|352:180,1,90,8|0,0:0|0:0,0:0:0:0:
76,224,167373,2,0,P|136:204|184:196,1,90
420,292,167689,1,8,0:0:0:0:
356,60,167846,2,0,P|356:112|328:144,1,90,4|0,0:0|0:0,0:0:0:0:
72,272,168162,5,4,1:0:0:0:
336,212,168320,1,12,1:0:0:0:
68,192,168478,1,4,1:0:0:0:
296,336,168636,1,4,1:0:0:0:
368,132,168794,1,0,3:0:0:0:
368,132,168873,1,0,3:0:0:0:
368,132,168952,1,8,3:2:0:0:
172,292,169110,6,2,P|120:208|120:120,1,180,2|0,0:0|0:0,0:0:0:0:
384,72,169583,1,8,0:0:0:0:
268,316,169741,2,0,L|352:264,1,90,4|0,0:0|0:0,0:0:0:0:
56,216,170057,1,0,3:0:0:0:
56,216,170136,1,0,3:0:0:0:
56,216,170215,2,0,L|96:312,1,90,8|0,3:2|0:0,0:0:0:0:
208,56,170531,1,0,0:0:0:0:
396,272,170689,1,0,3:0:0:0:
396,272,170768,1,0,3:0:0:0:
396,272,170846,2,0,L|296:244,1,90,8|4,3:2|3:0,0:0:0:0:
380,60,171162,5,0,0:0:0:0:
156,208,171320,1,0,0:0:0:0:
380,60,171478,1,8,0:0:0:0:
120,68,171636,2,0,P|256:136|288:160,1,180,4|0,0:0|0:0,0:0:0:0:
132,324,172110,1,8,0:0:0:0:
356,328,172268,1,0,0:0:0:0:
336,104,172425,1,0,0:0:0:0:
248,268,172583,6,0,L|224:312,2,45,0|0|8,3:0|3:0|3:2,0:0:0:0:
144,60,172899,2,0,P|112:152|112:228,1,135,2|0,0:0|0:0,0:0:0:0:
108,228,173215,5,0,0:0:0:0:
324,160,173373,1,8,0:0:0:0:
172,324,173531,1,0,0:0:0:0:
228,104,173689,2,0,P|184:120|160:156,1,90,2|0,1:0|0:0,0:0:0:0:
252,216,173925,2,0,P|248:264|276:308,1,90,2|0,1:0|0:0,0:0:0:0:
372,260,174162,6,0,B|428:228|444:180|436:140|400:96,1,180,4|0,0:0|0:0,0:0:0:0:
84,104,174636,5,8,0:0:0:0:
460,148,174794,5,0,0:0:0:0:
132,52,174952,1,8,0:0:0:0:
412,332,175110,5,0,0:0:0:0:
72,296,175268,1,8,0:0:0:0:
372,100,175425,2,0,L|456:48,1,90,4|0,0:0|0:0,0:0:0:0:
68,168,175741,5,0,0:0:0:0:
428,328,175899,1,8,0:0:0:0:
292,44,176057,5,0,0:0:0:0:
248,312,176215,5,8,0:0:0:0:
232,268,176294,1,8,0:0:0:0:
192,244,176373,2,8,P|168:236|132:232,1,45
396,172,176531,2,8,L|440:156,1,45
120,328,176689,5,2,1:0:0:0:
268,112,179215,6,0,P|204:176|120:156,1,180,4|0,0:0|0:0,0:0:0:0:
288,288,179689,1,8,0:0:0:0:
88,244,179846,1,0,0:0:0:0:
316,188,180004,2,0,B|368:176|368:176|420:208|456:272,1,180,0|8,0:0|0:0,0:0:0:0:
92,241,180478,5,6,0:0:0:0:
414,139,180636,1,2,0:0:0:0:
96,245,180794,1,2,0:0:0:0:
418,143,180952,1,10,0:0:0:0:
168,336,181110,5,2,0:0:0:0:
328,52,181268,1,2,0:0:0:0:
328,340,181425,1,2,0:0:0:0:
256,60,181583,1,10,0:0:0:0:
424,248,181741,6,0,B|464:300|464:300|420:344|352:320|308:264,1,225,4|0,0:0|0:0,0:0:0:0:
324,252,182215,2,0,L|344:160,1,90,8|4,0:0|0:0,0:0:0:0:
116,184,182531,1,0,0:0:0:0:
284,332,182689,1,0,3:0:0:0:
288,304,182768,1,0,3:0:0:0:
292,276,182846,1,8,0:0:0:0:
96,300,183004,2,0,L|192:280,1,90
320,112,183320,5,0,0:0:0:0:
392,272,183478,1,8,0:0:0:0:
184,212,183636,5,0,0:0:0:0:
236,40,183794,1,0,0:0:0:0:
384,196,183952,5,0,3:0:0:0:
368,208,184031,1,0,3:0:0:0:
352,220,184110,1,8,0:0:0:0:
336,232,184189,1,0,0:0:0:0:
320,244,184268,2,0,B|240:300|240:300|152:300,1,180,4|0,0:0|0:0,0:0:0:0:
208,80,184741,2,0,L|332:140,1,135,8|0,0:0|0:0,0:0:0:0:
360,140,185057,2,0,L|452:140,1,90
292,304,185373,1,8,0:0:0:0:
352,68,185531,1,0,0:0:0:0:
84,104,185689,5,2,0:0:0:0:
384,148,185846,1,2,0:0:0:0:
88,224,186004,5,8,0:0:0:0:
368,76,186162,1,2,0:0:0:0:
56,164,186320,5,8,0:0:0:0:
400,172,186478,1,2,0:0:0:0:
68,248,186636,5,8,0:0:0:0:
448,168,186794,1,4,0:0:0:0:
448,168,187110,5,8,3:0:0:0:
72,316,187268,1,8,3:0:0:0:
392,56,187425,1,8,3:0:0:0:
196,336,187583,5,8,3:0:0:0:
68,60,187741,1,8,3:0:0:0:
448,300,187899,1,8,3:0:0:0:
424,32,188057,5,4,0:0:0:0:
256,192,188215,12,0,192320,0:0:0:0:
