osu file format v14

[General]
AudioFilename: audio.mp3
AudioLeadIn: 0
PreviewTime: 51496
Countdown: 0
SampleSet: Soft
StackLeniency: 0.7
Mode: 0
LetterboxInBreaks: 0
WidescreenStoryboard: 0

[Editor]
Bookmarks: 1759,11864,21970,32075,42180,52128,62233,77549,82601,95233,105338,115285,125390,140706,150811,160917,171022,183496,193601,211442,217758
DistanceSpacing: 1
BeatDivisor: 4
GridSize: 4
TimelineZoom: 2.4

[Metadata]
Title:Hakudou
TitleUnicode:拍動
Artist:kakichoco
ArtistUnicode:柿チョコ
Creator:Hinsvar
Version:Expert
Source:
Tags:Japanese Rock J-Rock JRock müchette muchette 焔雷 Enlight enrai 石井伸昂 Ishii Nobutaka 河原嶺旭 Mineaki Kawahara Featured Artist FA Mappers' Guild MG MPG
BeatmapID:4330514
BeatmapSetID:2069664

[Difficulty]
HPDrainRate:5.5
CircleSize:3.5
OverallDifficulty:8.5
ApproachRate:9.2
SliderMultiplier:1.76
SliderTickRate:1

[Events]
//Background and Video events
0,0,"BG.jpg",0,0
//Break Periods
2,42380,49189
2,105538,112347
//Storyboard Layer 0 (Background)
//Storyboard Layer 1 (Fail)
//Storyboard Layer 2 (Pass)
//Storyboard Layer 3 (Foreground)
//Storyboard Layer 4 (Overlay)
//Storyboard Sound Samples

[TimingPoints]
-3293,315.789473684211,4,2,1,70,1,0
6812,-125,4,2,1,60,0,0
9338,-100,4,2,1,70,0,0
11864,-100,4,2,1,60,0,0
32075,-125,4,2,1,60,0,0
49759,-100,4,2,1,70,0,0
52128,-83.3333333333333,4,2,1,80,0,1
61917,-83.3333333333333,4,2,1,80,0,0
62233,-83.3333333333333,4,2,1,80,0,1
73759,-100,4,2,1,80,0,0
77549,-100,4,2,1,70,0,1
77628,-100,4,2,1,70,0,0
82601,-100,4,2,1,60,0,0
95233,315.789473684211,4,2,1,60,1,0
95233,-125,4,2,1,60,0,0
112917,-100,4,2,1,70,0,0
115285,-83.3333333333333,4,2,1,80,0,1
125075,-83.3333333333333,4,2,1,80,0,0
125390,-83.3333333333333,4,2,1,80,0,1
136917,-100,4,2,1,80,0,0
138180,-166.666666666667,4,2,1,60,0,0
139443,-100,4,2,1,70,0,0
140706,-100,4,2,1,80,0,1
140785,-100,4,2,1,80,0,0
160917,-83.3333333333333,4,2,1,80,0,1
169759,-100,4,2,1,80,0,0
171022,-83.3333333333333,4,2,1,80,0,1
175285,-166.666666666667,4,2,1,80,0,0
176075,-125,4,2,1,70,0,0
182390,-125,4,2,1,60,0,0
183496,-83.3333333333333,4,2,1,80,0,1
183654,315.789473684211,4,2,1,80,1,1
183654,-83.3333333333333,4,2,1,80,0,1
193285,-83.3333333333333,4,2,1,80,0,0
193601,-83.3333333333333,4,2,1,80,0,1
205127,-100,4,2,1,80,0,0
206390,315.789473684211,4,2,1,60,1,0
206390,-166.666666666667,4,2,1,60,0,0
208916,-100,4,2,1,70,0,0
211442,-100,4,2,1,70,0,1
211521,-100,4,2,1,70,0,0
217758,315.789473684211,4,2,1,60,1,0
217758,-250,4,2,1,60,0,0
220284,-250,4,2,1,5,0,0

[Colours]
Combo1 : 116,196,239
Combo2 : 255,9,15
Combo3 : 78,114,220
Combo4 : 231,81,44

[HitObjects]
362,362,496,6,0,L|374:261,1,88,8|0,0:0|3:0,0:0:0:0:
400,186,733,1,0,3:0:0:0:
390,195,812,2,0,L|384:144,3,44,8|0|0|0,0:0|3:0|3:0|3:0,0:0:0:0:
376,70,1128,1,0,3:0:0:0:
136,70,1285,6,0,P|119:76|105:65,2,29.3333333333333,0|0|0,3:0|3:0|3:0,0:0:0:0:
130,41,1443,6,0,B|99:53|99:53|52:101|52:101|9:115,1,132,10|0,0:0|0:0,0:0:0:0:
6,213,1759,6,0,P|64:161|162:181,1,176,4|8,3:2|0:0,0:0:0:0:
377,268,2233,1,0,3:0:0:0:
377,268,2312,1,0,3:0:0:0:
377,268,2391,2,0,L|476:275,1,88,2|0,3:2|0:0,0:0:0:0:
178,279,2707,2,0,L|171:378,1,88,8|0,0:0|0:0,0:0:0:0:
355,165,3022,5,2,3:2:0:0:
355,165,3180,1,0,3:0:0:0:
492,112,3338,2,0,B|500:69|500:69|482:19,1,88,8|0,0:0|0:0,0:0:0:0:
258,132,3654,2,0,B|250:175|250:175|268:225,1,88,2|0,3:2|0:0,0:0:0:0:
500,299,3970,1,8,0:0:0:0:
346,348,4128,5,0,3:0:0:0:
346,348,4207,1,0,3:0:0:0:
346,348,4285,2,0,B|277:332|255:354|256:363|232:389|166:363,1,176,2|8,3:2|0:0,0:0:0:0:
34,148,4759,1,2,0:0:0:0:
152,226,4917,2,0,B|221:210|243:232|242:241|266:267|332:241,1,176,2|8,3:2|0:0,0:0:0:0:
464,26,5391,1,2,0:0:0:0:
302,151,5549,5,10,0:0:0:0:
173,119,5707,1,0,3:0:0:0:
172,105,5785,1,10,0:0:0:0:
431,183,5943,1,0,3:0:0:0:
432,197,6021,1,10,0:0:0:0:
187,326,6180,5,10,0:0:0:0:
224,348,6258,1,0,3:0:0:0:
267,347,6337,1,0,3:0:0:0:
303,324,6416,1,0,3:0:0:0:
322,285,6496,2,0,B|335:258|317:240|310:240|294:215|299:189,1,88,10|0,0:0|0:0,0:0:0:0:
490,24,6812,6,0,P|471:48|422:49,1,70.4,6|0,3:2|0:0,0:0:0:0:
332,107,7128,2,0,P|303:118|260:94,1,70.4,2|0,3:2|0:0,0:0:0:0:
153,99,7443,2,0,P|122:94|97:52,2,70.4,10|0|0,0:0|0:0|3:0,0:0:0:0:
173,12,7917,1,2,0:0:0:0:
14,151,8075,5,2,3:2:0:0:
214,220,8233,2,0,B|163:211|143:240|148:243|131:274|69:263,1,140.8,8|0,0:0|0:0,0:0:0:0:
282,318,8707,5,10,0:0:0:0:
261,98,8864,1,8,0:0:0:0:
372,236,9022,6,0,P|374:195|378:165,1,70.4,2|0,3:2|0:0,0:0:0:0:
511,20,9338,6,0,P|457:64|350:59,1,176,4|8,3:2|0:0,0:0:0:0:
198,27,9812,1,0,3:0:0:0:
198,27,9891,1,8,0:0:0:0:
198,27,9970,1,0,3:0:0:0:
1,45,10128,1,2,0:0:0:0:
181,125,10285,2,0,L|275:139,1,88,8|0,0:0|0:0,0:0:0:0:
486,234,10601,5,2,3:2:0:0:
395,364,10759,1,0,3:0:0:0:
265,273,10917,1,8,0:0:0:0:
381,270,11075,2,0,B|341:212|363:186|369:185|395:147|356:103,1,176,2|0,0:0|0:0,0:0:0:0:
153,105,11549,1,8,0:0:0:0:
136,144,11627,1,8,0:0:0:0:
146,187,11706,1,8,0:0:0:0:
150,230,11785,1,8,0:0:0:0:
135,273,11864,1,4,3:2:0:0:
135,273,12180,6,0,P|91:288|51:314,1,88,8|0,0:0|0:0,0:0:0:0:
253,199,12496,2,0,P|234:290|240:385,1,176,2|8,0:0|0:0,0:0:0:0:
32,209,12970,2,0,P|51:118|45:23,1,176,2|0,0:0|0:0,0:0:0:0:
200,123,13443,1,8,0:0:0:0:
310,108,13601,1,2,0:0:0:0:
454,60,13759,2,0,P|411:53|380:22,1,88,2|0,0:0|0:0,0:0:0:0:
267,210,14075,1,8,0:0:0:0:
419,230,14233,1,2,0:0:0:0:
399,382,14391,1,0,3:0:0:0:
399,382,14707,6,0,P|365:349|358:293,1,88,8|0,0:0|0:0,0:0:0:0:
428,130,15022,2,0,P|333:131|244:62,1,176,2|8,0:0|0:0,0:0:0:0:
118,192,15496,2,0,P|212:190|301:259,1,176,2|0,0:0|0:0,0:0:0:0:
39,311,15970,1,8,0:0:0:0:
140,367,16128,2,0,P|134:324|157:264,2,88,2|0|0,0:0|3:0|0:0,0:0:0:0:
227,351,16601,1,8,0:0:0:0:
367,221,16759,1,2,0:0:0:0:
185,165,16917,1,0,3:0:0:0:
185,165,17233,6,0,L|96:176,1,88,8|0,0:0|0:0,0:0:0:0:
201,32,17549,2,0,L|23:54,1,176,2|8,0:0|0:0,0:0:0:0:
485,53,18180,2,0,L|311:32,1,176,2|8,0:0|0:0,0:0:0:0:
362,273,18654,1,2,0:0:0:0:
414,175,18812,2,0,L|327:165,1,88,2|0,0:0|0:0,0:0:0:0:
149,261,19128,2,0,L|138:348,1,88,8|0,0:0|0:0,0:0:0:0:
80,194,19443,6,0,B|98:151|69:112|62:119|33:71|64:18,1,176,2|8,3:2|0:0,0:0:0:0:
432,190,20075,2,0,B|414:233|443:272|450:265|479:313|448:366,1,176,2|8,0:0|0:0,0:0:0:0:
370,319,20549,1,2,0:0:0:0:
334,163,20707,2,0,P|244:164|183:94,1,176,2|8,0:0|0:0,0:0:0:0:
286,75,21180,1,2,0:0:0:0:
98,23,21338,1,2,0:0:0:0:
46,211,21496,1,2,0:0:0:0:
46,211,21575,1,2,0:0:0:0:
46,211,21654,1,8,0:0:0:0:
46,211,21970,5,4,3:2:0:0:
22,74,22128,1,2,0:0:0:0:
240,177,22285,2,0,L|174:234,1,88,8|0,0:0|0:0,0:0:0:0:
149,14,22601,2,0,L|231:42,1,88,2|0,3:2|0:0,0:0:0:0:
128,124,22917,1,8,0:0:0:0:
321,106,23075,6,0,B|367:86|405:133|401:135|436:187|492:155,1,176,2|0,0:0|0:0,0:0:0:0:
477,323,23549,1,8,0:0:0:0:
321,355,23707,1,2,0:0:0:0:
347,247,23864,2,0,P|308:262|251:264,1,88,0|0,3:0|0:0,0:0:0:0:
23,179,24180,1,8,0:0:0:0:
198,197,24338,1,2,0:0:0:0:
216,21,24496,1,0,3:0:0:0:
216,21,24812,6,0,P|184:50|176:114,1,88,8|0,0:0|0:0,0:0:0:0:
107,242,25128,2,0,P|116:284|167:323,1,88,2|0,3:2|0:0,0:0:0:0:
19,317,25443,1,8,0:0:0:0:
226,378,25601,2,0,P|247:306|233:201,1,176,2|0,0:0|0:0,0:0:0:0:
311,42,26075,1,8,0:0:0:0:
331,215,26233,1,2,0:0:0:0:
506,193,26391,1,0,3:0:0:0:
484,19,26549,1,2,0:0:0:0:
427,273,26707,5,8,0:0:0:0:
410,141,26864,2,0,P|410:116|415:96,1,44,2|0,0:0|0:0,0:0:0:0:
310,205,27022,6,0,P|310:107|330:25,1,176,0|8,3:0|0:0,0:0:0:0:
65,143,27496,2,0,P|65:94|75:53,1,88,2|0,0:0|3:0,0:0:0:0:
187,104,27812,1,2,0:0:0:0:
113,277,27970,2,0,P|90:314|34:327,1,88,8|0,0:0|0:0,0:0:0:0:
326,305,28285,6,0,P|268:375|186:333,1,176,2|8,0:0|0:0,0:0:0:0:
281,178,28759,2,0,P|309:142|350:163,1,88,2|0,0:0|3:0,0:0:0:0:
411,335,29075,1,2,0:0:0:0:
511,289,29233,2,0,P|500:331|501:378,1,88,8|0,0:0|0:0,0:0:0:0:
370,179,29549,5,0,3:0:0:0:
499,146,29707,1,2,0:0:0:0:
330,40,29864,2,0,P|238:26|144:5,1,176,8|0,0:0|3:0,0:0:0:0:
214,197,30338,1,2,0:0:0:0:
16,143,30496,2,0,P|58:133|102:127,1,88,8|0,0:0|0:0,0:0:0:0:
332,259,30812,5,0,3:0:0:0:
320,370,30970,1,2,0:0:0:0:
159,349,31128,1,8,0:0:0:0:
69,229,31285,1,2,3:2:0:0:
69,229,31364,1,0,3:0:0:0:
69,229,31443,2,0,P|48:234|26:237,1,44,0|0,3:0|0:0,0:0:0:0:
35,39,31601,1,10,0:0:0:0:
75,54,31679,1,8,0:0:0:0:
105,86,31758,1,8,0:0:0:0:
137,116,31837,1,8,0:0:0:0:
179,126,31917,2,0,P|186:105|189:74,1,44,0|0,3:0|0:0,0:0:0:0:
335,100,32075,6,0,P|323:132|319:183,2,70.4,4|0|0,3:2|0:0|0:0,0:0:0:0:
339,104,32707,1,8,0:0:0:0:
339,104,32864,2,0,P|370:114|407:104,1,70.4,2|0,0:0|0:0,0:0:0:0:
459,234,33180,2,0,P|422:267|407:321,1,105.6,2|0,0:0|0:0,0:0:0:0:
408,330,33496,2,0,L|324:340,1,70.4,8|0,0:0|0:0,0:0:0:0:
250,347,33812,1,2,0:0:0:0:
18,191,33970,6,0,L|102:201,1,70.4,8|0,0:0|0:0,0:0:0:0:
250,87,34285,2,0,L|259:18,1,70.4,8|0,0:0|0:0,0:0:0:0:
49,44,34601,6,0,P|108:65|161:140,1,140.8,6|0,3:2|0:0,0:0:0:0:
133,281,35075,1,2,0:0:0:0:
37,358,35233,2,0,P|36:321|29:276,1,70.4,8|0,0:0|0:0,0:0:0:0:
31,287,35707,2,0,P|29:231|19:164,1,105.6,2|0,0:0|0:0,0:0:0:0:
20,164,36022,2,0,P|51:151|60:99,1,70.4,8|0,0:0|0:0,0:0:0:0:
51,30,36338,1,2,0:0:0:0:
218,25,36496,6,0,L|297:39,1,70.4,8|0,0:0|0:0,0:0:0:0:
294,185,36812,2,0,L|215:199,1,70.4,8|0,0:0|0:0,0:0:0:0:
87,333,37128,5,4,3:2:0:0:
264,351,37285,1,2,0:0:0:0:
264,351,37364,1,2,0:0:0:0:
264,351,37443,1,2,0:0:0:0:
441,369,37601,1,2,0:0:0:0:
487,186,37759,2,0,P|478:213|473:261,1,70.4,8|0,0:0|0:0,0:0:0:0:
393,217,38075,1,2,0:0:0:0:
483,40,38233,6,0,P|427:16|362:66,1,140.8,2|8,0:0|0:0,0:0:0:0:
373,65,38628,1,2,0:0:0:0:
373,65,38707,2,0,P|345:77|312:52,1,70.4,2|0,0:0|0:0,0:0:0:0:
184,37,39022,6,0,L|204:114,1,70.4,8|0,0:0|0:0,0:0:0:0:
328,347,39338,2,0,L|308:270,1,70.4,8|0,0:0|0:0,0:0:0:0:
206,234,39654,6,0,B|220:202|255:186|258:190|293:176|309:141,1,140.8,4|0,3:2|0:0,0:0:0:0:
201,105,40128,1,2,0:0:0:0:
42,34,40285,1,8,0:0:0:0:
21,133,40443,2,0,P|58:120|99:124,1,70.4,2|0,0:0|0:0,0:0:0:0:
294,229,40759,6,0,P|279:306|231:373,1,140.8,2|8,0:0|0:0,0:0:0:0:
78,217,41233,1,2,0:0:0:0:
78,217,41312,1,2,0:0:0:0:
78,217,41391,1,0,3:0:0:0:
12,297,41549,5,8,0:0:0:0:
205,258,41707,1,2,3:2:0:0:
321,64,41864,5,2,3:2:0:0:
465,93,42022,1,2,3:2:0:0:
383,136,42180,5,4,3:2:0:0:
103,353,49759,5,8,0:0:0:0:
80,267,49917,1,8,0:0:0:0:
165,245,50075,1,8,0:0:0:0:
188,330,50233,1,8,0:0:0:0:
314,158,50391,5,8,0:0:0:0:
348,30,50549,1,8,0:0:0:0:
475,64,50707,1,8,0:0:0:0:
441,192,50864,1,8,0:0:0:0:
221,65,51022,6,0,B|177:96|139:59|141:54|103:10|48:41,1,176,2|8,3:2|0:0,0:0:0:0:
137,160,51496,1,2,0:0:0:0:
39,286,51654,2,0,L|82:280,1,44,8|0,0:0|0:0,0:0:0:0:
215,266,51812,1,8,0:0:0:0:
215,266,52128,6,0,B|282:259|309:307|309:311|336:361|421:351,1,211.199993554688,6|0,3:2|0:0,0:0:0:0:
506,158,52601,1,8,0:0:0:0:
403,265,52759,1,0,3:0:0:0:
403,265,52838,1,0,3:0:0:0:
403,265,52917,1,0,3:0:0:0:
241,156,53075,2,0,P|254:110|250:45,1,105.599996777344,2|8,0:0|0:0,0:0:0:0:
11,30,53391,6,0,B|79:44|75:104|71:112|69:176|132:189,1,211.199993554688,2|0,3:2|0:0,0:0:0:0:
361,170,53864,1,8,0:0:0:0:
195,281,54022,1,2,0:0:0:0:
300,302,54180,1,0,3:0:0:0:
468,359,54338,2,0,P|451:311|436:247,1,105.599996777344,2|8,0:0|0:0,0:0:0:0:
484,60,54654,6,0,P|389:67|286:5,1,211.199993554688,2|0,3:2|0:0,0:0:0:0:
24,41,55128,1,8,0:0:0:0:
228,81,55285,1,2,0:0:0:0:
131,171,55443,2,0,P|76:170|21:189,1,105.599996777344,0|0,3:0|0:0,0:0:0:0:
170,374,55759,1,8,0:0:0:0:
93,256,55917,1,2,0:0:0:0:
294,211,56075,5,0,3:0:0:0:
382,308,56233,2,0,P|380:254|402:190,1,105.599996777344,2|8,0:0|0:0,0:0:0:0:
211,17,56549,2,0,P|215:125|171:253,1,211.199993554688,2|0,0:0|3:0,0:0:0:0:
186,223,56943,1,0,3:0:0:0:
186,223,57022,1,8,0:0:0:0:
81,164,57180,1,2,0:0:0:0:
314,163,57338,6,0,P|365:169|412:146,1,105.599996777344,6|0,3:2|0:0,0:0:0:0:
265,31,57654,2,0,P|152:17|49:68,1,211.199993554688,8|0,0:0|3:0,0:0:0:0:
15,251,58128,1,2,0:0:0:0:
148,282,58285,1,8,0:0:0:0:
54,381,58443,1,2,0:0:0:0:
261,369,58601,6,0,B|282:312|264:264|258:267|233:213|255:162,1,211.199993554688,6|8,3:2|0:0,0:0:0:0:
484,24,59075,2,0,B|505:81|487:129|481:126|456:180|478:231,1,211.199993554688,6|0,3:2|0:0,0:0:0:0:
363,159,59549,1,8,0:0:0:0:
385,318,59707,1,2,0:0:0:0:
127,318,59864,6,0,P|135:240|30:181,1,211.199993554688,6|8,3:2|0:0,0:0:0:0:
169,44,60338,2,0,P|163:86|217:112,1,105.599996777344,2|0,0:0|3:0,0:0:0:0:
291,41,60654,1,2,0:0:0:0:
52,31,60812,1,8,0:0:0:0:
164,210,60970,5,4,3:2:0:0:
9,176,61128,1,2,0:0:0:0:
34,277,61285,1,8,0:0:0:0:
210,372,61443,2,0,P|247:332|294:302,1,105.599996777344,2|0,0:0|0:0,0:0:0:0:
503,208,61759,1,8,0:0:0:0:
503,208,61838,1,8,0:0:0:0:
503,208,61917,1,8,0:0:0:0:
503,208,62233,6,0,B|452:164|458:110|463:111|464:54|394:17,1,211.199993554688,6|0,3:2|0:0,0:0:0:0:
148,17,62707,1,8,0:0:0:0:
359,117,62864,1,0,3:0:0:0:
359,117,62943,1,0,3:0:0:0:
359,117,63022,1,0,3:0:0:0:
278,251,63180,2,0,P|269:302|268:363,1,105.599996777344,2|8,0:0|0:0,0:0:0:0:
18,157,63496,6,0,P|120:159|168:269,1,211.199993554688,6|0,3:2|0:0,0:0:0:0:
370,315,63970,1,8,0:0:0:0:
497,145,64128,1,2,0:0:0:0:
395,166,64285,1,0,3:0:0:0:
489,375,64443,2,0,P|482:325|516:280,1,105.599996777344,2|8,0:0|0:0,0:0:0:0:
277,187,64759,6,0,P|254:81|161:8,1,211.199993554688,6|0,3:2|0:0,0:0:0:0:
4,195,65233,1,8,0:0:0:0:
181,130,65391,1,2,0:0:0:0:
367,151,65549,2,0,P|381:101|387:21,1,105.599996777344,0|0,3:0|0:0,0:0:0:0:
325,269,65864,1,8,0:0:0:0:
413,368,66022,1,2,0:0:0:0:
225,357,66180,5,0,3:0:0:0:
118,338,66338,2,0,P|69:337|21:306,1,105.599996777344,2|8,0:0|0:0,0:0:0:0:
219,209,66654,2,0,P|134:179|107:62,1,211.199993554688,2|0,0:0|3:0,0:0:0:0:
104,70,67049,1,0,3:0:0:0:
104,70,67128,1,8,0:0:0:0:
395,50,67285,6,0,B|419:101|378:147|379:142|332:187|355:254,1,211.199993554688,6|0,3:2|0:0,0:0:0:0:
268,374,67759,2,0,P|250:334|254:262,1,105.599996777344,8|0,0:0|0:0,0:0:0:0:
298,74,68075,1,0,3:0:0:0:
116,158,68233,1,2,0:0:0:0:
44,236,68391,2,0,P|92:241|150:255,1,105.599996777344,8|0,0:0|0:0,0:0:0:0:
2,53,68707,6,0,P|106:54|222:16,1,211.199993554688,6|8,3:2|0:0,0:0:0:0:
365,41,69180,1,2,0:0:0:0:
503,202,69338,1,0,3:0:0:0:
294,241,69496,1,0,3:0:0:0:
294,241,69575,1,0,3:0:0:0:
294,241,69654,1,8,0:0:0:0:
381,147,69812,1,2,0:0:0:0:
124,148,69970,6,0,B|150:209|116:258|110:254|78:296|114:374,1,211.199993554688,6|8,3:2|0:0,0:0:0:0:
347,363,70443,2,0,P|399:344|467:342,1,105.599996777344,2|0,0:0|3:0,0:0:0:0:
265,195,70759,1,2,0:0:0:0:
380,259,70917,1,8,0:0:0:0:
444,144,71075,6,0,P|443:90|448:34,1,105.599996777344,2|0,0:0|3:0,0:0:0:0:
167,77,71391,1,8,0:0:0:0:
352,33,71549,2,0,P|353:87|348:143,1,105.599996777344,2|0,0:0|0:0,0:0:0:0:
234,292,71864,2,0,B|174:270|135:322|146:324|108:377|31:353,1,211.199993554688,8|0,0:0|0:0,0:0:0:0:
136,195,72338,1,8,0:0:0:0:
25,23,72496,6,0,P|31:77|58:129,1,105.599996777344,6|0,3:2|0:0,0:0:0:0:
251,202,72812,2,0,P|296:107|307:2,1,211.199993554688,8|0,0:0|3:0,0:0:0:0:
165,53,73285,1,2,0:0:0:0:
375,230,73443,2,0,P|427:236|473:211,1,105.599996777344,8|0,0:0|0:0,0:0:0:0:
404,57,73759,5,6,3:2:0:0:
256,192,74391,12,0,75970,0:0:0:0:
150,362,76285,6,0,L|138:261,1,88,8|0,0:0|3:0,0:0:0:0:
112,186,76522,1,0,3:0:0:0:
122,195,76601,2,0,L|128:144,3,44,8|0|0|0,0:0|3:0|3:0|3:0,0:0:0:0:
136,70,76917,1,0,3:0:0:0:
376,70,77074,6,0,P|393:76|407:65,2,29.3333333333333,0|0|0,3:0|3:0|3:0,0:0:0:0:
382,41,77232,6,0,B|413:53|413:53|460:101|460:101|503:115,1,132,10|0,0:0|0:0,0:0:0:0:
430,178,77549,6,0,P|329:162|282:219,1,176,4|8,3:2|0:0,0:0:0:0:
356,362,78022,1,0,3:0:0:0:
356,362,78101,1,0,3:0:0:0:
356,362,78180,2,0,B|369:320|369:320|370:263,1,88,2|0,3:2|0:0,0:0:0:0:
94,171,78496,2,0,B|81:213|81:213|80:270,1,88,8|0,0:0|0:0,0:0:0:0:
277,296,78812,5,2,3:2:0:0:
277,296,78970,1,0,3:0:0:0:
124,342,79128,2,0,L|31:355,1,88,8|0,0:0|0:0,0:0:0:0:
279,195,79443,2,0,L|185:183,1,88,2|0,3:2|0:0,0:0:0:0:
466,93,79759,1,8,0:0:0:0:
249,104,79917,5,0,3:0:0:0:
249,104,79996,1,0,3:0:0:0:
249,104,80075,2,0,B|183:97|166:65|171:65|149:35|89:23,1,176,2|8,3:2|0:0,0:0:0:0:
73,258,80549,1,2,0:0:0:0:
263,280,80707,2,0,B|329:287|346:319|341:319|363:349|423:361,1,176,2|8,3:2|0:0,0:0:0:0:
439,126,81181,1,2,0:0:0:0:
256,192,81338,5,10,0:0:0:0:
126,164,81496,1,0,3:0:0:0:
126,177,81575,1,10,0:0:0:0:
386,220,81733,1,0,3:0:0:0:
386,207,81812,1,10,0:0:0:0:
143,26,81970,5,10,0:0:0:0:
160,65,82048,1,8,0:0:0:0:
194,92,82127,1,8,0:0:0:0:
238,97,82206,1,8,0:0:0:0:
278,80,82285,5,10,0:0:0:0:
295,67,82363,1,0,3:0:0:0:
317,64,82443,2,0,P|339:64|364:72,1,44,0|0,3:0|0:0,0:0:0:0:
427,32,82601,6,0,P|466:46|483:100,1,88,4|0,3:2|0:0,0:0:0:0:
472,293,82917,2,0,B|420:278|390:315|391:322|366:359|296:339,1,176,8|2,0:0|3:2,0:0:0:0:
331,259,83391,1,0,3:0:0:0:
176,177,83549,2,0,P|173:133|186:79,1,88,8|0,0:0|0:0,0:0:0:0:
51,37,83864,6,0,P|57:125|31:233,1,176,2|8,3:2|0:0,0:0:0:0:
39,210,84496,1,2,3:2:0:0:
182,269,84654,1,0,3:0:0:0:
304,363,84812,2,0,P|349:355|398:358,1,88,8|0,0:0|0:0,0:0:0:0:
502,269,85128,6,0,P|421:237|340:269,2,176,2|8|2,3:2|0:0|3:2,0:0:0:0:
350,161,85917,1,0,3:0:0:0:
481,31,86075,1,8,0:0:0:0:
481,31,86391,5,2,3:2:0:0:
481,31,86549,1,0,3:0:0:0:
439,205,86707,1,8,0:0:0:0:
356,48,86864,2,0,B|305:71|272:43|279:40|235:10|179:32,1,176,2|0,3:2|3:0,0:0:0:0:
187,29,87259,1,0,3:0:0:0:
187,29,87338,1,8,0:0:0:0:
266,147,87496,1,0,3:0:0:0:
353,377,87654,6,0,P|358:296|344:193,1,176,2|8,3:2|0:0,0:0:0:0:
245,248,88128,1,2,0:0:0:0:
104,111,88285,5,0,3:0:0:0:
27,243,88442,1,0,3:0:0:0:
113,372,88601,2,0,P|148:352|170:302,1,88,8|0,0:0|0:0,0:0:0:0:
346,202,88917,6,0,P|306:132|206:88,1,176,2|8,3:2|0:0,0:0:0:0:
223,90,89549,1,2,3:2:0:0:
87,16,89707,1,0,3:0:0:0:
7,121,89864,2,0,P|51:111|101:106,2,88,8|0|2,0:0|0:0|3:2,0:0:0:0:
256,364,90496,1,8,0:0:0:0:
7,121,90812,5,2,3:2:0:0:
127,183,90970,1,0,3:0:0:0:
168,311,91128,2,0,L|28:336,1,132,8|0,0:0|0:0,0:0:0:0:
38,257,91443,2,0,L|178:282,1,132,2|0,3:2|0:0,0:0:0:0:
247,292,91759,2,0,P|246:248|259:204,1,88,8|0,0:0|0:0,0:0:0:0:
484,31,92075,5,8,0:0:0:0:
489,74,92153,1,8,0:0:0:0:
486,118,92232,1,8,0:0:0:0:
468,157,92311,1,8,0:0:0:0:
431,181,92390,1,8,0:0:0:0:
393,201,92469,1,0,3:0:0:0:
368,236,92548,1,0,3:0:0:0:
361,280,92627,1,0,3:0:0:0:
367,323,92707,6,0,P|410:326|456:307,1,88,10|0,0:0|0:0,0:0:0:0:
298,119,93022,2,0,P|255:116|209:135,1,88,10|0,0:0|0:0,0:0:0:0:
60,310,93338,2,0,P|101:325|145:323,1,88,10|0,0:0|0:0,0:0:0:0:
203,272,93575,1,8,0:0:0:0:
193,262,93654,1,10,0:0:0:0:
75,163,93812,1,0,3:0:0:0:
256,23,93970,5,10,0:0:0:0:
309,223,94128,1,0,3:0:0:0:
309,223,94207,1,0,3:0:0:0:
309,223,94285,1,0,3:0:0:0:
456,78,94443,2,0,P|464:54|463:27,1,44,10|0,0:0|0:0,0:0:0:0:
338,121,94601,1,10,0:0:0:0:
378,137,94679,1,0,3:0:0:0:
409,167,94758,1,0,3:0:0:0:
439,199,94837,1,0,3:0:0:0:
480,215,94917,2,0,P|472:239|473:266,1,44,10|0,0:0|0:0,0:0:0:0:
408,357,95075,5,8,0:0:0:0:
408,357,95154,1,0,3:0:0:0:
408,357,95233,2,0,P|400:316|380:288,2,70.4,4|0|0,3:2|0:0|0:0,0:0:0:0:
195,367,95864,1,8,0:0:0:0:
134,303,96022,2,0,P|163:284|198:279,1,70.4,2|0,0:0|0:0,0:0:0:0:
333,225,96338,2,0,P|305:180|297:128,1,105.6,2|0,0:0|0:0,0:0:0:0:
300,117,96654,2,0,L|310:35,1,70.4,8|0,0:0|0:0,0:0:0:0:
227,13,96969,1,2,0:0:0:0:
397,52,97127,6,0,P|432:43|481:37,1,70.4,8|0,0:0|0:0,0:0:0:0:
211,112,97443,2,0,P|176:121|127:127,1,70.4,8|0,0:0|0:0,0:0:0:0:
56,321,97759,6,0,P|35:258|79:189,1,140.8,4|0,3:2|0:0,0:0:0:0:
211,268,98233,1,2,0:0:0:0:
334,193,98390,2,0,P|300:197|255:186,1,70.4,8|0,0:0|0:0,0:0:0:0:
264,190,98864,2,0,P|315:184|382:200,1,105.6,2|0,0:0|0:0,0:0:0:0:
374,202,99180,2,0,L|444:196,1,70.4,8|0,0:0|0:0,0:0:0:0:
419,282,99496,1,2,0:0:0:0:
314,361,99654,6,0,P|309:320|314:286,1,70.4,8|0,0:0|0:0,0:0:0:0:
82,176,99969,2,0,P|87:217|82:251,1,70.4,8|0,0:0|0:0,0:0:0:0:
0,357,100285,5,4,3:2:0:0:
192,336,100443,1,2,0:0:0:0:
192,336,100522,1,2,0:0:0:0:
192,336,100601,1,2,0:0:0:0:
382,365,100759,1,2,0:0:0:0:
493,276,100917,2,0,P|501:236|495:193,1,70.4,8|0,0:0|0:0,0:0:0:0:
415,235,101233,1,2,0:0:0:0:
210,199,101390,6,0,P|277:205|333:147,1,140.8,2|8,0:0|0:0,0:0:0:0:
328,158,101785,1,2,0:0:0:0:
328,158,101864,2,0,P|313:127|274:117,1,70.4,2|0,0:0|0:0,0:0:0:0:
112,199,102180,6,0,L|33:186,1,70.4,8|0,0:0|0:0,0:0:0:0:
228,50,102496,2,0,L|155:16,1,70.4,8|0,0:0|0:0,0:0:0:0:
247,297,102811,6,0,B|256:247|230:227|226:229|200:208|210:153,1,140.8,4|0,3:2|0:0,0:0:0:0:
139,301,103285,1,2,0:0:0:0:
342,365,103443,1,8,0:0:0:0:
407,306,103601,2,0,P|442:308|479:282,1,70.4,2|0,0:0|0:0,0:0:0:0:
415,53,103917,6,0,P|371:98|365:185,1,140.8,2|8,0:0|0:0,0:0:0:0:
498,217,104390,1,2,0:0:0:0:
498,217,104469,1,2,0:0:0:0:
498,217,104548,1,0,3:0:0:0:
324,280,104706,5,8,0:0:0:0:
183,268,104864,1,2,3:2:0:0:
29,36,105022,5,2,3:2:0:0:
170,48,105180,1,2,3:2:0:0:
260,197,105338,5,4,3:2:0:0:
416,192,112917,5,8,0:0:0:0:
467,120,113075,1,8,0:0:0:0:
427,41,113233,1,8,0:0:0:0:
375,113,113391,1,8,0:0:0:0:
269,279,113548,5,8,0:0:0:0:
170,191,113706,1,8,0:0:0:0:
52,251,113864,1,8,0:0:0:0:
151,339,114022,1,8,0:0:0:0:
448,356,114180,6,0,B|464:312|428:278|427:284|393:250|417:186,1,176,2|8,3:2|0:0,0:0:0:0:
427,41,114654,1,2,0:0:0:0:
233,26,114811,2,0,L|230:74,1,44,8|0,0:0|0:0,0:0:0:0:
221,176,114969,1,8,0:0:0:0:
221,176,115285,6,0,P|111:183|38:82,1,211.199993554688,6|0,3:2|0:0,0:0:0:0:
230,69,115759,1,8,0:0:0:0:
258,287,115917,1,0,3:0:0:0:
258,287,115996,1,0,3:0:0:0:
258,287,116075,1,0,3:0:0:0:
338,174,116233,2,0,P|346:116|371:71,1,105.599996777344,2|8,0:0|0:0,0:0:0:0:
508,184,116548,6,0,P|492:300|442:390,1,211.199993554688,2|0,0:0|0:0,0:0:0:0:
183,365,117022,1,8,0:0:0:0:
359,310,117180,1,2,0:0:0:0:
328,211,117338,1,0,3:0:0:0:
114,255,117496,2,0,P|161:273|212:225,1,105.599996777344,2|8,0:0|0:0,0:0:0:0:
434,123,117811,6,0,P|340:87|238:183,1,211.199993554688,2|0,3:2|0:0,0:0:0:0:
10,226,118285,1,8,0:0:0:0:
24,16,118443,1,2,0:0:0:0:
127,41,118601,2,0,P|174:42|232:23,1,105.599996777344,0|0,3:0|0:0,0:0:0:0:
499,183,118917,1,8,0:0:0:0:
341,127,119075,1,2,0:0:0:0:
468,18,119233,5,0,3:0:0:0:
249,112,119390,2,0,P|249:159|267:237,1,105.599996777344,2|8,0:0|0:0,0:0:0:0:
78,309,119706,2,0,P|78:215|42:59,1,211.199993554688,2|0,0:0|3:0,0:0:0:0:
56,100,120101,1,0,3:0:0:0:
56,100,120180,1,8,0:0:0:0:
165,183,120338,1,2,0:0:0:0:
353,262,120496,6,0,L|462:279,1,105.599996777344,6|0,3:2|0:0,0:0:0:0:
276,133,120811,2,0,L|481:53,1,211.199993554688,8|0,0:0|3:0,0:0:0:0:
407,179,121285,1,2,0:0:0:0:
256,229,121443,1,8,0:0:0:0:
306,380,121601,1,2,0:0:0:0:
104,279,121759,6,0,B|36:239|49:193|55:198|72:147|4:105,1,211.199993554688,6|8,3:2|0:0,0:0:0:0:
228,7,122233,2,0,B|296:47|283:93|277:88|260:139|328:181,1,211.199993554688,6|0,3:2|0:0,0:0:0:0:
116,108,122706,1,8,0:0:0:0:
216,178,122864,1,2,0:0:0:0:
135,365,123022,6,0,P|242:333|342:342,1,211.199993554688,6|8,3:2|0:0,0:0:0:0:
504,220,123496,2,0,P|450:236|400:231,1,105.599996777344,2|0,0:0|3:0,0:0:0:0:
323,156,123811,1,2,0:0:0:0:
439,37,123969,1,8,0:0:0:0:
231,14,124127,5,4,3:2:0:0:
103,126,124285,1,2,0:0:0:0:
54,32,124443,1,8,0:0:0:0:
13,268,124601,2,0,P|55:263|106:219,1,105.599996777344,2|0,0:0|0:0,0:0:0:0:
334,310,124917,1,8,0:0:0:0:
334,310,124996,1,8,0:0:0:0:
334,310,125075,1,8,0:0:0:0:
334,310,125390,6,0,P|375:285|486:383,1,211.199993554688,6|0,3:2|0:0,0:0:0:0:
245,207,125864,1,8,0:0:0:0:
449,170,126022,1,0,3:0:0:0:
449,170,126101,1,0,3:0:0:0:
449,170,126180,1,0,3:0:0:0:
334,105,126338,2,0,P|317:53|318:2,1,105.599996777344,2|8,0:0|0:0,0:0:0:0:
161,176,126654,6,0,P|195:280|193:382,1,211.199993554688,6|0,3:2|0:0,0:0:0:0:
29,230,127127,1,8,0:0:0:0:
280,301,127285,1,2,0:0:0:0:
117,319,127443,1,0,3:0:0:0:
74,142,127601,2,0,P|73:89|90:39,1,105.599996777344,2|8,0:0|0:0,0:0:0:0:
332,19,127917,6,0,B|389:30|416:81|407:81|439:133|521:147,1,211.199993554688,6|0,3:2|0:0,0:0:0:0:
481,246,128390,1,8,0:0:0:0:
256,353,128548,1,2,0:0:0:0:
440,350,128706,2,0,P|394:340|359:279,1,105.599996777344,0|0,3:0|0:0,0:0:0:0:
323,111,129022,1,8,0:0:0:0:
141,208,129180,1,2,0:0:0:0:
50,159,129338,5,0,3:0:0:0:
232,257,129496,2,0,P|288:260|339:280,1,105.599996777344,2|8,0:0|0:0,0:0:0:0:
193,117,129811,2,0,P|243:37|360:59,1,211.199993554688,2|0,0:0|3:0,0:0:0:0:
348,47,130206,1,0,3:0:0:0:
348,47,130285,1,8,0:0:0:0:
500,209,130443,6,0,P|358:177|293:136,1,211.199993554688,6|0,3:2|0:0,0:0:0:0:
124,29,130917,2,0,B|94:27|77:48|79:53|61:72|19:70,1,105.599996777344,8|0,0:0|0:0,0:0:0:0:
107,145,131233,1,0,3:0:0:0:
230,310,131390,1,2,0:0:0:0:
94,367,131548,2,0,P|104:321|101:262,1,105.599996777344,8|0,0:0|0:0,0:0:0:0:
283,175,131864,6,0,P|352:238|457:292,1,211.199993554688,6|8,3:2|0:0,0:0:0:0:
482,6,132338,1,2,0:0:0:0:
259,65,132496,1,0,3:0:0:0:
415,182,132654,1,0,3:0:0:0:
415,182,132733,1,0,3:0:0:0:
415,182,132811,1,8,0:0:0:0:
382,84,132969,1,2,0:0:0:0:
130,84,133127,6,0,P|57:54|30:160,1,211.199993554688,6|8,3:2|0:0,0:0:0:0:
244,236,133601,2,0,P|275:211|236:173,1,105.599996777344,2|0,0:0|3:0,0:0:0:0:
6,259,133917,1,2,0:0:0:0:
237,345,134075,1,8,0:0:0:0:
11,374,134233,6,0,P|60:361|120:356,1,105.599996777344,2|0,0:0|3:0,0:0:0:0:
207,147,134548,1,8,0:0:0:0:
270,229,134706,2,0,P|221:242|161:247,1,105.599996777344,2|0,0:0|0:0,0:0:0:0:
119,39,135022,2,0,P|224:23|324:94,1,211.199993554688,8|0,0:0|0:0,0:0:0:0:
414,264,135496,1,8,0:0:0:0:
466,139,135654,6,0,P|469:79|483:18,1,105.599996777344,6|0,3:2|0:0,0:0:0:0:
289,212,135969,2,0,P|229:209|222:78,1,211.199993554688,8|0,0:0|3:0,0:0:0:0:
350,113,136443,1,2,0:0:0:0:
510,259,136601,2,0,P|507:319|493:380,1,105.599996777344,8|0,0:0|0:0,0:0:0:0:
256,340,136917,5,6,3:2:0:0:
256,340,138180,6,0,P|259:284|246:235,1,105.599996777344,2|0,0:0|0:0,0:0:0:0:
158,246,138654,1,2,0:0:0:0:
158,246,138811,2,0,P|155:302|168:351,1,105.599996777344,2|0,0:0|0:0,0:0:0:0:
256,340,139285,1,2,0:0:0:0:
389,246,139443,6,0,L|477:231,1,88,8|0,0:0|3:0,0:0:0:0:
451,142,139680,1,0,3:0:0:0:
447,154,139759,2,0,L|403:146,3,44,8|0|0|0,0:0|3:0|3:0|3:0,0:0:0:0:
417,71,140075,1,0,3:0:0:0:
252,55,140233,6,0,P|246:42|243:17,2,29.3333333333333,0|0|0,3:0|3:0|3:0,0:0:0:0:
276,39,140390,6,0,B|280:79|280:79|251:125|251:125|253:176,1,132,10|0,0:0|0:0,0:0:0:0:
258,238,140706,6,0,P|251:279|250:338,1,88,6|0,3:2|0:0,0:0:0:0:
37,287,141022,1,8,0:0:0:0:
133,365,141180,2,0,P|129:277|116:190,1,176,2|0,0:0|0:0,0:0:0:0:
29,36,141654,2,0,P|53:69|110:77,1,88,8|0,0:0|0:0,0:0:0:0:
210,29,141969,6,0,L|310:43,1,88,2|0,3:2|0:0,0:0:0:0:
455,64,142285,1,8,0:0:0:0:
490,148,142443,2,0,L|290:176,1,176,2|0,0:0|0:0,0:0:0:0:
117,192,142917,2,0,L|103:292,1,88,8|0,0:0|0:0,0:0:0:0:
361,356,143233,6,0,B|381:320|381:320|362:268,1,88,2|0,3:2|0:0,0:0:0:0:
227,258,143548,2,0,B|207:294|207:294|226:346,1,88,8|0,0:0|0:0,0:0:0:0:
277,130,143864,1,0,3:0:0:0:
356,174,144022,2,0,B|376:138|376:138|357:86,2,88,2|8|0,0:0|0:0|0:0,0:0:0:0:
102,25,144496,6,0,P|146:32|177:68,1,88,2|0,3:2|0:0,0:0:0:0:
67,228,144811,1,8,0:0:0:0:
169,194,144969,2,0,B|190:243|165:276|160:274|135:310|163:373,1,176,2|0,0:0|0:0,0:0:0:0:
333,366,145443,2,0,P|288:358|258:323,1,88,8|0,0:0|0:0,0:0:0:0:
309,132,145759,6,0,P|392:117|489:115,1,176,2|8,3:2|0:0,0:0:0:0:
225,186,146233,1,0,3:0:0:0:
225,186,146311,1,0,3:0:0:0:
225,186,146390,2,0,P|217:144|216:96,1,88,0|0,3:0|0:0,0:0:0:0:
15,39,146706,1,8,0:0:0:0:
130,147,146864,1,2,0:0:0:0:
92,283,147022,6,0,B|84:315|70:322|66:317|50:327|42:357,2,88,0|0|8,3:0|0:0|0:0,0:0:0:0:
308,217,147496,2,0,B|345:255|346:293|335:295|333:325|382:371,1,176,2|0,0:0|0:0,0:0:0:0:
149,364,147969,1,8,0:0:0:0:
258,288,148127,1,2,0:0:0:0:
111,189,148285,6,0,P|43:152|51:45,1,176,0|8,3:0|0:0,0:0:0:0:
281,17,148759,2,0,P|281:59|245:80,1,88,2|0,0:0|3:0,0:0:0:0:
123,101,149075,1,2,0:0:0:0:
350,129,149233,2,0,L|456:147,1,88,8|0,0:0|0:0,0:0:0:0:
489,302,149548,5,10,0:0:0:0:
445,306,149626,1,0,3:0:0:0:
409,331,149705,1,0,3:0:0:0:
373,355,149784,1,0,3:0:0:0:
330,359,149864,2,0,B|334:328|334:328|323:303,1,44,8|0,0:0|0:0,0:0:0:0:
239,165,150022,5,2,3:2:0:0:
200,143,150100,1,0,3:0:0:0:
162,121,150179,1,0,3:0:0:0:
124,103,150258,1,0,3:0:0:0:
93,134,150337,1,0,3:0:0:0:
62,166,150416,1,0,3:0:0:0:
31,196,150496,2,0,B|0:252|0:252|52:305,1,132,10|0,0:0|0:0,0:0:0:0:
125,289,150811,6,0,P|151:323|138:373,1,88,6|0,3:2|0:0,0:0:0:0:
336,212,151127,1,8,0:0:0:0:
233,230,151285,1,0,3:0:0:0:
233,230,151364,1,0,3:0:0:0:
233,230,151443,2,0,P|226:187|252:153,1,88,2|0,3:2|0:0,0:0:0:0:
492,66,151759,5,8,0:0:0:0:
329,91,151917,1,2,0:0:0:0:
329,293,152075,1,0,3:0:0:0:
492,318,152233,1,2,0:0:0:0:
420,192,152390,1,8,0:0:0:0:
420,192,152548,1,2,0:0:0:0:
92,192,152864,5,2,0:0:0:0:
137,349,153022,2,0,P|144:305|144:262,1,88,8|0,0:0|0:0,0:0:0:0:
39,121,153338,2,0,P|39:77|46:34,1,88,2|0,3:2|0:0,0:0:0:0:
255,63,153654,5,8,0:0:0:0:
154,113,153811,1,0,3:0:0:0:
154,113,153890,1,0,3:0:0:0:
154,113,153969,1,0,3:0:0:0:
357,173,154127,2,0,P|390:145|397:95,1,88,2|8,0:0|0:0,0:0:0:0:
483,203,154443,1,2,0:0:0:0:
351,372,154601,6,0,P|300:93|89:20,1,528,2|8,3:2|0:0,0:0:0:0:
93,19,155627,1,0,3:0:0:0:
93,19,155706,1,0,3:0:0:0:
3,198,155864,6,0,P|90:193|187:175,1,176,2|8,3:2|0:0,0:0:0:0:
278,312,156338,1,0,3:0:0:0:
278,312,156417,1,0,3:0:0:0:
278,312,156496,1,0,3:0:0:0:
210,370,156654,1,2,0:0:0:0:
72,303,156811,1,8,0:0:0:0:
89,83,156969,1,2,0:0:0:0:
23,21,157127,6,0,B|129:27|180:104|152:129|207:192|326:172,1,352,2|0,3:2|3:0,0:0:0:0:
431,17,157917,1,2,0:0:0:0:
281,85,158075,2,0,P|248:57|227:6,1,88,8|0,0:0|0:0,0:0:0:0:
448,191,158390,5,0,3:0:0:0:
360,297,158548,2,0,P|393:325|414:376,1,88,2|8,0:0|0:0,0:0:0:0:
199,369,158864,2,0,P|204:287|217:183,1,176,2|0,0:0|0:0,0:0:0:0:
22,138,159338,2,0,P|27:181|30:225,1,88,8|0,0:0|0:0,0:0:0:0:
15,369,159654,5,10,0:0:0:0:
58,364,159732,1,0,3:0:0:0:
102,360,159811,1,0,3:0:0:0:
146,355,159890,1,0,3:0:0:0:
166,316,159969,5,10,0:0:0:0:
207,300,160047,1,0,3:0:0:0:
250,290,160126,1,0,3:0:0:0:
293,287,160205,1,0,3:0:0:0:
337,291,160284,1,2,3:2:0:0:
380,300,160363,1,0,3:0:0:0:
421,316,160442,1,0,3:0:0:0:
460,337,160521,1,0,3:0:0:0:
494,364,160601,2,0,B|477:330|477:330|465:227,1,132,10|0,0:0|0:0,0:0:0:0:
460,159,160917,5,14,0:0:0:0:
266,22,161075,1,0,3:0:0:0:
370,35,161233,5,10,0:0:0:0:
176,172,161391,1,0,3:0:0:0:
280,159,161548,5,10,0:0:0:0:
86,22,161706,1,0,3:0:0:0:
23,138,161864,2,0,P|35:188|44:249,1,105.599996777344,10|0,0:0|3:0,0:0:0:0:
329,356,162180,6,0,P|322:281|380:160,1,211.199993554688,10|8,0:0|0:0,0:0:0:0:
183,28,162654,2,0,P|190:103|132:224,1,211.199993554688,2|0,3:2|3:0,0:0:0:0:
353,73,163127,2,0,P|390:69|451:98,1,105.599996777344,10|0,0:0|3:0,0:0:0:0:
490,296,163443,5,14,0:0:0:0:
256,307,163601,1,0,3:0:0:0:
133,222,163759,5,10,0:0:0:0:
367,233,163917,1,0,3:0:0:0:
256,133,164075,5,10,0:0:0:0:
22,144,164233,1,0,3:0:0:0:
87,36,164390,2,0,P|140:44|193:13,1,105.599996777344,10|0,0:0|3:0,0:0:0:0:
438,22,164706,6,8,B|389:50|397:120|400:112|408:164|338:203,1,211.199993554688,10|8,0:0|0:0,0:0:0:0:
74,362,165180,2,0,B|123:334|115:264|112:272|104:220|174:181,1,211.199993554688,2|0,3:2|3:0,0:0:0:0:
447,262,165654,2,0,B|419:254|397:282|401:280|386:301|347:290,1,105.599996777344,10|0,0:0|3:0,0:0:0:0:
189,360,165969,5,14,0:0:0:0:
41,206,166127,1,0,3:0:0:0:
251,129,166285,5,10,0:0:0:0:
97,277,166443,1,0,3:0:0:0:
313,360,166601,5,10,0:0:0:0:
159,212,166759,1,0,3:0:0:0:
317,240,166917,2,0,P|365:245|409:213,1,105.599996777344,10|0,0:0|3:0,0:0:0:0:
480,27,167233,6,0,B|423:20|394:82|399:87|368:142|304:134,1,211.199993554688,10|10,0:0|0:0,0:0:0:0:
137,292,167706,1,0,3:0:0:0:
201,134,167864,2,0,B|204:105|173:91|171:93|143:78|147:46,1,105.599996777344,10|0,0:0|3:0,0:0:0:0:
7,132,168180,2,0,B|3:160|34:175|37:172|64:188|60:220,1,105.599996777344,10|0,0:0|3:0,0:0:0:0:
309,355,168496,6,0,P|369:329|407:190,1,211.199993554688,14|0,0:0|3:0,0:0:0:0:
203,29,168969,2,0,P|142:54|104:193,1,211.199993554688,14|0,0:0|3:0,0:0:0:0:
236,265,169443,2,0,P|258:198|281:95,1,158.399995166016,14|0,0:0|0:0,0:0:0:0:
265,34,169759,5,10,0:0:0:0:
308,36,169837,1,0,3:0:0:0:
346,58,169916,1,0,3:0:0:0:
369,95,169995,1,0,3:0:0:0:
380,137,170074,1,0,3:0:0:0:
392,180,170153,1,0,3:0:0:0:
416,216,170232,1,0,3:0:0:0:
453,240,170311,1,0,3:0:0:0:
496,250,170390,2,0,P|496:297|505:341,1,88,2|0,3:2|0:0,0:0:0:0:
348,378,170706,2,0,P|348:307|334:241,1,132,2|0,0:0|0:0,0:0:0:0:
268,208,171022,5,14,0:0:0:0:
26,197,171180,1,0,3:0:0:0:
26,298,171338,5,10,0:0:0:0:
268,287,171496,1,0,3:0:0:0:
268,129,171653,5,10,0:0:0:0:
26,118,171811,1,0,3:0:0:0:
141,180,171969,2,0,P|156:98|172:72,1,105.599996777344,10|0,0:0|3:0,0:0:0:0:
432,18,172285,6,0,P|430:118|341:164,1,211.199993554688,10|8,0:0|0:0,0:0:0:0:
79,365,172759,2,0,P|81:265|170:219,1,211.199993554688,2|0,3:2|3:0,0:0:0:0:
388,254,173233,2,0,P|442:266|506:287,1,105.599996777344,10|0,0:0|3:0,0:0:0:0:
327,341,173548,5,14,0:0:0:0:
310,92,173706,1,0,3:0:0:0:
409,129,173864,5,10,0:0:0:0:
160,146,174022,1,0,3:0:0:0:
197,47,174180,5,10,0:0:0:0:
214,296,174338,1,0,3:0:0:0:
115,259,174496,5,10,0:0:0:0:
364,242,174654,1,0,3:0:0:0:
262,195,174811,5,10,0:0:0:0:
262,195,174969,1,10,0:0:0:0:
262,195,175285,5,0,3:0:0:0:
218,263,175443,1,0,3:0:0:0:
218,263,175601,1,0,3:0:0:0:
279,315,175759,2,0,P|273:341|273:367,1,52.7999983886719,0|0,3:0|3:0,0:0:0:0:
46,326,176075,6,0,B|100:255|71:186|44:200|6:117|64:56,1,281.6,6|10,3:2|0:0,0:0:0:0:
336,151,177022,2,0,P|334:172|321:194,1,35.2,8|0,0:0|0:0,0:0:0:0:
208,256,177180,2,0,P|181:191|177:121,1,140.8,6|8,3:2|0:0,0:0:0:0:
176,121,177811,1,2,0:0:0:0:
341,58,177969,2,0,P|410:67|473:98,1,140.8,8|0,0:0|0:0,0:0:0:0:
412,192,178443,1,8,0:0:0:0:
480,314,178601,6,0,B|428:279|355:307|353:347|264:383|213:337,1,281.6,6|10,3:2|0:0,0:0:0:0:
215,44,179548,2,0,P|224:59|222:79,1,35.2,8|0,0:0|0:0,0:0:0:0:
106,260,179706,2,0,P|73:201|81:121,1,140.8,6|8,3:2|0:0,0:0:0:0:
77,129,180338,1,2,0:0:0:0:
0,19,180496,2,0,B|45:8|72:32|68:35|90:62|140:36,1,140.8,8|0,0:0|0:0,0:0:0:0:
305,88,180969,6,0,P|306:48|314:13,1,70.4,10|0,0:0|3:0,0:0:0:0:
501,165,181285,1,8,0:0:0:0:
419,192,181443,1,2,0:0:0:0:
419,192,181759,2,0,P|410:108|458:101,1,140.8,10|2,0:0|0:0,0:0:0:0:
447,347,182390,5,2,0:0:0:0:
429,350,182468,1,2,0:0:0:0:
412,353,182547,1,2,0:0:0:0:
394,356,182626,1,2,0:0:0:0:
377,359,182706,2,0,L|342:352,2,35.2,2|2|2,0:0|0:0|0:0,0:0:0:0:
377,359,183496,6,0,P|307:275|210:280,1,211.199993554688,6|0,3:2|0:0,0:0:0:0:
0,341,183969,1,8,0:0:0:0:
168,365,184127,1,0,3:0:0:0:
168,365,184206,1,0,3:0:0:0:
168,365,184285,1,0,3:0:0:0:
190,196,184443,2,0,P|188:143|214:96,1,105.599996777344,2|8,0:0|0:0,0:0:0:0:
492,14,184759,6,0,P|495:118|444:211,1,211.199993554688,2|0,3:2|0:0,0:0:0:0:
273,161,185232,1,8,0:0:0:0:
291,24,185390,1,2,0:0:0:0:
396,15,185548,1,0,3:0:0:0:
123,50,185706,2,0,P|70:52|23:26,1,105.599996777344,2|8,0:0|0:0,0:0:0:0:
76,292,186022,6,0,B|124:269|173:316|168:322|213:378|274:345,1,211.199993554688,2|0,3:2|0:0,0:0:0:0:
481,195,186496,1,8,0:0:0:0:
247,261,186654,1,2,0:0:0:0:
402,276,186811,2,0,P|459:286|497:321,1,105.599996777344,0|0,3:0|0:0,0:0:0:0:
412,382,187127,1,8,0:0:0:0:
346,148,187285,1,2,0:0:0:0:
499,73,187443,5,0,3:0:0:0:
408,24,187601,2,0,P|353:22|291:6,1,105.599996777344,2|8,0:0|0:0,0:0:0:0:
204,174,187917,2,0,P|110:115|19:25,1,211.199993554688,2|0,0:0|3:0,0:0:0:0:
37,46,188311,1,0,3:0:0:0:
37,46,188390,1,8,0:0:0:0:
213,61,188548,1,2,0:0:0:0:
291,259,188706,6,0,P|267:304|274:369,1,105.599996777344,6|0,3:2|0:0,0:0:0:0:
460,231,189022,2,0,P|508:141|494:11,1,211.199993554688,8|0,0:0|3:0,0:0:0:0:
230,22,189496,1,2,0:0:0:0:
244,179,189654,1,8,0:0:0:0:
401,165,189811,1,2,0:0:0:0:
171,104,189969,6,0,B|112:114|95:172|102:177|78:235|10:246,1,211.199993554688,6|8,3:2|0:0,0:0:0:0:
367,267,190443,2,0,B|387:210|346:167|338:170|300:120|324:56,1,211.199993554688,6|0,3:2|0:0,0:0:0:0:
127,355,190917,1,8,0:0:0:0:
253,343,191075,1,2,0:0:0:0:
249,155,191232,6,0,P|355:171|467:201,1,211.199993554688,6|8,3:2|0:0,0:0:0:0:
179,58,191706,2,0,P|126:50|70:35,1,105.599996777344,2|0,0:0|3:0,0:0:0:0:
103,171,192022,1,2,0:0:0:0:
298,45,192180,1,8,0:0:0:0:
334,317,192338,5,4,3:2:0:0:
263,197,192496,1,2,0:0:0:0:
366,173,192654,1,8,0:0:0:0:
198,358,192811,2,0,P|141:364|86:327,1,105.599996777344,2|0,0:0|0:0,0:0:0:0:
103,171,193127,1,8,0:0:0:0:
103,171,193206,1,8,0:0:0:0:
103,171,193285,1,8,0:0:0:0:
103,171,193601,6,0,P|128:72|40:29,1,211.199993554688,6|0,3:2|0:0,0:0:0:0:
341,21,194075,1,8,0:0:0:0:
232,117,194232,1,0,3:0:0:0:
232,117,194311,1,0,3:0:0:0:
232,117,194390,1,0,3:0:0:0:
258,219,194548,2,0,P|270:273|273:326,1,105.599996777344,2|8,0:0|0:0,0:0:0:0:
470,229,194864,6,0,P|479:114|509:6,1,211.199993554688,6|0,3:2|0:0,0:0:0:0:
246,21,195338,1,8,0:0:0:0:
396,89,195496,1,2,0:0:0:0:
319,162,195654,1,0,3:0:0:0:
169,94,195811,2,0,P|134:72|142:4,1,105.599996777344,2|8,0:0|0:0,0:0:0:0:
186,265,196127,6,0,B|133:251|99:312|101:324|69:376|-5:367,1,211.199993554688,6|0,3:2|0:0,0:0:0:0:
62,208,196601,1,8,0:0:0:0:
194,360,196759,1,2,0:0:0:0:
313,254,196917,2,0,P|318:204|342:141,1,105.599996777344,0|0,3:0|0:0,0:0:0:0:
497,19,197232,1,8,0:0:0:0:
285,38,197390,1,2,0:0:0:0:
406,210,197548,5,0,3:0:0:0:
499,166,197706,2,0,P|494:216|470:279,1,105.599996777344,2|8,0:0|0:0,0:0:0:0:
301,363,198022,2,0,P|269:270|168:207,1,211.199993554688,2|0,0:0|3:0,0:0:0:0:
178,209,198417,1,0,3:0:0:0:
178,209,198496,1,8,0:0:0:0:
9,309,198654,6,0,B|63:288|105:326|101:334|144:382|225:340,1,211.199993554688,6|0,3:2|0:0,0:0:0:0:
178,104,199127,2,0,P|135:126|74:129,1,105.599996777344,8|0,0:0|0:0,0:0:0:0:
112,30,199443,1,0,3:0:0:0:
312,46,199601,1,2,0:0:0:0:
296,246,199759,2,0,P|314:194|345:138,1,105.599996777344,8|0,0:0|0:0,0:0:0:0:
14,219,200075,6,0,P|72:143|183:103,1,211.199993554688,6|8,3:2|0:0,0:0:0:0:
166,240,200548,1,2,0:0:0:0:
313,363,200706,1,0,3:0:0:0:
489,291,200864,1,0,3:0:0:0:
489,291,200943,1,0,3:0:0:0:
489,291,201022,1,8,0:0:0:0:
342,168,201180,1,2,0:0:0:0:
473,192,201338,6,0,P|425:112|481:-5,1,211.199993554688,6|8,3:2|0:0,0:0:0:0:
214,18,201811,2,0,P|254:49|255:100,1,105.599996777344,2|0,0:0|3:0,0:0:0:0:
213,198,202127,1,2,0:0:0:0:
20,288,202285,1,8,0:0:0:0:
218,367,202443,6,0,P|239:320|266:269,1,105.599996777344,2|0,0:0|3:0,0:0:0:0:
149,111,202759,1,8,0:0:0:0:
8,123,202917,2,0,P|29:76|56:25,1,105.599996777344,2|0,0:0|0:0,0:0:0:0:
258,26,203232,2,0,B|332:27|353:74|348:78|365:127|457:109,1,211.199993554688,8|0,0:0|0:0,0:0:0:0:
314,181,203706,1,8,0:0:0:0:
468,330,203864,6,0,P|424:359|360:343,1,105.599996777344,6|0,3:2|0:0,0:0:0:0:
217,204,204180,2,0,P|114:191|28:248,1,211.199993554688,8|0,0:0|3:0,0:0:0:0:
141,317,204654,1,2,0:0:0:0:
4,123,204811,2,0,P|7:64|15:8,1,105.599996777344,8|0,0:0|0:0,0:0:0:0:
144,74,205127,5,6,3:2:0:0:
144,74,206390,6,0,P|188:50|258:61,1,105.599996777344,2|0,0:0|0:0,0:0:0:0:
261,140,206863,1,2,0:0:0:0:
261,140,207021,2,0,P|217:164|147:153,1,105.599996777344,2|0,0:0|0:0,0:0:0:0:
144,74,207496,1,2,0:0:0:0:
79,133,207653,5,2,0:0:0:0:
76,308,207968,1,2,0:0:0:0:
251,311,208284,1,2,0:0:0:0:
254,136,208600,1,2,0:0:0:0:
20,221,208916,5,2,0:0:0:0:
492,163,209547,1,2,0:0:0:0:
123,246,210179,6,0,L|35:231,1,88,8|0,0:0|3:0,0:0:0:0:
61,142,210416,1,0,3:0:0:0:
65,154,210495,2,0,L|109:146,3,44,8|0|0|0,0:0|3:0|3:0|3:0,0:0:0:0:
95,71,210811,1,0,3:0:0:0:
260,55,210968,6,0,P|266:42|269:17,2,29.3333333333333,0|0|0,3:0|3:0|3:0,0:0:0:0:
236,39,211126,6,0,B|232:79|232:79|261:125|261:125|259:176,1,132,10|0,0:0|0:0,0:0:0:0:
251,240,211442,5,4,3:2:0:0:
268,368,211600,1,2,0:0:0:0:
428,187,211758,1,8,0:0:0:0:
420,304,211916,1,0,3:0:0:0:
420,304,211995,1,0,3:0:0:0:
420,304,212074,2,0,B|464:299|464:299|504:270,1,88,2|0,3:2|0:0,0:0:0:0:
436,70,212390,2,0,B|392:75|392:75|352:104,1,88,8|0,0:0|0:0,0:0:0:0:
209,228,212705,5,0,3:0:0:0:
34,196,212863,1,2,0:0:0:0:
54,347,213021,1,8,0:0:0:0:
229,379,213179,1,0,3:0:0:0:
229,379,213258,1,0,3:0:0:0:
229,379,213337,2,0,B|238:333|238:333|269:294,1,88,2|0,3:2|0:0,0:0:0:0:
189,77,213653,2,0,B|180:123|180:123|149:162,1,88,8|0,0:0|0:0,0:0:0:0:
440,217,213968,6,0,B|449:156|407:140|398:143|355:126|365:68,1,176,2|8,3:2|0:0,0:0:0:0:
72,167,214442,1,0,3:0:0:0:
72,167,214521,1,8,0:0:0:0:
72,167,214600,2,0,B|63:228|104:243|113:240|156:257|146:315,1,176,2|8,3:2|0:0,0:0:0:0:
256,192,215074,1,2,0:0:0:0:
433,355,215232,5,8,0:0:0:0:
440,217,215390,1,8,0:0:0:0:
440,217,215468,1,8,0:0:0:0:
440,217,215547,2,0,L|442:161,3,44,8|0|0|0,0:0|3:0|3:0|3:0,0:0:0:0:
446,97,215863,5,0,3:0:0:0:
435,88,215942,1,0,3:0:0:0:
293,20,216100,5,0,3:0:0:0:
290,34,216179,1,0,3:0:0:0:
290,198,216337,5,0,3:0:0:0:
303,192,216416,1,0,3:0:0:0:
316,186,216495,2,0,P|329:142|352:98,1,88,8|0,0:0|0:0,0:0:0:0:
85,61,216811,1,8,0:0:0:0:
193,125,216968,1,0,3:0:0:0:
193,125,217047,1,0,3:0:0:0:
193,125,217126,2,0,P|199:103|211:81,2,44,8|8|0,0:0|0:0|3:0,0:0:0:0:
26,282,217442,5,0,3:0:0:0:
26,282,217521,1,0,3:0:0:0:
26,282,217600,1,8,0:0:0:0:
26,282,217679,1,8,0:0:0:0:
26,282,217758,2,0,B|78:149|288:186|230:373|433:420|499:309,1,563.2,6|0,3:2|0:0,0:0:0:0:
