osu file format v14

[General]
AudioFilename: audio.mp3
AudioLeadIn: 0
PreviewTime: 37193
Countdown: 0
SampleSet: None
StackLeniency: 0.7
Mode: 1
LetterboxInBreaks: 0
WidescreenStoryboard: 0

[Editor]
DistanceSpacing: 2
BeatDivisor: 4
GridSize: 32
TimelineZoom: 4.899997

[Metadata]
Title:Toki no Ryousen
TitleUnicode:時の稜線 (Twin Drum Remix)
Artist:kaitendaentai
ArtistUnicode:廻転楕円体
Creator:yea
Version:Disappearance V
Source:
Tags:electronic breakcore
BeatmapID:1948195
BeatmapSetID:933168

[Difficulty]
HPDrainRate:6
CircleSize:5
OverallDifficulty:7
ApproachRate:5
SliderMultiplier:1.4
SliderTickRate:1

[Events]
//Background and Video events
0,0,"bg.png",0,0
//Break Periods
//Storyboard Layer 0 (Background)
//Storyboard Layer 1 (Fail)
//Storyboard Layer 2 (Pass)
//Storyboard Layer 3 (Foreground)
//Storyboard Sound Samples

[TimingPoints]
40,230.769230769231,7,1,0,80,1,0
33963,-90.9090909090909,7,1,0,80,0,0
34770,-100,7,1,0,80,0,1
37193,-100,7,1,0,80,0,0
59809,-100,7,1,0,80,0,1
62809,-100,7,1,0,80,0,0

[HitObjects]
256,192,40,5,0,0:0:0:0:
256,192,155,1,8,0:0:0:0:
256,192,213,1,8,0:0:0:0:
256,192,270,1,0,0:0:0:0:
256,192,328,1,8,0:0:0:0:
256,192,386,1,0,0:0:0:0:
256,192,443,1,0,0:0:0:0:
256,192,501,1,8,0:0:0:0:
256,192,559,1,0,0:0:0:0:
256,192,616,1,8,0:0:0:0:
256,192,674,1,8,0:0:0:0:
256,192,732,1,0,0:0:0:0:
256,192,847,1,8,0:0:0:0:
256,192,963,1,0,0:0:0:0:
256,192,1020,1,0,0:0:0:0:
256,192,1078,1,8,0:0:0:0:
256,192,1136,1,0,0:0:0:0:
256,192,1193,1,8,0:0:0:0:
256,192,1251,1,8,0:0:0:0:
256,192,1309,1,0,0:0:0:0:
256,192,1366,1,0,0:0:0:0:
256,192,1424,1,8,0:0:0:0:
256,192,1463,1,8,0:0:0:0:
256,192,1501,1,8,0:0:0:0:
256,192,1540,1,0,0:0:0:0:
256,192,1578,1,0,0:0:0:0:
256,192,1616,1,0,0:0:0:0:
256,192,1655,1,8,0:0:0:0:
256,192,1713,1,8,0:0:0:0:
256,192,1770,1,0,0:0:0:0:
256,192,1828,1,0,0:0:0:0:
256,192,1886,1,8,0:0:0:0:
256,192,2001,1,8,0:0:0:0:
256,192,2116,1,0,0:0:0:0:
256,192,2155,1,8,0:0:0:0:
256,192,2193,1,8,0:0:0:0:
256,192,2232,1,0,0:0:0:0:
256,192,2290,1,0,0:0:0:0:
256,192,2347,1,8,0:0:0:0:
256,192,2405,1,8,0:0:0:0:
256,192,2463,1,8,0:0:0:0:
256,192,2520,1,8,0:0:0:0:
256,192,2578,1,0,0:0:0:0:
256,192,2655,1,0,0:0:0:0:
256,192,2732,1,8,0:0:0:0:
256,192,2809,1,0,0:0:0:0:
256,192,2886,1,8,0:0:0:0:
256,192,3040,1,8,0:0:0:0:
256,192,3068,1,8,0:0:0:0:
256,192,3097,1,8,0:0:0:0:
256,192,3270,1,0,0:0:0:0:
256,192,3386,1,0,0:0:0:0:
256,192,3501,1,8,0:0:0:0:
256,192,3559,1,0,0:0:0:0:
256,192,3616,1,8,0:0:0:0:
256,192,3674,1,8,0:0:0:0:
256,192,3732,1,0,0:0:0:0:
256,192,3905,1,8,0:0:0:0:
256,192,3934,1,8,0:0:0:0:
256,192,3963,1,0,0:0:0:0:
256,192,4078,1,8,0:0:0:0:
256,192,4193,1,0,0:0:0:0:
256,192,4309,1,8,0:0:0:0:
256,192,4424,1,0,0:0:0:0:
256,192,4463,1,0,0:0:0:0:
256,192,4501,1,0,0:0:0:0:
256,192,4540,1,8,0:0:0:0:
256,192,4597,1,0,0:0:0:0:
256,192,4655,1,8,0:0:0:0:
256,192,4693,1,8,0:0:0:0:
256,192,4732,1,0,0:0:0:0:
256,192,4770,1,8,0:0:0:0:
256,192,4809,1,8,0:0:0:0:
256,192,4847,1,8,0:0:0:0:
256,192,4886,1,0,0:0:0:0:
256,192,5001,1,0,0:0:0:0:
256,192,5116,1,8,0:0:0:0:
256,192,5174,1,0,0:0:0:0:
256,192,5232,1,8,0:0:0:0:
256,192,5290,1,8,0:0:0:0:
256,192,5347,1,0,0:0:0:0:
256,192,5386,1,8,0:0:0:0:
256,192,5424,1,8,0:0:0:0:
256,192,5463,1,0,0:0:0:0:
256,192,5578,1,0,0:0:0:0:
256,192,5693,1,8,0:0:0:0:
256,192,5751,1,8,0:0:0:0:
256,192,5809,1,0,0:0:0:0:
256,192,5866,1,0,0:0:0:0:
256,192,5924,1,0,0:0:0:0:
256,192,5963,1,0,0:0:0:0:
256,192,6001,1,0,0:0:0:0:
256,192,6040,1,0,0:0:0:0:
256,192,6155,1,8,0:0:0:0:
256,192,6270,1,8,0:0:0:0:
256,192,6328,1,0,0:0:0:0:
256,192,6386,1,8,0:0:0:0:
256,192,6443,1,8,0:0:0:0:
256,192,6501,1,0,0:0:0:0:
256,192,6616,1,0,0:0:0:0:
256,192,6732,1,8,0:0:0:0:
256,192,6770,1,8,0:0:0:0:
256,192,6809,1,8,0:0:0:0:
256,192,6847,1,0,0:0:0:0:
256,192,6905,1,0,0:0:0:0:
256,192,6963,1,8,0:0:0:0:
256,192,7020,1,8,0:0:0:0:
256,192,7078,1,0,0:0:0:0:
256,192,7136,1,8,0:0:0:0:
256,192,7193,1,0,0:0:0:0:
256,192,7232,1,0,0:0:0:0:
256,192,7270,1,0,0:0:0:0:
256,192,7309,1,8,0:0:0:0:
256,192,7366,1,8,0:0:0:0:
256,192,7424,1,0,0:0:0:0:
256,192,7540,1,8,0:0:0:0:
256,192,7597,1,8,0:0:0:0:
256,192,7655,1,0,0:0:0:0:
256,192,7770,1,8,0:0:0:0:
256,192,7828,1,0,0:0:0:0:
256,192,7886,1,8,0:0:0:0:
256,192,8001,1,0,0:0:0:0:
256,192,8059,1,0,0:0:0:0:
256,192,8116,1,8,0:0:0:0:
256,192,8174,1,8,0:0:0:0:
256,192,8232,1,0,0:0:0:0:
256,192,8290,1,8,0:0:0:0:
256,192,8347,1,0,0:0:0:0:
256,192,8405,1,0,0:0:0:0:
256,192,8463,1,8,0:0:0:0:
256,192,8520,1,0,0:0:0:0:
256,192,8578,1,0,0:0:0:0:
256,192,8636,1,0,0:0:0:0:
256,192,8693,1,8,0:0:0:0:
256,192,8751,1,0,0:0:0:0:
256,192,8809,1,8,0:0:0:0:
256,192,8866,1,0,0:0:0:0:
256,192,8924,1,8,0:0:0:0:
256,192,8982,1,8,0:0:0:0:
256,192,9040,1,0,0:0:0:0:
256,192,9155,1,0,0:0:0:0:
256,192,9270,1,8,0:0:0:0:
256,192,9309,1,8,0:0:0:0:
256,192,9347,1,8,0:0:0:0:
256,192,9386,1,0,0:0:0:0:
256,192,9443,1,0,0:0:0:0:
256,192,9501,1,8,0:0:0:0:
256,192,9578,1,8,0:0:0:0:
256,192,9655,1,8,0:0:0:0:
256,192,9732,1,0,0:0:0:0:
256,192,9847,1,8,0:0:0:0:
256,192,9886,1,0,0:0:0:0:
256,192,9924,1,0,0:0:0:0:
256,192,9963,1,8,0:0:0:0:
256,192,10020,1,8,0:0:0:0:
256,192,10078,1,8,0:0:0:0:
256,192,10136,1,8,0:0:0:0:
256,192,10193,1,0,0:0:0:0:
256,192,10309,1,0,0:0:0:0:
256,192,10366,1,0,0:0:0:0:
256,192,10424,1,8,0:0:0:0:
256,192,10540,1,0,0:0:0:0:
256,192,10655,1,8,0:0:0:0:
256,192,10713,1,8,0:0:0:0:
256,192,10770,1,0,0:0:0:0:
256,192,10886,1,8,0:0:0:0:
256,128,11001,1,4,0:0:0:0:
256,128,11116,1,4,0:0:0:0:
256,128,11232,1,4,0:0:0:0:
256,192,11347,1,8,0:0:0:0:
256,192,11405,1,0,0:0:0:0:
256,192,11463,1,8,0:0:0:0:
256,192,11578,1,0,0:0:0:0:
256,192,11636,1,0,0:0:0:0:
256,192,11693,1,8,0:0:0:0:
256,192,11732,1,0,0:0:0:0:
256,192,11770,1,0,0:0:0:0:
256,192,11809,1,8,0:0:0:0:
256,192,11866,1,0,0:0:0:0:
256,192,11924,1,8,0:0:0:0:
256,192,11963,1,8,0:0:0:0:
256,192,12001,1,8,0:0:0:0:
256,192,12040,1,0,0:0:0:0:
256,192,12097,1,0,0:0:0:0:
256,192,12155,1,8,0:0:0:0:
256,192,12270,1,0,0:0:0:0:
256,192,12386,1,8,0:0:0:0:
256,192,12501,1,8,0:0:0:0:
256,192,12616,1,0,0:0:0:0:
256,192,12655,1,0,0:0:0:0:
256,192,12693,1,0,0:0:0:0:
256,192,12732,1,8,0:0:0:0:
256,192,12790,1,0,0:0:0:0:
256,192,12847,1,8,0:0:0:0:
256,192,12905,1,0,0:0:0:0:
256,192,12963,1,8,0:0:0:0:
256,192,13020,1,8,0:0:0:0:
256,192,13078,1,0,0:0:0:0:
256,192,13136,1,0,0:0:0:0:
256,192,13193,1,8,0:0:0:0:
256,192,13251,1,8,0:0:0:0:
256,192,13309,1,8,0:0:0:0:
256,192,13366,1,8,0:0:0:0:
256,192,13424,1,0,0:0:0:0:
256,192,13540,1,8,0:0:0:0:
256,192,13597,1,0,0:0:0:0:
256,192,13655,1,8,0:0:0:0:
256,192,13770,1,0,0:0:0:0:
256,192,13828,1,0,0:0:0:0:
256,192,13886,1,8,0:0:0:0:
256,192,13924,1,8,0:0:0:0:
256,192,13963,1,8,0:0:0:0:
256,192,14001,1,0,0:0:0:0:
256,192,14116,1,0,0:0:0:0:
256,192,14232,1,8,0:0:0:0:
256,192,14290,1,0,0:0:0:0:
256,192,14347,1,8,0:0:0:0:
256,192,14405,1,0,0:0:0:0:
256,192,14463,1,8,0:0:0:0:
256,192,14578,1,0,0:0:0:0:
256,192,14693,1,8,0:0:0:0:
256,192,14809,1,0,0:0:0:0:
256,192,14924,1,8,0:0:0:0:
256,192,15040,1,8,0:0:0:0:
256,192,15078,1,0,0:0:0:0:
256,192,15116,1,0,0:0:0:0:
256,192,15155,1,8,0:0:0:0:
256,192,15213,1,0,0:0:0:0:
256,192,15270,1,8,0:0:0:0:
256,192,15328,1,8,0:0:0:0:
256,192,15386,1,8,0:0:0:0:
256,192,15443,1,8,0:0:0:0:
256,192,15501,1,0,0:0:0:0:
256,192,15616,1,8,0:0:0:0:
256,192,15645,1,8,0:0:0:0:
256,192,15674,1,8,0:0:0:0:
256,192,15847,1,0,0:0:0:0:
256,192,15905,1,0,0:0:0:0:
256,192,15963,1,0,0:0:0:0:
256,192,16020,1,0,0:0:0:0:
256,192,16078,1,0,0:0:0:0:
256,192,16136,1,0,0:0:0:0:
256,192,16193,1,0,0:0:0:0:
256,192,16309,1,0,0:0:0:0:
256,192,16424,1,8,0:0:0:0:
256,192,16463,1,0,0:0:0:0:
256,192,16501,1,0,0:0:0:0:
256,192,16540,1,8,0:0:0:0:
256,192,16597,1,8,0:0:0:0:
256,192,16655,1,0,0:0:0:0:
256,192,16713,1,8,0:0:0:0:
256,192,16770,1,0,0:0:0:0:
256,192,16828,1,0,0:0:0:0:
256,192,16886,1,8,0:0:0:0:
256,192,17001,1,8,0:0:0:0:
256,192,17059,1,8,0:0:0:0:
256,192,17116,1,0,0:0:0:0:
256,192,17232,1,0,0:0:0:0:
256,192,17347,1,8,0:0:0:0:
256,192,17386,1,0,0:0:0:0:
256,192,17424,1,0,0:0:0:0:
256,192,17463,1,8,0:0:0:0:
256,192,17520,1,8,0:0:0:0:
256,192,17578,1,0,0:0:0:0:
256,192,17693,1,0,0:0:0:0:
256,192,17809,1,8,0:0:0:0:
256,192,17866,1,8,0:0:0:0:
256,192,17924,1,0,0:0:0:0:
256,192,17982,1,0,0:0:0:0:
256,192,18040,1,8,0:0:0:0:
256,192,18155,1,0,0:0:0:0:
256,192,18270,1,8,0:0:0:0:
256,192,18328,1,0,0:0:0:0:
256,192,18386,1,8,0:0:0:0:
256,192,18443,1,8,0:0:0:0:
256,192,18501,1,0,0:0:0:0:
256,192,18616,1,8,0:0:0:0:
256,192,18655,1,0,0:0:0:0:
256,192,18693,1,0,0:0:0:0:
256,192,18732,1,8,0:0:0:0:
256,192,18847,1,8,0:0:0:0:
256,192,18963,1,0,0:0:0:0:
256,192,19020,1,8,0:0:0:0:
256,192,19078,1,0,0:0:0:0:
256,192,19136,1,0,0:0:0:0:
256,192,19193,1,8,0:0:0:0:
256,192,19309,1,0,0:0:0:0:
256,192,19347,1,8,0:0:0:0:
256,192,19386,1,8,0:0:0:0:
256,192,19424,1,0,0:0:0:0:
256,192,19540,1,8,0:0:0:0:
256,192,19655,1,8,0:0:0:0:
256,192,19770,1,0,0:0:0:0:
256,192,19809,1,8,0:0:0:0:
256,192,19847,1,8,0:0:0:0:
256,192,19886,1,0,0:0:0:0:
256,192,19943,1,8,0:0:0:0:
256,192,20001,1,0,0:0:0:0:
256,192,20059,1,8,0:0:0:0:
256,192,20116,1,0,0:0:0:0:
256,192,20232,1,8,0:0:0:0:
256,192,20290,1,8,0:0:0:0:
256,192,20347,1,0,0:0:0:0:
256,192,20405,1,8,0:0:0:0:
256,192,20463,1,0,0:0:0:0:
256,192,20520,1,0,0:0:0:0:
256,192,20578,1,0,0:0:0:0:
256,192,20693,1,0,0:0:0:0:
256,192,20809,1,8,0:0:0:0:
256,192,20847,1,8,0:0:0:0:
256,192,20886,1,8,0:0:0:0:
256,192,20924,1,0,0:0:0:0:
256,192,20963,1,0,0:0:0:0:
256,192,21001,1,0,0:0:0:0:
256,192,21040,1,8,0:0:0:0:
256,192,21097,1,8,0:0:0:0:
256,192,21155,1,0,0:0:0:0:
256,192,21213,1,0,0:0:0:0:
256,192,21270,1,8,0:0:0:0:
256,192,21309,1,8,0:0:0:0:
256,192,21347,1,8,0:0:0:0:
256,192,21386,1,0,0:0:0:0:
256,192,21501,1,8,0:0:0:0:
256,192,21559,1,0,0:0:0:0:
256,192,21616,1,8,0:0:0:0:
256,192,21674,1,0,0:0:0:0:
256,192,21732,1,8,0:0:0:0:
256,192,21847,1,0,0:0:0:0:
256,192,21963,1,8,0:0:0:0:
256,192,21991,1,8,0:0:0:0:
256,192,22020,1,0,0:0:0:0:
256,192,22078,1,8,0:0:0:0:
256,192,22107,1,8,0:0:0:0:
256,192,22136,1,0,0:0:0:0:
256,192,22193,1,8,0:0:0:0:
256,192,22251,1,8,0:0:0:0:
256,192,22309,1,8,0:0:0:0:
256,192,22366,1,8,0:0:0:0:
256,192,22424,1,8,0:0:0:0:
256,192,22482,1,8,0:0:0:0:
256,192,22540,1,8,0:0:0:0:
256,192,22597,1,8,0:0:0:0:
256,192,22655,1,0,0:0:0:0:
256,192,22770,1,0,0:0:0:0:
256,192,22886,1,8,0:0:0:0:
256,192,22943,1,8,0:0:0:0:
256,192,23001,1,0,0:0:0:0:
256,192,23059,1,0,0:0:0:0:
256,192,23116,1,8,0:0:0:0:
256,192,23155,1,8,0:0:0:0:
256,192,23193,1,8,0:0:0:0:
256,192,23232,1,0,0:0:0:0:
256,192,23270,1,8,0:0:0:0:
256,192,23309,1,8,0:0:0:0:
256,192,23347,1,0,0:0:0:0:
256,192,23463,1,8,0:0:0:0:
256,192,23520,1,8,0:0:0:0:
256,192,23578,1,0,0:0:0:0:
256,192,23636,1,0,0:0:0:0:
256,192,23693,1,0,0:0:0:0:
256,192,23751,1,0,0:0:0:0:
256,192,23809,1,8,0:0:0:0:
256,192,23847,1,8,0:0:0:0:
256,192,23886,1,0,0:0:0:0:
256,192,23924,1,8,0:0:0:0:
256,192,23963,1,0,0:0:0:0:
256,192,24001,1,0,0:0:0:0:
256,192,24040,1,8,0:0:0:0:
256,192,24097,1,8,0:0:0:0:
256,192,24155,1,0,0:0:0:0:
256,192,24213,1,0,0:0:0:0:
256,192,24270,1,0,0:0:0:0:
256,192,24386,1,0,0:0:0:0:
256,192,24501,1,8,0:0:0:0:
256,192,24559,1,0,0:0:0:0:
256,192,24616,1,8,0:0:0:0:
256,192,24674,1,8,0:0:0:0:
256,192,24732,1,0,0:0:0:0:
256,192,24790,1,0,0:0:0:0:
256,192,24847,1,8,0:0:0:0:
256,192,24905,1,8,0:0:0:0:
256,192,24963,1,0,0:0:0:0:
256,192,25078,1,0,0:0:0:0:
256,192,25193,1,8,0:0:0:0:
256,192,25309,1,8,0:0:0:0:
256,192,25347,1,0,0:0:0:0:
256,192,25386,1,0,0:0:0:0:
256,192,25424,1,8,0:0:0:0:
256,192,25482,1,0,0:0:0:0:
256,192,25540,1,8,0:0:0:0:
256,192,25597,1,8,0:0:0:0:
256,192,25655,1,0,0:0:0:0:
256,192,25886,1,0,0:0:0:0:
256,192,26001,1,0,0:0:0:0:
256,192,26116,1,8,0:0:0:0:
256,192,26174,1,8,0:0:0:0:
256,192,26232,1,0,0:0:0:0:
256,192,26290,1,8,0:0:0:0:
256,192,26347,1,0,0:0:0:0:
256,192,26405,1,8,0:0:0:0:
256,192,26463,1,0,0:0:0:0:
256,192,26520,1,0,0:0:0:0:
256,192,26578,1,8,0:0:0:0:
256,192,26655,1,8,0:0:0:0:
256,192,26732,1,0,0:0:0:0:
256,192,26770,1,8,0:0:0:0:
256,192,26809,1,0,0:0:0:0:
256,192,26924,1,8,0:0:0:0:
256,192,27040,1,0,0:0:0:0:
256,192,27155,1,8,0:0:0:0:
256,192,27270,1,8,0:0:0:0:
256,192,27386,1,0,0:0:0:0:
256,192,27501,1,0,0:0:0:0:
256,192,27559,1,0,0:0:0:0:
256,192,27616,1,0,0:0:0:0:
256,192,27655,1,0,0:0:0:0:
256,192,27693,1,0,0:0:0:0:
256,192,27732,1,8,0:0:0:0:
256,192,27847,1,0,0:0:0:0:
256,192,27963,1,8,0:0:0:0:
256,192,28001,1,8,0:0:0:0:
256,192,28040,1,8,0:0:0:0:
256,192,28078,1,0,0:0:0:0:
256,192,28136,1,0,0:0:0:0:
256,192,28193,1,0,0:0:0:0:
256,192,28309,1,8,0:0:0:0:
256,192,28424,1,8,0:0:0:0:
256,192,28453,1,8,0:0:0:0:
256,192,28482,1,8,0:0:0:0:
256,192,28540,1,8,0:0:0:0:
256,192,28655,1,0,0:0:0:0:
256,192,28713,1,0,0:0:0:0:
256,192,28770,1,0,0:0:0:0:
256,192,28828,1,0,0:0:0:0:
256,192,28886,1,0,0:0:0:0:
256,192,28943,1,0,0:0:0:0:
256,192,29001,1,0,0:0:0:0:
256,192,29059,1,0,0:0:0:0:
256,192,29116,1,0,0:0:0:0:
256,192,29232,1,0,0:0:0:0:
256,192,29347,1,8,0:0:0:0:
256,192,29463,1,8,0:0:0:0:
256,192,29578,1,0,0:0:0:0:
256,192,29693,1,0,0:0:0:0:
256,192,29809,1,8,0:0:0:0:
256,192,29866,1,8,0:0:0:0:
256,192,29924,1,0,0:0:0:0:
256,192,29982,1,0,0:0:0:0:
256,192,30040,1,8,0:0:0:0:
256,192,30097,1,8,0:0:0:0:
256,192,30155,1,8,0:0:0:0:
256,192,30213,1,8,0:0:0:0:
256,192,30270,1,0,0:0:0:0:
256,192,30386,1,8,0:0:0:0:
256,192,30443,1,0,0:0:0:0:
256,192,30501,1,8,0:0:0:0:
256,192,30616,1,8,0:0:0:0:
256,192,30732,1,0,0:0:0:0:
256,192,30790,1,8,0:0:0:0:
256,192,30847,1,0,0:0:0:0:
256,192,30905,1,0,0:0:0:0:
256,192,30963,1,8,0:0:0:0:
256,192,31001,1,8,0:0:0:0:
256,192,31040,1,8,0:0:0:0:
256,192,31078,1,8,0:0:0:0:
256,192,31136,1,8,0:0:0:0:
256,192,31193,1,0,0:0:0:0:
256,192,31309,1,0,0:0:0:0:
256,192,31424,1,8,0:0:0:0:
256,192,31501,1,8,0:0:0:0:
256,192,31578,1,8,0:0:0:0:
256,192,31655,1,0,0:0:0:0:
256,192,31732,1,0,0:0:0:0:
256,192,31809,1,0,0:0:0:0:
256,192,31886,1,8,0:0:0:0:
256,192,32001,1,0,0:0:0:0:
256,192,32059,1,0,0:0:0:0:
256,192,32116,1,8,0:0:0:0:
256,192,32232,1,8,0:0:0:0:
256,192,32347,1,0,0:0:0:0:
256,192,32405,1,8,0:0:0:0:
256,192,32463,1,0,0:0:0:0:
256,192,32520,1,0,0:0:0:0:
256,192,32578,1,8,0:0:0:0:
256,192,32693,1,0,0:0:0:0:
256,192,32809,1,0,0:0:0:0:
256,192,32924,1,8,0:0:0:0:
256,192,32982,1,8,0:0:0:0:
256,192,33040,1,0,0:0:0:0:
256,192,33155,1,0,0:0:0:0:
256,192,33270,1,8,0:0:0:0:
256,192,33386,1,8,0:0:0:0:
256,192,33443,1,8,0:0:0:0:
256,192,33501,1,0,0:0:0:0:
256,192,33616,1,0,0:0:0:0:
256,192,33674,1,0,0:0:0:0:
256,192,33732,1,8,0:0:0:0:
256,192,33847,1,8,0:0:0:0:
256,128,33963,1,4,0:0:0:0:
256,192,34770,1,8,0:0:0:0:
256,192,34799,1,8,0:0:0:0:
256,192,34828,1,0,0:0:0:0:
256,192,34857,1,0,0:0:0:0:
256,192,34886,1,8,0:0:0:0:
256,192,35001,1,0,0:0:0:0:
256,192,35059,1,0,0:0:0:0:
256,192,35116,1,8,0:0:0:0:
256,192,35193,1,8,0:0:0:0:
256,192,35270,1,8,0:0:0:0:
256,192,35309,1,8,0:0:0:0:
256,192,35347,1,0,0:0:0:0:
256,192,35463,1,8,0:0:0:0:
256,192,35501,1,0,0:0:0:0:
256,192,35540,1,0,0:0:0:0:
256,192,35578,1,8,0:0:0:0:
256,192,35655,1,0,0:0:0:0:
256,192,35732,1,0,0:0:0:0:
256,192,35809,1,8,0:0:0:0:
256,192,35866,1,8,0:0:0:0:
256,192,35924,1,0,0:0:0:0:
256,192,35982,1,0,0:0:0:0:
256,192,36040,1,8,0:0:0:0:
256,192,36078,1,8,0:0:0:0:
256,192,36116,1,8,0:0:0:0:
256,192,36155,1,0,0:0:0:0:
256,192,36213,1,0,0:0:0:0:
256,192,36270,1,8,0:0:0:0:
256,192,36386,1,0,0:0:0:0:
256,192,36424,1,8,0:0:0:0:
256,192,36616,1,0,0:0:0:0:
256,192,36655,1,8,0:0:0:0:
256,192,36847,1,0,0:0:0:0:
256,192,36963,1,0,0:0:0:0:
256,192,37193,1,0,0:0:0:0:
256,192,37251,1,8,0:0:0:0:
256,192,37309,1,8,0:0:0:0:
256,192,37366,1,8,0:0:0:0:
256,192,37424,1,0,0:0:0:0:
256,192,37540,1,8,0:0:0:0:
256,192,37655,1,0,0:0:0:0:
256,192,37713,1,0,0:0:0:0:
256,192,37770,1,8,0:0:0:0:
256,192,37886,1,8,0:0:0:0:
256,192,38001,1,0,0:0:0:0:
256,192,38059,1,0,0:0:0:0:
256,192,38116,1,8,0:0:0:0:
256,192,38174,1,8,0:0:0:0:
256,192,38232,1,0,0:0:0:0:
256,192,38290,1,8,0:0:0:0:
256,192,38347,1,0,0:0:0:0:
256,192,38386,1,8,0:0:0:0:
256,192,38424,1,8,0:0:0:0:
256,192,38463,1,0,0:0:0:0:
256,192,38520,1,0,0:0:0:0:
256,192,38578,1,8,0:0:0:0:
256,192,38693,1,8,0:0:0:0:
256,192,38809,1,0,0:0:0:0:
256,192,38866,1,0,0:0:0:0:
256,192,38924,1,0,0:0:0:0:
256,192,38982,1,0,0:0:0:0:
256,192,39040,1,8,0:0:0:0:
256,192,39155,1,0,0:0:0:0:
256,192,39270,1,0,0:0:0:0:
256,192,39386,1,8,0:0:0:0:
256,192,39443,1,8,0:0:0:0:
256,192,39501,1,0,0:0:0:0:
256,192,39540,1,8,0:0:0:0:
256,192,39578,1,8,0:0:0:0:
256,192,39616,1,0,0:0:0:0:
256,192,39674,1,0,0:0:0:0:
256,192,39732,1,8,0:0:0:0:
256,192,39770,1,8,0:0:0:0:
256,192,39809,1,8,0:0:0:0:
256,192,39847,1,0,0:0:0:0:
256,192,39905,1,0,0:0:0:0:
256,192,39963,1,0,0:0:0:0:
256,192,40040,1,0,0:0:0:0:
256,192,40116,1,0,0:0:0:0:
256,192,40193,1,8,0:0:0:0:
256,192,40309,1,0,0:0:0:0:
256,192,40424,1,0,0:0:0:0:
256,192,40540,1,8,0:0:0:0:
256,192,40597,1,0,0:0:0:0:
256,192,40655,1,8,0:0:0:0:
256,192,40713,1,8,0:0:0:0:
256,192,40770,1,0,0:0:0:0:
256,192,40828,1,0,0:0:0:0:
256,192,40886,1,8,0:0:0:0:
256,192,41001,1,0,0:0:0:0:
256,192,41040,1,0,0:0:0:0:
256,192,41078,1,8,0:0:0:0:
256,192,41116,1,8,0:0:0:0:
256,192,41155,1,8,0:0:0:0:
256,192,41193,1,8,0:0:0:0:
256,192,41232,1,0,0:0:0:0:
256,192,41290,1,0,0:0:0:0:
256,192,41347,1,8,0:0:0:0:
256,192,41463,1,0,0:0:0:0:
256,192,41578,1,8,0:0:0:0:
256,192,41636,1,8,0:0:0:0:
256,192,41693,1,0,0:0:0:0:
256,192,41809,1,8,0:0:0:0:
256,192,41886,1,8,0:0:0:0:
256,192,41963,1,8,0:0:0:0:
256,192,42040,1,0,0:0:0:0:
256,192,42097,1,0,0:0:0:0:
256,192,42155,1,0,0:0:0:0:
256,192,42213,1,0,0:0:0:0:
256,192,42270,1,8,0:0:0:0:
256,192,42386,1,8,0:0:0:0:
256,192,42501,1,8,0:0:0:0:
256,192,42559,1,0,0:0:0:0:
256,192,42616,1,8,0:0:0:0:
256,192,42732,1,0,0:0:0:0:
256,192,42847,1,0,0:0:0:0:
256,192,42963,1,8,0:0:0:0:
256,192,43020,1,8,0:0:0:0:
256,192,43078,1,0,0:0:0:0:
256,192,43136,1,0,0:0:0:0:
256,192,43193,1,8,0:0:0:0:
256,192,43251,1,0,0:0:0:0:
256,192,43309,1,8,0:0:0:0:
256,192,43366,1,0,0:0:0:0:
256,192,43424,1,8,0:0:0:0:
256,192,43482,1,8,0:0:0:0:
256,192,43540,1,0,0:0:0:0:
256,192,43597,1,0,0:0:0:0:
256,192,43655,1,8,0:0:0:0:
256,192,43770,1,0,0:0:0:0:
256,192,43886,1,0,0:0:0:0:
256,192,43924,1,8,0:0:0:0:
256,192,43963,1,8,0:0:0:0:
256,192,44001,1,0,0:0:0:0:
256,192,44059,1,0,0:0:0:0:
256,192,44116,1,8,0:0:0:0:
256,192,44232,1,0,0:0:0:0:
256,192,44347,1,8,0:0:0:0:
256,192,44463,1,0,0:0:0:0:
256,192,44520,1,0,0:0:0:0:
256,192,44578,1,8,0:0:0:0:
256,192,44616,1,8,0:0:0:0:
256,192,44655,1,8,0:0:0:0:
256,192,44693,1,0,0:0:0:0:
256,192,44809,1,8,0:0:0:0:
256,192,44924,1,8,0:0:0:0:
256,192,45040,1,0,0:0:0:0:
256,192,45155,1,0,0:0:0:0:
256,192,45270,1,8,0:0:0:0:
256,192,45328,1,8,0:0:0:0:
256,192,45386,1,0,0:0:0:0:
256,192,45443,1,8,0:0:0:0:
256,192,45501,1,8,0:0:0:0:
256,192,45616,1,0,0:0:0:0:
256,192,45655,1,8,0:0:0:0:
256,192,45693,1,8,0:0:0:0:
256,192,45732,1,0,0:0:0:0:
256,192,45790,1,8,0:0:0:0:
256,192,45847,1,0,0:0:0:0:
256,192,45905,1,0,0:0:0:0:
256,192,45963,1,8,0:0:0:0:
256,192,46078,1,0,0:0:0:0:
256,192,46193,1,0,0:0:0:0:
256,192,46232,1,0,0:0:0:0:
256,192,46270,1,8,0:0:0:0:
256,192,46309,1,0,0:0:0:0:
256,192,46347,1,0,0:0:0:0:
256,192,46386,1,8,0:0:0:0:
256,192,46424,1,0,0:0:0:0:
256,192,46501,1,8,0:0:0:0:
256,192,46578,1,0,0:0:0:0:
256,192,46655,1,8,0:0:0:0:
256,192,46713,1,8,0:0:0:0:
256,192,46770,1,8,0:0:0:0:
256,192,46828,1,8,0:0:0:0:
256,192,46886,1,0,0:0:0:0:
256,192,47001,1,8,0:0:0:0:
256,192,47116,1,0,0:0:0:0:
256,192,47155,1,0,0:0:0:0:
256,192,47193,1,8,0:0:0:0:
256,192,47232,1,8,0:0:0:0:
256,192,47347,1,8,0:0:0:0:
256,192,47386,1,0,0:0:0:0:
256,192,47424,1,0,0:0:0:0:
256,192,47463,1,8,0:0:0:0:
256,192,47578,1,0,0:0:0:0:
256,192,47616,1,8,0:0:0:0:
256,192,47655,1,8,0:0:0:0:
256,192,47693,1,0,0:0:0:0:
256,192,47809,1,0,0:0:0:0:
256,192,47886,1,8,0:0:0:0:
256,192,47963,1,0,0:0:0:0:
256,192,48040,1,0,0:0:0:0:
256,192,48116,1,8,0:0:0:0:
256,192,48270,1,0,0:0:0:0:
256,192,48328,1,8,0:0:0:0:
256,192,48386,1,8,0:0:0:0:
256,192,48501,1,0,0:0:0:0:
256,192,48616,1,0,0:0:0:0:
256,192,48674,1,0,0:0:0:0:
256,192,48732,1,8,0:0:0:0:
256,192,48790,1,8,0:0:0:0:
256,192,48847,1,8,0:0:0:0:
256,192,48905,1,8,0:0:0:0:
256,192,48963,1,0,0:0:0:0:
256,192,49020,1,8,0:0:0:0:
256,192,49078,1,0,0:0:0:0:
256,192,49136,1,0,0:0:0:0:
256,192,49193,1,8,0:0:0:0:
256,192,49309,1,0,0:0:0:0:
256,192,49424,1,8,0:0:0:0:
256,192,49482,1,0,0:0:0:0:
256,192,49540,1,8,0:0:0:0:
256,192,49655,1,0,0:0:0:0:
256,192,49732,1,0,0:0:0:0:
256,192,49809,1,0,0:0:0:0:
256,192,49886,1,8,0:0:0:0:
256,192,50001,1,8,0:0:0:0:
256,192,50116,1,0,0:0:0:0:
256,192,50174,1,8,0:0:0:0:
256,192,50232,1,8,0:0:0:0:
256,192,50290,1,8,0:0:0:0:
256,192,50347,1,0,0:0:0:0:
256,192,50463,1,8,0:0:0:0:
256,192,50578,1,0,0:0:0:0:
256,192,50636,1,0,0:0:0:0:
256,192,50693,1,8,0:0:0:0:
256,192,50751,1,0,0:0:0:0:
256,192,50809,1,8,0:0:0:0:
256,192,50866,1,8,0:0:0:0:
256,192,50924,1,0,0:0:0:0:
256,192,50982,1,8,0:0:0:0:
256,192,51040,1,0,0:0:0:0:
256,192,51097,1,0,0:0:0:0:
256,192,51155,1,0,0:0:0:0:
256,192,51213,1,0,0:0:0:0:
256,192,51270,1,8,0:0:0:0:
256,192,51328,1,8,0:0:0:0:
256,192,51386,1,0,0:0:0:0:
256,192,51443,1,8,0:0:0:0:
256,192,51501,1,0,0:0:0:0:
256,192,51559,1,8,0:0:0:0:
256,192,51616,1,8,0:0:0:0:
256,192,51674,1,8,0:0:0:0:
256,192,51732,1,0,0:0:0:0:
256,192,51847,1,0,0:0:0:0:
256,192,51963,1,8,0:0:0:0:
256,192,52020,1,0,0:0:0:0:
256,192,52078,1,8,0:0:0:0:
256,192,52136,1,8,0:0:0:0:
256,192,52193,1,0,0:0:0:0:
256,192,52309,1,8,0:0:0:0:
256,192,52366,1,8,0:0:0:0:
256,192,52424,1,0,0:0:0:0:
256,192,52501,1,0,0:0:0:0:
256,192,52578,1,8,0:0:0:0:
256,192,52655,1,0,0:0:0:0:
256,192,52770,1,8,0:0:0:0:
256,192,52828,1,0,0:0:0:0:
256,192,52886,1,8,0:0:0:0:
256,192,53001,1,0,0:0:0:0:
256,192,53116,1,8,0:0:0:0:
256,192,53174,1,0,0:0:0:0:
256,192,53232,1,8,0:0:0:0:
256,192,53290,1,8,0:0:0:0:
256,192,53347,1,0,0:0:0:0:
256,192,53405,1,8,0:0:0:0:
256,192,53463,1,8,0:0:0:0:
256,192,53520,1,8,0:0:0:0:
256,192,53578,1,0,0:0:0:0:
256,192,53693,1,8,0:0:0:0:
256,192,53809,1,0,0:0:0:0:
256,192,53866,1,8,0:0:0:0:
256,192,53924,1,0,0:0:0:0:
256,192,53982,1,0,0:0:0:0:
256,192,54040,1,8,0:0:0:0:
256,192,54097,1,8,0:0:0:0:
256,192,54155,1,0,0:0:0:0:
256,192,54213,1,0,0:0:0:0:
256,192,54270,1,8,0:0:0:0:
256,192,54309,1,8,0:0:0:0:
256,192,54347,1,8,0:0:0:0:
256,192,54386,1,0,0:0:0:0:
256,192,54443,1,0,0:0:0:0:
256,192,54501,1,8,0:0:0:0:
256,192,54616,1,0,0:0:0:0:
256,192,54732,1,8,0:0:0:0:
256,192,54790,1,8,0:0:0:0:
256,192,54847,1,8,0:0:0:0:
256,192,54905,1,8,0:0:0:0:
256,192,54963,1,0,0:0:0:0:
256,192,55078,1,8,0:0:0:0:
256,128,55193,1,4,0:0:0:0:
256,192,55309,1,8,0:0:0:0:
256,192,55424,1,0,0:0:0:0:
256,192,55540,1,8,0:0:0:0:
256,192,55655,1,0,0:0:0:0:
256,192,55713,1,0,0:0:0:0:
256,192,55770,1,8,0:0:0:0:
256,192,55828,1,0,0:0:0:0:
256,192,55886,1,0,0:0:0:0:
256,192,56001,1,8,0:0:0:0:
256,192,56116,1,0,0:0:0:0:
256,192,56232,1,8,0:0:0:0:
256,192,56270,1,8,0:0:0:0:
256,192,56309,1,8,0:0:0:0:
256,192,56347,1,8,0:0:0:0:
256,192,56424,1,8,0:0:0:0:
256,192,56501,1,8,0:0:0:0:
256,192,56578,1,0,0:0:0:0:
256,192,56693,1,8,0:0:0:0:
256,192,56751,1,0,0:0:0:0:
256,192,56809,1,8,0:0:0:0:
256,192,56924,1,0,0:0:0:0:
256,192,57040,1,8,0:0:0:0:
256,192,57078,1,8,0:0:0:0:
256,192,57116,1,8,0:0:0:0:
256,192,57155,1,0,0:0:0:0:
256,192,57213,1,0,0:0:0:0:
256,192,57270,1,8,0:0:0:0:
256,192,57328,1,8,0:0:0:0:
256,192,57386,1,0,0:0:0:0:
256,192,57443,1,0,0:0:0:0:
256,192,57501,1,8,0:0:0:0:
256,192,57616,1,8,0:0:0:0:
256,192,57732,1,0,0:0:0:0:
256,192,57847,1,0,0:0:0:0:
256,192,57963,1,8,0:0:0:0:
256,192,58001,1,0,0:0:0:0:
256,192,58040,1,0,0:0:0:0:
256,192,58078,1,8,0:0:0:0:
256,192,58136,1,8,0:0:0:0:
256,192,58193,1,0,0:0:0:0:
256,192,58309,1,0,0:0:0:0:
256,192,58424,1,8,0:0:0:0:
256,192,58482,1,8,0:0:0:0:
256,192,58540,1,8,0:0:0:0:
256,192,58597,1,8,0:0:0:0:
256,192,58655,1,0,0:0:0:0:
256,192,58693,1,0,0:0:0:0:
256,192,58732,1,8,0:0:0:0:
256,192,58770,1,0,0:0:0:0:
256,192,58828,1,0,0:0:0:0:
256,192,58886,1,8,0:0:0:0:
256,192,58943,1,8,0:0:0:0:
256,192,59001,1,0,0:0:0:0:
256,192,59059,1,0,0:0:0:0:
256,192,59116,1,8,0:0:0:0:
256,192,59232,1,8,0:0:0:0:
256,192,59347,1,8,0:0:0:0:
256,192,59463,1,8,0:0:0:0:
256,192,59578,1,8,0:0:0:0:
256,192,59693,1,8,0:0:0:0:
256,192,59809,1,0,0:0:0:0:
256,192,59847,1,0,0:0:0:0:
256,192,59886,1,0,0:0:0:0:
256,192,59924,1,8,0:0:0:0:
256,192,59982,1,8,0:0:0:0:
256,192,60040,1,0,0:0:0:0:
256,192,60097,1,0,0:0:0:0:
256,192,60155,1,8,0:0:0:0:
256,192,60213,1,0,0:0:0:0:
256,192,60270,1,8,0:0:0:0:
256,192,60328,1,8,0:0:0:0:
256,192,60386,1,0,0:0:0:0:
256,192,60443,1,8,0:0:0:0:
256,192,60501,1,0,0:0:0:0:
256,192,60559,1,0,0:0:0:0:
256,192,60616,1,8,0:0:0:0:
256,192,60674,1,0,0:0:0:0:
256,192,60732,1,8,0:0:0:0:
256,192,60770,1,8,0:0:0:0:
256,192,60809,1,8,0:0:0:0:
256,192,60847,1,8,0:0:0:0:
256,192,60905,1,8,0:0:0:0:
256,192,60963,1,0,0:0:0:0:
256,192,61020,1,0,0:0:0:0:
256,192,61078,1,8,0:0:0:0:
256,192,61107,1,8,0:0:0:0:
256,192,61136,1,8,0:0:0:0:
256,192,61165,1,8,0:0:0:0:
256,192,61193,1,0,0:0:0:0:
256,192,61309,1,0,0:0:0:0:
256,192,61424,1,8,0:0:0:0:
256,192,61463,1,8,0:0:0:0:
256,192,61501,1,8,0:0:0:0:
256,192,61540,1,0,0:0:0:0:
256,192,61597,1,0,0:0:0:0:
256,192,61655,1,8,0:0:0:0:
256,192,61693,1,8,0:0:0:0:
256,192,61732,1,8,0:0:0:0:
256,192,61770,1,0,0:0:0:0:
256,192,61809,1,8,0:0:0:0:
256,192,61847,1,8,0:0:0:0:
256,192,61886,1,0,0:0:0:0:
256,192,62001,1,8,0:0:0:0:
256,192,62116,1,0,0:0:0:0:
256,192,62174,1,0,0:0:0:0:
256,192,62232,1,8,0:0:0:0:
256,192,62290,1,8,0:0:0:0:
256,192,62347,1,0,0:0:0:0:
256,192,62405,1,0,0:0:0:0:
256,192,62463,1,8,0:0:0:0:
256,192,62520,1,8,0:0:0:0:
256,192,62578,1,8,0:0:0:0:
256,192,62616,1,8,0:0:0:0:
256,192,62655,1,8,0:0:0:0:
256,192,62693,1,8,0:0:0:0:
256,192,62732,1,8,0:0:0:0:
256,192,62770,1,8,0:0:0:0:
256,192,62809,1,8,0:0:0:0:
