osu file format v14

[General]
AudioFilename: audio.mp3
AudioLeadIn: 0
PreviewTime: -1
Countdown: 1
SampleSet: Normal
StackLeniency: 0.7
Mode: 0
LetterboxInBreaks: 0
WidescreenStoryboard: 0

[Editor]
DistanceSpacing: 2
BeatDivisor: 6
GridSize: 4
TimelineZoom: 2.4

[Metadata]
Title:Ale nie chce tej nazwy
TitleUnicode:Ale nie chce tej nazwy
Artist:kady to zna
ArtistUnicode:każdy to zna
Creator:Command DDOS
Version:Insane
Source:
Tags:
BeatmapID:1644783
BeatmapSetID:783312

[Difficulty]
HPDrainRate:5
CircleSize:4.3
OverallDifficulty:5
ApproachRate:9.3
SliderMultiplier:2
SliderTickRate:1

[Events]
//Background and Video events
//Break Periods
//Storyboard Layer 0 (Background)
//Storyboard Layer 1 (Fail)
//Storyboard Layer 2 (Pass)
//Storyboard Layer 3 (Foreground)
//Storyboard Sound Samples

[TimingPoints]
124,476.190476190476,4,1,0,40,1,0
124,-133.333333333333,4,1,0,40,0,0
15362,-100,4,1,0,40,0,0
30600,-80,4,1,0,40,0,0
45838,-133.333333333333,4,1,0,40,0,0
61076,-105.263157894737,4,1,0,40,0,0
76314,-181.818181818181,4,1,0,40,0,0
91552,-133.333333333333,4,1,0,40,0,0
122028,-105.263157894737,4,1,0,40,0,0
137266,-86.9565217391303,4,1,0,40,0,0
152504,-181.818181818181,4,1,0,40,0,0

[HitObjects]
68,88,124,5,0,0:0:0:0:
216,100,600,1,0,0:0:0:0:
100,196,1076,1,0,0:0:0:0:
240,252,1552,1,0,0:0:0:0:
452,328,2028,5,0,0:0:0:0:
380,196,2504,5,0,0:0:0:0:
360,124,2743,1,0,0:0:0:0:
324,188,2981,1,0,0:0:0:0:
260,52,3457,1,0,0:0:0:0:
128,120,3933,1,0,0:0:0:0:
204,132,4171,1,0,0:0:0:0:
280,136,4409,2,0,P|308:192|300:220,1,75.0000028610231
232,208,4885,1,0,0:0:0:0:
136,196,5123,1,0,0:0:0:0:
124,216,5183,1,0,0:0:0:0:
120,240,5243,1,0,0:0:0:0:
108,288,5362,1,0,0:0:0:0:
200,332,5600,1,0,0:0:0:0:
284,288,5838,6,0,P|312:224|308:216,1,75.0000028610231
384,204,6314,2,0,P|404:136|404:112,2,75.0000028610231
256,128,7266,5,0,0:0:0:0:
196,176,7504,1,0,0:0:0:0:
124,160,7743,2,0,P|76:184|64:224,1,75.0000028610231
136,232,8219,1,0,0:0:0:0:
72,272,8457,2,0,P|48:308|52:312,1,37.5000014305115
76,308,8695,2,0,P|144:320|232:360,1,150.000005722046
220,276,9409,5,0,0:0:0:0:
160,196,9647,2,0,P|144:120|176:48,1,150.000005722046
236,128,10362,1,0,0:0:0:0:
300,52,10600,1,0,0:0:0:0:
344,140,10838,2,0,L|344:200,1,37.5000014305115
392,176,11076,2,0,P|444:212|444:240,1,75.0000028610231
360,264,11552,1,0,0:0:0:0:
264,244,11790,1,0,0:0:0:0:
196,176,12028,1,0,0:0:0:0:
104,204,12266,1,0,0:0:0:0:
104,204,12504,2,0,P|120:248|136:284,1,75.0000028610231
212,304,12862,5,0,0:0:0:0:
236,308,12921,1,0,0:0:0:0:
260,308,12981,1,0,0:0:0:0:
304,220,13219,1,0,0:0:0:0:
212,184,13457,1,0,0:0:0:0:
388,100,13933,6,0,P|344:80|308:76,1,75.0000028610231
332,172,14409,1,0,0:0:0:0:
332,172,14885,1,0,0:0:0:0:
76,220,15362,5,0,0:0:0:0:
244,116,15719,1,0,0:0:0:0:
252,180,15838,1,0,0:0:0:0:
372,132,16076,2,0,P|392:176|392:196,1,50
220,268,16552,5,0,0:0:0:0:
116,192,16790,2,0,P|88:208|76:276,1,100
200,332,17266,1,0,0:0:0:0:
252,292,17385,1,0,0:0:0:0:
184,180,17623,1,0,0:0:0:0:
248,176,17743,1,0,0:0:0:0:
180,64,17981,2,0,P|216:72|232:72,1,50
388,184,18457,2,0,P|332:192|324:192,1,50
300,244,18695,2,0,P|340:292|384:312,1,100
444,200,19171,5,0,0:0:0:0:
440,136,19290,1,0,0:0:0:0:
312,164,19528,1,0,0:0:0:0:
316,100,19647,1,0,0:0:0:0:
188,96,19885,1,0,0:0:0:0:
124,96,20004,2,0,P|116:64|120:40,1,50
96,176,20362,5,0,0:0:0:0:
124,304,20600,2,0,P|192:284|224:288,1,100
348,284,21076,1,0,0:0:0:0:
340,220,21195,1,0,0:0:0:0:
468,200,21433,1,0,0:0:0:0:
436,144,21552,1,0,0:0:0:0:
328,72,21790,5,0,0:0:0:0:
292,328,22266,1,0,0:0:0:0:
208,228,22504,2,0,P|208:152|212:144,1,50
204,112,22743,1,0,0:0:0:0:
96,188,22981,5,0,0:0:0:0:
96,188,23100,1,0,0:0:0:0:
192,276,23338,1,0,0:0:0:0:
192,276,23457,2,0,L|256:284,1,50
256,220,23695,2,0,L|324:216,1,50
340,272,23933,1,0,0:0:0:0:
452,204,24171,1,0,0:0:0:0:
440,76,24409,2,0,P|384:60|352:60,1,50
208,124,24885,5,0,0:0:0:0:
208,124,25004,1,0,0:0:0:0:
224,252,25243,1,0,0:0:0:0:
224,252,25362,1,0,0:0:0:0:
100,212,25600,1,0,0:0:0:0:
360,204,26076,1,0,0:0:0:0:
232,192,26314,2,0,L|232:132,1,50
96,284,26790,5,0,0:0:0:0:
100,220,26909,1,0,0:0:0:0:
224,264,27147,1,0,0:0:0:0:
188,212,27266,1,0,0:0:0:0:
316,216,27504,1,0,0:0:0:0:
272,168,27623,2,0,P|248:104|244:96,1,50
128,160,27981,5,0,0:0:0:0:
92,284,28219,2,0,P|112:360|124:368,1,50
220,320,28576,5,0,0:0:0:0:
236,256,28695,2,0,P|288:264|304:268,1,50
276,132,29052,1,0,0:0:0:0:
280,68,29171,2,0,P|336:68|352:80,1,50
360,120,29409,2,0,P|448:140|468:108,1,100
456,80,29766,1,0,0:0:0:0:
428,64,29826,1,0,0:0:0:0:
400,48,29885,1,0,0:0:0:0:
280,96,30123,1,0,0:0:0:0:
156,144,30362,1,0,0:0:0:0:
64,276,30600,5,0,0:0:0:0:
228,284,30838,1,0,0:0:0:0:
64,276,31076,2,0,P|136:256|204:252,1,125
388,288,31552,5,0,0:0:0:0:
224,292,31790,1,0,0:0:0:0:
388,288,32028,2,0,P|336:248|264:240,1,125
136,84,32504,5,0,0:0:0:0:
300,84,32743,1,0,0:0:0:0:
136,84,32981,2,0,P|204:148|232:148,1,125
376,84,33457,5,0,0:0:0:0:
212,84,33696,1,0,0:0:0:0:
376,84,33933,2,0,P|348:124|272:132,1,125
176,260,34409,6,0,L|116:296,1,62.5
48,324,34647,1,0,0:0:0:0:
76,164,34885,2,0,L|100:100,1,62.5
140,36,35123,1,0,0:0:0:0:
300,72,35362,2,0,L|388:92,1,62.5
436,116,35600,1,0,0:0:0:0:
336,244,35838,2,0,L|320:312,1,62.5
300,384,36076,1,0,0:0:0:0:
156,312,36314,5,0,0:0:0:0:
60,180,36552,2,0,L|88:96,1,62.5
156,144,36790,1,0,0:0:0:0:
320,156,37028,2,0,L|324:84,1,62.5
404,92,37266,1,0,0:0:0:0:
412,256,37504,2,0,L|408:328,1,62.5
332,292,37743,2,0,L|332:220,1,62.5
276,152,37981,1,0,0:0:0:0:
200,96,38100,1,0,0:0:0:0:
112,96,38219,6,0,P|72:204|80:288,1,187.5
176,284,38695,2,0,P|264:288|372:328,1,187.5
384,224,39171,2,0,P|372:152|344:96,1,125
152,128,39647,6,0,P|212:60|308:48,1,187.5
356,132,40123,2,0,P|404:252|444:300,1,187.5
484,204,40600,2,0,P|468:136|440:64,1,125
264,156,41076,6,0,P|112:168|64:148,1,187.5
148,80,41552,2,0,P|96:36|32:120,1,187.5
28,208,42028,2,0,P|68:292|120:304,1,125
252,180,42504,6,0,P|336:144|396:144,1,125
456,324,42981,2,0,P|488:276|484:192,1,125
308,292,43457,2,0,P|216:280|180:264,1,125
312,112,43933,2,0,P|380:96|428:52,1,125
220,52,44409,1,0,0:0:0:0:
48,152,44647,2,0,P|40:196|44:220,1,62.5
140,196,44885,1,0,0:0:0:0:
336,164,45123,1,0,0:0:0:0:
136,196,45362,1,0,0:0:0:0:
320,276,45600,1,0,0:0:0:0:
420,264,45719,1,0,0:0:0:0:
392,216,45838,6,0,P|332:120|340:72,1,150.000005722046
88,100,46790,2,0,P|64:212|56:264,1,150.000005722046
296,284,47743,2,0,P|340:200|332:136,1,150.000005722046
216,164,48457,1,0,0:0:0:0:
96,176,48695,1,0,0:0:0:0:
300,52,49171,6,0,P|352:72|368:100,1,75.0000028610231
244,112,49647,1,0,0:0:0:0:
340,184,49885,1,0,0:0:0:0:
224,156,50123,1,0,0:0:0:0:
284,260,50362,1,0,0:0:0:0:
164,248,50600,1,0,0:0:0:0:
80,160,50838,1,0,0:0:0:0:
68,220,50957,1,0,0:0:0:0:
68,280,51076,1,0,0:0:0:0:
184,304,51314,1,0,0:0:0:0:
180,184,51552,5,0,0:0:0:0:
156,68,51790,1,0,0:0:0:0:
228,56,52028,2,0,L|240:144,1,75.0000028610231
356,148,52504,2,0,L|348:192,1,37.5000014305115
404,212,52743,5,0,0:0:0:0:
276,288,52981,1,0,0:0:0:0:
172,88,53338,1,0,0:0:0:0:
172,88,53457,1,0,0:0:0:0:
104,228,53933,1,0,0:0:0:0:
340,276,54409,1,0,0:0:0:0:
132,156,54885,1,0,0:0:0:0:
432,152,55362,1,0,0:0:0:0:
132,156,55838,5,0,0:0:0:0:
432,152,56314,1,0,0:0:0:0:
132,156,56790,1,0,0:0:0:0:
332,264,57147,1,0,0:0:0:0:
332,264,57266,1,0,0:0:0:0:
260,132,57504,1,0,0:0:0:0:
172,256,57743,1,0,0:0:0:0:
100,124,57981,1,0,0:0:0:0:
380,140,58219,5,0,0:0:0:0:
320,120,58338,1,0,0:0:0:0:
256,112,58457,1,0,0:0:0:0:
188,200,58695,1,0,0:0:0:0:
276,248,58933,1,0,0:0:0:0:
172,320,59171,5,0,0:0:0:0:
140,312,59231,1,0,0:0:0:0:
116,292,59290,1,0,0:0:0:0:
96,268,59350,1,0,0:0:0:0:
152,172,59528,2,0,L|180:176,2,18.7500007152558
48,56,59885,1,0,0:0:0:0:
196,68,60123,1,0,0:0:0:0:
288,76,60362,6,0,P|348:64|372:76,1,75.0000028610231
84,148,61076,5,0,0:0:0:0:
368,140,61552,1,0,0:0:0:0:
96,228,62028,1,0,0:0:0:0:
380,236,62504,1,0,0:0:0:0:
100,288,62981,1,0,0:0:0:0:
384,300,63457,1,0,0:0:0:0:
388,156,63695,1,0,0:0:0:0:
412,16,63933,2,0,P|328:24|308:20,1,94.9999974632264
196,92,64409,5,0,0:0:0:0:
188,236,64647,1,0,0:0:0:0:
192,92,64885,2,0,L|136:76,2,47.4999987316132
332,128,65362,2,0,P|352:212|348:224,1,94.9999974632264
208,220,65838,2,0,P|184:256|184:320,1,94.9999974632264
252,308,66195,1,0,0:0:0:0:
324,312,66314,2,0,P|380:280|396:252,1,94.9999974632264
396,112,66790,5,0,0:0:0:0:
260,148,67028,1,0,0:0:0:0:
240,288,67266,1,0,0:0:0:0:
196,152,67504,1,0,0:0:0:0:
56,120,67743,1,0,0:0:0:0:
56,120,67981,5,0,0:0:0:0:
56,192,68100,2,0,P|56:216|56:240,1,47.4999987316132
188,188,68457,2,0,L|192:236,1,47.4999987316132
308,260,68695,6,0,L|312:148,1,94.9999974632264
80,104,69171,2,0,L|52:216,1,94.9999974632264
352,152,69647,2,0,L|312:56,1,94.9999974632264
132,224,70123,2,0,L|140:324,1,94.9999974632264
256,112,70600,2,0,L|260:16,1,94.9999974632264
208,248,71076,1,0,0:0:0:0:
344,288,71314,1,0,0:0:0:0:
364,52,71552,5,0,0:0:0:0:
40,92,72028,1,0,0:0:0:0:
40,92,72266,1,0,0:0:0:0:
276,124,72504,2,0,P|184:124|176:124,1,94.9999974632264
284,244,72981,1,0,0:0:0:0:
284,244,73219,1,0,0:0:0:0:
96,236,73457,2,0,L|196:248,1,94.9999974632264
244,168,73814,1,0,0:0:0:0:
312,100,73933,2,0,P|368:88|416:96,1,94.9999974632264
424,280,74409,5,0,0:0:0:0:
20,32,74885,5,0,0:0:0:0:
256,48,75123,1,0,0:0:0:0:
108,236,75362,1,0,0:0:0:0:
100,108,76314,6,0,P|80:172|88:224,1,110.000003356934
412,108,77266,6,0,P|432:172|424:224,1,110.000003356934
160,152,78219,2,0,P|144:184|144:232,1,82.5000025177003
212,236,78695,1,0,0:0:0:0:
348,236,78933,1,0,0:0:0:0:
380,100,79171,1,0,0:0:0:0:
104,100,79647,6,0,P|100:136|100:160,1,55.0000016784668
236,172,80123,1,0,0:0:0:0:
376,172,80362,1,0,0:0:0:0:
240,168,80600,1,0,0:0:0:0:
300,292,80838,1,0,0:0:0:0:
240,168,81076,1,0,0:0:0:0:
128,244,81314,1,0,0:0:0:0:
100,180,81433,1,0,0:0:0:0:
92,112,81552,1,0,0:0:0:0:
228,124,81790,1,0,0:0:0:0:
252,260,82028,5,0,0:0:0:0:
364,184,82266,1,0,0:0:0:0:
392,48,82504,1,0,0:0:0:0:
364,184,82743,1,0,0:0:0:0:
244,252,82981,1,0,0:0:0:0:
96,88,83219,5,0,0:0:0:0:
100,224,83457,1,0,0:0:0:0:
232,80,83695,1,0,0:0:0:0:
232,216,83933,2,0,P|284:240|336:224,1,110.000003356934
316,88,84647,1,0,0:0:0:0:
180,92,84885,2,0,P|128:144|136:180,1,110.000003356934
272,168,85600,1,0,0:0:0:0:
216,292,85838,2,0,P|288:308|324:296,1,110.000003356934
356,164,86552,1,0,0:0:0:0:
220,156,86790,1,0,0:0:0:0:
304,264,87028,1,0,0:0:0:0:
412,176,87266,2,0,P|432:128|428:112,1,68.7500020980836
328,92,87743,6,0,L|292:80,1,27.5000008392334
236,60,87981,2,0,L|208:88,1,27.5000008392334
192,144,88219,1,0,0:0:0:0:
328,168,88457,1,0,0:0:0:0:
220,252,88695,1,0,0:0:0:0:
424,284,89052,5,0,0:0:0:0:
428,248,89112,1,0,0:0:0:0:
424,216,89171,1,0,0:0:0:0:
288,216,89409,1,0,0:0:0:0:
152,216,89647,6,0,P|152:144|172:104,1,110.000003356934
300,144,90362,1,0,0:0:0:0:
168,108,90600,2,0,P|144:180|148:224,1,110.000003356934
440,148,91552,6,0,P|432:108|424:104,1,37.5000014305115
216,144,92028,1,0,0:0:0:0:
80,204,92266,1,0,0:0:0:0:
144,240,92385,2,0,P|120:264|112:268,1,37.5000014305115
372,104,92981,5,0,0:0:0:0:
224,84,93219,2,0,B|216:88|192:84|176:92,1,37.5000014305115
112,88,93457,2,0,P|80:144|80:160,1,75.0000028610231
220,200,93933,1,0,0:0:0:0:
368,204,94171,1,0,0:0:0:0:
332,140,94290,1,0,0:0:0:0:
372,204,94409,1,0,0:0:0:0:
76,152,94885,1,0,0:0:0:0:
348,276,95362,2,0,P|348:240|340:196,1,75.0000028610231
268,196,95719,2,0,L|256:172,1,18.7500007152558
228,160,95838,6,0,P|220:112|244:96,1,75.0000028610231
384,112,96314,1,0,0:0:0:0:
236,100,96552,1,0,0:0:0:0:
312,112,96671,1,0,0:0:0:0:
384,108,96790,1,0,0:0:0:0:
288,220,97028,1,0,0:0:0:0:
160,140,97266,5,0,0:0:0:0:
152,288,97504,1,0,0:0:0:0:
160,140,97743,1,0,0:0:0:0:
160,140,97981,1,0,0:0:0:0:
256,256,98219,1,0,0:0:0:0:
348,140,98457,1,0,0:0:0:0:
412,276,98695,1,0,0:0:0:0:
264,252,98933,1,0,0:0:0:0:
180,128,99171,5,0,0:0:0:0:
480,124,99647,1,0,0:0:0:0:
336,160,99885,1,0,0:0:0:0:
192,200,100123,1,0,0:0:0:0:
440,32,100600,5,0,0:0:0:0:
144,68,101076,1,0,0:0:0:0:
428,164,101552,1,0,0:0:0:0:
280,136,101790,1,0,0:0:0:0:
360,264,102028,1,0,0:0:0:0:
92,132,102504,1,0,0:0:0:0:
316,112,102862,1,0,0:0:0:0:
316,112,102981,1,0,0:0:0:0:
116,212,103338,1,0,0:0:0:0:
192,208,103457,1,0,0:0:0:0:
196,60,103695,6,0,L|224:72,1,18.7500007152558
136,148,103933,1,0,0:0:0:0:
188,248,104112,2,0,L|208:264,1,18.7500007152558
232,208,104231,2,0,L|248:216,2,18.7500007152558
260,152,104409,2,0,L|280:148,1,18.7500007152558
272,36,104647,2,0,L|296:36,1,18.7500007152558
192,92,104885,5,0,0:0:0:0:
428,276,105362,1,0,0:0:0:0:
132,236,105838,1,0,0:0:0:0:
380,64,106314,1,0,0:0:0:0:
232,64,106790,5,0,0:0:0:0:
164,196,107266,1,0,0:0:0:0:
424,64,107743,1,0,0:0:0:0:
400,212,108219,1,0,0:0:0:0:
136,56,108695,1,0,0:0:0:0:
76,192,109171,1,0,0:0:0:0:
144,164,109409,1,0,0:0:0:0:
132,236,109647,1,0,0:0:0:0:
360,44,110123,6,0,P|360:88|352:128,1,75.0000028610231
284,88,110600,1,0,0:0:0:0:
272,164,110838,1,0,0:0:0:0:
216,116,111076,1,0,0:0:0:0:
212,192,111314,1,0,0:0:0:0:
128,72,111552,5,0,0:0:0:0:
112,144,111790,1,0,0:0:0:0:
104,180,111909,1,0,0:0:0:0:
96,216,112028,1,0,0:0:0:0:
168,228,112266,1,0,0:0:0:0:
236,196,112504,6,0,L|312:156,1,75.0000028610231
240,116,112981,2,0,L|164:68,2,75.0000028610231
388,92,113695,5,0,0:0:0:0:
392,240,113933,1,0,0:0:0:0:
172,200,114290,1,0,0:0:0:0:
172,200,114409,1,0,0:0:0:0:
428,48,114885,1,0,0:0:0:0:
128,52,115362,1,0,0:0:0:0:
388,200,115838,1,0,0:0:0:0:
88,220,116314,1,0,0:0:0:0:
356,84,116790,1,0,0:0:0:0:
56,60,117266,1,0,0:0:0:0:
324,196,117743,5,0,0:0:0:0:
108,264,118100,1,0,0:0:0:0:
108,264,118219,1,0,0:0:0:0:
212,156,118457,1,0,0:0:0:0:
64,156,118695,1,0,0:0:0:0:
184,248,118933,1,0,0:0:0:0:
144,104,119171,1,0,0:0:0:0:
116,172,119290,1,0,0:0:0:0:
88,240,119409,1,0,0:0:0:0:
228,184,119647,1,0,0:0:0:0:
384,80,119885,5,0,0:0:0:0:
384,268,120123,1,0,0:0:0:0:
332,268,120203,1,0,0:0:0:0:
284,268,120282,1,0,0:0:0:0:
232,264,120362,1,0,0:0:0:0:
168,172,120481,1,0,0:0:0:0:
104,240,120600,1,0,0:0:0:0:
88,52,120838,1,0,0:0:0:0:
56,236,121076,1,0,0:0:0:0:
216,136,121314,6,0,P|272:112|292:112,1,75.0000028610231
408,300,122028,6,0,P|424:240|412:152,1,142.49999619484
324,192,122504,2,0,P|256:160|248:136,1,94.9999974632264
60,152,122981,2,0,P|100:92|172:64,1,142.49999619484
164,160,123457,2,0,P|208:136|268:140,1,94.9999974632264
440,132,123933,6,0,P|416:88|320:52,1,142.49999619484
328,144,124409,2,0,P|276:92|256:88,2,94.9999974632264
92,308,125362,5,0,0:0:0:0:
92,308,125600,1,0,0:0:0:0:
216,240,125838,2,0,P|172:204|124:188,1,94.9999974632264
60,312,126314,2,0,P|136:340|156:340,1,94.9999974632264
264,256,126790,6,0,P|308:256|376:268,1,94.9999974632264
328,328,127147,1,0,0:0:0:0:
256,332,127266,2,0,P|172:312|152:296,1,94.9999974632264
144,168,127743,1,0,0:0:0:0:
284,156,127981,1,0,0:0:0:0:
416,208,128219,1,0,0:0:0:0:
288,148,128457,1,0,0:0:0:0:
144,156,128695,1,0,0:0:0:0:
268,332,129052,5,0,0:0:0:0:
308,272,129171,1,0,0:0:0:0:
184,200,129409,1,0,0:0:0:0:
272,88,129647,6,0,L|364:36,1,94.9999974632264
220,92,130123,2,0,L|120:48,1,94.9999974632264
264,112,130600,2,0,L|352:152,1,94.9999974632264
212,112,131076,2,0,L|144:180,1,94.9999974632264
240,284,131552,6,0,L|328:244,1,94.9999974632264
196,304,132028,2,0,L|132:280,2,47.4999987316132
320,236,132504,6,0,L|408:176,1,94.9999974632264
264,228,132981,2,0,L|180:168,1,94.9999974632264
140,308,133457,2,0,P|100:320|68:272,1,94.9999974632264
112,136,133933,5,0,0:0:0:0:
252,172,134171,1,0,0:0:0:0:
368,88,134409,1,0,0:0:0:0:
384,180,134647,1,0,0:0:0:0:
388,228,134766,1,0,0:0:0:0:
384,276,134885,1,0,0:0:0:0:
244,260,135123,5,0,0:0:0:0:
112,204,135362,2,0,P|116:164|136:104,1,94.9999974632264
104,252,135838,1,0,0:0:0:0:
104,252,136076,1,0,0:0:0:0:
188,136,136314,2,0,P|168:212|168:228,1,94.9999974632264
296,292,136790,2,0,L|288:240,2,47.4999987316132
320,120,137266,6,0,P|240:72|96:68,1,230.000004386902
372,284,138219,2,0,P|392:204|304:84,1,230.000004386902
56,316,139171,2,0,P|144:328|176:316,1,115.000002193451
76,172,139647,2,0,P|52:140|40:144,1,57.5000010967255
124,112,139885,2,0,P|152:92|180:96,1,57.5000010967255
104,44,140123,2,0,P|40:44|28:184,1,230.000004386902
196,188,140838,1,0,0:0:0:0:
196,188,141076,6,0,P|232:124|268:112,1,115.000002193451
316,276,141552,2,0,P|208:296|184:288,1,115.000002193451
316,164,142028,2,0,P|384:160|432:184,1,115.000002193451
352,228,142385,1,0,0:0:0:0:
268,236,142504,2,0,P|264:168|268:112,1,115.000002193451
100,80,142981,1,0,0:0:0:0:
92,252,143219,1,0,0:0:0:0:
108,80,143457,1,0,0:0:0:0:
280,76,143695,1,0,0:0:0:0:
364,228,143933,2,0,P|296:268|256:268,1,115.000002193451
248,184,144290,6,0,L|200:132,1,57.5000010967255
376,104,144647,2,0,L|296:104,1,57.5000010967255
368,32,144885,6,0,P|408:40|420:204,1,230.000004386902
288,100,145600,1,0,0:0:0:0:
120,64,145838,2,0,P|52:152|128:244,1,230.000004386902
260,156,146552,1,0,0:0:0:0:
316,88,146671,1,0,0:0:0:0:
352,112,146731,1,0,0:0:0:0:
360,152,146790,2,0,P|336:236|200:228,1,230.000004386902
164,72,147504,1,0,0:0:0:0:
84,228,147743,1,0,0:0:0:0:
252,188,147981,1,0,0:0:0:0:
164,72,148219,6,0,P|120:56|96:72,1,57.5000010967255
76,136,148457,2,0,L|112:132,2,28.7500005483627
88,176,148635,1,0,0:0:0:0:
92,220,148695,2,0,P|112:272|176:288,1,115.000002193451
336,264,149171,1,0,0:0:0:0:
380,96,149409,1,0,0:0:0:0:
252,212,149647,1,0,0:0:0:0:
260,72,149885,6,0,P|224:64|192:64,1,57.5000010967255
220,148,150123,1,0,0:0:0:0:
348,264,150362,1,0,0:0:0:0:
392,264,150421,1,0,0:0:0:0:
384,136,150600,1,0,0:0:0:0:
44,84,151076,5,0,0:0:0:0:
228,312,151314,1,0,0:0:0:0:
372,64,151552,1,0,0:0:0:0:
56,156,152504,5,0,0:0:0:0:
220,140,152981,1,0,0:0:0:0:
84,232,153457,1,0,0:0:0:0:
248,248,153933,1,0,0:0:0:0:
128,136,154409,5,0,0:0:0:0:
128,136,154885,1,0,0:0:0:0:
212,128,155123,1,0,0:0:0:0:
292,152,155362,1,0,0:0:0:0:
156,248,155838,1,0,0:0:0:0:
236,264,156076,1,0,0:0:0:0:
156,248,156314,1,0,0:0:0:0:
156,164,156552,1,0,0:0:0:0:
208,100,156790,1,0,0:0:0:0:
288,88,157028,1,0,0:0:0:0:
368,104,157266,1,0,0:0:0:0:
368,104,157504,1,0,0:0:0:0:
368,144,157623,1,0,0:0:0:0:
368,184,157743,1,0,0:0:0:0:
304,236,157981,1,0,0:0:0:0:
276,156,158219,2,0,L|220:144,2,55.0000016784668
240,232,158933,1,0,0:0:0:0:
168,272,159171,1,0,0:0:0:0:
148,192,159409,5,0,0:0:0:0:
148,192,159647,1,0,0:0:0:0:
148,192,159885,1,0,0:0:0:0:
116,116,160123,6,0,P|72:128|60:160,1,82.5000025177003
100,172,160600,5,0,0:0:0:0:
120,172,160659,1,0,0:0:0:0:
140,172,160719,1,0,0:0:0:0:
160,172,160778,1,0,0:0:0:0:
180,168,160838,1,0,0:0:0:0:
260,184,161076,2,0,L|320:196,1,55.0000016784668
348,120,161552,1,0,0:0:0:0:
328,112,161612,1,0,0:0:0:0:
308,108,161671,1,0,0:0:0:0:
288,108,161731,1,0,0:0:0:0:
268,112,161790,1,0,0:0:0:0:
188,128,162028,5,0,0:0:0:0:
156,288,162504,1,0,0:0:0:0:
240,292,162743,1,0,0:0:0:0:
156,288,162981,1,0,0:0:0:0:
208,224,163219,1,0,0:0:0:0:
156,160,163457,1,0,0:0:0:0:
100,220,163695,1,0,0:0:0:0:
52,152,163933,2,0,P|64:116|80:100,1,55.0000016784668
156,96,164409,2,0,P|196:80|216:80,1,55.0000016784668
204,160,164885,1,0,0:0:0:0:
284,168,165123,1,0,0:0:0:0:
304,160,165183,1,0,0:0:0:0:
324,148,165243,1,0,0:0:0:0:
340,136,165302,1,0,0:0:0:0:
356,124,165362,1,0,0:0:0:0:
340,204,165600,1,0,0:0:0:0:
276,256,165838,1,0,0:0:0:0:
