osu file format v14

[General]
AudioFilename: audio.mp3
AudioLeadIn: 0
PreviewTime: 2380
Countdown: 0
SampleSet: Soft
StackLeniency: 0.7
Mode: 3
LetterboxInBreaks: 0
SpecialStyle: 0
WidescreenStoryboard: 1

[Editor]
Bookmarks: 22783,24512
DistanceSpacing: 2
BeatDivisor: 4
GridSize: 16
TimelineZoom: 2

[Metadata]
Title:zapreti redan
TitleUnicode:запрети редан
Artist:jzxdx
ArtistUnicode:jzxdx
Creator:keksikosu
Version:insane
Source:
Tags:русский russian хип-хоп хип хоп хипхоп hip-hop hip hop hiphop drum and bass drumnbass drum'n'bass dnb днб neurofunk electronic запрети мне ходить в редане носить stone island artem egorov cover folkpro тик ток тикток tik tok tiktok паук spider gen'ei ryodan гёней геней рёдан hxh hunterxhunter hunter x ハンター×ハンター phantom troupe chordjack chordjacks chord chords jack jacks cj jumpstream js male vocal vocalist
BeatmapID:4047028
BeatmapSetID:1954150

[Difficulty]
HPDrainRate:8
CircleSize:4
OverallDifficulty:8
ApproachRate:5
SliderMultiplier:1.4
SliderTickRate:1

[Events]
//Background and Video events
0,0,"pauchok.jpg",0,0
//Break Periods
//Storyboard Layer 0 (Background)
//Storyboard Layer 1 (Fail)
//Storyboard Layer 2 (Pass)
//Storyboard Layer 3 (Foreground)
//Storyboard Layer 4 (Overlay)
//Storyboard Sound Samples

[TimingPoints]
1006,345.821325648415,4,2,1,40,1,0

[HitObjects]
64,192,1092,5,0,0:0:0:0:
320,192,1178,5,0,0:0:0:0:
64,192,1265,1,0,0:0:0:0:
320,192,1351,1,0,0:0:0:0:
192,192,1438,1,0,0:0:0:0:
448,192,1524,1,0,0:0:0:0:
192,192,1611,1,0,0:0:0:0:
448,192,1697,128,0,2043:0:0:0:0:
64,192,1870,128,0,2216:0:0:0:0:
320,192,2043,128,0,2216:0:0:0:0:
192,192,2216,128,0,2389:0:0:0:0:
320,192,2389,1,0,0:0:0:0:
64,192,2389,1,0,0:0:0:0:
448,192,2389,1,0,0:0:0:0:
320,192,2562,1,0,0:0:0:0:
64,192,2735,1,0,0:0:0:0:
192,192,2735,1,0,0:0:0:0:
448,192,2735,1,0,0:0:0:0:
64,192,2908,1,0,0:0:0:0:
320,192,2908,1,0,0:0:0:0:
448,192,3080,1,0,0:0:0:0:
192,192,3080,1,0,0:0:0:0:
192,192,3253,1,0,0:0:0:0:
320,192,3253,1,0,0:0:0:0:
64,192,3426,1,0,0:0:0:0:
320,192,3426,1,0,0:0:0:0:
448,192,3426,1,0,0:0:0:0:
192,192,3599,1,0,0:0:0:0:
448,192,3599,1,0,0:0:0:0:
64,192,3772,1,0,0:0:0:0:
320,192,3772,1,0,0:0:0:0:
320,192,3945,1,0,0:0:0:0:
64,192,4118,1,0,0:0:0:0:
192,192,4118,1,0,0:0:0:0:
448,192,4118,1,0,0:0:0:0:
320,192,4291,1,0,0:0:0:0:
64,192,4291,1,0,0:0:0:0:
192,192,4464,1,0,0:0:0:0:
320,192,4637,1,0,0:0:0:0:
448,192,4637,1,0,0:0:0:0:
320,192,4810,1,0,0:0:0:0:
192,192,4810,1,0,0:0:0:0:
64,192,4810,1,0,0:0:0:0:
64,192,4982,1,0,0:0:0:0:
448,192,4982,1,0,0:0:0:0:
192,192,5155,1,0,0:0:0:0:
320,192,5155,1,0,0:0:0:0:
448,192,5328,1,0,0:0:0:0:
320,192,5501,1,0,0:0:0:0:
64,192,5501,1,0,0:0:0:0:
192,192,5501,1,0,0:0:0:0:
64,192,5674,1,0,0:0:0:0:
448,192,5674,1,0,0:0:0:0:
192,192,5847,1,0,0:0:0:0:
64,192,6020,1,0,0:0:0:0:
320,192,6020,1,0,0:0:0:0:
448,192,6193,1,0,0:0:0:0:
192,192,6193,1,0,0:0:0:0:
320,192,6193,1,0,0:0:0:0:
192,192,6366,1,0,0:0:0:0:
320,192,6539,1,0,0:0:0:0:
448,192,6539,1,0,0:0:0:0:
64,192,6712,1,0,0:0:0:0:
192,192,6712,1,0,0:0:0:0:
320,192,6884,1,0,0:0:0:0:
64,192,6884,1,0,0:0:0:0:
448,192,6884,1,0,0:0:0:0:
320,192,7057,1,0,0:0:0:0:
192,192,7057,1,0,0:0:0:0:
192,192,7230,1,0,0:0:0:0:
448,192,7230,1,0,0:0:0:0:
64,192,7403,1,0,0:0:0:0:
320,192,7403,1,0,0:0:0:0:
64,192,7576,1,0,0:0:0:0:
448,192,7576,1,0,0:0:0:0:
192,192,7576,1,0,0:0:0:0:
320,192,7749,1,0,0:0:0:0:
448,192,7749,1,0,0:0:0:0:
64,192,7835,1,0,0:0:0:0:
320,192,7922,1,0,0:0:0:0:
192,192,7922,1,0,0:0:0:0:
448,192,8095,1,0,0:0:0:0:
192,192,8268,1,0,0:0:0:0:
320,192,8268,1,0,0:0:0:0:
64,192,8268,1,0,0:0:0:0:
320,192,8441,1,0,0:0:0:0:
448,192,8441,1,0,0:0:0:0:
192,192,8614,1,0,0:0:0:0:
64,192,8614,1,0,0:0:0:0:
192,192,8786,1,0,0:0:0:0:
448,192,8786,1,0,0:0:0:0:
320,192,8959,1,0,0:0:0:0:
64,192,8959,1,0,0:0:0:0:
448,192,8959,1,0,0:0:0:0:
64,192,9132,1,0,0:0:0:0:
192,192,9132,1,0,0:0:0:0:
448,192,9305,1,0,0:0:0:0:
320,192,9305,1,0,0:0:0:0:
320,192,9478,1,0,0:0:0:0:
64,192,9651,1,0,0:0:0:0:
448,192,9651,1,0,0:0:0:0:
192,192,9651,1,0,0:0:0:0:
320,192,9824,1,0,0:0:0:0:
64,192,9824,1,0,0:0:0:0:
192,192,9997,1,0,0:0:0:0:
64,192,10170,1,0,0:0:0:0:
448,192,10170,1,0,0:0:0:0:
320,192,10343,1,0,0:0:0:0:
192,192,10343,1,0,0:0:0:0:
448,192,10343,1,0,0:0:0:0:
192,192,10516,1,0,0:0:0:0:
64,192,10516,1,0,0:0:0:0:
448,192,10688,1,0,0:0:0:0:
320,192,10688,1,0,0:0:0:0:
192,192,10861,1,0,0:0:0:0:
64,192,11034,1,0,0:0:0:0:
320,192,11034,1,0,0:0:0:0:
448,192,11034,1,0,0:0:0:0:
320,192,11207,1,0,0:0:0:0:
192,192,11207,1,0,0:0:0:0:
448,192,11380,1,0,0:0:0:0:
192,192,11380,1,0,0:0:0:0:
64,192,11553,1,0,0:0:0:0:
320,192,11553,1,0,0:0:0:0:
64,192,11726,1,0,0:0:0:0:
448,192,11726,1,0,0:0:0:0:
192,192,11726,1,0,0:0:0:0:
320,192,11899,1,0,0:0:0:0:
64,192,12072,1,0,0:0:0:0:
448,192,12072,1,0,0:0:0:0:
192,192,12245,1,0,0:0:0:0:
192,192,12418,1,0,0:0:0:0:
448,192,12591,1,0,0:0:0:0:
448,192,12763,1,0,0:0:0:0:
64,192,12763,1,0,0:0:0:0:
192,192,12763,1,0,0:0:0:0:
192,192,12936,1,0,0:0:0:0:
320,192,12936,1,0,0:0:0:0:
448,192,13109,1,0,0:0:0:0:
192,192,13109,1,0,0:0:0:0:
64,192,13109,1,0,0:0:0:0:
320,192,13282,1,0,0:0:0:0:
192,192,13369,1,0,0:0:0:0:
320,192,13455,1,0,0:0:0:0:
448,192,13455,1,0,0:0:0:0:
320,192,13801,1,0,0:0:0:0:
192,192,13801,1,0,0:0:0:0:
64,192,13801,1,0,0:0:0:0:
64,192,13974,1,0,0:0:0:0:
448,192,13974,1,0,0:0:0:0:
192,192,14147,1,0,0:0:0:0:
320,192,14147,1,0,0:0:0:0:
192,192,14320,1,0,0:0:0:0:
448,192,14320,1,0,0:0:0:0:
320,192,14493,1,0,0:0:0:0:
64,192,14493,1,0,0:0:0:0:
448,192,14493,1,0,0:0:0:0:
192,192,14665,1,0,0:0:0:0:
64,192,14665,1,0,0:0:0:0:
320,192,14838,1,0,0:0:0:0:
448,192,14838,1,0,0:0:0:0:
64,192,15011,1,0,0:0:0:0:
320,192,15184,1,0,0:0:0:0:
448,192,15184,1,0,0:0:0:0:
192,192,15184,1,0,0:0:0:0:
320,192,15357,1,0,0:0:0:0:
64,192,15357,1,0,0:0:0:0:
192,192,15530,1,0,0:0:0:0:
320,192,15703,1,0,0:0:0:0:
448,192,15703,1,0,0:0:0:0:
192,192,15876,1,0,0:0:0:0:
64,192,15876,1,0,0:0:0:0:
448,192,15876,1,0,0:0:0:0:
320,192,16049,1,0,0:0:0:0:
192,192,16222,1,0,0:0:0:0:
64,192,16222,1,0,0:0:0:0:
64,192,16395,1,0,0:0:0:0:
192,192,16567,1,0,0:0:0:0:
320,192,16567,1,0,0:0:0:0:
448,192,16567,1,0,0:0:0:0:
64,192,16740,1,0,0:0:0:0:
320,192,16740,1,0,0:0:0:0:
192,192,16913,1,0,0:0:0:0:
448,192,16913,1,0,0:0:0:0:
192,192,17086,1,0,0:0:0:0:
320,192,17086,1,0,0:0:0:0:
64,192,17259,1,0,0:0:0:0:
448,192,17259,1,0,0:0:0:0:
320,192,17259,1,0,0:0:0:0:
192,192,17432,1,0,0:0:0:0:
320,192,17605,1,0,0:0:0:0:
448,192,17605,1,0,0:0:0:0:
192,192,17778,1,0,0:0:0:0:
64,192,17778,1,0,0:0:0:0:
320,192,17951,1,0,0:0:0:0:
192,192,17951,1,0,0:0:0:0:
448,192,17951,1,0,0:0:0:0:
320,192,18124,1,0,0:0:0:0:
64,192,18124,1,0,0:0:0:0:
192,192,18297,1,0,0:0:0:0:
448,192,18297,1,0,0:0:0:0:
64,192,18469,1,0,0:0:0:0:
192,192,18469,1,0,0:0:0:0:
64,192,18642,1,0,0:0:0:0:
448,192,18642,1,0,0:0:0:0:
320,192,18642,1,0,0:0:0:0:
192,192,18815,1,0,0:0:0:0:
320,192,18815,1,0,0:0:0:0:
448,192,18902,1,0,0:0:0:0:
192,192,18988,1,0,0:0:0:0:
64,192,18988,1,0,0:0:0:0:
320,192,19161,1,0,0:0:0:0:
448,192,19334,1,0,0:0:0:0:
192,192,19334,1,0,0:0:0:0:
64,192,19334,1,0,0:0:0:0:
320,192,19507,1,0,0:0:0:0:
192,192,19507,1,0,0:0:0:0:
448,192,19680,1,0,0:0:0:0:
64,192,19680,1,0,0:0:0:0:
192,192,19853,1,0,0:0:0:0:
448,192,19853,1,0,0:0:0:0:
192,192,20026,1,0,0:0:0:0:
64,192,20026,1,0,0:0:0:0:
320,192,20026,1,0,0:0:0:0:
64,192,20199,1,0,0:0:0:0:
448,192,20199,1,0,0:0:0:0:
320,192,20371,1,0,0:0:0:0:
192,192,20371,1,0,0:0:0:0:
320,192,20544,1,0,0:0:0:0:
64,192,20717,1,0,0:0:0:0:
448,192,20717,1,0,0:0:0:0:
192,192,20717,1,0,0:0:0:0:
320,192,20890,1,0,0:0:0:0:
64,192,20890,1,0,0:0:0:0:
448,192,21063,1,0,0:0:0:0:
64,192,21236,1,0,0:0:0:0:
192,192,21236,1,0,0:0:0:0:
320,192,21409,1,0,0:0:0:0:
64,192,21409,1,0,0:0:0:0:
448,192,21409,1,0,0:0:0:0:
192,192,21582,1,0,0:0:0:0:
448,192,21582,1,0,0:0:0:0:
320,192,21755,1,0,0:0:0:0:
64,192,21755,1,0,0:0:0:0:
192,192,21928,1,0,0:0:0:0:
64,192,22101,1,0,0:0:0:0:
320,192,22101,1,0,0:0:0:0:
192,192,22101,1,0,0:0:0:0:
320,192,22274,1,0,0:0:0:0:
64,192,22446,1,0,0:0:0:0:
64,192,22619,1,0,0:0:0:0:
448,192,22619,1,0,0:0:0:0:
192,192,22792,1,0,0:0:0:0:
448,192,22792,1,0,0:0:0:0:
320,192,22792,1,0,0:0:0:0:
64,192,23138,1,0,0:0:0:0:
320,192,23138,1,0,0:0:0:0:
320,192,23311,1,0,0:0:0:0:
192,192,23484,1,0,0:0:0:0:
192,192,23657,1,0,0:0:0:0:
448,192,23830,1,0,0:0:0:0:
320,192,24176,1,0,0:0:0:0:
192,192,24348,1,0,0:0:0:0:
448,192,24521,1,0,0:0:0:0:
64,192,24521,1,0,0:0:0:0:
320,192,24694,1,0,0:0:0:0:
64,192,24867,1,0,0:0:0:0:
448,192,24867,1,0,0:0:0:0:
192,192,24867,1,0,0:0:0:0:
64,192,25040,1,0,0:0:0:0:
320,192,25040,1,0,0:0:0:0:
192,192,25213,1,0,0:0:0:0:
320,192,25299,1,0,0:0:0:0:
192,192,25386,1,0,0:0:0:0:
448,192,25386,1,0,0:0:0:0:
64,192,25472,1,0,0:0:0:0:
320,192,25559,1,0,0:0:0:0:
448,192,25559,1,0,0:0:0:0:
192,192,25645,1,0,0:0:0:0:
320,192,25732,1,0,0:0:0:0:
64,192,25818,1,0,0:0:0:0:
192,192,25905,1,0,0:0:0:0:
448,192,25905,1,0,0:0:0:0:
192,192,26078,1,0,0:0:0:0:
64,192,26250,1,0,0:0:0:0:
320,192,26250,1,0,0:0:0:0:
448,192,26250,1,0,0:0:0:0:
192,192,26423,1,0,0:0:0:0:
64,192,26423,1,0,0:0:0:0:
448,192,26596,1,0,0:0:0:0:
320,192,26683,1,0,0:0:0:0:
64,192,26769,1,0,0:0:0:0:
448,192,26769,1,0,0:0:0:0:
192,192,26856,1,0,0:0:0:0:
320,192,26942,1,0,0:0:0:0:
64,192,26942,1,0,0:0:0:0:
448,192,27029,1,0,0:0:0:0:
192,192,27115,1,0,0:0:0:0:
64,192,27201,1,0,0:0:0:0:
320,192,27288,1,0,0:0:0:0:
448,192,27288,1,0,0:0:0:0:
320,192,27461,1,0,0:0:0:0:
192,192,27461,1,0,0:0:0:0:
64,192,27634,1,0,0:0:0:0:
192,192,27634,1,0,0:0:0:0:
448,192,27634,1,0,0:0:0:0:
64,192,27807,1,0,0:0:0:0:
320,192,27807,1,0,0:0:0:0:
192,192,27980,1,0,0:0:0:0:
64,192,28066,1,0,0:0:0:0:
448,192,28152,1,0,0:0:0:0:
192,192,28152,1,0,0:0:0:0:
320,192,28239,1,0,0:0:0:0:
64,192,28325,1,0,0:0:0:0:
448,192,28325,1,0,0:0:0:0:
192,192,28412,1,0,0:0:0:0:
320,192,28498,1,0,0:0:0:0:
192,192,28585,1,0,0:0:0:0:
64,192,28671,1,0,0:0:0:0:
448,192,28671,1,0,0:0:0:0:
192,192,28844,1,0,0:0:0:0:
320,192,28844,1,0,0:0:0:0:
64,192,29017,1,0,0:0:0:0:
320,192,29017,1,0,0:0:0:0:
448,192,29017,1,0,0:0:0:0:
192,192,29190,1,0,0:0:0:0:
448,192,29190,1,0,0:0:0:0:
320,192,29363,1,0,0:0:0:0:
64,192,29449,1,0,0:0:0:0:
320,192,29536,1,0,0:0:0:0:
448,192,29536,1,0,0:0:0:0:
192,192,29709,1,0,0:0:0:0:
448,192,29709,1,0,0:0:0:0:
64,192,29709,1,0,0:0:0:0:
64,192,29882,1,0,0:0:0:0:
320,192,29882,1,0,0:0:0:0:
192,192,29968,1,0,0:0:0:0:
320,192,30054,1,0,0:0:0:0:
448,192,30054,1,0,0:0:0:0:
64,192,30227,1,0,0:0:0:0:
192,192,30400,1,0,0:0:0:0:
320,192,30400,1,0,0:0:0:0:
448,192,30400,1,0,0:0:0:0:
64,192,30573,1,0,0:0:0:0:
448,192,30573,1,0,0:0:0:0:
192,192,30746,1,0,0:0:0:0:
320,192,30833,1,0,0:0:0:0:
192,192,30919,1,0,0:0:0:0:
448,192,30919,1,0,0:0:0:0:
64,192,31006,1,0,0:0:0:0:
320,192,31092,1,0,0:0:0:0:
448,192,31092,1,0,0:0:0:0:
192,192,31178,1,0,0:0:0:0:
448,192,31265,1,0,0:0:0:0:
320,192,31351,1,0,0:0:0:0:
64,192,31438,1,0,0:0:0:0:
192,192,31438,1,0,0:0:0:0:
192,192,31611,1,0,0:0:0:0:
320,192,31784,1,0,0:0:0:0:
448,192,31784,1,0,0:0:0:0:
64,192,31784,1,0,0:0:0:0:
320,192,31957,1,0,0:0:0:0:
192,192,31957,1,0,0:0:0:0:
448,192,32129,1,0,0:0:0:0:
320,192,32216,1,0,0:0:0:0:
192,192,32302,1,0,0:0:0:0:
64,192,32302,1,0,0:0:0:0:
448,192,32389,1,0,0:0:0:0:
320,192,32475,1,0,0:0:0:0:
64,192,32475,1,0,0:0:0:0:
192,192,32562,1,0,0:0:0:0:
320,192,32648,1,0,0:0:0:0:
64,192,32735,1,0,0:0:0:0:
448,192,32821,1,0,0:0:0:0:
192,192,32821,1,0,0:0:0:0:
448,192,32994,1,0,0:0:0:0:
320,192,32994,1,0,0:0:0:0:
320,192,33167,1,0,0:0:0:0:
192,192,33167,1,0,0:0:0:0:
64,192,33167,1,0,0:0:0:0:
64,192,33340,1,0,0:0:0:0:
448,192,33340,1,0,0:0:0:0:
320,192,33513,1,0,0:0:0:0:
192,192,33599,1,0,0:0:0:0:
64,192,33686,1,0,0:0:0:0:
320,192,33686,1,0,0:0:0:0:
448,192,33772,1,0,0:0:0:0:
192,192,33859,1,0,0:0:0:0:
64,192,33859,1,0,0:0:0:0:
320,192,33945,1,0,0:0:0:0:
192,192,34031,1,0,0:0:0:0:
64,192,34118,1,0,0:0:0:0:
448,192,34204,1,0,0:0:0:0:
320,192,34204,1,0,0:0:0:0:
64,192,34896,1,0,0:0:0:0:
192,192,34896,1,0,0:0:0:0:
448,192,34896,1,0,0:0:0:0:
192,192,35069,1,0,0:0:0:0:
320,192,35069,1,0,0:0:0:0:
448,192,35242,1,0,0:0:0:0:
192,192,35242,1,0,0:0:0:0:
64,192,35242,1,0,0:0:0:0:
320,192,35415,1,0,0:0:0:0:
64,192,35588,1,0,0:0:0:0:
320,192,35588,1,0,0:0:0:0:
192,192,35761,1,0,0:0:0:0:
448,192,35933,1,0,0:0:0:0:
64,192,35933,1,0,0:0:0:0:
320,192,35933,1,0,0:0:0:0:
448,192,36106,1,0,0:0:0:0:
192,192,36106,1,0,0:0:0:0:
320,192,36279,1,0,0:0:0:0:
192,192,36366,1,0,0:0:0:0:
320,192,36452,1,0,0:0:0:0:
64,192,36452,1,0,0:0:0:0:
448,192,36539,1,0,0:0:0:0:
192,192,36625,1,0,0:0:0:0:
64,192,36625,1,0,0:0:0:0:
320,192,36712,1,0,0:0:0:0:
192,192,36798,1,0,0:0:0:0:
448,192,36884,1,0,0:0:0:0:
320,192,36971,1,0,0:0:0:0:
64,192,36971,1,0,0:0:0:0:
320,192,37144,1,0,0:0:0:0:
448,192,37317,1,0,0:0:0:0:
192,192,37317,1,0,0:0:0:0:
64,192,37317,1,0,0:0:0:0:
320,192,37490,1,0,0:0:0:0:
448,192,37490,1,0,0:0:0:0:
64,192,37663,1,0,0:0:0:0:
192,192,37749,1,0,0:0:0:0:
448,192,37835,1,0,0:0:0:0:
64,192,37835,1,0,0:0:0:0:
320,192,37922,1,0,0:0:0:0:
192,192,38008,1,0,0:0:0:0:
448,192,38008,1,0,0:0:0:0:
64,192,38095,1,0,0:0:0:0:
320,192,38181,1,0,0:0:0:0:
448,192,38268,1,0,0:0:0:0:
192,192,38354,1,0,0:0:0:0:
64,192,38354,1,0,0:0:0:0:
192,192,38527,1,0,0:0:0:0:
320,192,38527,1,0,0:0:0:0:
448,192,38700,1,0,0:0:0:0:
320,192,38700,1,0,0:0:0:0:
64,192,38700,1,0,0:0:0:0:
448,192,38873,1,0,0:0:0:0:
192,192,38873,1,0,0:0:0:0:
320,192,39046,1,0,0:0:0:0:
448,192,39132,1,0,0:0:0:0:
64,192,39219,1,0,0:0:0:0:
320,192,39219,1,0,0:0:0:0:
192,192,39305,1,0,0:0:0:0:
448,192,39392,1,0,0:0:0:0:
64,192,39392,1,0,0:0:0:0:
320,192,39478,1,0,0:0:0:0:
192,192,39565,1,0,0:0:0:0:
320,192,39651,1,0,0:0:0:0:
448,192,39737,1,0,0:0:0:0:
64,192,39737,1,0,0:0:0:0:
320,192,39910,1,0,0:0:0:0:
192,192,39910,1,0,0:0:0:0:
448,192,40083,1,0,0:0:0:0:
192,192,40083,1,0,0:0:0:0:
64,192,40083,1,0,0:0:0:0:
320,192,40256,1,0,0:0:0:0:
64,192,40256,1,0,0:0:0:0:
192,192,40429,1,0,0:0:0:0:
448,192,40516,1,0,0:0:0:0:
192,192,40602,1,0,0:0:0:0:
64,192,40602,1,0,0:0:0:0:
320,192,40775,1,0,0:0:0:0:
64,192,40775,1,0,0:0:0:0:
448,192,40775,1,0,0:0:0:0:
448,192,40948,1,0,0:0:0:0:
192,192,40948,1,0,0:0:0:0:
320,192,41034,1,0,0:0:0:0:
192,192,41121,1,0,0:0:0:0:
64,192,41121,1,0,0:0:0:0:
448,192,41294,1,0,0:0:0:0:
320,192,41467,1,0,0:0:0:0:
192,192,41467,1,0,0:0:0:0:
64,192,41467,1,0,0:0:0:0:
448,192,41640,1,0,0:0:0:0:
64,192,41640,1,0,0:0:0:0:
320,192,41812,1,0,0:0:0:0:
192,192,41899,1,0,0:0:0:0:
320,192,41985,1,0,0:0:0:0:
64,192,41985,1,0,0:0:0:0:
448,192,42072,1,0,0:0:0:0:
192,192,42158,1,0,0:0:0:0:
64,192,42158,1,0,0:0:0:0:
320,192,42245,1,0,0:0:0:0:
64,192,42331,1,0,0:0:0:0:
192,192,42418,1,0,0:0:0:0:
448,192,42504,1,0,0:0:0:0:
320,192,42504,1,0,0:0:0:0:
320,192,42677,1,0,0:0:0:0:
192,192,42850,1,0,0:0:0:0:
64,192,42850,1,0,0:0:0:0:
448,192,42850,1,0,0:0:0:0:
192,192,43023,1,0,0:0:0:0:
320,192,43023,1,0,0:0:0:0:
64,192,43196,1,0,0:0:0:0:
192,192,43282,1,0,0:0:0:0:
320,192,43369,1,0,0:0:0:0:
448,192,43369,1,0,0:0:0:0:
64,192,43455,1,0,0:0:0:0:
192,192,43542,1,0,0:0:0:0:
448,192,43542,1,0,0:0:0:0:
320,192,43628,1,0,0:0:0:0:
192,192,43714,1,0,0:0:0:0:
448,192,43801,1,0,0:0:0:0:
64,192,43887,1,0,0:0:0:0:
320,192,43887,1,0,0:0:0:0:
64,192,44060,1,0,0:0:0:0:
192,192,44060,1,0,0:0:0:0:
192,192,44233,1,0,0:0:0:0:
320,192,44233,1,0,0:0:0:0:
448,192,44233,1,0,0:0:0:0:
448,192,44406,1,0,0:0:0:0:
64,192,44406,1,0,0:0:0:0:
192,192,44579,1,0,0:0:0:0:
320,192,44665,1,0,0:0:0:0:
448,192,44752,1,0,0:0:0:0:
192,192,44752,1,0,0:0:0:0:
64,192,44838,1,0,0:0:0:0:
320,192,44925,1,0,0:0:0:0:
448,192,44925,1,0,0:0:0:0:
192,192,45011,1,0,0:0:0:0:
320,192,45098,1,0,0:0:0:0:
448,192,45184,1,0,0:0:0:0:
64,192,45271,1,0,0:0:0:0:
192,192,45271,1,0,0:0:0:0:
320,192,45415,1,0,0:0:0:0:
192,192,45472,1,0,0:0:0:0:
448,192,45588,1,0,0:0:0:0:
320,192,45645,1,0,0:0:0:0:
64,192,45703,1,0,0:0:0:0:
192,192,45761,1,0,0:0:0:0:
448,192,45962,1,0,0:0:0:0:
320,192,45962,1,0,0:0:0:0:
320,192,46135,128,0,46395:0:0:0:0:
448,192,46135,128,0,46395:0:0:0:0:
192,192,46481,1,0,0:0:0:0:
64,192,46481,1,0,0:0:0:0:
448,192,46481,1,0,0:0:0:0:
