osu file format v14

[General]
AudioFilename: audio.mp3
AudioLeadIn: 0
PreviewTime: 161939
Countdown: 0
SampleSet: Soft
StackLeniency: 0.7
Mode: 3
LetterboxInBreaks: 0
SpecialStyle: 0
WidescreenStoryboard: 1

[Editor]
Bookmarks: 45037,55472,183298
DistanceSpacing: 0.6
BeatDivisor: 4
GridSize: 8
TimelineZoom: 1.1

[Metadata]
Title:White Sweet Love feat. CLIFF EDGE
TitleUnicode:White Sweet Love feat. CLIFF EDGE
Artist:jyA-Me
ArtistUnicode:jyA-Me
Creator:by-ad
Version:5K Zylin's Wanna Love You Forever
Source:
Tags:zylin himari kino girl meet girl yyottacat japanese pop j-pop jpop r&b rnb rhythm and blues ヤミー Yamii
BeatmapID:3996741
BeatmapSetID:1929861

[Difficulty]
HPDrainRate:7.6
CircleSize:5
OverallDifficulty:7.6
ApproachRate:5
SliderMultiplier:1.4
SliderTickRate:1

[Events]
//Background and Video events
0,0,"100.jpg",0,0
//Break Periods
//Storyboard Layer 0 (Background)
//Storyboard Layer 1 (Fail)
//Storyboard Layer 2 (Pass)
//Storyboard Layer 3 (Foreground)
//Storyboard Layer 4 (Overlay)
//Storyboard Sound Samples
Sample,7863,0,"shiina.wav",70

[TimingPoints]
690,652.173913043478,4,2,1,50,1,0
77646,-100,4,2,1,50,0,1
98516,-100,4,2,1,50,0,0
162429,-100,4,2,1,50,0,1
180689,-100,4,2,1,50,0,0
208081,-100,4,2,1,50,0,1
227646,-100,4,2,1,50,0,0
228950,-100,4,2,1,50,0,1
249820,-100,4,2,1,50,0,0

[HitObjects]
256,192,581,5,0,0:0:0:0:
358,192,635,1,0,0:0:0:0:
51,192,690,1,0,0:0:0:0:
460,192,690,1,0,0:0:0:0:
256,192,1016,1,0,0:0:0:0:
153,192,1179,1,0,0:0:0:0:
358,192,1179,1,0,0:0:0:0:
256,192,1668,128,0,1994:0:0:0:0:
51,192,1994,1,0,0:0:0:0:
460,192,1994,1,0,0:0:0:0:
358,192,2320,1,0,0:0:0:0:
51,192,2483,1,0,0:0:0:0:
256,192,2483,1,0,0:0:0:0:
153,192,2972,128,0,3135:0:0:0:0:
256,192,3135,128,0,3298:0:0:0:0:
51,192,3298,1,0,0:0:0:0:
460,192,3298,1,0,0:0:0:0:
153,192,3624,1,0,0:0:0:0:
256,192,3787,1,0,0:0:0:0:
460,192,3787,1,0,0:0:0:0:
358,192,4276,128,0,4603:0:0:0:0:
51,192,4603,1,0,0:0:0:0:
256,192,4603,1,0,0:0:0:0:
460,192,4929,128,0,5255:0:0:0:0:
358,192,5092,128,0,5255:0:0:0:0:
51,192,5255,128,0,5418:0:0:0:0:
153,192,5418,128,0,5581:0:0:0:0:
256,192,5581,128,0,5744:0:0:0:0:
51,192,5907,1,0,0:0:0:0:
358,192,5907,1,0,0:0:0:0:
460,192,5907,128,0,7211:0:0:0:0:
256,192,6233,1,0,0:0:0:0:
51,192,6396,1,0,0:0:0:0:
153,192,6396,1,0,0:0:0:0:
51,192,7211,1,0,0:0:0:0:
256,192,7211,128,0,8516:0:0:0:0:
153,192,7537,1,0,0:0:0:0:
358,192,7700,1,0,0:0:0:0:
460,192,7700,1,0,0:0:0:0:
51,192,7863,128,0,8189:0:0:0:0:
358,192,8189,128,0,8516:0:0:0:0:
51,192,8516,1,0,0:0:0:0:
153,192,8516,128,0,9820:0:0:0:0:
460,192,8842,1,0,0:0:0:0:
256,192,9005,1,0,0:0:0:0:
358,192,9005,1,0,0:0:0:0:
51,192,9820,128,0,11124:0:0:0:0:
256,192,9820,128,0,10635:0:0:0:0:
460,192,9820,1,0,0:0:0:0:
153,192,10635,128,0,10798:0:0:0:0:
358,192,10798,128,0,10961:0:0:0:0:
256,192,10961,128,0,11124:0:0:0:0:
153,192,11124,1,0,0:0:0:0:
460,192,11124,1,0,0:0:0:0:
358,192,11450,1,0,0:0:0:0:
153,192,11776,1,0,0:0:0:0:
256,192,11776,1,0,0:0:0:0:
460,192,11776,1,0,0:0:0:0:
51,192,12103,1,0,0:0:0:0:
256,192,12429,1,0,0:0:0:0:
358,192,12429,1,0,0:0:0:0:
153,192,12755,1,0,0:0:0:0:
51,192,13081,1,0,0:0:0:0:
358,192,13081,1,0,0:0:0:0:
460,192,13081,1,0,0:0:0:0:
256,192,13407,1,0,0:0:0:0:
51,192,13733,1,0,0:0:0:0:
460,192,13733,1,0,0:0:0:0:
358,192,14059,1,0,0:0:0:0:
51,192,14385,1,0,0:0:0:0:
256,192,14385,1,0,0:0:0:0:
460,192,14385,1,0,0:0:0:0:
153,192,14711,1,0,0:0:0:0:
358,192,15037,128,0,15363:0:0:0:0:
460,192,15037,128,0,15363:0:0:0:0:
256,192,15363,1,0,0:0:0:0:
51,192,15689,128,0,16016:0:0:0:0:
153,192,15689,128,0,16016:0:0:0:0:
460,192,15689,1,0,0:0:0:0:
256,192,16016,1,0,0:0:0:0:
358,192,16342,128,0,16668:0:0:0:0:
460,192,16342,128,0,16668:0:0:0:0:
256,192,16668,1,0,0:0:0:0:
51,192,16994,1,0,0:0:0:0:
153,192,16994,1,0,0:0:0:0:
460,192,16994,1,0,0:0:0:0:
256,192,17320,1,0,0:0:0:0:
358,192,17646,1,0,0:0:0:0:
460,192,17646,1,0,0:0:0:0:
153,192,17972,1,0,0:0:0:0:
51,192,18298,1,0,0:0:0:0:
256,192,18298,1,0,0:0:0:0:
358,192,18298,1,0,0:0:0:0:
460,192,18624,1,0,0:0:0:0:
153,192,18950,1,0,0:0:0:0:
358,192,18950,1,0,0:0:0:0:
256,192,19276,1,0,0:0:0:0:
51,192,19603,1,0,0:0:0:0:
153,192,19603,1,0,0:0:0:0:
460,192,19603,1,0,0:0:0:0:
358,192,19929,1,0,0:0:0:0:
256,192,20255,1,0,0:0:0:0:
460,192,20255,1,0,0:0:0:0:
51,192,20581,1,0,0:0:0:0:
153,192,20581,1,0,0:0:0:0:
51,192,20907,1,0,0:0:0:0:
256,192,20907,1,0,0:0:0:0:
460,192,20907,1,0,0:0:0:0:
358,192,21233,1,0,0:0:0:0:
51,192,21559,1,0,0:0:0:0:
460,192,21559,1,0,0:0:0:0:
153,192,21885,1,0,0:0:0:0:
51,192,22211,1,0,0:0:0:0:
256,192,22211,1,0,0:0:0:0:
358,192,22211,1,0,0:0:0:0:
460,192,22537,1,0,0:0:0:0:
153,192,22863,1,0,0:0:0:0:
256,192,22863,1,0,0:0:0:0:
358,192,23189,1,0,0:0:0:0:
51,192,23516,1,0,0:0:0:0:
153,192,23516,1,0,0:0:0:0:
460,192,23516,1,0,0:0:0:0:
256,192,23842,1,0,0:0:0:0:
51,192,24168,1,0,0:0:0:0:
460,192,24168,1,0,0:0:0:0:
153,192,24494,1,0,0:0:0:0:
51,192,24820,1,0,0:0:0:0:
256,192,24820,1,0,0:0:0:0:
460,192,24820,1,0,0:0:0:0:
358,192,25146,1,0,0:0:0:0:
51,192,25472,128,0,25798:0:0:0:0:
153,192,25472,128,0,25798:0:0:0:0:
256,192,25798,1,0,0:0:0:0:
51,192,26124,1,0,0:0:0:0:
358,192,26124,128,0,26450:0:0:0:0:
460,192,26124,128,0,26450:0:0:0:0:
256,192,26450,1,0,0:0:0:0:
51,192,26776,128,0,27103:0:0:0:0:
153,192,26776,128,0,27103:0:0:0:0:
256,192,27103,1,0,0:0:0:0:
51,192,27429,1,0,0:0:0:0:
358,192,27429,1,0,0:0:0:0:
460,192,27429,1,0,0:0:0:0:
256,192,27755,1,0,0:0:0:0:
51,192,28081,1,0,0:0:0:0:
153,192,28081,1,0,0:0:0:0:
460,192,28407,1,0,0:0:0:0:
51,192,28733,1,0,0:0:0:0:
256,192,28733,1,0,0:0:0:0:
358,192,28733,1,0,0:0:0:0:
153,192,29059,1,0,0:0:0:0:
51,192,29385,1,0,0:0:0:0:
256,192,29385,128,0,33298:0:0:0:0:
460,192,29385,1,0,0:0:0:0:
358,192,30689,128,0,33298:0:0:0:0:
153,192,31342,128,0,33298:0:0:0:0:
460,192,31994,128,0,33298:0:0:0:0:
51,192,34168,1,0,0:0:0:0:
460,192,34276,1,0,0:0:0:0:
51,192,34494,1,0,0:0:0:0:
153,192,34603,1,0,0:0:0:0:
358,192,34603,1,0,0:0:0:0:
460,192,34603,1,0,0:0:0:0:
256,192,34929,1,0,0:0:0:0:
153,192,35092,1,0,0:0:0:0:
51,192,35255,1,0,0:0:0:0:
358,192,35255,1,0,0:0:0:0:
460,192,35255,1,0,0:0:0:0:
153,192,35581,1,0,0:0:0:0:
256,192,35581,1,0,0:0:0:0:
358,192,35744,1,0,0:0:0:0:
460,192,35907,1,0,0:0:0:0:
153,192,36233,1,0,0:0:0:0:
256,192,36233,128,0,36559:0:0:0:0:
51,192,36559,128,0,36885:0:0:0:0:
358,192,36559,1,0,0:0:0:0:
153,192,36885,1,0,0:0:0:0:
256,192,37048,1,0,0:0:0:0:
358,192,37211,1,0,0:0:0:0:
460,192,37211,1,0,0:0:0:0:
153,192,37537,1,0,0:0:0:0:
153,192,37700,1,0,0:0:0:0:
51,192,37863,1,0,0:0:0:0:
256,192,37863,1,0,0:0:0:0:
460,192,37863,1,0,0:0:0:0:
256,192,38189,1,0,0:0:0:0:
358,192,38189,1,0,0:0:0:0:
153,192,38353,1,0,0:0:0:0:
460,192,38516,1,0,0:0:0:0:
51,192,38842,1,0,0:0:0:0:
358,192,38842,128,0,39168:0:0:0:0:
153,192,39005,1,0,0:0:0:0:
51,192,39168,1,0,0:0:0:0:
256,192,39168,1,0,0:0:0:0:
460,192,39168,128,0,39494:0:0:0:0:
153,192,39494,1,0,0:0:0:0:
358,192,39494,1,0,0:0:0:0:
51,192,39575,1,0,0:0:0:0:
256,192,39657,1,0,0:0:0:0:
358,192,39738,1,0,0:0:0:0:
51,192,39820,1,0,0:0:0:0:
153,192,39820,1,0,0:0:0:0:
460,192,39820,1,0,0:0:0:0:
256,192,40146,1,0,0:0:0:0:
358,192,40309,1,0,0:0:0:0:
51,192,40472,1,0,0:0:0:0:
153,192,40472,1,0,0:0:0:0:
460,192,40472,1,0,0:0:0:0:
256,192,40798,1,0,0:0:0:0:
358,192,40798,1,0,0:0:0:0:
153,192,40961,1,0,0:0:0:0:
51,192,41124,1,0,0:0:0:0:
256,192,41450,128,0,41776:0:0:0:0:
358,192,41450,1,0,0:0:0:0:
153,192,41776,1,0,0:0:0:0:
460,192,41776,128,0,42103:0:0:0:0:
51,192,42103,1,0,0:0:0:0:
358,192,42103,1,0,0:0:0:0:
256,192,42266,1,0,0:0:0:0:
51,192,42429,1,0,0:0:0:0:
153,192,42429,1,0,0:0:0:0:
460,192,42429,1,0,0:0:0:0:
256,192,42755,1,0,0:0:0:0:
358,192,42918,1,0,0:0:0:0:
51,192,43081,1,0,0:0:0:0:
460,192,43081,1,0,0:0:0:0:
358,192,43407,1,0,0:0:0:0:
256,192,43570,1,0,0:0:0:0:
51,192,43733,1,0,0:0:0:0:
153,192,43733,1,0,0:0:0:0:
153,192,44059,128,0,44385:0:0:0:0:
460,192,44059,1,0,0:0:0:0:
358,192,44222,1,0,0:0:0:0:
51,192,44385,128,0,44711:0:0:0:0:
256,192,44385,1,0,0:0:0:0:
460,192,44385,1,0,0:0:0:0:
153,192,44711,1,0,0:0:0:0:
358,192,44711,1,0,0:0:0:0:
460,192,44793,1,0,0:0:0:0:
256,192,44874,1,0,0:0:0:0:
153,192,44956,1,0,0:0:0:0:
51,192,45037,1,0,0:0:0:0:
358,192,45037,1,0,0:0:0:0:
460,192,45037,1,0,0:0:0:0:
256,192,45363,1,0,0:0:0:0:
153,192,45526,1,0,0:0:0:0:
358,192,45526,1,0,0:0:0:0:
51,192,45689,1,0,0:0:0:0:
256,192,45689,1,0,0:0:0:0:
460,192,45689,1,0,0:0:0:0:
51,192,46016,1,0,0:0:0:0:
153,192,46016,1,0,0:0:0:0:
358,192,46179,1,0,0:0:0:0:
460,192,46179,1,0,0:0:0:0:
256,192,46342,1,0,0:0:0:0:
51,192,46668,128,0,46994:0:0:0:0:
153,192,46668,1,0,0:0:0:0:
256,192,46831,1,0,0:0:0:0:
153,192,46994,1,0,0:0:0:0:
358,192,46994,1,0,0:0:0:0:
460,192,46994,128,0,47320:0:0:0:0:
256,192,47320,1,0,0:0:0:0:
153,192,47483,1,0,0:0:0:0:
51,192,47646,1,0,0:0:0:0:
358,192,47646,1,0,0:0:0:0:
460,192,47646,1,0,0:0:0:0:
153,192,47972,1,0,0:0:0:0:
256,192,48135,1,0,0:0:0:0:
460,192,48135,1,0,0:0:0:0:
51,192,48298,1,0,0:0:0:0:
153,192,48298,1,0,0:0:0:0:
358,192,48298,1,0,0:0:0:0:
153,192,48624,1,0,0:0:0:0:
256,192,48624,1,0,0:0:0:0:
358,192,48787,1,0,0:0:0:0:
460,192,48787,1,0,0:0:0:0:
51,192,48950,1,0,0:0:0:0:
153,192,49276,128,0,49603:0:0:0:0:
460,192,49276,1,0,0:0:0:0:
358,192,49439,1,0,0:0:0:0:
51,192,49603,128,0,49929:0:0:0:0:
256,192,49603,1,0,0:0:0:0:
460,192,49603,1,0,0:0:0:0:
153,192,49929,1,0,0:0:0:0:
358,192,49929,1,0,0:0:0:0:
460,192,50010,1,0,0:0:0:0:
256,192,50092,1,0,0:0:0:0:
358,192,50173,1,0,0:0:0:0:
51,192,50255,1,0,0:0:0:0:
153,192,50255,1,0,0:0:0:0:
460,192,50255,1,0,0:0:0:0:
358,192,50581,1,0,0:0:0:0:
51,192,50744,1,0,0:0:0:0:
256,192,50744,1,0,0:0:0:0:
153,192,50907,1,0,0:0:0:0:
358,192,50907,1,0,0:0:0:0:
460,192,50907,1,0,0:0:0:0:
256,192,51233,1,0,0:0:0:0:
51,192,51396,1,0,0:0:0:0:
153,192,51396,1,0,0:0:0:0:
256,192,51559,1,0,0:0:0:0:
358,192,51885,1,0,0:0:0:0:
460,192,51885,128,0,52211:0:0:0:0:
153,192,52048,1,0,0:0:0:0:
51,192,52211,128,0,52429:0:0:0:0:
256,192,52211,1,0,0:0:0:0:
358,192,52211,1,0,0:0:0:0:
153,192,52429,128,0,52646:0:0:0:0:
358,192,52646,128,0,52863:0:0:0:0:
51,192,52863,1,0,0:0:0:0:
460,192,52863,1,0,0:0:0:0:
153,192,53189,1,0,0:0:0:0:
256,192,53353,1,0,0:0:0:0:
460,192,53353,1,0,0:0:0:0:
51,192,53516,1,0,0:0:0:0:
153,192,53516,1,0,0:0:0:0:
358,192,53516,1,0,0:0:0:0:
256,192,53842,1,0,0:0:0:0:
358,192,54005,1,0,0:0:0:0:
460,192,54005,1,0,0:0:0:0:
51,192,54168,1,0,0:0:0:0:
153,192,54168,1,0,0:0:0:0:
153,192,54494,1,0,0:0:0:0:
256,192,54494,1,0,0:0:0:0:
358,192,54657,1,0,0:0:0:0:
51,192,54820,1,0,0:0:0:0:
460,192,54820,1,0,0:0:0:0:
256,192,54983,1,0,0:0:0:0:
153,192,55146,1,0,0:0:0:0:
460,192,55309,1,0,0:0:0:0:
358,192,55391,1,0,0:0:0:0:
51,192,55472,128,4,55798:0:0:0:0:
153,192,55472,1,0,0:0:0:0:
256,192,55472,1,0,0:0:0:0:
460,192,55635,1,0,0:0:0:0:
256,192,55798,1,0,0:0:0:0:
51,192,55961,1,0,0:0:0:0:
358,192,55961,128,0,56124:0:0:0:0:
153,192,56124,1,0,0:0:0:0:
460,192,56124,128,0,56450:0:0:0:0:
51,192,56450,128,0,56613:0:0:0:0:
153,192,56613,128,0,56776:0:0:0:0:
358,192,56776,128,0,56939:0:0:0:0:
256,192,56939,128,0,57103:0:0:0:0:
153,192,57103,1,0,0:0:0:0:
460,192,57103,128,0,57266:0:0:0:0:
51,192,57266,128,0,57429:0:0:0:0:
256,192,57429,128,0,57755:0:0:0:0:
358,192,57429,1,0,0:0:0:0:
153,192,57592,128,0,57755:0:0:0:0:
358,192,57755,128,0,57918:0:0:0:0:
460,192,57918,128,0,58081:0:0:0:0:
51,192,58081,1,0,0:0:0:0:
153,192,58081,128,0,58244:0:0:0:0:
256,192,58244,128,0,58407:0:0:0:0:
51,192,58407,128,0,58570:0:0:0:0:
153,192,58570,1,0,0:0:0:0:
358,192,58570,128,0,58733:0:0:0:0:
256,192,58733,1,0,0:0:0:0:
460,192,58733,128,0,59059:0:0:0:0:
51,192,58896,128,0,59059:0:0:0:0:
153,192,59059,128,0,59222:0:0:0:0:
358,192,59059,1,0,0:0:0:0:
256,192,59222,128,0,59385:0:0:0:0:
51,192,59385,128,0,59711:0:0:0:0:
460,192,59385,1,0,0:0:0:0:
153,192,59548,1,0,0:0:0:0:
256,192,59711,1,0,0:0:0:0:
358,192,59711,1,0,0:0:0:0:
153,192,59874,1,0,0:0:0:0:
358,192,60037,1,0,0:0:0:0:
460,192,60037,1,0,0:0:0:0:
256,192,60200,1,0,0:0:0:0:
51,192,60363,1,0,0:0:0:0:
153,192,60363,1,0,0:0:0:0:
460,192,60363,1,0,0:0:0:0:
358,192,60445,1,0,0:0:0:0:
256,192,60526,1,0,0:0:0:0:
153,192,60608,1,0,0:0:0:0:
51,192,60689,1,0,0:0:0:0:
460,192,60689,1,0,0:0:0:0:
256,192,60853,1,0,0:0:0:0:
358,192,61016,1,0,0:0:0:0:
51,192,61179,1,0,0:0:0:0:
153,192,61342,1,0,0:0:0:0:
256,192,61342,1,0,0:0:0:0:
460,192,61342,1,0,0:0:0:0:
358,192,61505,1,0,0:0:0:0:
153,192,61668,1,0,0:0:0:0:
460,192,61831,1,0,0:0:0:0:
256,192,61994,1,0,0:0:0:0:
51,192,62157,1,0,0:0:0:0:
153,192,62320,1,0,0:0:0:0:
358,192,62320,1,0,0:0:0:0:
256,192,62483,1,0,0:0:0:0:
51,192,62646,1,0,0:0:0:0:
358,192,62646,1,0,0:0:0:0:
460,192,62646,1,0,0:0:0:0:
256,192,62809,1,0,0:0:0:0:
153,192,62972,1,0,0:0:0:0:
51,192,63298,1,0,0:0:0:0:
256,192,63298,1,0,0:0:0:0:
460,192,63298,1,0,0:0:0:0:
358,192,63461,1,0,0:0:0:0:
153,192,63624,1,0,0:0:0:0:
256,192,63787,1,0,0:0:0:0:
460,192,63787,1,0,0:0:0:0:
51,192,63950,1,0,0:0:0:0:
153,192,63950,1,0,0:0:0:0:
358,192,64113,1,0,0:0:0:0:
153,192,64276,1,0,0:0:0:0:
256,192,64276,1,0,0:0:0:0:
460,192,64439,1,0,0:0:0:0:
358,192,64603,1,0,0:0:0:0:
51,192,64766,1,0,0:0:0:0:
153,192,64929,1,0,0:0:0:0:
460,192,64929,1,0,0:0:0:0:
256,192,65092,1,0,0:0:0:0:
51,192,65255,1,0,0:0:0:0:
153,192,65255,1,0,0:0:0:0:
460,192,65255,1,0,0:0:0:0:
358,192,65418,1,0,0:0:0:0:
51,192,65581,1,0,0:0:0:0:
256,192,65581,1,0,0:0:0:0:
358,192,65662,1,0,0:0:0:0:
153,192,65744,1,0,0:0:0:0:
256,192,65825,1,0,0:0:0:0:
51,192,65907,1,0,0:0:0:0:
358,192,65907,1,0,0:0:0:0:
460,192,65907,128,0,66233:0:0:0:0:
153,192,66070,1,0,0:0:0:0:
256,192,66233,1,0,0:0:0:0:
51,192,66396,128,0,66559:0:0:0:0:
153,192,66396,1,0,0:0:0:0:
358,192,66559,128,0,66722:0:0:0:0:
460,192,66559,1,0,0:0:0:0:
256,192,66722,128,0,66885:0:0:0:0:
51,192,66885,1,0,0:0:0:0:
460,192,66885,128,0,67048:0:0:0:0:
153,192,67048,128,0,67211:0:0:0:0:
256,192,67211,128,0,67537:0:0:0:0:
51,192,67374,1,0,0:0:0:0:
358,192,67537,128,0,67700:0:0:0:0:
460,192,67537,1,0,0:0:0:0:
51,192,67700,128,0,67863:0:0:0:0:
153,192,67863,1,0,0:0:0:0:
460,192,67863,128,0,68026:0:0:0:0:
358,192,68026,128,0,68189:0:0:0:0:
256,192,68189,128,0,68353:0:0:0:0:
51,192,68353,128,0,68516:0:0:0:0:
153,192,68516,1,0,0:0:0:0:
358,192,68516,128,0,68679:0:0:0:0:
460,192,68679,128,0,68842:0:0:0:0:
153,192,68842,128,0,69005:0:0:0:0:
256,192,69005,128,0,69168:0:0:0:0:
358,192,69005,1,0,0:0:0:0:
51,192,69168,128,0,69494:0:0:0:0:
460,192,69168,1,0,0:0:0:0:
153,192,69331,1,0,0:0:0:0:
256,192,69494,1,0,0:0:0:0:
460,192,69494,128,0,69820:0:0:0:0:
358,192,69657,128,0,69820:0:0:0:0:
153,192,69820,1,0,0:0:0:0:
256,192,69820,128,0,70146:0:0:0:0:
51,192,69983,1,0,0:0:0:0:
358,192,70146,1,0,0:0:0:0:
460,192,70146,1,0,0:0:0:0:
153,192,70309,1,0,0:0:0:0:
51,192,70472,1,0,0:0:0:0:
256,192,70472,1,0,0:0:0:0:
460,192,70472,1,0,0:0:0:0:
358,192,70635,1,0,0:0:0:0:
51,192,70798,1,0,0:0:0:0:
256,192,70798,1,0,0:0:0:0:
358,192,70880,1,0,0:0:0:0:
153,192,70961,1,0,0:0:0:0:
256,192,71043,1,0,0:0:0:0:
51,192,71124,128,0,71776:0:0:0:0:
358,192,71124,1,0,0:0:0:0:
460,192,71124,1,0,0:0:0:0:
256,192,71287,1,0,0:0:0:0:
153,192,71450,1,0,0:0:0:0:
460,192,71613,1,0,0:0:0:0:
256,192,71776,1,0,0:0:0:0:
358,192,71776,1,0,0:0:0:0:
153,192,71939,1,0,0:0:0:0:
460,192,72103,1,0,0:0:0:0:
51,192,72266,1,0,0:0:0:0:
153,192,72429,1,0,0:0:0:0:
256,192,72429,128,0,73081:0:0:0:0:
358,192,72592,1,0,0:0:0:0:
51,192,72755,1,0,0:0:0:0:
460,192,72755,1,0,0:0:0:0:
358,192,72918,1,0,0:0:0:0:
51,192,73081,1,0,0:0:0:0:
153,192,73081,1,0,0:0:0:0:
256,192,73244,1,0,0:0:0:0:
460,192,73407,1,0,0:0:0:0:
51,192,73570,1,0,0:0:0:0:
153,192,73733,128,4,74059:0:0:0:0:
256,192,73733,128,0,74548:0:0:0:0:
358,192,73733,128,0,74059:0:0:0:0:
153,192,74222,128,4,74548:0:0:0:0:
358,192,74222,128,0,74874:0:0:0:0:
460,192,74222,1,0,0:0:0:0:
51,192,74711,1,4,0:0:0:0:
153,192,74711,128,0,76994:0:0:0:0:
256,192,74711,128,0,74874:0:0:0:0:
256,192,75037,128,4,77646:0:0:0:0:
358,192,75037,128,0,76342:0:0:0:0:
460,192,75037,1,0,0:0:0:0:
358,192,76994,128,0,77646:0:0:0:0:
51,192,77646,128,4,78950:0:0:0:0:
153,192,77646,1,0,0:0:0:0:
460,192,77646,1,0,0:0:0:0:
256,192,77972,1,0,0:0:0:0:
358,192,78135,1,0,0:0:0:0:
153,192,78298,1,0,0:0:0:0:
460,192,78298,1,0,0:0:0:0:
256,192,78461,1,0,0:0:0:0:
460,192,78624,1,0,0:0:0:0:
153,192,78787,1,0,0:0:0:0:
358,192,78950,1,0,0:0:0:0:
460,192,78950,128,0,80255:0:0:0:0:
51,192,79276,1,0,0:0:0:0:
256,192,79276,1,0,0:0:0:0:
153,192,79439,1,0,0:0:0:0:
256,192,79603,1,0,0:0:0:0:
358,192,79603,1,0,0:0:0:0:
153,192,79766,1,0,0:0:0:0:
51,192,79929,1,0,0:0:0:0:
358,192,80092,1,0,0:0:0:0:
153,192,80255,1,0,0:0:0:0:
256,192,80255,128,0,81559:0:0:0:0:
51,192,80581,1,0,0:0:0:0:
460,192,80744,1,0,0:0:0:0:
51,192,80907,1,0,0:0:0:0:
153,192,80907,1,0,0:0:0:0:
358,192,81070,1,0,0:0:0:0:
51,192,81233,1,0,0:0:0:0:
460,192,81396,1,0,0:0:0:0:
153,192,81559,128,0,82211:0:0:0:0:
358,192,81559,1,0,0:0:0:0:
51,192,81885,1,0,0:0:0:0:
460,192,81885,1,0,0:0:0:0:
256,192,82048,1,0,0:0:0:0:
51,192,82211,1,0,0:0:0:0:
358,192,82211,128,0,82863:0:0:0:0:
256,192,82537,1,0,0:0:0:0:
460,192,82537,1,0,0:0:0:0:
51,192,82863,128,0,83189:0:0:0:0:
153,192,82863,1,0,0:0:0:0:
256,192,83189,128,0,83516:0:0:0:0:
358,192,83353,128,0,83516:0:0:0:0:
51,192,83516,1,0,0:0:0:0:
153,192,83516,128,0,83679:0:0:0:0:
460,192,83679,128,0,83842:0:0:0:0:
51,192,83842,128,0,84005:0:0:0:0:
256,192,84005,128,0,84168:0:0:0:0:
358,192,84168,128,0,84331:0:0:0:0:
51,192,84331,128,0,84657:0:0:0:0:
153,192,84494,128,0,84657:0:0:0:0:
460,192,84494,1,0,0:0:0:0:
256,192,84657,128,0,84820:0:0:0:0:
51,192,84820,1,0,0:0:0:0:
358,192,84820,128,0,85146:0:0:0:0:
153,192,84983,1,0,0:0:0:0:
460,192,85146,1,0,0:0:0:0:
256,192,85309,1,0,0:0:0:0:
153,192,85472,128,0,85798:0:0:0:0:
358,192,85472,1,0,0:0:0:0:
256,192,85798,128,0,86124:0:0:0:0:
51,192,86124,128,0,86450:0:0:0:0:
460,192,86124,1,0,0:0:0:0:
358,192,86450,128,0,86613:0:0:0:0:
153,192,86613,1,0,0:0:0:0:
256,192,86776,1,0,0:0:0:0:
460,192,86776,128,0,87429:0:0:0:0:
51,192,86939,1,0,0:0:0:0:
153,192,87103,1,0,0:0:0:0:
358,192,87103,1,0,0:0:0:0:
256,192,87266,1,0,0:0:0:0:
51,192,87429,1,0,0:0:0:0:
358,192,87429,1,0,0:0:0:0:
153,192,87592,1,0,0:0:0:0:
256,192,87755,1,0,0:0:0:0:
460,192,87755,1,0,0:0:0:0:
153,192,87918,1,0,0:0:0:0:
51,192,88081,1,0,0:0:0:0:
358,192,88081,128,0,89385:0:0:0:0:
460,192,88081,1,0,0:0:0:0:
153,192,88407,1,0,0:0:0:0:
460,192,88570,1,0,0:0:0:0:
51,192,88733,1,0,0:0:0:0:
256,192,88733,1,0,0:0:0:0:
153,192,88896,1,0,0:0:0:0:
460,192,89059,1,0,0:0:0:0:
256,192,89222,1,0,0:0:0:0:
51,192,89385,128,0,90689:0:0:0:0:
153,192,89385,1,0,0:0:0:0:
256,192,89711,1,0,0:0:0:0:
460,192,89711,1,0,0:0:0:0:
153,192,89874,1,0,0:0:0:0:
358,192,90037,1,0,0:0:0:0:
460,192,90037,1,0,0:0:0:0:
256,192,90200,1,0,0:0:0:0:
153,192,90363,1,0,0:0:0:0:
460,192,90526,1,0,0:0:0:0:
153,192,90689,128,0,91994:0:0:0:0:
358,192,90689,1,0,0:0:0:0:
256,192,91016,1,0,0:0:0:0:
358,192,91179,1,0,0:0:0:0:
51,192,91342,1,0,0:0:0:0:
460,192,91342,1,0,0:0:0:0:
256,192,91505,1,0,0:0:0:0:
358,192,91668,1,0,0:0:0:0:
51,192,91831,1,0,0:0:0:0:
256,192,91994,128,0,92320:0:0:0:0:
358,192,91994,128,0,92320:0:0:0:0:
460,192,91994,128,0,92646:0:0:0:0:
51,192,92320,1,0,0:0:0:0:
153,192,92320,1,0,0:0:0:0:
51,192,92646,128,0,93624:0:0:0:0:
256,192,92646,128,0,92972:0:0:0:0:
358,192,92972,1,0,0:0:0:0:
460,192,92972,1,0,0:0:0:0:
153,192,93298,128,0,93624:0:0:0:0:
256,192,93298,128,0,93624:0:0:0:0:
358,192,93624,128,0,93787:0:0:0:0:
460,192,93787,128,0,93950:0:0:0:0:
51,192,93950,1,0,0:0:0:0:
153,192,93950,128,0,94113:0:0:0:0:
256,192,94113,128,0,94276:0:0:0:0:
460,192,94276,128,0,94439:0:0:0:0:
51,192,94439,128,0,94603:0:0:0:0:
256,192,94603,128,0,94766:0:0:0:0:
358,192,94766,128,0,95092:0:0:0:0:
51,192,94929,1,0,0:0:0:0:
153,192,94929,128,0,95092:0:0:0:0:
460,192,95092,128,0,95255:0:0:0:0:
51,192,95255,128,0,95581:0:0:0:0:
256,192,95255,1,0,0:0:0:0:
153,192,95418,1,0,0:0:0:0:
358,192,95581,1,0,0:0:0:0:
460,192,95744,1,0,0:0:0:0:
153,192,95907,1,0,0:0:0:0:
256,192,95907,128,0,96233:0:0:0:0:
358,192,96233,128,0,96559:0:0:0:0:
51,192,96559,1,0,0:0:0:0:
460,192,96559,128,0,96885:0:0:0:0:
153,192,96885,128,0,97048:0:0:0:0:
256,192,97048,1,0,0:0:0:0:
51,192,97211,1,0,0:0:0:0:
358,192,97211,128,0,97537:0:0:0:0:
460,192,97374,1,0,0:0:0:0:
51,192,97537,128,0,97863:0:0:0:0:
153,192,97537,1,0,0:0:0:0:
460,192,97700,1,0,0:0:0:0:
153,192,97863,128,0,98189:0:0:0:0:
256,192,97863,1,0,0:0:0:0:
358,192,98026,1,0,0:0:0:0:
256,192,98189,128,0,98516:0:0:0:0:
460,192,98189,1,0,0:0:0:0:
51,192,98516,1,0,0:0:0:0:
358,192,98516,1,0,0:0:0:0:
460,192,98516,128,0,102429:0:0:0:0:
256,192,98842,1,0,0:0:0:0:
51,192,99168,1,0,0:0:0:0:
153,192,99168,1,0,0:0:0:0:
358,192,99494,1,0,0:0:0:0:
153,192,99820,1,0,0:0:0:0:
51,192,100146,1,0,0:0:0:0:
358,192,100146,1,0,0:0:0:0:
153,192,100472,1,0,0:0:0:0:
256,192,100472,1,0,0:0:0:0:
358,192,100798,128,0,101124:0:0:0:0:
153,192,101124,1,0,0:0:0:0:
256,192,101124,128,0,101450:0:0:0:0:
153,192,101450,128,0,101613:0:0:0:0:
51,192,101613,128,0,101776:0:0:0:0:
256,192,101776,1,0,0:0:0:0:
358,192,101776,128,0,101939:0:0:0:0:
153,192,101939,128,0,102103:0:0:0:0:
51,192,102103,128,0,102266:0:0:0:0:
358,192,102266,128,0,102429:0:0:0:0:
51,192,102429,1,0,0:0:0:0:
256,192,102429,1,0,0:0:0:0:
153,192,102592,1,0,0:0:0:0:
358,192,102755,1,0,0:0:0:0:
460,192,102755,128,0,103081:0:0:0:0:
256,192,102918,1,0,0:0:0:0:
51,192,103081,1,0,0:0:0:0:
358,192,103081,128,0,103407:0:0:0:0:
153,192,103244,1,0,0:0:0:0:
256,192,103407,128,0,103733:0:0:0:0:
460,192,103407,1,0,0:0:0:0:
153,192,103570,1,0,0:0:0:0:
51,192,103733,128,0,107646:0:0:0:0:
358,192,103733,1,0,0:0:0:0:
460,192,104059,1,0,0:0:0:0:
153,192,104385,1,0,0:0:0:0:
256,192,104385,1,0,0:0:0:0:
358,192,104711,1,0,0:0:0:0:
460,192,105037,1,0,0:0:0:0:
153,192,105363,1,0,0:0:0:0:
256,192,105363,1,0,0:0:0:0:
358,192,105689,1,0,0:0:0:0:
460,192,105689,1,0,0:0:0:0:
256,192,106016,128,0,106342:0:0:0:0:
153,192,106342,128,0,106668:0:0:0:0:
358,192,106342,1,0,0:0:0:0:
460,192,106668,128,0,106831:0:0:0:0:
358,192,106831,128,0,106994:0:0:0:0:
153,192,106994,1,0,0:0:0:0:
256,192,106994,128,0,107157:0:0:0:0:
460,192,107157,128,0,107320:0:0:0:0:
153,192,107320,128,0,107483:0:0:0:0:
358,192,107483,128,0,107646:0:0:0:0:
256,192,107646,1,0,0:0:0:0:
460,192,107646,1,0,0:0:0:0:
153,192,107809,1,0,0:0:0:0:
256,192,107972,1,0,0:0:0:0:
460,192,107972,128,0,108298:0:0:0:0:
51,192,108135,1,0,0:0:0:0:
256,192,108298,128,0,108624:0:0:0:0:
358,192,108298,1,0,0:0:0:0:
153,192,108461,1,0,0:0:0:0:
51,192,108624,128,0,108950:0:0:0:0:
460,192,108624,1,0,0:0:0:0:
153,192,108787,1,0,0:0:0:0:
358,192,108950,128,0,112863:0:0:0:0:
460,192,108950,1,0,0:0:0:0:
256,192,109276,1,0,0:0:0:0:
51,192,109603,1,0,0:0:0:0:
460,192,109603,1,0,0:0:0:0:
256,192,109929,1,0,0:0:0:0:
153,192,110255,1,0,0:0:0:0:
51,192,110581,1,0,0:0:0:0:
460,192,110581,1,0,0:0:0:0:
153,192,110907,1,0,0:0:0:0:
256,192,110907,1,0,0:0:0:0:
460,192,111233,128,0,111559:0:0:0:0:
153,192,111559,1,0,0:0:0:0:
256,192,111559,128,0,111804:0:0:0:0:
51,192,111804,128,0,112048:0:0:0:0:
153,192,112048,128,0,112211:0:0:0:0:
256,192,112211,1,0,0:0:0:0:
460,192,112211,128,0,112374:0:0:0:0:
51,192,112374,128,0,112537:0:0:0:0:
153,192,112537,128,0,112700:0:0:0:0:
460,192,112700,128,0,112863:0:0:0:0:
51,192,112863,1,0,0:0:0:0:
256,192,112863,1,0,0:0:0:0:
153,192,113026,1,0,0:0:0:0:
256,192,113189,1,0,0:0:0:0:
460,192,113189,1,0,0:0:0:0:
51,192,113353,1,0,0:0:0:0:
153,192,113516,1,0,0:0:0:0:
358,192,113516,1,0,0:0:0:0:
460,192,113516,1,0,0:0:0:0:
256,192,113679,128,0,113842:0:0:0:0:
153,192,113842,1,0,0:0:0:0:
358,192,113842,128,0,114005:0:0:0:0:
460,192,114005,128,0,114168:0:0:0:0:
51,192,114168,1,0,0:0:0:0:
256,192,114168,1,0,0:0:0:0:
358,192,114168,1,0,0:0:0:0:
153,192,114331,128,0,114657:0:0:0:0:
460,192,114494,128,0,114657:0:0:0:0:
256,192,114657,128,0,114820:0:0:0:0:
51,192,114820,1,0,0:0:0:0:
358,192,114820,1,0,0:0:0:0:
460,192,114820,1,0,0:0:0:0:
256,192,114983,128,0,115146:0:0:0:0:
153,192,115146,128,0,115309:0:0:0:0:
51,192,115309,128,0,115472:0:0:0:0:
358,192,115472,1,0,0:0:0:0:
460,192,115472,1,0,0:0:0:0:
256,192,115635,128,0,115961:0:0:0:0:
51,192,115798,128,0,115961:0:0:0:0:
460,192,115798,1,0,0:0:0:0:
358,192,115961,128,0,116124:0:0:0:0:
51,192,116124,1,0,0:0:0:0:
153,192,116124,1,0,0:0:0:0:
460,192,116124,1,0,0:0:0:0:
256,192,116287,1,0,0:0:0:0:
358,192,116450,1,0,0:0:0:0:
51,192,116613,1,0,0:0:0:0:
460,192,116613,1,0,0:0:0:0:
153,192,116776,1,0,0:0:0:0:
256,192,116776,1,0,0:0:0:0:
358,192,116776,128,0,117103:0:0:0:0:
51,192,117103,128,0,117266:0:0:0:0:
460,192,117266,128,0,117429:0:0:0:0:
51,192,117429,1,0,0:0:0:0:
153,192,117429,1,0,0:0:0:0:
358,192,117429,1,0,0:0:0:0:
256,192,117592,1,0,0:0:0:0:
51,192,117755,1,0,0:0:0:0:
460,192,117755,1,0,0:0:0:0:
153,192,117918,1,0,0:0:0:0:
358,192,117918,1,0,0:0:0:0:
51,192,118081,1,0,0:0:0:0:
256,192,118081,1,0,0:0:0:0:
460,192,118081,1,0,0:0:0:0:
358,192,118244,1,0,0:0:0:0:
153,192,118407,1,0,0:0:0:0:
256,192,118407,1,0,0:0:0:0:
51,192,118570,128,0,118733:0:0:0:0:
460,192,118570,128,0,118733:0:0:0:0:
153,192,118733,128,0,118896:0:0:0:0:
358,192,118733,128,0,119059:0:0:0:0:
51,192,118896,128,0,119059:0:0:0:0:
256,192,118896,128,0,119059:0:0:0:0:
153,192,119059,128,0,119222:0:0:0:0:
460,192,119059,128,0,119222:0:0:0:0:
256,192,119222,128,0,119385:0:0:0:0:
51,192,119385,1,4,0:0:0:0:
358,192,119385,1,0,0:0:0:0:
460,192,119385,1,0,0:0:0:0:
153,192,119548,1,0,0:0:0:0:
460,192,119711,1,0,0:0:0:0:
51,192,119874,1,0,0:0:0:0:
256,192,119874,1,0,0:0:0:0:
153,192,120037,1,0,0:0:0:0:
358,192,120037,1,0,0:0:0:0:
460,192,120037,1,0,0:0:0:0:
256,192,120200,1,0,0:0:0:0:
460,192,120363,1,0,0:0:0:0:
51,192,120526,1,0,0:0:0:0:
358,192,120526,1,0,0:0:0:0:
153,192,120689,1,0,0:0:0:0:
460,192,120853,1,0,0:0:0:0:
256,192,121016,1,0,0:0:0:0:
358,192,121016,1,0,0:0:0:0:
153,192,121179,1,0,0:0:0:0:
51,192,121342,1,0,0:0:0:0:
256,192,121342,1,0,0:0:0:0:
460,192,121342,1,0,0:0:0:0:
153,192,121505,1,0,0:0:0:0:
358,192,121668,1,0,0:0:0:0:
460,192,121831,1,0,0:0:0:0:
51,192,121994,1,0,0:0:0:0:
256,192,121994,1,0,0:0:0:0:
153,192,122157,1,0,0:0:0:0:
358,192,122320,1,0,0:0:0:0:
51,192,122483,1,0,0:0:0:0:
460,192,122483,1,0,0:0:0:0:
153,192,122646,1,0,0:0:0:0:
358,192,122646,1,0,0:0:0:0:
51,192,122809,1,0,0:0:0:0:
256,192,122809,1,0,0:0:0:0:
358,192,122972,1,0,0:0:0:0:
460,192,122972,1,0,0:0:0:0:
51,192,123135,1,0,0:0:0:0:
153,192,123135,1,0,0:0:0:0:
256,192,123298,1,0,0:0:0:0:
460,192,123461,1,0,0:0:0:0:
153,192,123624,1,0,0:0:0:0:
358,192,123624,1,0,0:0:0:0:
256,192,123787,1,0,0:0:0:0:
51,192,123950,1,0,0:0:0:0:
358,192,123950,1,0,0:0:0:0:
460,192,123950,1,0,0:0:0:0:
256,192,124113,1,0,0:0:0:0:
51,192,124276,1,0,0:0:0:0:
460,192,124276,1,0,0:0:0:0:
153,192,124358,1,0,0:0:0:0:
256,192,124439,1,0,0:0:0:0:
358,192,124521,1,0,0:0:0:0:
51,192,124603,1,0,0:0:0:0:
153,192,124603,1,0,0:0:0:0:
460,192,124603,1,0,0:0:0:0:
358,192,124766,1,0,0:0:0:0:
51,192,124929,1,0,0:0:0:0:
256,192,125092,1,0,0:0:0:0:
460,192,125092,1,0,0:0:0:0:
51,192,125255,1,0,0:0:0:0:
153,192,125255,1,0,0:0:0:0:
358,192,125255,1,0,0:0:0:0:
256,192,125418,1,0,0:0:0:0:
51,192,125581,1,0,0:0:0:0:
153,192,125744,1,0,0:0:0:0:
358,192,125744,1,0,0:0:0:0:
256,192,125907,1,0,0:0:0:0:
358,192,126070,1,0,0:0:0:0:
153,192,126233,1,0,0:0:0:0:
460,192,126233,1,0,0:0:0:0:
256,192,126396,1,0,0:0:0:0:
51,192,126559,1,0,0:0:0:0:
358,192,126559,1,0,0:0:0:0:
460,192,126559,1,0,0:0:0:0:
153,192,126722,1,0,0:0:0:0:
358,192,126885,1,0,0:0:0:0:
256,192,127048,1,0,0:0:0:0:
51,192,127211,1,0,0:0:0:0:
153,192,127211,1,0,0:0:0:0:
460,192,127211,1,0,0:0:0:0:
358,192,127374,1,0,0:0:0:0:
256,192,127537,1,0,0:0:0:0:
51,192,127700,1,0,0:0:0:0:
153,192,127700,1,0,0:0:0:0:
51,192,127863,1,0,0:0:0:0:
358,192,127863,1,0,0:0:0:0:
460,192,127863,1,0,0:0:0:0:
153,192,128026,1,0,0:0:0:0:
460,192,128189,1,0,0:0:0:0:
153,192,128353,1,0,0:0:0:0:
358,192,128353,1,0,0:0:0:0:
256,192,128516,1,0,0:0:0:0:
51,192,128679,1,0,0:0:0:0:
153,192,128842,1,0,0:0:0:0:
460,192,128842,1,0,0:0:0:0:
51,192,129168,1,0,0:0:0:0:
256,192,129168,1,0,0:0:0:0:
460,192,129168,1,0,0:0:0:0:
358,192,129331,1,0,0:0:0:0:
153,192,129494,1,0,0:0:0:0:
256,192,129494,1,0,0:0:0:0:
51,192,129575,1,0,0:0:0:0:
358,192,129657,1,0,0:0:0:0:
256,192,129738,1,0,0:0:0:0:
51,192,129820,1,0,0:0:0:0:
153,192,129820,1,0,0:0:0:0:
460,192,129820,1,0,0:0:0:0:
358,192,129983,1,0,0:0:0:0:
51,192,130146,1,0,0:0:0:0:
153,192,130309,1,0,0:0:0:0:
256,192,130309,1,0,0:0:0:0:
51,192,130472,1,0,0:0:0:0:
358,192,130472,1,0,0:0:0:0:
460,192,130472,1,0,0:0:0:0:
256,192,130635,1,0,0:0:0:0:
460,192,130798,1,0,0:0:0:0:
51,192,130961,1,0,0:0:0:0:
153,192,130961,1,0,0:0:0:0:
358,192,131124,1,0,0:0:0:0:
256,192,131287,1,0,0:0:0:0:
51,192,131450,1,0,0:0:0:0:
460,192,131450,1,0,0:0:0:0:
153,192,131613,1,0,0:0:0:0:
51,192,131776,1,0,0:0:0:0:
256,192,131776,128,0,132103:0:0:0:0:
460,192,131776,1,0,0:0:0:0:
153,192,132103,1,0,0:0:0:0:
358,192,132266,1,0,0:0:0:0:
51,192,132429,1,0,0:0:0:0:
460,192,132429,1,0,0:0:0:0:
256,192,132592,1,0,0:0:0:0:
153,192,132755,1,0,0:0:0:0:
358,192,132918,1,0,0:0:0:0:
460,192,132918,1,0,0:0:0:0:
51,192,133081,1,0,0:0:0:0:
256,192,133081,1,0,0:0:0:0:
460,192,133081,1,0,0:0:0:0:
153,192,133244,1,0,0:0:0:0:
256,192,133407,1,0,0:0:0:0:
358,192,133570,1,0,0:0:0:0:
460,192,133570,1,0,0:0:0:0:
51,192,133733,1,0,0:0:0:0:
256,192,133896,1,0,0:0:0:0:
153,192,134059,1,0,0:0:0:0:
460,192,134059,1,0,0:0:0:0:
358,192,134222,1,0,0:0:0:0:
51,192,134385,1,0,0:0:0:0:
256,192,134385,128,0,134711:0:0:0:0:
460,192,134711,1,0,0:0:0:0:
358,192,134793,1,0,0:0:0:0:
256,192,134874,1,0,0:0:0:0:
153,192,134956,1,0,0:0:0:0:
51,192,135037,1,0,0:0:0:0:
358,192,135037,1,0,0:0:0:0:
460,192,135037,1,0,0:0:0:0:
256,192,135200,1,0,0:0:0:0:
460,192,135363,1,0,0:0:0:0:
51,192,135526,1,0,0:0:0:0:
153,192,135526,1,0,0:0:0:0:
51,192,135689,1,0,0:0:0:0:
358,192,135689,1,0,0:0:0:0:
460,192,135689,1,0,0:0:0:0:
256,192,135853,1,0,0:0:0:0:
153,192,136016,1,0,0:0:0:0:
51,192,136179,1,0,0:0:0:0:
460,192,136179,1,0,0:0:0:0:
256,192,136342,1,0,0:0:0:0:
358,192,136505,1,0,0:0:0:0:
153,192,136668,1,0,0:0:0:0:
460,192,136668,1,0,0:0:0:0:
256,192,136831,1,0,0:0:0:0:
51,192,136994,1,0,0:0:0:0:
358,192,136994,1,0,0:0:0:0:
460,192,136994,1,0,0:0:0:0:
256,192,137157,1,0,0:0:0:0:
153,192,137320,1,0,0:0:0:0:
460,192,137483,1,0,0:0:0:0:
51,192,137646,1,0,0:0:0:0:
358,192,137646,1,0,0:0:0:0:
256,192,137809,1,0,0:0:0:0:
51,192,137972,1,0,0:0:0:0:
153,192,138135,1,0,0:0:0:0:
460,192,138135,1,0,0:0:0:0:
51,192,138298,1,0,0:0:0:0:
358,192,138298,1,0,0:0:0:0:
460,192,138298,1,0,0:0:0:0:
153,192,138461,1,0,0:0:0:0:
256,192,138624,1,0,0:0:0:0:
358,192,138787,1,0,0:0:0:0:
460,192,138787,1,0,0:0:0:0:
51,192,138950,1,0,0:0:0:0:
153,192,138950,1,0,0:0:0:0:
256,192,139113,1,0,0:0:0:0:
358,192,139276,1,0,0:0:0:0:
460,192,139276,1,0,0:0:0:0:
153,192,139439,1,0,0:0:0:0:
51,192,139603,1,0,0:0:0:0:
256,192,139603,1,0,0:0:0:0:
460,192,139603,1,0,0:0:0:0:
358,192,139766,1,0,0:0:0:0:
51,192,139929,1,0,0:0:0:0:
256,192,139929,1,0,0:0:0:0:
358,192,140010,1,0,0:0:0:0:
153,192,140092,1,0,0:0:0:0:
256,192,140173,1,0,0:0:0:0:
51,192,140255,128,4,140581:0:0:0:0:
358,192,140255,1,0,0:0:0:0:
460,192,140255,1,0,0:0:0:0:
153,192,140418,1,0,0:0:0:0:
256,192,140581,1,0,0:0:0:0:
358,192,140744,1,0,0:0:0:0:
460,192,140744,1,0,0:0:0:0:
51,192,140907,1,0,0:0:0:0:
256,192,140907,128,0,141233:0:0:0:0:
460,192,141070,1,0,0:0:0:0:
153,192,141233,128,0,141396:0:0:0:0:
358,192,141396,128,0,141559:0:0:0:0:
256,192,141559,128,0,141722:0:0:0:0:
51,192,141722,128,0,141885:0:0:0:0:
358,192,141885,1,0,0:0:0:0:
460,192,141885,128,0,142048:0:0:0:0:
153,192,142048,128,0,142211:0:0:0:0:
256,192,142211,128,0,142537:0:0:0:0:
460,192,142211,1,0,0:0:0:0:
358,192,142374,128,0,142537:0:0:0:0:
51,192,142537,128,0,142700:0:0:0:0:
460,192,142700,128,0,142863:0:0:0:0:
51,192,142863,1,0,0:0:0:0:
256,192,142863,128,0,143026:0:0:0:0:
153,192,143026,128,0,143189:0:0:0:0:
358,192,143189,128,0,143353:0:0:0:0:
51,192,143353,128,0,143516:0:0:0:0:
460,192,143353,1,0,0:0:0:0:
153,192,143516,128,0,143842:0:0:0:0:
256,192,143516,1,0,0:0:0:0:
460,192,143679,1,0,0:0:0:0:
256,192,143842,128,0,144005:0:0:0:0:
358,192,143842,1,0,0:0:0:0:
51,192,144005,128,0,144168:0:0:0:0:
153,192,144168,1,0,0:0:0:0:
460,192,144168,128,0,144494:0:0:0:0:
256,192,144331,1,0,0:0:0:0:
51,192,144494,1,0,0:0:0:0:
358,192,144494,1,0,0:0:0:0:
153,192,144657,1,0,0:0:0:0:
51,192,144820,1,0,0:0:0:0:
460,192,144820,1,0,0:0:0:0:
358,192,144983,1,0,0:0:0:0:
51,192,145146,1,0,0:0:0:0:
256,192,145146,1,0,0:0:0:0:
358,192,145228,1,0,0:0:0:0:
153,192,145309,1,0,0:0:0:0:
256,192,145391,1,0,0:0:0:0:
51,192,145472,1,0,0:0:0:0:
358,192,145472,1,0,0:0:0:0:
460,192,145472,1,0,0:0:0:0:
256,192,145635,1,0,0:0:0:0:
153,192,145798,1,0,0:0:0:0:
358,192,145961,1,0,0:0:0:0:
51,192,146124,1,0,0:0:0:0:
256,192,146124,1,0,0:0:0:0:
460,192,146124,1,0,0:0:0:0:
358,192,146287,1,0,0:0:0:0:
51,192,146450,1,0,0:0:0:0:
153,192,146613,1,0,0:0:0:0:
256,192,146776,1,0,0:0:0:0:
460,192,146939,1,0,0:0:0:0:
51,192,147103,1,0,0:0:0:0:
358,192,147103,1,0,0:0:0:0:
256,192,147266,1,0,0:0:0:0:
51,192,147429,1,0,0:0:0:0:
153,192,147429,1,0,0:0:0:0:
460,192,147429,1,0,0:0:0:0:
358,192,147592,1,0,0:0:0:0:
256,192,147755,1,0,0:0:0:0:
51,192,148081,1,0,0:0:0:0:
358,192,148081,1,0,0:0:0:0:
460,192,148081,1,0,0:0:0:0:
153,192,148244,1,0,0:0:0:0:
256,192,148407,1,0,0:0:0:0:
51,192,148570,1,0,0:0:0:0:
358,192,148570,1,0,0:0:0:0:
153,192,148733,1,0,0:0:0:0:
460,192,148733,1,0,0:0:0:0:
358,192,148896,1,0,0:0:0:0:
51,192,149059,1,0,0:0:0:0:
256,192,149059,1,0,0:0:0:0:
460,192,149222,1,0,0:0:0:0:
153,192,149385,1,0,0:0:0:0:
256,192,149548,1,0,0:0:0:0:
51,192,149711,1,0,0:0:0:0:
358,192,149711,1,0,0:0:0:0:
256,192,149874,1,0,0:0:0:0:
51,192,150037,1,0,0:0:0:0:
153,192,150037,1,0,0:0:0:0:
460,192,150037,1,0,0:0:0:0:
358,192,150200,1,0,0:0:0:0:
153,192,150363,1,0,0:0:0:0:
256,192,150363,1,0,0:0:0:0:
51,192,150445,1,0,0:0:0:0:
358,192,150526,1,0,0:0:0:0:
256,192,150608,1,0,0:0:0:0:
51,192,150689,1,0,0:0:0:0:
153,192,150689,1,0,0:0:0:0:
460,192,150689,128,0,151016:0:0:0:0:
358,192,150853,1,0,0:0:0:0:
51,192,151016,1,0,0:0:0:0:
256,192,151179,128,0,151342:0:0:0:0:
460,192,151179,1,0,0:0:0:0:
51,192,151342,1,0,0:0:0:0:
153,192,151342,128,0,151505:0:0:0:0:
358,192,151505,128,0,151668:0:0:0:0:
51,192,151668,128,0,151831:0:0:0:0:
460,192,151668,1,0,0:0:0:0:
256,192,151831,128,0,151994:0:0:0:0:
358,192,151994,128,0,152320:0:0:0:0:
460,192,152157,1,0,0:0:0:0:
51,192,152320,128,0,152483:0:0:0:0:
153,192,152320,1,0,0:0:0:0:
256,192,152483,128,0,152646:0:0:0:0:
358,192,152646,128,0,152972:0:0:0:0:
460,192,152646,1,0,0:0:0:0:
153,192,152809,128,0,152972:0:0:0:0:
51,192,152972,128,0,153135:0:0:0:0:
256,192,153135,128,0,153298:0:0:0:0:
51,192,153298,1,0,0:0:0:0:
153,192,153298,128,0,153461:0:0:0:0:
460,192,153461,128,0,153624:0:0:0:0:
358,192,153624,128,0,153787:0:0:0:0:
51,192,153787,128,0,153950:0:0:0:0:
256,192,153787,1,0,0:0:0:0:
153,192,153950,128,0,154276:0:0:0:0:
460,192,153950,1,0,0:0:0:0:
358,192,154113,1,0,0:0:0:0:
51,192,154276,1,0,0:0:0:0:
256,192,154276,128,0,154439:0:0:0:0:
460,192,154439,128,0,154603:0:0:0:0:
51,192,154603,128,0,154929:0:0:0:0:
358,192,154603,1,0,0:0:0:0:
256,192,154766,1,0,0:0:0:0:
153,192,154929,1,0,0:0:0:0:
460,192,154929,1,0,0:0:0:0:
358,192,155092,1,0,0:0:0:0:
51,192,155255,1,0,0:0:0:0:
256,192,155255,1,0,0:0:0:0:
358,192,155418,1,0,0:0:0:0:
51,192,155581,1,0,0:0:0:0:
460,192,155581,1,0,0:0:0:0:
153,192,155662,1,0,0:0:0:0:
256,192,155744,1,0,0:0:0:0:
358,192,155825,1,0,0:0:0:0:
51,192,155907,128,0,156559:0:0:0:0:
153,192,155907,1,0,0:0:0:0:
460,192,155907,1,0,0:0:0:0:
358,192,156070,1,0,0:0:0:0:
153,192,156233,1,0,0:0:0:0:
460,192,156396,1,0,0:0:0:0:
256,192,156559,1,0,0:0:0:0:
358,192,156559,1,0,0:0:0:0:
153,192,156722,1,0,0:0:0:0:
460,192,156885,1,0,0:0:0:0:
256,192,157048,1,0,0:0:0:0:
51,192,157211,1,0,0:0:0:0:
460,192,157211,128,0,157863:0:0:0:0:
358,192,157374,1,0,0:0:0:0:
51,192,157537,1,0,0:0:0:0:
256,192,157537,1,0,0:0:0:0:
153,192,157700,1,0,0:0:0:0:
256,192,157863,1,0,0:0:0:0:
358,192,157863,1,0,0:0:0:0:
51,192,158026,1,0,0:0:0:0:
460,192,158189,1,0,0:0:0:0:
51,192,158353,1,0,0:0:0:0:
153,192,158516,128,4,158842:0:0:0:0:
256,192,158516,128,0,159331:0:0:0:0:
358,192,158516,128,0,158842:0:0:0:0:
51,192,159005,1,4,0:0:0:0:
153,192,159005,128,0,159657:0:0:0:0:
358,192,159005,128,0,159331:0:0:0:0:
256,192,159494,128,4,159657:0:0:0:0:
358,192,159494,128,0,161776:0:0:0:0:
460,192,159494,1,0,0:0:0:0:
51,192,159820,1,4,0:0:0:0:
153,192,159820,128,0,161124:0:0:0:0:
256,192,159820,128,0,162429:0:0:0:0:
153,192,161776,128,0,162429:0:0:0:0:
51,192,162429,1,4,0:0:0:0:
358,192,162429,1,0,0:0:0:0:
460,192,162429,128,0,163733:0:0:0:0:
256,192,162755,1,0,0:0:0:0:
153,192,162918,1,0,0:0:0:0:
51,192,163081,1,0,0:0:0:0:
358,192,163081,1,0,0:0:0:0:
256,192,163244,1,0,0:0:0:0:
51,192,163407,1,0,0:0:0:0:
358,192,163570,1,0,0:0:0:0:
51,192,163733,128,0,165037:0:0:0:0:
153,192,163733,1,0,0:0:0:0:
256,192,164059,1,0,0:0:0:0:
460,192,164059,1,0,0:0:0:0:
358,192,164222,1,0,0:0:0:0:
153,192,164385,1,0,0:0:0:0:
256,192,164385,1,0,0:0:0:0:
358,192,164548,1,0,0:0:0:0:
460,192,164711,1,0,0:0:0:0:
153,192,164874,1,0,0:0:0:0:
256,192,165037,128,0,166342:0:0:0:0:
358,192,165037,1,0,0:0:0:0:
460,192,165363,1,0,0:0:0:0:
51,192,165526,1,0,0:0:0:0:
358,192,165689,1,0,0:0:0:0:
460,192,165689,1,0,0:0:0:0:
153,192,165853,1,0,0:0:0:0:
460,192,166016,1,0,0:0:0:0:
51,192,166179,1,0,0:0:0:0:
153,192,166342,1,0,0:0:0:0:
358,192,166342,128,0,166994:0:0:0:0:
51,192,166668,1,0,0:0:0:0:
460,192,166668,1,0,0:0:0:0:
256,192,166831,1,0,0:0:0:0:
153,192,166994,128,0,167646:0:0:0:0:
460,192,166994,1,0,0:0:0:0:
51,192,167320,1,0,0:0:0:0:
256,192,167320,1,0,0:0:0:0:
358,192,167646,1,0,0:0:0:0:
460,192,167646,128,0,167972:0:0:0:0:
256,192,167972,128,0,168298:0:0:0:0:
153,192,168135,128,0,168298:0:0:0:0:
358,192,168298,128,0,168461:0:0:0:0:
460,192,168298,1,0,0:0:0:0:
51,192,168461,128,0,168624:0:0:0:0:
460,192,168624,128,0,168787:0:0:0:0:
256,192,168787,128,0,168950:0:0:0:0:
153,192,168950,128,0,169113:0:0:0:0:
460,192,169113,128,0,169439:0:0:0:0:
51,192,169276,1,0,0:0:0:0:
358,192,169276,128,0,169439:0:0:0:0:
256,192,169439,128,0,169603:0:0:0:0:
153,192,169603,128,0,169929:0:0:0:0:
460,192,169603,1,0,0:0:0:0:
358,192,169766,1,0,0:0:0:0:
51,192,169929,1,0,0:0:0:0:
256,192,170092,1,0,0:0:0:0:
153,192,170255,1,0,0:0:0:0:
358,192,170255,128,0,170581:0:0:0:0:
256,192,170581,128,0,170907:0:0:0:0:
51,192,170907,1,0,0:0:0:0:
460,192,170907,128,0,171233:0:0:0:0:
153,192,171233,128,0,171396:0:0:0:0:
358,192,171396,1,0,0:0:0:0:
51,192,171559,128,0,172211:0:0:0:0:
256,192,171559,1,0,0:0:0:0:
358,192,171722,1,0,0:0:0:0:
153,192,171885,1,0,0:0:0:0:
256,192,171885,1,0,0:0:0:0:
460,192,172048,1,0,0:0:0:0:
256,192,172211,1,0,0:0:0:0:
358,192,172211,1,0,0:0:0:0:
153,192,172374,1,0,0:0:0:0:
51,192,172537,1,0,0:0:0:0:
460,192,172537,1,0,0:0:0:0:
256,192,172700,1,0,0:0:0:0:
51,192,172863,1,0,0:0:0:0:
153,192,172863,128,0,174168:0:0:0:0:
460,192,172863,1,0,0:0:0:0:
358,192,173189,1,0,0:0:0:0:
51,192,173353,1,0,0:0:0:0:
358,192,173516,1,0,0:0:0:0:
460,192,173516,1,0,0:0:0:0:
256,192,173679,1,0,0:0:0:0:
51,192,173842,1,0,0:0:0:0:
358,192,174005,1,0,0:0:0:0:
256,192,174168,1,0,0:0:0:0:
460,192,174168,128,0,175472:0:0:0:0:
51,192,174494,1,0,0:0:0:0:
256,192,174494,1,0,0:0:0:0:
358,192,174657,1,0,0:0:0:0:
51,192,174820,1,0,0:0:0:0:
153,192,174820,1,0,0:0:0:0:
256,192,174983,1,0,0:0:0:0:
358,192,175146,1,0,0:0:0:0:
51,192,175309,1,0,0:0:0:0:
153,192,175472,1,0,0:0:0:0:
358,192,175472,128,0,176776:0:0:0:0:
256,192,175798,1,0,0:0:0:0:
153,192,175961,1,0,0:0:0:0:
51,192,176124,1,0,0:0:0:0:
460,192,176124,1,0,0:0:0:0:
153,192,176287,1,0,0:0:0:0:
256,192,176450,1,0,0:0:0:0:
460,192,176613,1,0,0:0:0:0:
51,192,176776,128,0,177755:0:0:0:0:
153,192,176776,128,0,177103:0:0:0:0:
256,192,176776,1,0,0:0:0:0:
358,192,177103,1,0,0:0:0:0:
460,192,177103,1,0,0:0:0:0:
256,192,177429,128,0,177755:0:0:0:0:
460,192,177429,128,0,178407:0:0:0:0:
153,192,177755,1,0,0:0:0:0:
358,192,177755,1,0,0:0:0:0:
51,192,178081,128,0,178407:0:0:0:0:
256,192,178081,128,0,178407:0:0:0:0:
358,192,178407,128,0,178570:0:0:0:0:
153,192,178570,128,0,178733:0:0:0:0:
51,192,178733,1,0,0:0:0:0:
256,192,178733,128,0,178896:0:0:0:0:
460,192,178896,128,0,179059:0:0:0:0:
51,192,179059,128,0,179222:0:0:0:0:
256,192,179222,128,0,179385:0:0:0:0:
358,192,179385,128,0,179548:0:0:0:0:
153,192,179548,128,0,179874:0:0:0:0:
51,192,179711,128,0,179874:0:0:0:0:
460,192,179711,1,0,0:0:0:0:
256,192,179874,128,0,180037:0:0:0:0:
358,192,180037,1,0,0:0:0:0:
460,192,180037,128,0,180363:0:0:0:0:
51,192,180200,1,0,0:0:0:0:
256,192,180363,1,0,0:0:0:0:
153,192,180526,128,0,180689:0:0:0:0:
51,192,180689,1,0,0:0:0:0:
256,192,180689,128,0,183298:0:0:0:0:
460,192,180689,1,0,0:0:0:0:
358,192,181994,128,0,183298:0:0:0:0:
51,192,183298,1,4,0:0:0:0:
153,192,183298,1,0,0:0:0:0:
460,192,183298,1,0,0:0:0:0:
153,192,183624,128,0,183950:0:0:0:0:
358,192,183624,1,0,0:0:0:0:
51,192,183950,1,0,0:0:0:0:
256,192,183950,128,0,184276:0:0:0:0:
460,192,184276,1,0,0:0:0:0:
51,192,184439,128,0,184929:0:0:0:0:
153,192,184603,1,0,0:0:0:0:
256,192,184929,128,0,185255:0:0:0:0:
460,192,184929,1,0,0:0:0:0:
153,192,185255,1,0,0:0:0:0:
358,192,185255,128,0,185581:0:0:0:0:
256,192,185581,1,0,0:0:0:0:
51,192,185907,1,0,0:0:0:0:
256,192,185907,128,0,186396:0:0:0:0:
153,192,186233,1,0,0:0:0:0:
358,192,186396,128,0,187863:0:0:0:0:
51,192,186559,1,0,0:0:0:0:
460,192,186559,1,0,0:0:0:0:
256,192,186885,1,0,0:0:0:0:
51,192,187211,1,0,0:0:0:0:
153,192,187211,1,0,0:0:0:0:
256,192,187537,1,0,0:0:0:0:
460,192,187537,1,0,0:0:0:0:
51,192,187863,1,0,0:0:0:0:
256,192,187863,1,0,0:0:0:0:
256,192,188189,1,0,0:0:0:0:
460,192,188189,1,0,0:0:0:0:
153,192,188271,1,0,0:0:0:0:
358,192,188353,1,0,0:0:0:0:
256,192,188434,1,0,0:0:0:0:
51,192,188516,1,0,0:0:0:0:
153,192,188516,1,0,0:0:0:0:
460,192,188516,1,0,0:0:0:0:
358,192,188842,1,0,0:0:0:0:
51,192,189168,1,0,0:0:0:0:
256,192,189168,1,0,0:0:0:0:
153,192,189494,1,0,0:0:0:0:
358,192,189820,1,0,0:0:0:0:
51,192,190146,128,0,190472:0:0:0:0:
153,192,190146,1,0,0:0:0:0:
153,192,190472,128,0,190798:0:0:0:0:
256,192,190472,1,0,0:0:0:0:
256,192,190798,128,0,191124:0:0:0:0:
358,192,190798,1,0,0:0:0:0:
51,192,191124,1,0,0:0:0:0:
460,192,191124,1,0,0:0:0:0:
256,192,191450,1,0,0:0:0:0:
51,192,191776,1,0,0:0:0:0:
460,192,191776,1,0,0:0:0:0:
256,192,192103,1,0,0:0:0:0:
358,192,192429,1,0,0:0:0:0:
153,192,192755,1,0,0:0:0:0:
256,192,192755,1,0,0:0:0:0:
51,192,193081,1,0,0:0:0:0:
460,192,193081,1,0,0:0:0:0:
51,192,193407,1,0,0:0:0:0:
256,192,193407,1,0,0:0:0:0:
358,192,193488,1,0,0:0:0:0:
153,192,193570,1,0,0:0:0:0:
256,192,193651,1,0,0:0:0:0:
51,192,193733,1,0,0:0:0:0:
358,192,193733,1,0,0:0:0:0:
460,192,193733,1,0,0:0:0:0:
153,192,193896,1,0,0:0:0:0:
256,192,194059,1,0,0:0:0:0:
358,192,194222,1,0,0:0:0:0:
460,192,194222,1,0,0:0:0:0:
51,192,194385,1,0,0:0:0:0:
256,192,194385,1,0,0:0:0:0:
460,192,194385,1,0,0:0:0:0:
358,192,194548,1,0,0:0:0:0:
153,192,194711,1,0,0:0:0:0:
358,192,194874,1,0,0:0:0:0:
460,192,194874,1,0,0:0:0:0:
256,192,195037,1,0,0:0:0:0:
51,192,195200,1,0,0:0:0:0:
256,192,195363,1,0,0:0:0:0:
460,192,195363,1,0,0:0:0:0:
153,192,195526,1,0,0:0:0:0:
51,192,195689,1,0,0:0:0:0:
358,192,195689,1,0,0:0:0:0:
460,192,195853,1,0,0:0:0:0:
153,192,196016,1,0,0:0:0:0:
51,192,196179,1,0,0:0:0:0:
153,192,196342,128,4,196505:0:0:0:0:
256,192,196342,128,0,196831:0:0:0:0:
358,192,196342,128,0,196505:0:0:0:0:
153,192,196668,128,4,196831:0:0:0:0:
358,192,196668,128,0,197157:0:0:0:0:
51,192,196994,128,0,197157:0:0:0:0:
256,192,196994,128,0,197972:0:0:0:0:
153,192,197320,128,4,197646:0:0:0:0:
358,192,197320,128,0,197646:0:0:0:0:
460,192,197320,1,0,0:0:0:0:
153,192,197972,1,0,0:0:0:0:
460,192,197972,128,0,198298:0:0:0:0:
51,192,198298,1,0,0:0:0:0:
358,192,198298,1,0,0:0:0:0:
51,192,198624,1,0,0:0:0:0:
153,192,198706,1,0,0:0:0:0:
256,192,198787,1,0,0:0:0:0:
358,192,198869,1,0,0:0:0:0:
51,192,198950,128,0,199603:0:0:0:0:
460,192,198950,1,0,0:0:0:0:
153,192,199113,1,0,0:0:0:0:
460,192,199276,1,0,0:0:0:0:
256,192,199439,1,0,0:0:0:0:
358,192,199439,1,0,0:0:0:0:
153,192,199603,1,0,0:0:0:0:
460,192,199603,1,0,0:0:0:0:
256,192,199766,1,0,0:0:0:0:
358,192,199929,1,0,0:0:0:0:
51,192,200092,1,0,0:0:0:0:
153,192,200092,1,0,0:0:0:0:
358,192,200255,1,0,0:0:0:0:
460,192,200255,128,0,200907:0:0:0:0:
153,192,200418,1,0,0:0:0:0:
51,192,200581,1,0,0:0:0:0:
256,192,200581,1,0,0:0:0:0:
358,192,200744,1,0,0:0:0:0:
153,192,200907,1,0,0:0:0:0:
256,192,200907,1,0,0:0:0:0:
51,192,201070,1,0,0:0:0:0:
460,192,201233,1,0,0:0:0:0:
51,192,201396,1,0,0:0:0:0:
256,192,201559,128,0,202700:0:0:0:0:
358,192,201559,1,0,0:0:0:0:
153,192,201885,128,0,202048:0:0:0:0:
358,192,202048,128,0,202374:0:0:0:0:
51,192,202374,128,0,202700:0:0:0:0:
460,192,202700,128,0,204168:0:0:0:0:
358,192,202863,128,0,204168:0:0:0:0:
51,192,204168,128,0,204983:0:0:0:0:
153,192,204168,128,0,204983:0:0:0:0:
256,192,204168,128,0,205309:0:0:0:0:
51,192,205146,128,0,205635:0:0:0:0:
153,192,205146,128,0,205309:0:0:0:0:
153,192,205472,128,0,206043:0:0:0:0:
256,192,205472,128,0,205635:0:0:0:0:
256,192,205880,128,0,206776:0:0:0:0:
358,192,205880,128,0,206043:0:0:0:0:
358,192,206233,128,0,206776:0:0:0:0:
460,192,206233,128,0,206396:0:0:0:0:
51,192,206573,128,0,206776:0:0:0:0:
153,192,206573,128,0,208081:0:0:0:0:
256,192,206939,128,0,207429:0:0:0:0:
358,192,206939,128,0,207429:0:0:0:0:
460,192,207429,128,0,207755:0:0:0:0:
256,192,207755,128,0,208081:0:0:0:0:
51,192,208081,1,4,0:0:0:0:
358,192,208081,1,0,0:0:0:0:
460,192,208081,128,0,209385:0:0:0:0:
256,192,208407,1,0,0:0:0:0:
153,192,208570,1,0,0:0:0:0:
51,192,208733,1,0,0:0:0:0:
358,192,208733,1,0,0:0:0:0:
256,192,208896,1,0,0:0:0:0:
51,192,209059,1,0,0:0:0:0:
358,192,209222,1,0,0:0:0:0:
51,192,209385,128,0,210689:0:0:0:0:
153,192,209385,1,0,0:0:0:0:
256,192,209711,1,0,0:0:0:0:
460,192,209711,1,0,0:0:0:0:
358,192,209874,1,0,0:0:0:0:
153,192,210037,1,0,0:0:0:0:
256,192,210037,1,0,0:0:0:0:
358,192,210200,1,0,0:0:0:0:
460,192,210363,1,0,0:0:0:0:
153,192,210526,1,0,0:0:0:0:
256,192,210689,128,0,211994:0:0:0:0:
358,192,210689,1,0,0:0:0:0:
460,192,211016,1,0,0:0:0:0:
51,192,211179,1,0,0:0:0:0:
358,192,211342,1,0,0:0:0:0:
460,192,211342,1,0,0:0:0:0:
153,192,211505,1,0,0:0:0:0:
460,192,211668,1,0,0:0:0:0:
51,192,211831,1,0,0:0:0:0:
153,192,211994,1,0,0:0:0:0:
358,192,211994,128,0,212646:0:0:0:0:
51,192,212320,1,0,0:0:0:0:
460,192,212320,1,0,0:0:0:0:
256,192,212483,1,0,0:0:0:0:
153,192,212646,128,0,213298:0:0:0:0:
460,192,212646,1,0,0:0:0:0:
51,192,212972,1,0,0:0:0:0:
256,192,212972,1,0,0:0:0:0:
358,192,213298,1,0,0:0:0:0:
460,192,213298,128,0,213624:0:0:0:0:
51,192,213624,128,0,213950:0:0:0:0:
153,192,213787,128,0,213950:0:0:0:0:
256,192,213950,128,0,214113:0:0:0:0:
358,192,213950,1,0,0:0:0:0:
460,192,214113,128,0,214276:0:0:0:0:
153,192,214276,128,0,214439:0:0:0:0:
256,192,214439,128,0,214603:0:0:0:0:
51,192,214603,128,0,214766:0:0:0:0:
460,192,214766,128,0,215092:0:0:0:0:
153,192,214929,1,0,0:0:0:0:
358,192,214929,128,0,215092:0:0:0:0:
256,192,215092,128,0,215255:0:0:0:0:
51,192,215255,1,0,0:0:0:0:
153,192,215255,128,0,215581:0:0:0:0:
358,192,215418,1,0,0:0:0:0:
460,192,215581,1,0,0:0:0:0:
256,192,215744,1,0,0:0:0:0:
51,192,215907,128,0,216233:0:0:0:0:
153,192,215907,1,0,0:0:0:0:
153,192,216233,128,0,216559:0:0:0:0:
358,192,216559,128,0,216885:0:0:0:0:
460,192,216559,1,0,0:0:0:0:
460,192,216885,128,0,217048:0:0:0:0:
256,192,217048,1,0,0:0:0:0:
51,192,217211,128,0,217863:0:0:0:0:
153,192,217211,1,0,0:0:0:0:
358,192,217374,1,0,0:0:0:0:
153,192,217537,1,0,0:0:0:0:
256,192,217537,1,0,0:0:0:0:
460,192,217700,1,0,0:0:0:0:
256,192,217863,1,0,0:0:0:0:
358,192,217863,1,0,0:0:0:0:
153,192,218026,1,0,0:0:0:0:
51,192,218189,1,0,0:0:0:0:
460,192,218189,1,0,0:0:0:0:
256,192,218353,1,0,0:0:0:0:
51,192,218516,1,0,0:0:0:0:
358,192,218516,128,0,219820:0:0:0:0:
460,192,218516,1,0,0:0:0:0:
153,192,218842,1,0,0:0:0:0:
460,192,219005,1,0,0:0:0:0:
51,192,219168,1,0,0:0:0:0:
153,192,219168,1,0,0:0:0:0:
256,192,219331,1,0,0:0:0:0:
460,192,219494,1,0,0:0:0:0:
153,192,219657,1,0,0:0:0:0:
51,192,219820,128,0,221124:0:0:0:0:
256,192,219820,1,0,0:0:0:0:
256,192,220146,1,0,0:0:0:0:
460,192,220146,1,0,0:0:0:0:
153,192,220309,1,0,0:0:0:0:
358,192,220472,1,0,0:0:0:0:
460,192,220472,1,0,0:0:0:0:
256,192,220635,1,0,0:0:0:0:
153,192,220798,1,0,0:0:0:0:
460,192,220961,1,0,0:0:0:0:
153,192,221124,1,0,0:0:0:0:
358,192,221124,128,0,222429:0:0:0:0:
256,192,221450,1,0,0:0:0:0:
51,192,221613,1,0,0:0:0:0:
153,192,221776,1,0,0:0:0:0:
460,192,221776,1,0,0:0:0:0:
256,192,221939,1,0,0:0:0:0:
153,192,222103,1,0,0:0:0:0:
460,192,222266,1,0,0:0:0:0:
51,192,222429,128,0,223081:0:0:0:0:
153,192,222429,128,0,222755:0:0:0:0:
256,192,222429,128,0,222755:0:0:0:0:
358,192,222755,1,0,0:0:0:0:
460,192,222755,1,0,0:0:0:0:
256,192,223081,128,0,223407:0:0:0:0:
460,192,223081,128,0,224059:0:0:0:0:
51,192,223407,1,0,0:0:0:0:
153,192,223407,1,0,0:0:0:0:
256,192,223733,128,0,224059:0:0:0:0:
358,192,223733,128,0,224059:0:0:0:0:
153,192,224059,128,0,224222:0:0:0:0:
51,192,224222,128,0,224385:0:0:0:0:
358,192,224385,128,0,224548:0:0:0:0:
460,192,224385,1,0,0:0:0:0:
256,192,224548,128,0,224711:0:0:0:0:
460,192,224711,128,0,224874:0:0:0:0:
51,192,224874,128,0,225037:0:0:0:0:
153,192,225037,128,0,225200:0:0:0:0:
460,192,225200,128,0,225526:0:0:0:0:
51,192,225363,1,0,0:0:0:0:
358,192,225363,128,0,225526:0:0:0:0:
153,192,225526,128,0,225689:0:0:0:0:
51,192,225689,1,0,0:0:0:0:
256,192,225689,128,0,226016:0:0:0:0:
358,192,225853,1,0,0:0:0:0:
460,192,226016,1,0,0:0:0:0:
153,192,226179,1,0,0:0:0:0:
51,192,226342,128,0,226668:0:0:0:0:
358,192,226342,1,0,0:0:0:0:
256,192,226668,128,0,226994:0:0:0:0:
153,192,226994,1,0,0:0:0:0:
358,192,226994,128,0,227320:0:0:0:0:
460,192,227320,128,0,227483:0:0:0:0:
153,192,227483,1,0,0:0:0:0:
51,192,227646,1,0,0:0:0:0:
256,192,227646,128,0,227972:0:0:0:0:
358,192,227809,1,0,0:0:0:0:
153,192,227972,1,0,0:0:0:0:
460,192,227972,128,0,228298:0:0:0:0:
51,192,228135,1,0,0:0:0:0:
256,192,228298,1,0,0:0:0:0:
358,192,228298,128,0,228624:0:0:0:0:
51,192,228461,1,0,0:0:0:0:
153,192,228624,128,0,228950:0:0:0:0:
460,192,228624,1,0,0:0:0:0:
256,192,228787,1,0,0:0:0:0:
51,192,228950,128,0,230255:0:0:0:0:
358,192,228950,1,0,0:0:0:0:
460,192,228950,1,0,0:0:0:0:
256,192,229276,1,0,0:0:0:0:
358,192,229439,1,0,0:0:0:0:
153,192,229603,1,0,0:0:0:0:
460,192,229603,1,0,0:0:0:0:
256,192,229766,1,0,0:0:0:0:
460,192,229929,1,0,0:0:0:0:
153,192,230092,1,0,0:0:0:0:
256,192,230255,128,0,231559:0:0:0:0:
358,192,230255,1,0,0:0:0:0:
51,192,230581,1,0,0:0:0:0:
460,192,230581,1,0,0:0:0:0:
153,192,230744,1,0,0:0:0:0:
358,192,230907,1,0,0:0:0:0:
460,192,230907,1,0,0:0:0:0:
51,192,231070,1,0,0:0:0:0:
460,192,231233,1,0,0:0:0:0:
358,192,231396,1,0,0:0:0:0:
153,192,231559,1,0,0:0:0:0:
460,192,231559,128,0,232863:0:0:0:0:
51,192,231885,1,0,0:0:0:0:
358,192,232048,1,0,0:0:0:0:
153,192,232211,1,0,0:0:0:0:
256,192,232211,1,0,0:0:0:0:
51,192,232374,1,0,0:0:0:0:
358,192,232537,1,0,0:0:0:0:
256,192,232700,1,0,0:0:0:0:
51,192,232863,128,0,233189:0:0:0:0:
153,192,232863,128,0,233842:0:0:0:0:
358,192,232863,128,0,233189:0:0:0:0:
256,192,233189,1,0,0:0:0:0:
460,192,233189,1,0,0:0:0:0:
358,192,233516,128,0,234494:0:0:0:0:
460,192,233516,128,0,233842:0:0:0:0:
51,192,233842,1,0,0:0:0:0:
256,192,233842,1,0,0:0:0:0:
51,192,234168,128,0,234494:0:0:0:0:
153,192,234168,128,0,234494:0:0:0:0:
256,192,234494,128,0,234657:0:0:0:0:
460,192,234657,128,0,234820:0:0:0:0:
51,192,234820,1,0,0:0:0:0:
358,192,234820,128,0,234983:0:0:0:0:
256,192,234983,128,0,235146:0:0:0:0:
153,192,235146,128,0,235309:0:0:0:0:
51,192,235309,128,0,235472:0:0:0:0:
460,192,235472,128,0,235635:0:0:0:0:
358,192,235635,128,0,235961:0:0:0:0:
51,192,235798,1,0,0:0:0:0:
153,192,235798,128,0,235961:0:0:0:0:
256,192,235961,128,0,236124:0:0:0:0:
51,192,236124,1,0,0:0:0:0:
460,192,236124,128,0,236450:0:0:0:0:
358,192,236287,1,0,0:0:0:0:
153,192,236450,1,0,0:0:0:0:
256,192,236613,1,0,0:0:0:0:
153,192,236776,128,0,237103:0:0:0:0:
358,192,236776,1,0,0:0:0:0:
51,192,237103,128,0,237429:0:0:0:0:
358,192,237429,128,0,237755:0:0:0:0:
460,192,237429,1,0,0:0:0:0:
256,192,237755,128,0,237918:0:0:0:0:
153,192,237918,1,0,0:0:0:0:
51,192,238081,1,0,0:0:0:0:
460,192,238081,128,0,238733:0:0:0:0:
153,192,238244,1,0,0:0:0:0:
256,192,238407,1,0,0:0:0:0:
358,192,238407,1,0,0:0:0:0:
51,192,238570,1,0,0:0:0:0:
153,192,238733,1,0,0:0:0:0:
256,192,238733,1,0,0:0:0:0:
358,192,238896,1,0,0:0:0:0:
51,192,239059,1,0,0:0:0:0:
460,192,239059,1,0,0:0:0:0:
256,192,239222,1,0,0:0:0:0:
51,192,239385,1,0,0:0:0:0:
358,192,239385,128,0,240689:0:0:0:0:
460,192,239385,1,0,0:0:0:0:
153,192,239711,1,0,0:0:0:0:
460,192,239874,1,0,0:0:0:0:
51,192,240037,1,0,0:0:0:0:
153,192,240037,1,0,0:0:0:0:
256,192,240200,1,0,0:0:0:0:
460,192,240363,1,0,0:0:0:0:
153,192,240526,1,0,0:0:0:0:
51,192,240689,128,0,241994:0:0:0:0:
256,192,240689,1,0,0:0:0:0:
256,192,241016,1,0,0:0:0:0:
460,192,241016,1,0,0:0:0:0:
153,192,241179,1,0,0:0:0:0:
358,192,241342,1,0,0:0:0:0:
460,192,241342,1,0,0:0:0:0:
256,192,241505,1,0,0:0:0:0:
153,192,241668,1,0,0:0:0:0:
358,192,241831,1,0,0:0:0:0:
153,192,241994,1,0,0:0:0:0:
460,192,241994,128,0,243298:0:0:0:0:
256,192,242320,1,0,0:0:0:0:
153,192,242483,1,0,0:0:0:0:
51,192,242646,1,0,0:0:0:0:
358,192,242646,1,0,0:0:0:0:
153,192,242809,1,0,0:0:0:0:
256,192,242972,1,0,0:0:0:0:
51,192,243135,1,0,0:0:0:0:
153,192,243298,128,0,243624:0:0:0:0:
256,192,243298,128,0,243950:0:0:0:0:
358,192,243298,128,0,243624:0:0:0:0:
51,192,243624,1,0,0:0:0:0:
460,192,243624,1,0,0:0:0:0:
153,192,243950,128,0,244276:0:0:0:0:
358,192,243950,128,0,244929:0:0:0:0:
51,192,244276,1,0,0:0:0:0:
460,192,244276,1,0,0:0:0:0:
153,192,244603,128,0,244929:0:0:0:0:
256,192,244603,128,0,244929:0:0:0:0:
51,192,244929,128,0,245092:0:0:0:0:
460,192,245092,128,0,245255:0:0:0:0:
153,192,245255,128,0,245418:0:0:0:0:
358,192,245255,1,0,0:0:0:0:
256,192,245418,128,0,245581:0:0:0:0:
51,192,245581,128,0,245744:0:0:0:0:
358,192,245744,128,0,245907:0:0:0:0:
153,192,245907,128,0,246070:0:0:0:0:
460,192,246070,128,0,246396:0:0:0:0:
51,192,246233,1,0,0:0:0:0:
358,192,246233,128,0,246396:0:0:0:0:
153,192,246396,128,0,246559:0:0:0:0:
51,192,246559,128,0,246885:0:0:0:0:
256,192,246559,1,0,0:0:0:0:
460,192,246722,1,0,0:0:0:0:
358,192,246885,1,0,0:0:0:0:
153,192,247048,1,0,0:0:0:0:
256,192,247211,128,0,247537:0:0:0:0:
460,192,247211,1,0,0:0:0:0:
153,192,247537,128,0,247863:0:0:0:0:
51,192,247863,1,0,0:0:0:0:
460,192,247863,128,0,248189:0:0:0:0:
358,192,248189,128,0,248353:0:0:0:0:
256,192,248353,1,0,0:0:0:0:
51,192,248516,128,0,248842:0:0:0:0:
153,192,248516,1,0,0:0:0:0:
460,192,248679,1,0,0:0:0:0:
256,192,248842,1,0,0:0:0:0:
358,192,248842,128,0,249168:0:0:0:0:
51,192,249005,1,0,0:0:0:0:
153,192,249168,128,0,249494:0:0:0:0:
460,192,249168,1,0,0:0:0:0:
256,192,249331,1,0,0:0:0:0:
51,192,249494,1,0,0:0:0:0:
358,192,249494,128,0,249820:0:0:0:0:
51,192,249820,1,4,0:0:0:0:
153,192,249820,1,0,0:0:0:0:
460,192,249820,128,0,253733:0:0:0:0:
256,192,250146,1,0,0:0:0:0:
51,192,250472,1,0,0:0:0:0:
153,192,250472,1,0,0:0:0:0:
358,192,250798,1,0,0:0:0:0:
153,192,251124,1,0,0:0:0:0:
51,192,251450,1,0,0:0:0:0:
358,192,251450,1,0,0:0:0:0:
153,192,251776,1,0,0:0:0:0:
256,192,251776,1,0,0:0:0:0:
51,192,252103,128,0,252429:0:0:0:0:
153,192,252429,128,0,252755:0:0:0:0:
358,192,252429,1,0,0:0:0:0:
256,192,252755,128,0,252918:0:0:0:0:
51,192,252918,128,0,253081:0:0:0:0:
153,192,253081,1,0,0:0:0:0:
358,192,253081,128,0,253244:0:0:0:0:
256,192,253244,128,0,253407:0:0:0:0:
153,192,253407,128,0,253570:0:0:0:0:
358,192,253570,128,0,253733:0:0:0:0:
51,192,253733,1,0,0:0:0:0:
256,192,253733,1,0,0:0:0:0:
153,192,253896,1,0,0:0:0:0:
358,192,254059,1,0,0:0:0:0:
460,192,254059,128,0,254385:0:0:0:0:
51,192,254222,1,0,0:0:0:0:
153,192,254385,1,0,0:0:0:0:
256,192,254385,128,0,254711:0:0:0:0:
358,192,254548,1,0,0:0:0:0:
51,192,254711,128,0,255037:0:0:0:0:
460,192,254711,1,0,0:0:0:0:
153,192,254874,1,0,0:0:0:0:
256,192,255037,1,0,0:0:0:0:
358,192,255037,128,0,258950:0:0:0:0:
460,192,255363,1,0,0:0:0:0:
51,192,255689,1,0,0:0:0:0:
153,192,255689,1,0,0:0:0:0:
256,192,256016,1,0,0:0:0:0:
51,192,256342,1,0,0:0:0:0:
153,192,256668,1,0,0:0:0:0:
460,192,256668,1,0,0:0:0:0:
51,192,256994,1,0,0:0:0:0:
256,192,256994,1,0,0:0:0:0:
153,192,257320,128,0,257646:0:0:0:0:
256,192,257646,128,0,257972:0:0:0:0:
460,192,257646,1,0,0:0:0:0:
51,192,257972,128,0,258135:0:0:0:0:
153,192,258135,128,0,258298:0:0:0:0:
256,192,258298,1,0,0:0:0:0:
460,192,258298,128,0,258461:0:0:0:0:
51,192,258461,128,0,258624:0:0:0:0:
153,192,258624,128,0,258787:0:0:0:0:
460,192,258787,128,0,258950:0:0:0:0:
51,192,258950,1,0,0:0:0:0:
153,192,258950,1,0,0:0:0:0:
256,192,259113,1,0,0:0:0:0:
51,192,259276,128,0,259603:0:0:0:0:
358,192,259276,1,0,0:0:0:0:
153,192,259439,1,0,0:0:0:0:
256,192,259603,128,0,259929:0:0:0:0:
460,192,259603,1,0,0:0:0:0:
51,192,259766,1,0,0:0:0:0:
358,192,259929,1,0,0:0:0:0:
460,192,259929,128,0,260255:0:0:0:0:
153,192,260092,1,0,0:0:0:0:
51,192,260255,128,0,264168:0:0:0:0:
256,192,260255,1,0,0:0:0:0:
358,192,260581,1,0,0:0:0:0:
153,192,260907,1,0,0:0:0:0:
460,192,260907,1,0,0:0:0:0:
256,192,261233,1,0,0:0:0:0:
153,192,261559,1,0,0:0:0:0:
358,192,261885,1,0,0:0:0:0:
460,192,261885,1,0,0:0:0:0:
153,192,262211,1,0,0:0:0:0:
256,192,262211,1,0,0:0:0:0:
358,192,262537,128,0,262863:0:0:0:0:
153,192,262863,128,0,263108:0:0:0:0:
460,192,262863,1,0,0:0:0:0:
256,192,263108,128,0,263353:0:0:0:0:
358,192,263353,128,0,263516:0:0:0:0:
153,192,263516,1,0,0:0:0:0:
460,192,263516,128,0,263679:0:0:0:0:
256,192,263679,128,0,263842:0:0:0:0:
153,192,263842,128,0,264005:0:0:0:0:
460,192,264005,128,0,264168:0:0:0:0:
153,192,264168,1,0,0:0:0:0:
358,192,264168,1,0,0:0:0:0:
256,192,264331,1,0,0:0:0:0:
51,192,264494,1,0,0:0:0:0:
460,192,264494,1,0,0:0:0:0:
358,192,264657,1,0,0:0:0:0:
51,192,264820,1,0,0:0:0:0:
153,192,264820,1,0,0:0:0:0:
460,192,264820,1,0,0:0:0:0:
256,192,264983,128,0,265146:0:0:0:0:
153,192,265146,128,0,265309:0:0:0:0:
358,192,265146,1,0,0:0:0:0:
51,192,265309,128,0,265472:0:0:0:0:
153,192,265472,1,0,0:0:0:0:
256,192,265472,1,0,0:0:0:0:
460,192,265472,1,0,0:0:0:0:
358,192,265635,128,0,265961:0:0:0:0:
51,192,265798,128,0,265961:0:0:0:0:
256,192,265961,128,0,266124:0:0:0:0:
51,192,266124,1,0,0:0:0:0:
153,192,266124,1,0,0:0:0:0:
460,192,266124,1,0,0:0:0:0:
256,192,266287,128,0,266450:0:0:0:0:
358,192,266450,128,0,266613:0:0:0:0:
460,192,266613,128,0,266776:0:0:0:0:
51,192,266776,1,0,0:0:0:0:
153,192,266776,1,0,0:0:0:0:
256,192,266939,128,0,267266:0:0:0:0:
51,192,267103,1,0,0:0:0:0:
460,192,267103,128,0,267266:0:0:0:0:
153,192,267266,128,0,267429:0:0:0:0:
51,192,267429,1,0,0:0:0:0:
358,192,267429,1,0,0:0:0:0:
460,192,267429,1,0,0:0:0:0:
256,192,267592,1,0,0:0:0:0:
153,192,267755,1,0,0:0:0:0:
358,192,267918,1,0,0:0:0:0:
153,192,268081,1,0,0:0:0:0:
256,192,268081,1,0,0:0:0:0:
460,192,268081,128,0,268407:0:0:0:0:
51,192,268407,128,0,268570:0:0:0:0:
358,192,268570,128,0,268733:0:0:0:0:
51,192,268733,1,0,0:0:0:0:
256,192,268733,1,0,0:0:0:0:
460,192,268733,1,0,0:0:0:0:
153,192,268896,128,0,269222:0:0:0:0:
358,192,268896,1,0,0:0:0:0:
256,192,269059,1,0,0:0:0:0:
358,192,269222,128,0,269385:0:0:0:0:
51,192,269385,1,4,0:0:0:0:
256,192,269385,128,0,270689:0:0:0:0:
460,192,269385,1,0,0:0:0:0:
153,192,269548,128,0,269874:0:0:0:0:
153,192,270037,128,0,270200:0:0:0:0:
358,192,270363,128,0,270689:0:0:0:0:
51,192,270689,128,0,271994:0:0:0:0:
460,192,270689,128,0,271994:0:0:0:0:
256,192,271994,128,0,273298:0:0:0:0:
153,192,272646,128,0,273298:0:0:0:0:
358,192,273298,128,0,274603:0:0:0:0:
460,192,273950,128,0,274603:0:0:0:0:
153,192,274603,128,0,275907:0:0:0:0:
256,192,275255,128,0,275581:0:0:0:0:
51,192,275581,128,0,275907:0:0:0:0:
460,192,275907,128,0,277211:0:0:0:0:
256,192,276559,128,0,277211:0:0:0:0:
153,192,277211,128,0,278516:0:0:0:0:
358,192,277537,128,0,277863:0:0:0:0:
51,192,277863,128,0,278189:0:0:0:0:
256,192,278189,128,0,278516:0:0:0:0:
460,192,278516,128,0,279820:0:0:0:0:
358,192,279168,128,0,279494:0:0:0:0:
51,192,279494,128,0,279820:0:0:0:0:
256,192,279820,128,0,281124:0:0:0:0:
153,192,280472,128,0,281124:0:0:0:0:
358,192,281124,128,0,282429:0:0:0:0:
51,192,281450,128,0,281776:0:0:0:0:
460,192,281776,128,0,282103:0:0:0:0:
153,192,282103,128,0,282429:0:0:0:0:
256,192,282429,128,0,283733:0:0:0:0:
460,192,282755,128,0,283081:0:0:0:0:
153,192,283081,128,0,283407:0:0:0:0:
358,192,283407,128,0,283733:0:0:0:0:
51,192,283733,128,0,285037:0:0:0:0:
153,192,284059,128,0,284385:0:0:0:0:
358,192,284385,128,0,284711:0:0:0:0:
256,192,284711,128,0,285037:0:0:0:0:
460,192,285037,128,0,286342:0:0:0:0:
358,192,285363,128,0,285689:0:0:0:0:
51,192,285689,128,0,286016:0:0:0:0:
153,192,286016,128,0,286342:0:0:0:0:
358,192,286342,128,0,287646:0:0:0:0:
256,192,286994,128,0,287646:0:0:0:0:
460,192,287646,128,0,288950:0:0:0:0:
51,192,287972,128,0,288298:0:0:0:0:
153,192,288298,128,0,288624:0:0:0:0:
256,192,288624,128,0,288950:0:0:0:0:
51,192,288950,128,0,290418:0:0:0:0:
358,192,289603,128,0,290418:0:0:0:0:
153,192,290092,128,0,290418:0:0:0:0:
460,192,290418,128,0,299548:0:0:0:0:
358,192,290907,128,0,291233:0:0:0:0:
256,192,291233,128,0,291722:0:0:0:0:
51,192,291722,128,0,299548:0:0:0:0:
153,192,292211,128,0,299548:0:0:0:0:
358,192,292700,128,0,299548:0:0:0:0:
