osu file format v14

[General]
AudioFilename: audio.mp3
AudioLeadIn: 0
PreviewTime:12392
Countdown: 0
SampleSet: Normal
StackLeniency: 0.7
Mode: 0
LetterboxInBreaks: 0
WidescreenStoryboard: 1

[Editor]
DistanceSpacing: 1.9
BeatDivisor: 4
GridSize: 8
TimelineZoom: 1

[Metadata]
Title:rat attack!
TitleUnicode:rat attack!
Artist:justan oval
ArtistUnicode:justan oval
Creator:pinky965
Version:extreme!
Source:
Tags:instrumental electronic edm 8-bit chiptune intense energetic electro justanoval
BeatmapID:4527608
BeatmapSetID:2149166

[Difficulty]
HPDrainRate:5
CircleSize:4.5
OverallDifficulty:9
ApproachRate:9.2
SliderMultiplier:1.7
SliderTickRate:1

[Events]
//Background and Video events
0,0,"maxresdefault.jpg",0,0
//Break Periods
//Storyboard Layer 0 (Background)
//Storyboard Layer 1 (Fail)
//Storyboard Layer 2 (Pass)
//Storyboard Layer 3 (Foreground)
//Storyboard Layer 4 (Overlay)
//Storyboard Sound Samples

[TimingPoints]
395,375,4,1,1,100,1,0

[Colours]
Combo1 : 168,97,26
Combo2 : 227,200,0
Combo3 : 200,128,0
Combo4 : 197,197,197

[HitObjects]
72,132,395,5,0,3:0:0:0:
103,339,582,1,0,0:0:0:0:
135,277,676,1,0,0:0:0:0:
205,279,770,1,0,0:0:0:0:
36,234,957,1,0,0:0:0:0:
191,114,1145,5,0,3:0:0:0:
179,351,1332,1,0,0:0:0:0:
123,40,1520,1,0,0:0:0:0:
135,277,1707,1,0,0:0:0:0:
266,61,1895,5,0,3:0:0:0:
182,198,2082,1,0,0:0:0:0:
248,176,2176,1,0,0:0:0:0:
299,223,2270,1,0,0:0:0:0:
196,40,2457,1,0,0:0:0:0:
239,260,2645,5,0,3:0:0:0:
215,290,2739,1,0,0:0:0:0:
234,322,2832,1,0,0:0:0:0:
215,356,2926,1,0,0:0:0:0:
244,381,3020,1,0,0:0:0:0:
271,353,3114,1,0,0:0:0:0:
295,382,3207,1,0,0:0:0:0:
316,350,3301,1,0,0:0:0:0:
340,379,3395,5,0,3:0:0:0:
463,209,3582,1,0,0:0:0:0:
397,235,3676,1,0,0:0:0:0:
352,180,3770,1,0,0:0:0:0:
440,330,3957,1,0,0:0:0:0:
470,65,4145,5,0,3:0:0:0:
326,273,4332,1,0,0:0:0:0:
296,8,4520,1,0,0:0:0:0:
463,209,4707,1,0,0:0:0:0:
200,162,4895,5,0,3:0:0:0:
365,71,5082,1,0,0:0:0:0:
314,123,5176,1,0,0:0:0:0:
362,176,5270,6,0,L|367:223,2,42.5
240,254,5645,2,0,L|234:301,2,42.5
156,135,6020,1,0,0:0:0:0:
126,110,6114,1,0,0:0:0:0:
98,136,6207,1,0,0:0:0:0:
64,117,6301,1,0,0:0:0:0:
38,145,6395,2,0,L|49:243,2,85,0|8|0,3:0|2:0|3:0,0:0:0:0:
266,18,6957,6,0,L|259:85,1,42.5,8|0,2:0|0:0,0:0:0:0:
156,135,7145,2,0,L|163:202,1,42.5,0|0,3:0|0:0,0:0:0:0:
298,171,7332,2,0,L|293:213,1,42.5
167,287,7520,2,0,L|171:329,1,42.5,10|0,2:0|0:0,0:0:0:0:
310,369,7707,2,0,L|315:327,1,42.5
345,104,7895,5,0,3:0:0:0:
463,357,8082,1,0,0:0:0:0:
212,229,8270,1,8,2:0:0:0:
509,186,8457,1,0,0:0:0:0:
259,60,8645,5,10,2:0:0:0:
315,326,8832,1,0,0:0:0:0:
436,1,9020,1,2,2:0:0:0:
380,267,9207,1,8,2:0:0:0:
184,64,9395,5,0,3:0:0:0:
461,102,9582,1,8,2:0:0:0:
212,229,9770,1,0,3:0:0:0:
338,0,9957,6,0,L|349:80,1,42.5,8|0,2:0|0:0,0:0:0:0:
402,147,10145,2,0,L|391:227,1,42.5,0|0,3:0|0:0,0:0:0:0:
294,251,10332,2,0,L|283:171,1,42.5
199,127,10520,2,0,L|193:169,1,42.5,10|0,2:0|0:0,0:0:0:0:
152,281,10707,2,0,L|157:323,1,42.5
281,361,10895,5,0,3:0:0:0:
55,243,11082,1,0,0:0:0:0:
301,127,11270,5,10,2:0:0:0:
301,127,11457,1,0,0:0:0:0:
111,384,11645,1,10,2:0:0:0:
111,384,11832,1,0,0:0:0:0:
76,117,12020,1,2,2:0:0:0:
76,117,12207,1,8,2:0:0:0:
343,186,12395,6,0,P|373:134|360:90,1,85,0|8,3:0|2:0,0:0:0:0:
212,48,12770,2,0,P|182:100|195:144,1,85,0|8,3:0|2:0,0:0:0:0:
272,316,13145,1,0,3:0:0:0:
272,316,13239,2,0,B|288:303|288:303|301:284|301:284|309:305|309:305|328:326,2,85
292,49,13895,5,0,3:0:0:0:
407,322,14082,1,0,0:0:0:0:
463,29,14270,1,8,2:0:0:0:
213,189,14457,1,0,0:0:0:0:
507,236,14645,1,10,2:0:0:0:
507,236,14739,2,0,B|494:220|494:220|475:207|475:207|496:199|496:199|517:180,2,85
238,116,15395,6,0,P|192:102|137:120,1,85,0|8,3:0|2:0,0:0:0:0:
139,304,15770,2,0,P|178:317|220:311,1,85,0|8,3:0|2:0,0:0:0:0:
290,65,16145,1,0,3:0:0:0:
290,65,16239,2,0,B|306:52|306:52|319:33|319:33|327:54|327:54|346:75,2,85
47,310,16895,5,0,3:0:0:0:
21,5,17082,1,0,0:0:0:0:
220,311,17270,1,10,2:0:0:0:
246,6,17457,1,0,0:0:0:0:
10,201,17645,1,10,2:0:0:0:
10,201,17739,2,0,B|22:215|22:215|30:236|30:236|43:217|43:217|59:204,2,85
288,166,18395,5,0,3:0:0:0:
168,84,18582,1,8,2:0:0:0:
190,148,18676,1,0,0:0:0:0:
169,213,18770,1,0,3:0:0:0:
339,68,18957,2,0,L|346:15,1,42.5,8|0,2:0|0:0,0:0:0:0:
405,163,19145,6,0,L|399:120,1,42.5,0|0,3:0|0:0,0:0:0:0:
340,257,19332,2,0,L|347:204,1,42.5
414,348,19520,1,10,2:0:0:0:
261,93,19707,1,0,0:0:0:0:
194,383,19895,5,0,3:0:0:0:
262,266,20082,1,0,0:0:0:0:
198,289,20176,1,0,0:0:0:0:
146,244,20270,1,8,2:0:0:0:
312,361,20457,1,0,0:0:0:0:
61,342,20645,5,10,2:0:0:0:
35,297,20739,1,0,0:0:0:0:
67,258,20832,1,0,0:0:0:0:
35,217,20926,1,0,0:0:0:0:
67,177,21020,1,2,2:0:0:0:
41,132,21114,1,0,0:0:0:0:
74,94,21207,1,8,2:0:0:0:
42,53,21301,1,0,0:0:0:0:
74,19,21395,5,0,3:0:0:0:
173,145,21582,1,8,2:0:0:0:
174,76,21676,1,0,0:0:0:0:
227,33,21770,1,0,3:0:0:0:
123,217,21957,1,8,2:0:0:0:
362,127,22145,5,0,3:0:0:0:
74,94,22332,1,0,0:0:0:0:
247,326,22520,1,10,2:0:0:0:
303,43,22707,1,0,0:0:0:0:
67,258,22895,5,0,3:0:0:0:
187,138,23082,1,0,0:0:0:0:
188,206,23176,1,0,0:0:0:0:
247,240,23270,1,10,2:0:0:0:
48,165,23457,1,0,0:0:0:0:
255,14,23645,5,10,2:0:0:0:
290,0,23739,1,0,0:0:0:0:
321,21,23832,1,0,0:0:0:0:
355,3,23926,1,0,0:0:0:0:
388,22,24020,1,2,2:0:0:0:
426,2,24114,1,0,0:0:0:0:
448,37,24207,1,8,2:0:0:0:
483,13,24301,1,0,0:0:0:0:
509,46,24395,6,0,L|503:108,1,42.5,0|0,3:0|0:0,0:0:0:0:
431,121,24582,2,0,L|437:183,1,42.5,8|0,2:0|0:0,0:0:0:0:
490,223,24770,2,0,L|484:285,1,42.5,0|0,3:0|0:0,0:0:0:0:
423,316,24957,1,8,2:0:0:0:
133,313,25145,6,0,L|202:303,1,42.5,0|0,3:0|0:0,0:0:0:0:
301,286,25332,1,0,0:0:0:0:
62,192,25520,2,0,L|104:197,1,42.5,10|0,2:0|0:0,0:0:0:0:
230,219,25707,1,0,0:0:0:0:
0,384,25895,5,0,3:0:0:0:
79,107,26082,1,0,0:0:0:0:
244,345,26270,6,0,L|235:273,1,42.5,8|0,2:0|0:0,0:0:0:0:
222,158,26457,1,0,0:0:0:0:
341,374,26645,2,0,L|349:302,1,42.5,10|0,2:0|0:0,0:0:0:0:
363,187,26832,1,0,0:0:0:0:
180,353,27020,2,0,L|174:310,1,42.5,2|0,2:0|0:0,0:0:0:0:
158,166,27207,1,8,2:0:0:0:
385,262,27395,5,0,3:0:0:0:
139,246,27582,1,8,2:0:0:0:
327,86,27770,1,0,3:0:0:0:
345,331,27957,1,8,2:0:0:0:
251,47,28145,6,0,L|245:94,1,42.5,0|0,3:0|0:0,0:0:0:0:
229,237,28332,1,0,0:0:0:0:
75,11,28520,2,0,L|80:53,1,42.5,10|0,2:0|0:0,0:0:0:0:
97,201,28707,1,0,0:0:0:0:
319,1,28895,1,0,3:0:0:0:
278,294,29082,1,0,0:0:0:0:
43,110,29270,6,0,L|48:152,1,42.5,10|0,2:0|0:0,0:0:0:0:
126,303,29457,2,0,L|131:261,1,42.5
273,149,29645,2,0,L|278:191,1,42.5,10|0,2:0|0:0,0:0:0:0:
356,342,29832,2,0,L|361:300,1,42.5
384,129,30020,1,2,2:0:0:0:
498,365,30207,1,8,2:0:0:0:
495,66,30395,6,0,P|448:51|409:69,1,85,0|8,3:0|2:0,0:0:0:0:
278,191,30770,2,0,P|325:206|364:188,1,85,0|8,3:0|2:0,0:0:0:0:
208,53,31145,1,0,3:0:0:0:
208,53,31239,2,0,B|195:38|195:38|187:17|187:17|174:36|174:36|158:49,2,85
217,362,31895,5,0,3:0:0:0:
274,62,32082,1,0,0:0:0:0:
89,347,32270,1,8,2:0:0:0:
31,47,32457,1,0,0:0:0:0:
251,238,32645,1,10,2:0:0:0:
251,238,32739,2,0,B|263:252|263:252|271:273|271:273|284:254|284:254|300:241,2,85
46,115,33395,6,0,P|29:170|45:203,1,85,0|8,3:0|2:0,0:0:0:0:
224,174,33770,2,0,P|233:133|215:95,1,85,0|8,3:0|2:0,0:0:0:0:
41,358,34145,1,0,3:0:0:0:
41,358,34239,2,0,B|28:342|28:342|9:329|9:329|30:321|30:321|44:308,2,85
385,342,34895,5,0,3:0:0:0:
136,150,35082,1,0,0:0:0:0:
450,126,35270,1,10,2:0:0:0:
201,318,35457,1,0,0:0:0:0:
295,17,35645,1,10,2:0:0:0:
295,17,35739,2,0,B|311:4|311:4|324:-15|324:-15|332:6|332:6|344:20,2,85
304,374,36395,5,0,3:0:0:0:
256,192,36489,12,8,42207,2:0:0:0:
