osu file format v14

[General]
AudioFilename: audio.mp3
AudioLeadIn: 0
PreviewTime: 12392
Countdown: 0
SampleSet: Normal
StackLeniency: 0.7
Mode: 0
LetterboxInBreaks: 0
WidescreenStoryboard: 0

[Editor]
DistanceSpacing: 3.8
BeatDivisor: 4
GridSize: 8
TimelineZoom: 1

[Metadata]
Title:rat attack!
TitleUnicode:rat attack!
Artist:justan oval
ArtistUnicode:justan oval
Creator:pinky965
Version:charge!
Source:
Tags:instrumental electronic edm 8-bit chiptune intense energetic electro justanoval
BeatmapID:4527488
BeatmapSetID:2149166

[Difficulty]
HPDrainRate:5
CircleSize:7
OverallDifficulty:9.3
ApproachRate:9.5
SliderMultiplier:1.4
SliderTickRate:1

[Events]
//Background and Video events
0,0,"maxresdefault.jpg",0,0
//Break Periods
//Storyboard Layer 0 (Background)
//Storyboard Layer 1 (Fail)
//Storyboard Layer 2 (Pass)
//Storyboard Layer 3 (Foreground)
//Storyboard Layer 4 (Overlay)
//Storyboard Sound Samples

[TimingPoints]
395,375,4,1,1,100,1,0

[Colours]
Combo1 : 168,97,26
Combo2 : 227,200,0
Combo3 : 200,128,0
Combo4 : 197,197,197

[HitObjects]
44,200,395,5,0,3:0:0:0:
130,140,582,1,0,0:0:0:0:
121,191,676,1,0,0:0:0:0:
142,239,770,1,0,0:0:0:0:
77,156,957,1,0,0:0:0:0:
179,186,1145,5,0,3:0:0:0:
157,69,1332,1,0,0:0:0:0:
244,149,1520,1,0,0:0:0:0:
266,32,1707,1,0,0:0:0:0:
192,125,1895,5,0,3:0:0:0:
277,207,2082,1,0,0:0:0:0:
226,193,2176,1,0,0:0:0:0:
191,232,2270,1,0,0:0:0:0:
289,162,2457,1,0,0:0:0:0:
243,272,2645,5,0,3:0:0:0:
238,292,2739,1,0,0:0:0:0:
248,314,2832,1,0,0:0:0:0:
235,339,2926,1,0,0:0:0:0:
252,365,3020,1,0,0:0:0:0:
276,344,3114,1,0,0:0:0:0:
301,362,3207,1,0,0:0:0:0:
327,344,3301,1,0,0:0:0:0:
352,362,3395,5,0,3:0:0:0:
423,242,3582,1,0,0:0:0:0:
368,267,3676,1,0,0:0:0:0:
328,221,3770,1,0,0:0:0:0:
424,322,3957,1,0,0:0:0:0:
437,168,4145,5,0,3:0:0:0:
305,154,4332,1,0,0:0:0:0:
321,21,4520,1,0,0:0:0:0:
453,34,4707,1,0,0:0:0:0:
373,141,4895,5,0,3:0:0:0:
269,58,5082,1,0,0:0:0:0:
289,114,5176,1,0,0:0:0:0:
253,161,5270,6,0,L|274:190,2,35
125,93,5645,2,0,L|142:58,2,35
119,241,6020,1,0,0:0:0:0:
98,234,6114,1,0,0:0:0:0:
78,253,6207,1,0,0:0:0:0:
46,236,6301,1,0,0:0:0:0:
18,261,6395,2,0,L|26:332,2,70,0|8|0,3:0|2:0|3:0,0:0:0:0:
207,213,6957,6,0,L|202:247,1,35,8|0,2:0|0:0,0:0:0:0:
104,258,7145,2,0,L|109:292,1,35,0|0,3:0|0:0,0:0:0:0:
204,324,7332,2,0,L|199:358,1,35
152,237,7520,2,0,L|156:202,1,35,10|0,2:0|0:0,0:0:0:0:
238,175,7707,2,0,L|234:140,1,35
104,258,7895,5,0,3:0:0:0:
86,98,8082,1,0,0:0:0:0:
238,175,8270,1,8,2:0:0:0:
256,15,8457,1,0,0:0:0:0:
73,214,8645,5,10,2:0:0:0:
55,54,8832,1,0,0:0:0:0:
256,247,9020,1,2,2:0:0:0:
274,87,9207,1,8,2:0:0:0:
155,202,9395,5,0,3:0:0:0:
335,180,9582,1,8,2:0:0:0:
185,285,9770,1,0,3:0:0:0:
365,307,9957,6,0,L|427:314,1,35,8|0,2:0|0:0,0:0:0:0:
291,245,10145,2,0,L|256:248,1,35,0|0,3:0|0:0,0:0:0:0:
375,208,10332,2,0,L|437:215,1,35
301,146,10520,2,0,L|266:149,1,35,10|0,2:0|0:0,0:0:0:0:
381,97,10707,2,0,L|443:104,1,35
298,49,10895,5,0,3:0:0:0:
323,284,11082,1,0,0:0:0:0:
175,96,11270,5,10,2:0:0:0:
175,96,11457,1,0,0:0:0:0:
150,331,11645,1,10,2:0:0:0:
150,331,11832,1,0,0:0:0:0:
338,183,12020,1,2,2:0:0:0:
338,183,12207,1,8,2:0:0:0:
100,202,12395,6,0,B|64:209|64:209|25:192,1,70,0|8,3:0|2:0,0:0:0:0:
44,71,12770,2,0,B|80:64|80:64|110:77,1,70,0|8,3:0|2:0,0:0:0:0:
50,293,13145,1,0,3:0:0:0:
50,293,13239,2,0,P|61:321|73:293,2,70
161,140,13895,5,0,3:0:0:0:
184,341,14082,1,0,0:0:0:0:
309,180,14270,1,8,2:0:0:0:
286,381,14457,1,0,0:0:0:0:
148,230,14645,1,10,2:0:0:0:
148,230,14739,2,0,P|117:221|128:246,2,70
307,110,15395,6,0,B|317:77|317:77|309:42,1,70,0|8,3:0|2:0,0:0:0:0:
166,20,15770,2,0,B|158:54|158:54|168:87,1,70,0|8,3:0|2:0,0:0:0:0:
230,206,16145,1,0,3:0:0:0:
230,206,16239,2,0,P|255:204|231:179,2,70
73,137,16895,5,0,3:0:0:0:
96,359,17082,1,0,0:0:0:0:
239,67,17270,1,10,2:0:0:0:
216,289,17457,1,0,0:0:0:0:
36,79,17645,1,10,2:0:0:0:
36,79,17739,2,0,P|31:54|54:75,2,70
0,320,18395,5,0,3:0:0:0:
104,316,18582,1,8,2:0:0:0:
73,272,18676,1,0,0:0:0:0:
79,219,18770,1,0,3:0:0:0:
55,344,18957,2,0,L|59:381,1,35,8|0,2:0|0:0,0:0:0:0:
132,218,19145,6,0,L|128:252,1,35,0|0,3:0|0:0,0:0:0:0:
25,142,19332,2,0,L|29:179,1,35
120,325,19520,1,10,2:0:0:0:
153,90,19707,1,0,0:0:0:0:
14,284,19895,5,0,3:0:0:0:
183,207,20082,1,0,0:0:0:0:
132,218,20176,1,0,0:0:0:0:
89,185,20270,1,8,2:0:0:0:
169,44,20457,1,0,0:0:0:0:
184,261,20645,5,10,2:0:0:0:
200,274,20739,1,0,0:0:0:0:
219,259,20832,1,0,0:0:0:0:
241,276,20926,1,0,0:0:0:0:
265,256,21020,1,2,2:0:0:0:
290,274,21114,1,0,0:0:0:0:
311,251,21207,1,8,2:0:0:0:
334,271,21301,1,0,0:0:0:0:
350,243,21395,5,0,3:0:0:0:
433,180,21582,1,8,2:0:0:0:
443,234,21676,1,0,0:0:0:0:
421,286,21770,1,0,3:0:0:0:
456,122,21957,1,8,2:0:0:0:
485,358,22145,5,0,3:0:0:0:
362,107,22332,1,0,0:0:0:0:
373,311,22520,1,10,2:0:0:0:
496,60,22707,1,0,0:0:0:0:
502,264,22895,5,0,3:0:0:0:
329,270,23082,1,0,0:0:0:0:
356,220,23176,1,0,0:0:0:0:
341,165,23270,1,10,2:0:0:0:
421,354,23457,1,0,0:0:0:0:
230,282,23645,5,10,2:0:0:0:
212,298,23739,1,0,0:0:0:0:
190,286,23832,1,0,0:0:0:0:
168,298,23926,1,0,0:0:0:0:
147,284,24020,1,2,2:0:0:0:
127,298,24114,1,0,0:0:0:0:
106,284,24207,1,8,2:0:0:0:
86,298,24301,1,0,0:0:0:0:
67,281,24395,6,0,L|62:240,1,35,0|0,3:0|0:0,0:0:0:0:
151,161,24582,2,0,L|146:195,1,35,8|0,2:0|0:0,0:0:0:0:
57,109,24770,2,0,L|52:74,1,35,0|0,3:0|0:0,0:0:0:0:
156,9,24957,1,8,2:0:0:0:
275,190,25145,6,0,L|270:224,1,35,0|0,3:0|0:0,0:0:0:0:
256,332,25332,1,0,0:0:0:0:
217,134,25520,2,0,L|221:168,1,35,10|0,2:0|0:0,0:0:0:0:
236,276,25707,1,0,0:0:0:0:
279,62,25895,5,0,3:0:0:0:
336,270,26082,1,0,0:0:0:0:
428,72,26270,6,0,L|434:127,1,35,8|0,2:0|0:0,0:0:0:0:
449,214,26457,1,0,0:0:0:0:
347,21,26645,2,0,L|340:76,1,35,10|0,2:0|0:0,0:0:0:0:
326,163,26832,1,0,0:0:0:0:
471,0,27020,2,0,L|477:55,1,35,2|0,2:0|0:0,0:0:0:0:
492,142,27207,1,8,2:0:0:0:
275,116,27395,5,0,3:0:0:0:
450,242,27582,1,8,2:0:0:0:
233,268,27770,1,0,3:0:0:0:
373,103,27957,1,8,2:0:0:0:
357,320,28145,6,0,L|349:256,1,35,0|0,3:0|0:0,0:0:0:0:
339,177,28332,1,0,0:0:0:0:
261,380,28520,2,0,L|268:316,1,35,10|0,2:0|0:0,0:0:0:0:
279,237,28707,1,0,0:0:0:0:
442,380,28895,1,0,3:0:0:0:
464,164,29082,1,0,0:0:0:0:
283,271,29270,6,0,L|276:215,1,35,10|0,2:0|0:0,0:0:0:0:
343,142,29457,2,0,L|338:176,1,35
233,133,29645,2,0,L|226:77,1,35,10|0,2:0|0:0,0:0:0:0:
304,15,29832,2,0,L|299:49,1,35
283,162,30020,1,2,2:0:0:0:
239,14,30207,1,8,2:0:0:0:
177,215,30395,6,0,B|141:223|141:223|109:213,1,70,0|8,3:0|2:0,0:0:0:0:
109,65,30770,2,0,B|145:57|145:57|176:66,1,70,0|8,3:0|2:0,0:0:0:0:
220,258,31145,1,0,3:0:0:0:
220,258,31239,2,0,P|215:285|201:260,2,70
341,87,31895,5,0,3:0:0:0:
399,311,32082,1,0,0:0:0:0:
498,102,32270,1,8,2:0:0:0:
460,326,32457,1,0,0:0:0:0:
319,170,32645,1,10,2:0:0:0:
319,170,32739,2,0,P|291:172|311:192,2,70
460,326,33395,6,0,B|473:291|473:291|464:243,1,70,0|8,3:0|2:0,0:0:0:0:
307,235,33770,2,0,B|294:270|294:270|300:302,1,70,0|8,3:0|2:0,0:0:0:0:
408,73,34145,1,0,3:0:0:0:
408,73,34239,2,0,P|409:48|390:73,2,70
386,281,34895,5,0,3:0:0:0:
236,97,35082,1,0,0:0:0:0:
201,321,35270,1,10,2:0:0:0:
383,128,35457,1,0,0:0:0:0:
123,190,35645,1,10,2:0:0:0:
123,190,35739,2,0,P|101:169|121:168,2,70
404,1,36395,5,0,3:0:0:0:
256,192,36489,12,8,42207,2:0:0:0:
