osu file format v14

[General]
AudioFilename: audio.mp3
AudioLeadIn: 0
PreviewTime: 10164
Countdown: 0
SampleSet: Normal
StackLeniency: 0.7
Mode: 1
LetterboxInBreaks: 0
WidescreenStoryboard: 1

[Editor]
Bookmarks: 34807,64195,103379,146848
DistanceSpacing: 1
BeatDivisor: 4
GridSize: 16
TimelineZoom: 1

[Metadata]
Title:Way Back then
TitleUnicode:Way Back then
Artist:jung jaeil
ArtistUnicode:정재일
Creator:tadahitotsu
Version:Kantan
Source:오징어 게임
Tags:Netflix Genie Music Corporation TV background music original sound track ost soundtrack bgm folk instrumental Ojingeo Ojing-eo Geim television series Squid Game Jung Jae Il jae-il
BeatmapID:3320513
BeatmapSetID:1600415

[Difficulty]
HPDrainRate:8
CircleSize:7
OverallDifficulty:2
ApproachRate:10
SliderMultiplier:1.6
SliderTickRate:1

[Events]
//Background and Video events
0,0,"bg.jpg",0,0
//Break Periods
//Storyboard Layer 0 (Background)
//Storyboard Layer 1 (Fail)
//Storyboard Layer 2 (Pass)
//Storyboard Layer 3 (Foreground)
//Storyboard Layer 4 (Overlay)
//Storyboard Sound Samples

[TimingPoints]
510,612.244897959184,4,1,0,40,1,0
34642,-100,4,1,0,50,0,0
59132,-100,4,1,0,50,0,0
68928,-100,4,1,0,55,0,0
73826,-100,4,1,0,55,0,0
78877,-95.2380952380952,4,1,0,70,0,1
100918,-95.2380952380952,4,1,0,70,0,0
101071,-95.2380952380952,4,1,0,30,0,0
103214,-100,4,1,0,50,0,0
113010,-100,4,1,0,55,0,0
122805,-100,4,1,0,50,0,0

[HitObjects]
199,187,510,5,0,0:0:0:0:
228,195,1734,1,0,0:0:0:0:
228,195,2958,1,8,0:0:0:0:
228,195,3571,1,0,0:0:0:0:
228,195,4183,1,8,0:0:0:0:
228,195,5407,1,0,0:0:0:0:
228,195,6632,1,0,0:0:0:0:
228,195,7856,1,0,0:0:0:0:
228,195,8469,1,0,0:0:0:0:
228,195,9081,1,0,0:0:0:0:
108,173,10305,1,8,0:0:0:0:
115,175,11530,1,0,0:0:0:0:
148,154,12754,1,8,0:0:0:0:
148,154,13367,1,8,0:0:0:0:
148,154,13979,1,0,0:0:0:0:
297,164,14591,1,0,0:0:0:0:
108,173,15203,1,8,0:0:0:0:
115,175,16428,1,0,0:0:0:0:
148,154,17652,1,8,0:0:0:0:
148,154,18265,1,0,0:0:0:0:
148,154,18877,1,0,0:0:0:0:
108,173,20101,1,8,0:0:0:0:
115,175,21326,1,0,0:0:0:0:
148,154,22550,1,8,0:0:0:0:
148,154,23163,1,8,0:0:0:0:
148,154,23775,1,0,0:0:0:0:
288,158,24387,1,0,0:0:0:0:
108,173,24999,1,8,0:0:0:0:
115,175,26224,1,0,0:0:0:0:
148,154,27448,1,8,0:0:0:0:
148,154,28061,1,0,0:0:0:0:
148,154,28673,1,0,0:0:0:0:
242,131,29897,1,8,0:0:0:0:
242,131,31122,1,0,0:0:0:0:
197,140,32346,1,0,0:0:0:0:
197,140,32958,1,8,0:0:0:0:
197,140,33571,1,0,0:0:0:0:
108,173,34795,1,0,0:0:0:0:
115,175,36020,1,8,0:0:0:0:
148,154,37244,1,0,0:0:0:0:
148,154,37856,1,8,0:0:0:0:
148,154,38469,1,0,0:0:0:0:
108,173,39693,1,8,0:0:0:0:
115,175,40918,1,0,0:0:0:0:
148,154,42142,1,8,0:0:0:0:
148,154,42754,1,8,0:0:0:0:
148,154,43367,1,0,0:0:0:0:
261,103,43979,1,8,0:0:0:0:
108,173,44591,1,8,0:0:0:0:
115,175,45816,1,0,0:0:0:0:
148,154,47040,1,8,0:0:0:0:
148,154,47652,1,0,0:0:0:0:
148,154,48265,1,0,0:0:0:0:
108,173,49489,1,8,0:0:0:0:
115,175,50714,1,0,0:0:0:0:
148,154,51938,1,8,0:0:0:0:
148,154,52550,1,8,0:0:0:0:
148,154,53163,1,0,0:0:0:0:
148,154,53775,1,8,0:0:0:0:
108,173,54387,1,8,0:0:0:0:
115,175,55612,1,0,0:0:0:0:
148,154,56836,1,8,0:0:0:0:
148,154,57448,1,0,0:0:0:0:
148,154,58061,1,0,0:0:0:0:
108,173,59285,1,0,0:0:0:0:
115,175,60510,1,0,0:0:0:0:
148,154,61734,1,8,0:0:0:0:
148,154,62346,1,0,0:0:0:0:
148,154,62958,1,8,0:0:0:0:
108,173,64183,1,8,0:0:0:0:
115,175,65407,1,0,0:0:0:0:
148,154,66632,1,8,0:0:0:0:
148,154,67244,1,0,0:0:0:0:
148,154,67856,1,0,0:0:0:0:
258,210,69081,1,4,0:0:0:0:
258,210,69693,1,8,0:0:0:0:
217,126,70305,1,0,0:0:0:0:
183,137,71530,1,8,0:0:0:0:
195,137,72142,1,8,0:0:0:0:
194,137,72754,1,0,0:0:0:0:
268,155,73979,1,4,0:0:0:0:
239,136,74591,1,8,0:0:0:0:
247,131,75203,1,8,0:0:0:0:
228,121,76428,1,0,0:0:0:0:
228,121,77040,1,8,0:0:0:0:
228,121,77652,1,0,0:0:0:0:
288,191,78877,1,12,0:0:0:0:
211,164,79489,1,0,0:0:0:0:
211,164,80101,1,8,0:0:0:0:
181,135,80714,1,0,0:0:0:0:
181,135,81326,1,8,0:0:0:0:
219,113,81938,1,8,0:0:0:0:
123,135,82550,1,0,0:0:0:0:
288,197,83775,1,12,0:0:0:0:
293,191,84387,1,0,0:0:0:0:
293,191,84999,1,8,0:0:0:0:
270,144,86224,1,8,0:0:0:0:
116,163,86836,1,0,0:0:0:0:
116,163,87448,1,8,0:0:0:0:
288,191,88673,1,12,0:0:0:0:
211,164,89285,1,0,0:0:0:0:
211,164,89897,1,8,0:0:0:0:
181,135,90510,1,0,0:0:0:0:
181,135,91122,1,8,0:0:0:0:
219,113,91734,1,8,0:0:0:0:
123,135,92346,1,0,0:0:0:0:
288,197,93571,1,12,0:0:0:0:
293,191,94183,1,0,0:0:0:0:
293,191,94795,1,8,0:0:0:0:
270,144,96020,1,8,0:0:0:0:
116,163,96632,1,0,0:0:0:0:
116,163,97244,1,8,0:0:0:0:
145,120,98469,1,0,0:0:0:0:
158,115,99081,1,8,0:0:0:0:
247,68,99693,1,8,0:0:0:0:
247,68,100305,1,8,0:0:0:0:
247,68,100918,1,4,0:0:0:0:
108,173,103367,1,8,0:0:0:0:
115,175,104591,1,0,0:0:0:0:
148,154,105816,1,8,0:0:0:0:
148,154,106428,1,8,0:0:0:0:
148,154,107040,1,0,0:0:0:0:
148,154,107652,1,0,0:0:0:0:
108,173,108265,1,8,0:0:0:0:
115,175,109489,1,0,0:0:0:0:
148,154,110714,1,8,0:0:0:0:
148,154,111326,1,0,0:0:0:0:
148,154,111938,1,0,0:0:0:0:
108,173,113163,1,8,0:0:0:0:
115,175,114387,1,0,0:0:0:0:
148,154,115612,1,8,0:0:0:0:
148,154,116224,1,8,0:0:0:0:
148,154,116836,1,0,0:0:0:0:
148,154,117448,1,8,0:0:0:0:
108,173,118061,1,8,0:0:0:0:
115,175,119285,1,0,0:0:0:0:
148,154,120510,1,8,0:0:0:0:
148,154,121122,1,0,0:0:0:0:
148,154,121734,1,8,0:0:0:0:
242,131,122958,5,0,0:0:0:0:
242,131,124183,1,0,0:0:0:0:
197,140,125407,1,0,0:0:0:0:
197,140,126020,1,8,0:0:0:0:
197,140,126632,1,0,0:0:0:0:
197,140,127244,1,8,0:0:0:0:
242,131,127856,1,0,0:0:0:0:
242,131,129081,1,0,0:0:0:0:
197,140,130305,1,0,0:0:0:0:
197,140,130918,1,8,0:0:0:0:
197,140,131530,1,0,0:0:0:0:
242,131,132754,1,0,0:0:0:0:
242,131,133979,1,8,0:0:0:0:
197,140,135203,1,0,0:0:0:0:
197,140,135816,1,8,0:0:0:0:
197,140,136428,1,8,0:0:0:0:
197,140,137040,1,8,0:0:0:0:
242,131,137652,1,0,0:0:0:0:
242,131,138877,1,0,0:0:0:0:
197,140,140101,1,0,0:0:0:0:
197,140,140714,1,8,0:0:0:0:
197,140,141326,1,8,0:0:0:0:
242,131,142550,1,0,0:0:0:0:
242,131,143775,1,0,0:0:0:0:
197,140,144999,1,0,0:0:0:0:
197,140,145612,1,8,0:0:0:0:
197,140,146224,1,0,0:0:0:0:
197,140,146836,1,8,0:0:0:0:
