osu file format v14

[General]
AudioFilename: sunkiss drop jun side.mp3
AudioLeadIn: 0
PreviewTime: 36254
Countdown: 1
SampleSet: Soft
StackLeniency: 0.1
Mode: 0
LetterboxInBreaks: 1
WidescreenStoryboard: 1

[Editor]
Bookmarks: 17363,36660,57417,78173
DistanceSpacing: 1.2
BeatDivisor: 4
GridSize: 8
TimelineZoom: 2.3

[Metadata]
Title:SUNKiSS <3 DROP ~jun Side~
TitleUnicode:SUNKiSS♥DROP ~jun Side~
Artist:jun with Alison
ArtistUnicode:jun with Alison
Creator:ScubDomino
Version:please donate for my gacha addiction
Source:DanceDanceRevolution SuperNOVA2
Tags:wade junko karashima 辛島純子 dj silver richard lane konami bemani ビーマニ rhythm ddr video game electronic japanese happy hardcore original soundtrack ost natsume shiki anime girl natsume_shiki anime_girl scub domino scub_domino jungkyuyoung [keqing] 8972308
BeatmapID:3070802
BeatmapSetID:1498309

[Difficulty]
HPDrainRate:4
CircleSize:4
OverallDifficulty:8
ApproachRate:8
SliderMultiplier:1.4
SliderTickRate:1

[Events]
//Background and Video events
0,0,"abstract_0081.jpg",0,0
//Break Periods
//Storyboard Layer 0 (Background)
//Storyboard Layer 1 (Fail)
//Storyboard Layer 2 (Pass)
//Storyboard Layer 3 (Foreground)
//Storyboard Layer 4 (Overlay)
//Storyboard Sound Samples

[TimingPoints]
336,324.324324324324,4,2,1,70,1,0
15579,-200,4,2,1,70,0,0
15903,-100,4,2,1,70,0,0
33741,-66.6666666666667,4,2,1,70,0,0
76876,-33.3333333333333,4,2,1,70,0,0
96822,-66.6666666666667,4,2,1,70,0,0

[Colours]
Combo1 : 199,88,163
Combo2 : 157,111,183

[HitObjects]
48,208,336,5,4,1:0:0:0:
200,248,498,1,2,0:0:0:0:
136,144,660,5,0,0:0:0:0:
152,344,822,1,2,0:0:0:0:
296,288,984,6,0,P|360:288|392:296,1,70,0|2,0:0|0:0,0:0:0:0:
200,248,1309,5,0,0:0:0:0:
48,208,1471,1,2,0:0:0:0:
152,344,1633,5,0,0:0:0:0:
136,144,1795,1,2,0:0:0:0:
296,288,1957,6,0,P|360:288|392:296,1,70,0|2,0:0|0:0,0:0:0:0:
472,384,2281,5,0,0:0:0:0:
456,312,2444,1,2,0:0:0:0:
488,144,2606,1,0,1:0:0:0:
464,40,2768,1,2,0:0:0:0:
336,88,2930,5,4,1:2:0:0:
464,40,3092,1,2,0:0:0:0:
488,144,3254,5,0,0:0:0:0:
280,224,3417,1,2,0:0:0:0:
336,88,3579,6,0,P|344:136|336:184,1,70,0|2,0:0|0:0,0:0:0:0:
488,144,3903,5,0,0:0:0:0:
336,88,4065,1,2,0:0:0:0:
280,224,4227,5,0,1:0:0:0:
464,40,4390,1,2,0:0:0:0:
336,88,4552,6,0,P|344:136|336:184,1,70,0|2,0:0|0:0,0:0:0:0:
16,80,4876,5,0,1:0:0:0:
88,80,5038,1,8,0:3:0:0:
152,168,5200,1,0,1:0:0:0:
280,224,5363,1,6,0:3:0:0:
360,360,5525,5,4,1:2:0:0:
416,216,5687,1,2,0:0:0:0:
232,128,5849,5,8,1:2:0:0:
248,312,6011,1,2,0:0:0:0:
232,128,6173,6,0,P|232:80|240:32,1,70,0|2,1:2|0:0,0:0:0:0:
232,128,6498,5,8,1:2:0:0:
416,216,6660,1,2,0:0:0:0:
248,312,6822,5,0,1:2:0:0:
360,360,6984,1,2,0:0:0:0:
232,128,7146,6,0,P|232:80|240:32,1,70,8|2,1:2|0:0,0:0:0:0:
248,312,7471,5,0,1:2:0:0:
416,216,7633,1,2,0:0:0:0:
232,128,7795,5,8,1:2:0:0:
360,360,7957,1,2,0:0:0:0:
232,128,8119,5,0,1:2:0:0:
96,184,8281,1,2,0:0:0:0:
48,96,8444,1,8,1:2:0:0:
112,328,8606,6,0,P|176:344|200:360,1,70,2|0,0:0|1:2,0:0:0:0:
112,328,8930,5,2,0:0:0:0:
48,96,9092,1,8,1:2:0:0:
232,128,9254,1,2,0:0:0:0:
96,184,9417,5,0,1:2:0:0:
112,328,9579,1,2,0:0:0:0:
112,328,9741,5,8,1:2:0:0:
96,184,9903,1,2,0:0:0:0:
262,246,10065,5,0,1:2:0:0:
237,204,10146,1,8,3:0:0:0:
276,177,10227,1,10,0:3:0:0:
251,136,10308,1,8,3:0:0:0:
282,144,10390,5,8,1:2:0:0:
244,171,10471,1,4,3:0:0:0:
268,210,10552,1,6,0:3:0:0:
230,238,10633,1,4,3:0:0:0:
262,246,10714,6,0,P|327:244|360:227,1,70,4|2,1:1|0:0,0:0:0:0:
97,323,11038,2,0,P|66:380|64:417,1,70,0|2,3:1|0:0,0:0:0:0:
136,110,11363,2,0,P|101:54|70:34,1,70,0|2,3:1|0:0,0:0:0:0:
136,110,11687,5,0,3:1:0:0:
98,52,11849,2,0,P|121:78|136:110,1,70,2|0,0:0|3:1,0:0:0:0:
97,321,12173,1,2,0:0:0:0:
65,384,12335,2,0,P|76:351|97:323,1,70,0|2,3:1|0:0,0:0:0:0:
262,246,12660,2,0,P|327:244|360:227,1,70,0|2,3:1|0:0,0:0:0:0:
97,322,12984,2,0,P|76:351|65:384,1,70,0|2,3:1|0:0,0:0:0:0:
330,242,13308,6,0,P|296:249|262:246,1,70,0|2,3:1|0:0,0:0:0:0:
424,106,13633,2,0,P|458:99|492:102,1,70,0|2,3:1|0:0,0:0:0:0:
424,106,13957,5,0,3:1:0:0:
330,242,14119,1,2,0:0:0:0:
261,245,14281,1,0,3:1:0:0:
424,106,14444,2,0,P|458:99|492:102,1,70,2|0,0:0|3:1,0:0:0:0:
384,350,14768,6,0,L|375:298,1,35,10|8,0:3|0:3,0:0:0:0:
406,277,14930,2,0,L|415:225,1,35,4|4,3:3|3:3,0:0:0:0:
453,217,15092,2,0,L|475:169,1,35,4|4,0:3|3:3,0:0:0:0:
467,185,15254,5,0,3:1:0:0:
453,217,15335,1,0,3:1:0:0:
411,242,15416,1,2,3:0:0:0:
406,277,15497,1,0,3:1:0:0:
378,315,15579,2,0,L|384:350,1,35,0|2,3:1|0:0,0:0:0:0:
255,168,15903,5,4,1:0:0:0:
278,29,16065,1,2,0:0:0:0:
127,123,16227,5,2,1:3:0:0:
117,80,16390,1,2,0:0:0:0:
177,183,16552,5,0,1:0:0:0:
38,160,16714,1,2,0:0:0:0:
132,311,16876,5,2,1:3:0:0:
89,321,17038,2,0,P|85:283|100:220,1,70,2|0,0:0|1:0,0:0:0:0:
132,311,17363,5,2,0:0:0:0:
298,313,17525,2,0,P|302:351|286:413,1,70,2|2,1:3|0:0,0:0:0:0:
298,313,17849,2,0,P|302:351|286:413,1,70,0|2,1:0|0:0,0:0:0:0:
463,214,18173,5,2,1:3:0:0:
487,53,18335,1,2,0:0:0:0:
463,214,18498,6,0,P|419:240|371:244,1,70,0|2,1:0|0:0,0:0:0:0:
305,113,18822,1,2,1:3:0:0:
401,243,18985,6,0,P|388:292|357:329,1,70,2|0,0:0|1:0,0:0:0:0:
487,53,19308,5,2,0:0:0:0:
305,113,19471,1,2,1:3:0:0:
236,306,19633,1,2,0:0:0:0:
305,113,19795,6,0,L|296:76,3,35,0|0|2|0,1:0|3:0|0:0|3:0,0:0:0:0:
171,219,20119,6,0,L|162:256,3,35,2|0|2|0,1:3|3:0|0:0|3:0,0:0:0:0:
305,113,20444,6,0,L|296:76,1,35,0|0,1:0|0:0,0:0:0:0:
171,219,20606,2,0,L|162:256,1,35,2|0,0:0|0:0,0:0:0:0:
296,78,20768,6,0,L|305:113,1,35,2|0,1:3|0:0,0:0:0:0:
171,219,20930,2,0,L|162:256,1,35,2|0,0:0|0:0,0:0:0:0:
12,79,21092,6,0,P|9:12|5:1,1,70,4|2,1:2|0:0,0:0:0:0:
171,219,21417,5,2,1:3:0:0:
216,211,21498,1,0,3:0:0:0:
259,227,21579,1,2,0:0:0:0:
289,263,21660,1,0,3:0:0:0:
289,263,21741,5,0,1:0:0:0:
259,227,21822,1,0,3:0:0:0:
216,211,21903,1,2,0:0:0:0:
171,219,21984,1,0,3:0:0:0:
142,257,22065,2,0,L|90:269,3,35,2|0|2|0,1:3|3:0|0:0|3:0,0:0:0:0:
289,263,22390,5,0,1:0:0:0:
296,308,22471,1,0,3:0:0:0:
280,351,22552,1,2,0:0:0:0:
244,381,22633,1,0,3:0:0:0:
200,379,22714,2,0,L|154:350,3,35,2|0|2|0,1:3|3:0|0:0|3:0,0:0:0:0:
289,263,23038,6,0,L|334:291,3,35,0|0|2|0,1:0|3:0|0:0|3:0,0:0:0:0:
372,374,23363,2,0,L|424:362,3,35,2|0|2|0,1:3|3:0|0:0|3:0,0:0:0:0:
449,304,23687,6,0,L|465:203,1,70,0|2,1:0|0:0,0:0:0:0:
124,220,24011,2,0,L|134:289,1,70,6|2,1:2|0:0,0:0:0:0:
134,289,24335,2,0,L|124:220,1,70,0|2,1:0|0:0,0:0:0:0:
459,234,24660,2,0,L|449:304,1,70,6|2,1:2|0:0,0:0:0:0:
283,383,24984,5,0,1:0:0:0:
271,306,25146,1,2,0:0:0:0:
306,227,25308,1,2,1:3:0:0:
300,186,25390,1,0,3:0:0:0:
294,146,25471,1,2,0:0:0:0:
306,227,25633,5,0,1:0:0:0:
300,186,25715,1,0,3:0:0:0:
294,146,25796,1,2,0:0:0:0:
294,146,25957,5,6,1:2:0:0:
300,186,26038,1,0,3:0:0:0:
306,227,26120,1,2,0:0:0:0:
197,93,26281,5,4,1:0:0:0:
211,13,26444,1,2,0:0:0:0:
320,147,26606,5,10,1:2:0:0:
306,227,26769,1,2,0:0:0:0:
320,147,26930,21,0,1:0:0:0:
197,93,27092,1,2,0:0:0:0:
211,13,27254,5,10,1:2:0:0:
306,227,27417,1,2,0:0:0:0:
132,190,27579,5,0,1:0:0:0:
107,67,27741,1,2,0:0:0:0:
295,24,27903,5,10,1:2:0:0:
320,147,28065,1,2,0:0:0:0:
132,190,28227,21,0,1:0:0:0:
295,24,28390,1,2,0:0:0:0:
107,67,28552,5,14,1:2:0:0:
320,147,28714,1,2,0:0:0:0:
220,106,28876,5,4,1:0:0:0:
407,146,29038,1,2,0:0:0:0:
383,284,29200,5,10,1:2:0:0:
196,244,29362,1,2,0:0:0:0:
383,284,29525,21,0,1:0:0:0:
196,244,29687,1,2,0:0:0:0:
220,106,29849,5,10,1:2:0:0:
407,146,30011,1,2,0:0:0:0:
111,298,30173,5,0,1:0:0:0:
88,195,30335,1,2,0:0:0:0:
220,106,30498,1,10,1:2:0:0:
340,202,30660,1,2,0:0:0:0:
275,384,30822,6,0,L|194:369,1,70,0|2,1:0|0:0,0:0:0:0:
390,141,31146,2,0,L|458:128,1,70,10|2,1:2|0:0,0:0:0:0:
231,77,31471,5,4,1:0:0:0:
94,115,31633,1,2,0:0:0:0:
11,4,31795,5,10,1:2:0:0:
94,115,31957,1,2,0:0:0:0:
231,77,32119,5,0,1:0:0:0:
168,116,32200,1,0,3:0:0:0:
94,115,32281,1,2,0:0:0:0:
34,72,32362,1,0,3:0:0:0:
11,4,32444,2,0,L|89:-13,1,70,10|2,1:2|0:0,0:0:0:0:
153,205,32768,5,4,1:2:0:0:
22,253,32930,1,2,0:0:0:0:
129,343,33092,5,10,1:2:0:0:
22,253,33254,1,2,0:0:0:0:
153,205,33417,5,0,1:0:0:0:
73,191,33498,1,0,3:0:0:0:
22,253,33579,1,2,0:0:0:0:
49,329,33661,1,0,3:0:0:0:
129,343,33741,2,0,P|160:313|237:301,1,105,10|2,1:2|0:0,0:0:0:0:
384,379,33984,1,0,0:0:0:0:
388,383,34065,5,4,1:0:0:0:
354,153,34227,2,0,L|295:150,1,52.5000020027161,10|0,0:0|0:0,0:0:0:0:
384,84,34390,5,0,1:0:0:0:
350,314,34552,2,0,L|286:315,1,52.5000020027161,10|0,0:0|0:0,0:0:0:0:
388,383,34714,5,0,1:0:0:0:
354,153,34876,2,0,L|295:150,1,52.5000020027161,10|0,0:0|0:0,0:0:0:0:
384,84,35039,5,0,1:0:0:0:
350,314,35201,2,0,L|286:315,1,52.5000020027161,10|0,0:0|0:0,0:0:0:0:
178,224,35363,6,0,B|352:207|300:253|499:240,1,315.000012016297,14|0,1:0|0:0,0:0:0:0:
24,249,36011,5,2,1:0:0:0:
491,242,36335,5,2,1:0:0:0:
434,24,36498,5,0,3:0:0:0:
438,28,36579,1,0,3:0:0:0:
442,32,36660,1,6,1:1:0:0:
225,86,36822,1,2,0:0:0:0:
219,213,36984,5,8,1:2:0:0:
325,10,37146,1,2,0:0:0:0:
167,148,37308,6,0,P|129:137|44:135,1,105.000004005432,0|2,1:2|0:0,0:0:0:0:
325,10,37633,5,8,1:2:0:0:
219,213,37795,1,2,0:0:0:0:
225,86,37957,5,0,1:2:0:0:
442,32,38119,1,2,0:0:0:0:
167,148,38281,6,0,P|129:137|44:135,1,105.000004005432,8|2,1:2|0:0,0:0:0:0:
97,296,38606,5,0,1:2:0:0:
222,383,38768,1,2,0:0:0:0:
144,361,38930,1,8,1:2:0:0:
294,349,39092,1,2,0:0:0:0:
28,367,39254,5,0,1:2:0:0:
55,216,39417,1,2,0:0:0:0:
203,158,39579,5,8,1:2:0:0:
325,255,39741,1,2,0:0:0:0:
87,299,39903,6,0,L|193:314,1,105.000004005432,0|2,1:2|0:0,0:0:0:0:
28,367,40227,5,8,1:2:0:0:
325,255,40390,1,2,0:0:0:0:
55,216,40552,5,0,1:2:0:0:
203,158,40714,1,2,0:0:0:0:
87,299,40876,6,0,L|193:314,1,105.000004005432,8|2,1:2|0:0,0:0:0:0:
425,232,41200,5,0,1:2:0:0:
512,107,41362,1,2,0:0:0:0:
490,185,41524,1,8,1:2:0:0:
478,35,41686,1,2,0:0:0:0:
361,178,41849,5,4,1:2:0:0:
292,88,42011,1,2,0:0:0:0:
150,93,42173,5,8,1:2:0:0:
55,216,42335,1,2,0:0:0:0:
150,93,42498,6,0,P|143:63|99:-8,1,105.000004005432,0|2,1:2|0:0,0:0:0:0:
361,178,42822,5,8,1:2:0:0:
292,88,42984,1,2,0:0:0:0:
150,93,43146,5,0,1:2:0:0:
55,216,43308,1,2,0:0:0:0:
245,295,43471,6,0,P|261:268|280:187,1,105.000004005432,8|2,1:2|0:0,0:0:0:0:
131,331,43795,5,0,1:2:0:0:
360,257,43957,1,2,0:0:0:0:
155,215,44119,5,8,1:2:0:0:
334,376,44281,1,2,0:0:0:0:
360,257,44444,5,0,1:2:0:0:
334,376,44606,1,2,0:0:0:0:
131,331,44768,1,8,1:2:0:0:
150,93,44930,6,0,P|143:63|99:-8,1,105.000004005432,2|0,0:0|1:2,0:0:0:0:
150,93,45254,1,2,0:0:0:0:
344,141,45417,5,8,1:2:0:0:
492,13,45579,1,2,0:0:0:0:
344,141,45741,5,0,1:2:0:0:
394,326,45903,1,2,0:0:0:0:
344,141,46065,5,8,1:2:0:0:
472,265,46227,2,0,P|420:286|389:343,1,105.000004005432,2|0,0:0|1:2,0:0:0:0:
129,165,46552,6,0,P|195:205|261:202,1,105.000004005432,2|8,0:0|1:2,0:0:0:0:
290,232,46795,1,0,3:0:0:0:
304,306,46876,1,2,0:0:0:0:
247,358,46957,1,0,3:0:0:0:
177,340,47038,5,4,1:1:0:0:
218,124,47200,1,2,0:0:0:0:
345,90,47363,5,8,1:2:0:0:
304,306,47525,1,2,0:0:0:0:
81,232,47687,6,0,B|9:245|9:245|56:255,1,105.000004005432,0|2,1:2|0:0,0:0:0:0:
304,306,48011,5,8,1:2:0:0:
177,340,48173,1,2,0:0:0:0:
218,124,48335,5,0,1:2:0:0:
345,90,48498,1,2,0:0:0:0:
380,282,48660,6,0,B|452:269|452:269|405:259,1,105.000004005432,8|2,1:2|0:0,0:0:0:0:
362,190,48984,5,0,1:2:0:0:
218,124,49146,1,2,0:0:0:0:
362,191,49308,1,8,1:2:0:0:
170,0,49471,1,2,0:0:0:0:
292,222,49633,6,0,L|179:201,1,105.000004005432,0|2,1:2|0:0,0:0:0:0:
46,290,49957,1,8,1:2:0:0:
380,281,50119,6,0,L|493:302,1,105.000004005432,2|0,0:0|1:2,0:0:0:0:
188,202,50444,2,0,L|292:222,1,105.000004005432,2|8,0:0|1:2,0:0:0:0:
292,222,50768,2,0,L|188:202,1,105.000004005432,2|0,0:0|1:2,0:0:0:0:
110,190,51092,5,2,0:0:0:0:
153,284,51254,2,0,P|170:352|135:411,1,105.000004005432,8|2,1:2|0:0,0:0:0:0:
292,222,51579,5,0,1:2:0:0:
275,189,51660,1,0,3:0:0:0:
274,155,51741,1,10,0:3:0:0:
285,122,51822,1,0,3:0:0:0:
306,103,51903,2,0,L|298:46,3,52.5000020027161,4|0|2|0,1:3|0:0|0:0|0:0,0:0:0:0:
353,168,52227,5,4,1:2:0:0:
238,6,52390,1,2,0:0:0:0:
46,39,52552,5,8,1:2:0:0:
161,201,52715,1,2,0:0:0:0:
353,168,52876,6,0,P|416:176|462:165,1,105.000004005432,0|2,1:2|0:0,0:0:0:0:
46,39,53200,5,8,1:2:0:0:
161,201,53363,1,2,0:0:0:0:
353,168,53525,5,0,1:2:0:0:
238,6,53688,1,2,0:0:0:0:
353,168,53849,6,0,P|404:158|455:167,1,105.000004005432,8|2,1:2|0:0,0:0:0:0:
440,338,54173,5,0,1:2:0:0:
238,371,54335,1,2,0:0:0:0:
182,318,54498,1,8,1:2:0:0:
384,285,54660,1,2,0:0:0:0:
238,371,54822,5,2,1:3:0:0:
279,136,54984,1,2,0:0:0:0:
384,285,55146,1,8,1:2:0:0:
111,228,55308,6,0,L|89:102,1,105.000004005432,2|0,0:3|1:2,0:0:0:0:
111,228,55633,5,2,0:0:0:0:
164,76,55795,1,2,1:3:0:0:
112,311,55957,2,0,L|46:324,1,52.5000020027161,2|0,0:0|0:0,0:0:0:0:
111,228,56119,5,0,1:0:0:0:
384,285,56281,2,0,P|378:328|355:362,1,52.5000020027161,4|0,3:2|0:0,0:0:0:0:
159,298,56444,6,0,P|93:324|19:301,1,105.000004005432,8|2,1:2|0:0,0:0:0:0:
374,335,56768,2,0,P|426:338|471:365,1,105.000004005432,4|2,1:2|0:0,0:0:0:0:
60,320,57092,2,0,P|112:321|159:298,1,105.000004005432,12|2,3:2|0:0,0:0:0:0:
260,166,57417,6,0,L|248:264,1,52.5000020027161,4|0,1:2|0:0,0:0:0:0:
271,10,57579,5,0,3:0:0:0:
178,26,57741,1,8,3:1:0:0:
106,87,57903,1,0,3:0:0:0:
253,218,58065,6,0,L|260:166,1,52.5000020027161,0|0,1:2|0:0,0:0:0:0:
74,176,58227,5,0,0:0:0:0:
260,166,58390,6,0,L|248:264,1,52.5000020027161,0|0,1:2|0:0,0:0:0:0:
90,269,58552,5,0,3:0:0:0:
151,341,58714,1,8,3:1:0:0:
240,373,58876,1,0,3:0:0:0:
253,218,59038,6,0,L|260:166,1,52.5000020027161,0|0,1:2|0:0,0:0:0:0:
333,357,59200,5,0,0:0:0:0:
260,166,59363,6,0,L|248:264,1,52.5000020027161,0|0,1:2|0:0,0:0:0:0:
405,296,59525,5,0,3:0:0:0:
437,207,59687,1,8,3:1:0:0:
421,114,59849,1,0,3:0:0:0:
231,185,60011,6,0,L|329:197,1,52.5000020027161,0|0,1:2|0:0,0:0:0:0:
360,42,60173,5,0,3:0:0:0:
271,10,60335,1,8,3:1:0:0:
178,26,60497,1,0,3:0:0:0:
283,191,60659,6,0,L|231:185,1,52.5000020027161,0|0,1:2|0:0,0:0:0:0:
106,87,60821,5,0,0:0:0:0:
231,185,60984,6,0,L|329:197,1,52.5000020027161,0|0,1:2|0:0,0:0:0:0:
74,176,61146,5,0,3:0:0:0:
90,269,61308,1,8,3:1:0:0:
151,341,61470,1,0,3:0:0:0:
283,191,61632,6,0,L|231:185,1,52.5000020027161,0|0,1:2|0:0,0:0:0:0:
240,373,61794,5,0,0:0:0:0:
231,185,61957,6,0,L|329:197,1,52.5000020027161,0|0,1:2|0:0,0:0:0:0:
333,357,62119,5,0,3:0:0:0:
405,296,62281,1,8,3:1:0:0:
437,207,62443,1,0,3:0:0:0:
253,218,62606,6,0,L|260:166,1,52.5000020027161,0|0,1:2|0:0,0:0:0:0:
74,176,62769,5,0,3:0:0:0:
90,269,62931,1,8,3:1:0:0:
151,341,63093,1,0,3:0:0:0:
260,166,63254,6,0,L|253:218,1,52.5000020027161,0|0,1:2|0:0,0:0:0:0:
240,373,63417,5,0,0:0:0:0:
253,218,63579,6,0,L|260:166,1,52.5000020027161,0|0,1:2|0:0,0:0:0:0:
333,357,63742,5,0,3:0:0:0:
405,296,63904,1,8,3:1:0:0:
437,207,64066,1,0,3:0:0:0:
260,166,64227,6,0,L|253:218,1,52.5000020027161,0|0,1:2|0:0,0:0:0:0:
421,114,64390,5,0,0:0:0:0:
253,218,64552,6,0,L|260:166,1,52.5000020027161,0|0,1:2|0:0,0:0:0:0:
360,42,64714,5,0,3:0:0:0:
271,10,64876,1,8,3:1:0:0:
178,26,65038,1,0,3:0:0:0:
280,198,65200,6,0,L|182:186,1,52.5000020027161,0|0,1:2|0:0,0:0:0:0:
106,87,65362,5,0,3:0:0:0:
74,176,65524,1,8,3:1:0:0:
90,269,65686,1,0,3:0:0:0:
228,192,65849,6,0,L|280:198,1,52.5000020027161,0|0,1:2|0:0,0:0:0:0:
151,341,66010,5,0,3:0:0:0:
240,373,66173,1,8,3:1:0:0:
333,357,66335,1,0,3:0:0:0:
280,198,66498,6,0,L|228:192,1,52.5000020027161,0|0,1:2|0:0,0:0:0:0:
405,296,66659,5,0,3:0:0:0:
280,198,66822,6,0,L|228:192,1,52.5000020027161,0|0,1:2|0:0,0:0:0:0:
360,42,66984,5,0,3:0:0:0:
280,198,67146,6,0,L|182:186,1,52.5000020027161,0|0,1:2|0:0,0:0:0:0:
106,87,67308,5,0,3:0:0:0:
280,198,67471,6,0,L|228:192,1,52.5000020027161,0|0,1:2|0:0,0:0:0:0:
151,341,67633,5,0,3:0:0:0:
356,208,67795,5,4,1:2:0:0:
218,268,67957,1,2,0:0:0:0:
288,58,68119,5,8,1:2:0:0:
435,142,68281,1,2,0:0:0:0:
405,296,68444,6,0,L|269:320,1,105.000004005432,0|2,1:2|0:0,0:0:0:0:
218,268,68768,5,8,1:2:0:0:
435,142,68930,1,2,0:0:0:0:
356,208,69092,5,0,1:2:0:0:
288,58,69254,1,2,0:0:0:0:
405,296,69417,6,0,L|269:320,1,105.000004005432,8|2,1:2|0:0,0:0:0:0:
218,268,69741,5,0,1:2:0:0:
1,142,69903,1,2,0:0:0:0:
80,208,70065,5,8,1:2:0:0:
148,58,70227,1,2,0:0:0:0:
218,268,70390,5,0,1:2:0:0:
148,58,70552,1,2,0:0:0:0:
80,208,70714,5,8,1:2:0:0:
1,142,70876,1,2,0:0:0:0:
54,382,71038,6,0,L|30:246,1,105.000004005432,0|2,1:2|0:0,0:0:0:0:
1,142,71363,5,8,1:2:0:0:
148,58,71525,1,2,0:0:0:0:
80,208,71687,5,0,1:2:0:0:
218,268,71849,1,2,0:0:0:0:
54,382,72011,6,0,L|30:246,1,105.000004005432,8|2,1:2|0:0,0:0:0:0:
80,208,72335,5,0,1:2:0:0:
218,268,72497,1,2,0:0:0:0:
307,236,72660,1,8,1:2:0:0:
367,98,72822,1,2,0:0:0:0:
228,159,72984,5,0,1:2:0:0:
203,17,73146,1,2,0:0:0:0:
307,236,73308,5,8,1:2:0:0:
332,378,73470,1,2,0:0:0:0:
424,170,73633,6,0,L|406:297,1,105.000004005432,0|2,1:2|0:0,0:0:0:0:
203,17,73957,5,8,1:2:0:0:
228,159,74119,1,2,0:0:0:0:
307,236,74281,5,0,1:2:0:0:
332,378,74443,1,2,0:0:0:0:
424,170,74606,6,0,L|406:297,1,105.000004005432,8|2,1:2|0:0,0:0:0:0:
332,378,74930,5,0,1:2:0:0:
307,236,75092,1,2,0:0:0:0:
228,159,75254,5,8,1:2:0:0:
203,17,75416,1,2,0:0:0:0:
19,152,75579,2,0,B|44:143|52:168|20:168|20:168|52:168|46:193|21:187,1,105.000004005432,4|2,1:2|0:0,0:0:0:0:
98,314,75903,1,8,1:2:0:0:
256,368,76065,5,2,0:0:0:0:
244,123,76227,2,0,B|235:110|254:101|272:113|265:131|240:146|240:146|259:137|280:142,1,105.000004005432,4|2,1:2|0:0,0:0:0:0:
256,368,76552,5,8,1:2:0:0:
98,314,76714,1,2,0:0:0:0:
19,152,76876,2,0,B|44:143|52:168|20:168|20:168|52:168|46:193|21:187,1,105.000004005432,4|0,1:2|0:0,0:0:0:0:
98,314,77038,5,2,0:0:0:0:
244,123,77200,2,0,B|235:110|254:101|272:113|265:131|240:146|240:146|259:137|280:142,1,105.000004005432,12|0,1:2|0:0,0:0:0:0:
256,368,77363,1,2,0:0:0:0:
471,163,77525,6,0,B|485:162|489:155|489:155|478:191|478:191|464:188|464:188|506:201,1,105.000004005432,4|0,1:2|0:0,0:0:0:0:
414,314,77687,1,2,0:0:0:0:
475,182,77849,6,0,P|298:156|74:162,1,315.000012016297,12|0,1:2|0:0,0:0:0:0:
33,222,78173,5,4,1:1:0:0:
159,369,78335,1,2,0:0:0:0:
247,193,78498,5,8,1:2:0:0:
247,193,78579,1,0,3:0:0:0:
247,193,78660,1,2,0:0:0:0:
121,46,78822,5,0,1:2:0:0:
247,193,78984,1,2,0:0:0:0:
159,369,79146,5,8,1:2:0:0:
33,222,79308,1,2,0:0:0:0:
247,193,79471,5,0,1:2:0:0:
247,193,79552,1,0,3:0:0:0:
247,193,79633,1,2,0:0:0:0:
151,286,79795,5,8,1:2:0:0:
121,46,79957,1,2,0:0:0:0:
353,26,80119,5,0,1:2:0:0:
247,193,80281,1,2,0:0:0:0:
509,106,80444,5,8,1:2:0:0:
311,125,80606,1,2,0:0:0:0:
433,271,80768,5,0,1:1:0:0:
433,271,80849,1,0,3:0:0:0:
433,271,80930,1,2,0:0:0:0:
242,368,81092,5,8,1:2:0:0:
147,162,81254,1,2,0:0:0:0:
351,229,81416,5,0,1:2:0:0:
147,162,81579,1,2,0:0:0:0:
433,271,81741,5,8,1:2:0:0:
433,271,81822,1,0,3:0:0:0:
433,271,81903,1,2,0:0:0:0:
242,368,82065,5,0,1:2:0:0:
147,162,82227,1,2,0:0:0:0:
351,229,82389,5,8,1:2:0:0:
147,162,82552,1,2,0:0:0:0:
159,358,82714,5,0,1:2:0:0:
265,191,82876,1,2,0:0:0:0:
3,278,83039,5,8,1:2:0:0:
201,259,83201,1,2,0:0:0:0:
136,25,83363,5,4,1:2:0:0:
61,171,83525,1,2,0:0:0:0:
207,87,83687,5,8,1:2:0:0:
207,87,83768,1,0,3:0:0:0:
207,87,83849,1,2,0:0:0:0:
334,245,84011,5,0,1:2:0:0:
201,259,84173,1,2,0:0:0:0:
3,278,84335,5,8,1:2:0:0:
61,171,84498,1,2,0:0:0:0:
207,87,84660,5,0,1:2:0:0:
207,87,84741,1,0,3:0:0:0:
207,87,84822,1,2,0:0:0:0:
334,245,84984,5,8,1:2:0:0:
201,259,85146,1,2,0:0:0:0:
61,171,85308,5,0,1:2:0:0:
201,259,85471,1,2,0:0:0:0:
207,87,85633,5,8,1:2:0:0:
334,244,85795,1,2,0:0:0:0:
463,94,85957,5,0,1:1:0:0:
334,244,86119,1,2,0:0:0:0:
207,87,86281,1,8,1:2:0:0:
338,159,86444,5,2,0:0:0:0:
338,159,86525,1,0,3:0:0:0:
338,159,86606,1,0,1:2:0:0:
207,87,86768,5,2,0:0:0:0:
334,244,86930,1,8,1:2:0:0:
207,87,87092,1,2,0:0:0:0:
52,134,87254,5,2,1:3:0:0:
125,150,87417,1,2,0:0:0:0:
193,281,87579,5,10,1:2:0:0:
266,265,87742,1,2,0:0:0:0:
395,376,87903,5,2,1:3:0:0:
450,325,88066,1,2,0:0:0:0:
193,281,88227,5,10,1:2:0:0:
266,265,88390,1,10,0:3:0:0:
52,134,88552,5,4,1:1:0:0:
151,35,88714,1,2,0:0:0:0:
114,252,88876,1,8,1:2:0:0:
114,252,88957,1,0,3:0:0:0:
114,252,89038,1,2,0:0:0:0:
512,192,89200,5,0,1:2:0:0:
114,252,89362,5,2,0:0:0:0:
232,314,89524,1,8,1:2:0:0:
232,314,89605,1,0,3:0:0:0:
232,314,89686,1,2,0:0:0:0:
292,106,89849,5,0,1:2:0:0:
192,187,90011,1,2,0:0:0:0:
336,229,90173,5,8,1:2:0:0:
362,311,90335,1,2,0:0:0:0:
355,51,90498,5,0,1:2:0:0:
292,106,90660,1,2,0:0:0:0:
116,163,90822,5,8,1:2:0:0:
192,187,90984,1,2,0:0:0:0:
215,60,91146,5,0,1:1:0:0:
478,0,91308,1,2,0:0:0:0:
399,140,91471,1,8,1:2:0:0:
399,140,91552,1,0,3:0:0:0:
399,140,91633,1,2,0:0:0:0:
0,192,91795,5,0,1:2:0:0:
399,140,91957,5,2,0:0:0:0:
464,352,92120,1,8,1:2:0:0:
464,352,92201,1,0,3:0:0:0:
464,352,92282,1,2,0:0:0:0:
290,195,92444,5,0,1:2:0:0:
318,291,92606,1,2,0:0:0:0:
104,125,92768,5,8,1:2:0:0:
76,221,92930,1,2,0:0:0:0:
318,291,93092,5,0,1:2:0:0:
290,195,93254,1,10,0:3:0:0:
104,125,93417,5,10,1:2:0:0:
76,221,93579,1,4,0:3:0:0:
0,384,93741,5,4,1:2:0:0:
206,302,93903,1,2,0:0:0:0:
104,125,94065,5,8,1:2:0:0:
76,221,94227,1,2,0:0:0:0:
104,125,94390,5,0,1:2:0:0:
104,125,94471,1,0,3:0:0:0:
104,125,94552,1,2,0:0:0:0:
282,303,94714,5,8,1:2:0:0:
76,221,94876,1,2,0:0:0:0:
178,44,95038,5,0,1:2:0:0:
206,140,95200,1,2,0:0:0:0:
178,44,95363,5,8,1:2:0:0:
178,44,95444,1,0,3:0:0:0:
178,44,95525,1,2,0:0:0:0:
381,114,95687,5,0,1:2:0:0:
301,202,95849,1,2,0:0:0:0:
502,338,96011,5,8,1:2:0:0:
322,300,96173,1,2,0:0:0:0:
438,184,96335,5,0,1:1:0:0:
402,381,96498,1,2,0:0:0:0:
320,303,96660,1,8,1:2:0:0:
381,114,96822,6,0,P|376:68|354:-5,1,105.000004005432,2|0,0:0|1:2,0:0:0:0:
381,114,97146,5,2,0:0:0:0:
271,26,97308,1,8,1:2:0:0:
133,41,97471,1,2,0:0:0:0:
46,150,97633,1,0,1:2:0:0:
230,177,97795,6,0,L|207:257,1,52.5000020027161,2|0,0:3|3:0,0:0:0:0:
62,289,97957,5,8,1:2:0:0:
169,376,98119,1,2,0:0:0:0:
215,227,98281,6,0,L|232:164,1,52.5000020027161,10|8,1:3|2:3,0:0:0:0:
308,360,98444,5,10,0:3:0:0:
229,176,98606,6,0,L|206:256,1,52.5000020027161,14|4,1:3|2:3,0:0:0:0:
395,251,98768,5,6,0:3:0:0:
214,226,98930,5,4,1:0:0:0:
