osu file format v14

[General]
AudioFilename: audio.mp3
AudioLeadIn: 0
PreviewTime:42543
Countdown: 0
SampleSet: Soft
StackLeniency: 0.4
Mode: 0
LetterboxInBreaks: 0
WidescreenStoryboard: 1

[Editor]
Bookmarks:20886,94290
DistanceSpacing: 0.3
BeatDivisor: 4
GridSize: 32
TimelineZoom: 2.2

[Metadata]
Title:TRUE LOVE
TitleUnicode:TRUE♥LOVE
Artist:jun feat. Schanita
ArtistUnicode:jun feat. Schanita
Creator:Bazz B
Version:PaRaDogi's Difficult
Source:DanceDanceRevolution SuperNOVA
Tags:Nyan~ Neko Sugar Girls -mikan mikan daoski schoolboy komore nyu - lully nelliel frakturehawkens ducky- PaRaDogi DDR video game anime english electronic pop hit or miss iLOVEFRiDAY MiA KHALiFA meme dance revolution
BeatmapID:2333966
BeatmapSetID:1109953

[Difficulty]
HPDrainRate:4
CircleSize:3.5
OverallDifficulty:6
ApproachRate:7.5
SliderMultiplier:1.6
SliderTickRate:1

[Events]
//Background and Video events
0,0,"Discord_9S3faBgvUe.png",0,0
//Break Periods
//Storyboard Layer 0 (Background)
//Storyboard Layer 1 (Fail)
//Storyboard Layer 2 (Pass)
//Storyboard Layer 3 (Foreground)
//Storyboard Layer 4 (Overlay)
//Storyboard Sound Samples

[TimingPoints]
461,319.148936170213,4,2,71,39,1,0
461,-133.333333333333,4,2,71,39,0,0
500,-133.333333333333,4,2,1,39,0,0
1099,-133.333333333333,4,2,11,39,0,0
1139,-133.333333333333,4,2,1,39,0,0
3014,-133.333333333333,4,2,70,39,0,0
3054,-133.333333333333,4,2,1,39,0,0
3492,-133.333333333333,4,2,12,39,0,0
4290,-133.333333333333,4,2,71,39,0,0
4330,-133.333333333333,4,2,1,39,0,0
5567,-133.333333333333,4,2,71,39,0,0
5607,-133.333333333333,4,2,1,39,0,0
6205,-133.333333333333,4,2,13,49,0,0
6245,-133.333333333333,4,2,1,49,0,0
8120,-133.333333333333,4,2,14,49,0,0
8160,-133.333333333333,4,2,1,49,0,0
9397,-133.333333333333,4,2,15,69,0,0
9437,-133.333333333333,4,2,1,69,0,0
9636,-133.333333333333,4,2,74,69,0,0
9676,-133.333333333333,4,2,1,69,0,0
9875,-133.333333333333,4,2,75,69,0,0
10035,-133.333333333333,4,2,74,69,0,0
10354,-133.333333333333,4,2,16,69,0,0
10394,-133.333333333333,4,2,1,69,0,0
10673,-100,4,2,17,89,0,0
10713,-100,4,2,1,89,0,0
11312,-100,4,2,18,89,0,0
11351,-100,4,2,1,89,0,0
13067,-100,4,2,19,89,0,0
13226,-100,4,2,1,89,0,0
13546,-100,4,2,20,89,0,0
13586,-100,4,2,1,89,0,0
13705,-100,4,2,40,89,0,0
13865,-100,4,2,21,89,0,0
13905,-100,4,2,1,89,0,0
14822,-100,4,2,66,89,0,0
14862,-100,4,2,1,89,0,0
15141,-100,4,2,67,89,0,0
15181,-100,4,2,1,89,0,0
15461,-100,4,2,68,89,0,0
15500,-100,4,2,1,89,0,0
15780,-100,4,2,22,89,0,0
15820,-100,4,2,1,89,0,0
17056,-100,4,2,23,89,0,0
17096,-100,4,2,1,89,0,0
18333,-100,4,2,70,89,0,0
18373,-100,4,2,1,89,0,0
19290,-100,4,2,24,79,0,0
19450,-100,4,2,1,79,0,0
19609,-100,4,2,71,79,0,0
19649,-100,4,2,1,79,0,0
22163,-133.333333333333,4,2,25,49,0,0
22203,-133.333333333333,4,2,1,49,0,0
22641,-133.333333333333,4,2,59,49,0,0
22681,-133.333333333333,4,2,1,49,0,0
22961,-133.333333333333,4,2,58,49,0,0
23000,-133.333333333333,4,2,1,49,0,0
23439,-133.333333333333,4,2,26,49,0,0
23479,-133.333333333333,4,2,1,49,0,0
23918,-133.333333333333,4,2,58,49,0,0
23958,-133.333333333333,4,2,1,49,0,0
24237,-133.333333333333,4,2,60,49,0,0
24277,-133.333333333333,4,2,1,49,0,0
24716,-133.333333333333,4,2,27,49,0,0
24756,-133.333333333333,4,2,1,49,0,0
27269,-133.333333333333,4,2,14,49,0,0
27309,-133.333333333333,4,2,1,49,0,0
27748,-133.333333333333,4,2,59,49,0,0
27788,-133.333333333333,4,2,1,49,0,0
28067,-133.333333333333,4,2,58,49,0,0
28107,-133.333333333333,4,2,1,49,0,0
28546,-133.333333333333,4,2,28,49,0,0
28586,-133.333333333333,4,2,1,49,0,0
29024,-133.333333333333,4,2,58,49,0,0
29064,-133.333333333333,4,2,1,49,0,0
29343,-133.333333333333,4,2,60,49,0,0
29383,-133.333333333333,4,2,1,49,0,0
31099,-133.333333333333,4,2,60,69,0,0
31258,-133.333333333333,4,2,63,69,0,0
31298,-133.333333333333,4,2,1,69,0,0
31578,-133.333333333333,4,2,60,69,0,0
31617,-133.333333333333,4,2,1,69,0,0
31897,-133.333333333333,4,2,64,69,0,0
31937,-133.333333333333,4,2,1,69,0,0
32375,-133.333333333333,4,2,29,59,0,0
32415,-133.333333333333,4,2,1,59,0,0
32695,-133.333333333333,4,2,58,59,0,0
32734,-133.333333333333,4,2,1,59,0,0
33333,-133.333333333333,4,2,58,59,0,0
33492,-133.333333333333,4,2,59,59,0,0
33532,-133.333333333333,4,2,1,59,0,0
33971,-133.333333333333,4,2,68,59,0,0
34290,-133.333333333333,4,2,67,59,0,0
34330,-133.333333333333,4,2,1,59,0,0
34609,-133.333333333333,4,2,73,59,0,0
34649,-133.333333333333,4,2,1,59,0,0
34929,-133.333333333333,4,2,30,59,0,0
34968,-133.333333333333,4,2,1,59,0,0
35248,-133.333333333333,4,2,58,59,0,0
35288,-133.333333333333,4,2,1,59,0,0
35886,-133.333333333333,4,2,58,59,0,0
36046,-133.333333333333,4,2,31,59,0,0
36086,-133.333333333333,4,2,1,59,0,0
36365,-133.333333333333,4,2,59,59,0,0
36524,-133.333333333333,4,2,68,59,0,0
36684,-133.333333333333,4,2,67,59,0,0
36724,-133.333333333333,4,2,1,59,0,0
37003,-133.333333333333,4,2,68,59,0,0
37043,-133.333333333333,4,2,1,59,0,0
37482,-133.333333333333,4,2,32,59,0,0
37522,-133.333333333333,4,2,1,59,0,0
37801,-133.333333333333,4,2,58,59,0,0
37841,-133.333333333333,4,2,1,59,0,0
38439,-133.333333333333,4,2,58,59,0,0
38599,-133.333333333333,4,2,59,59,0,0
38639,-133.333333333333,4,2,1,59,0,0
38758,-133.333333333333,4,2,59,59,0,0
39077,-133.333333333333,4,2,1,59,0,0
39716,-133.333333333333,4,2,33,59,0,0
39756,-133.333333333333,4,2,1,59,0,0
40035,-133.333333333333,4,2,70,59,0,0
40075,-133.333333333333,4,2,1,59,0,0
41312,-133.333333333333,4,2,61,69,0,0
41351,-133.333333333333,4,2,1,69,0,0
41790,-133.333333333333,4,2,61,69,0,0
41830,-133.333333333333,4,2,1,69,0,0
42109,-133.333333333333,4,2,61,69,0,0
42588,-100,4,2,10,79,0,0
42628,-100,4,2,1,79,0,0
42907,-100,4,2,34,79,0,0
42947,-100,4,2,1,79,0,0
43864,-100,4,2,35,79,0,0
44024,-100,4,2,1,79,0,0
45141,-100,4,2,36,79,0,0
45181,-100,4,2,1,79,0,0
45461,-100,4,2,10,79,0,0
45500,-100,4,2,1,79,0,0
46418,-100,4,2,37,79,0,0
46458,-100,4,2,1,79,0,0
47695,-100,4,2,10,79,0,0
47734,-100,4,2,1,79,0,0
48014,-100,4,2,38,79,0,0
48054,-100,4,2,1,79,0,0
50248,-100,4,2,90,79,0,0
50288,-100,4,2,1,79,0,0
51205,-100,4,2,91,79,0,0
51245,-100,4,2,1,79,0,0
51524,-100,4,2,61,79,0,0
51564,-100,4,2,1,79,0,0
51763,-100,4,2,62,79,0,0
51804,-100,4,2,1,79,0,0
52002,-100,4,2,60,79,0,0
52163,-100,4,2,62,79,0,0
52203,-100,4,2,1,79,0,0
52482,-100,4,2,62,79,0,0
52522,-100,4,2,1,79,0,0
52801,-100,4,2,17,89,0,0
52841,-100,4,2,1,89,0,0
53120,-100,4,2,41,89,0,0
53280,-100,4,2,1,89,0,0
55354,-100,4,2,42,89,0,0
55394,-100,4,2,1,89,0,0
56631,-100,4,2,67,89,0,0
56671,-100,4,2,1,89,0,0
57907,-100,4,2,17,89,0,0
57947,-100,4,2,1,89,0,0
58226,-100,4,2,43,89,0,0
58386,-100,4,2,1,89,0,0
60461,-100,4,2,44,89,0,0
60500,-100,4,2,1,89,0,0
61737,-100,4,2,63,89,0,0
61937,-100,4,2,1,89,0,0
62216,-100,4,2,65,89,0,0
62256,-100,4,2,1,89,0,0
62535,-100,4,2,64,89,0,0
62695,-100,4,2,1,89,0,0
63014,-100,4,2,10,89,0,0
63054,-100,4,2,1,89,0,0
63333,-100,4,2,45,89,0,0
63373,-100,4,2,1,89,0,0
65726,-100,4,2,46,89,0,0
65886,-100,4,2,1,89,0,0
67163,-100,4,2,67,89,0,0
67203,-100,4,2,1,89,0,0
67482,-100,4,2,68,89,0,0
67522,-100,4,2,1,89,0,0
67801,-100,4,2,78,89,0,0
67841,-100,4,2,1,89,0,0
68120,-100,4,2,79,89,0,0
68160,-100,4,2,1,89,0,0
68439,-100,4,2,47,89,0,0
68479,-100,4,2,1,89,0,0
70992,-100,4,2,48,89,0,0
71152,-100,4,2,1,89,0,0
71950,-100,4,2,80,89,0,0
72109,-100,4,2,1,89,0,0
73226,-100,4,2,49,89,0,0
73704,-100,4,2,49,39,0,0
73865,319.148936170213,4,2,87,49,1,0
74184,-100,4,2,62,49,0,0
74503,-133.333333333333,4,2,86,49,0,0
74543,-133.333333333333,4,2,1,49,0,0
75460,-133.333333333333,4,2,50,49,0,0
76418,-133.333333333333,4,2,81,49,0,0
76458,-133.333333333333,4,2,1,49,0,0
76737,-133.333333333333,4,2,51,49,0,0
77695,-133.333333333333,4,2,52,49,0,0
77734,-133.333333333333,4,2,1,49,0,0
78971,-133.333333333333,4,2,10,49,0,0
79011,-133.333333333333,4,2,1,49,0,0
79290,-133.333333333333,4,2,62,49,0,0
79330,-133.333333333333,4,2,1,49,0,0
81524,-133.333333333333,4,2,66,49,0,0
81564,-133.333333333333,4,2,1,49,0,0
82481,-133.333333333333,4,2,39,49,0,0
82641,-133.333333333333,4,2,1,49,0,0
82801,-133.333333333333,4,2,54,49,0,0
82841,-133.333333333333,4,2,1,49,0,0
84078,-100,4,2,17,89,0,0
84117,-100,4,2,1,89,0,0
84237,-100,4,2,17,89,0,0
84397,-100,4,2,55,89,0,0
84556,-100,4,2,1,89,0,0
86312,-100,4,2,88,89,0,0
86471,-100,4,2,1,89,0,0
86631,-100,4,2,83,89,0,0
86671,-100,4,2,1,89,0,0
87908,-100,4,2,67,89,0,0
87947,-100,4,2,1,89,0,0
88226,-100,4,2,89,89,0,0
88386,-100,4,2,1,89,0,0
89184,-100,4,2,17,89,0,0
89224,-100,4,2,1,89,0,0
91418,-100,4,2,85,89,0,0
91578,-100,4,2,1,89,0,0
91737,-100,4,2,84,89,0,0
91897,-100,4,2,1,89,0,0
93014,-100,4,2,56,89,0,0
93173,-100,4,2,63,89,0,0
93333,-100,4,2,1,89,0,0
93493,-100,4,2,65,89,0,0
93532,-100,4,2,1,89,0,0
93812,-100,4,2,64,89,0,0
93851,-100,4,2,1,89,0,0
94290,-100,4,2,57,89,0,0

[Colours]
Combo1 : 60,228,253
Combo2 : 255,183,219
Combo3 : 155,0,78
Combo4 : 0,128,192

[HitObjects]
16,45,461,6,0,P|44:27|79:32,1,60.0000022888184,6|0,1:2|2:0,2:0:0:0:
141,64,780,1,0,2:0:0:0:
289,0,1099,2,0,P|321:6|314:86,1,120.000004577637,2|0,2:0|2:0,2:0:0:0:
265,131,1578,1,0,2:0:0:0:
381,251,1897,6,0,L|370:313,1,60.0000022888184,0|0,2:0|2:0,2:0:0:0:
314,365,2216,1,0,2:0:0:0:
167,286,2535,2,0,P|131:288|87:362,1,120.000004577637,0|0,2:0|2:0,2:0:0:0:
8,363,3014,6,0,L|-5:288,1,60.0000022888184,4|0,2:0|2:0,2:0:0:0:
35,233,3333,1,0,2:0:0:0:
35,233,3492,1,2,2:0:0:0:
3,75,3812,2,0,P|37:60|103:108,1,120.000004577637,0|0,2:0|2:0,2:0:0:0:
161,153,4290,6,0,L|223:136,2,60.0000022888184,6|0|0,2:0|2:0|2:0,2:0:0:0:
128,225,4769,1,0,2:0:0:0:
275,360,5248,2,0,P|314:365|332:345,1,60.0000022888184,0|0,2:0|2:0,2:0:0:0:
383,294,5567,6,0,L|366:229,1,60.0000022888184,6|2,2:0|2:0,2:0:0:0:
390,161,5886,1,0,2:0:0:0:
297,21,6205,2,0,P|258:17|223:82,1,120.000004577637,2|0,2:3|2:0,2:0:0:0:
175,144,6684,2,0,P|192:169|194:214,1,60.0000022888184,2|0,2:0|2:0,2:0:0:0:
162,271,7003,5,2,2:0:0:0:
162,271,7163,1,0,2:0:0:0:
206,342,7322,2,0,L|265:323,2,60.0000022888184,2|0|2,2:0|2:0|2:0,2:0:0:0:
136,382,7801,1,0,2:0:0:0:
136,382,7961,6,0,P|103:342|23:344,1,120.000004577637,2|2,2:0|2:0,2:0:0:0:
1,266,8439,1,0,2:0:0:0:
1,266,8599,2,0,B|15:238|15:238|-7:148,1,120.000004577637,2|2,2:0|2:0,2:0:0:0:
36,84,9078,2,0,L|98:65,1,60.0000022888184,0|2,2:0|2:0,2:0:0:0:
152,11,9397,6,0,L|263:29,2,90.0000034332277,6|12|4,1:2|1:2|1:2,2:0:0:0:
93,66,10035,1,12,1:2:0:0:
200,189,10354,2,0,L|192:224,3,30.0000011444092,14|8|8|8,1:2|2:0|2:0|2:0,2:0:0:0:
201,259,10673,6,0,P|240:287|285:269,1,80,4|2,1:2|2:0,2:0:0:0:
333,329,10992,2,0,P|375:308|412:322,1,80,8|2,2:0|2:0,2:0:0:0:
469,272,11312,2,0,L|494:143,1,120,2|0,1:3|2:0,2:0:0:0:
488,115,11631,1,8,2:0:0:0:
421,73,11790,1,2,2:0:0:0:
348,110,11950,6,0,P|308:99|288:55,1,80,0|2,1:0|2:0,2:0:0:0:
231,13,12269,2,0,P|190:20|166:55,1,80,8|2,2:0|2:0,2:0:0:0:
88,57,12588,2,0,L|126:180,1,120,0|0,1:0|2:0,2:0:0:0:
126,209,12907,1,8,2:0:0:0:
88,277,13067,1,2,2:3:0:0:
134,342,13226,6,0,P|177:356|210:343,1,80,0|2,1:0|2:0,2:0:0:0:
283,373,13546,2,0,P|319:337|359:338,1,80,8|2,2:0|2:0,2:0:0:0:
422,361,13865,2,0,P|463:349|454:249,1,160,2|8,1:3|2:0,2:0:0:0:
465,172,14343,1,2,2:0:0:0:
400,126,14503,6,0,L|313:140,1,80,0|2,1:0|2:0,2:0:0:0:
265,193,14822,2,0,L|165:184,1,80,10|2,2:3|2:0,2:0:0:0:
117,146,15141,2,0,P|101:106|154:50,1,120,2|0,1:2|2:0,2:0:0:0:
176,26,15461,2,0,L|255:33,1,80,10|2,2:0|2:0,2:0:0:0:
335,5,15780,6,0,P|379:27|388:62,1,80,6|2,1:2|2:0,2:0:0:0:
451,103,16099,2,0,P|431:157|450:188,1,80,8|2,2:0|2:0,2:0:0:0:
494,231,16418,2,0,P|509:271|455:326,1,120,0|0,1:0|2:0,2:0:0:0:
437,353,16737,1,8,2:0:0:0:
366,318,16897,1,2,2:0:0:0:
301,363,17056,6,0,L|214:350,1,80,2|2,1:3|2:0,2:0:0:0:
165,295,17375,2,0,L|85:314,1,80,8|2,2:0|2:0,2:0:0:0:
20,271,17695,2,0,P|14:197|98:168,1,160,0|8,1:0|2:0,2:0:0:0:
147,118,18173,1,2,2:0:0:0:
214,164,18333,6,0,P|261:171|293:154,1,80,4|2,1:2|2:0,2:0:0:0:
349,106,18652,2,0,P|388:98|432:125,1,80,8|2,2:0|2:0,2:0:0:0:
477,172,18971,2,0,L|446:296,1,120,0|0,1:0|2:0,2:0:0:0:
454,330,19290,1,8,2:0:0:0:
388,371,19450,1,2,2:0:0:0:
321,331,19609,6,0,P|275:318|239:336,1,80,4|2,1:2|2:0,2:0:0:0:
174,300,19929,2,0,P|140:320|94:309,1,80,8|2,2:0|2:0,2:0:0:0:
38,267,20248,2,0,B|17:231|17:231|59:97,1,160,0|8,1:0|1:2,2:0:0:0:
25,44,20726,1,2,1:2:0:0:
95,2,20886,5,12,2:1:0:0:
161,48,21046,2,0,L|199:34,2,40,8|8|8,2:1|2:1|2:1,2:0:0:0:
171,138,21365,2,0,L|133:124,2,40,8|8|8,2:1|2:1|2:1,2:0:0:0:
206,211,21684,1,8,2:1:0:0:
279,179,21843,2,0,L|320:163,3,40,8|8|8|8,1:0|2:1|1:0|1:0,2:0:0:0:
350,131,22163,6,0,P|392:144|402:229,1,120.000004577637,4|8,1:2|2:0,2:0:0:0:
383,285,22641,2,0,L|317:295,1,60.0000022888184,4|0,2:0|1:0,2:0:0:0:
260,341,22961,2,0,L|192:337,1,60.0000022888184,4|8,2:0|2:1,2:0:0:0:
138,292,23280,1,8,2:1:0:0:
129,292,23359,1,8,2:1:0:0:
120,292,23439,6,0,L|51:300,1,60.0000022888184,2|0,1:2|2:0,2:0:0:0:
1,244,23758,1,8,2:0:0:0:
1,244,23918,2,0,P|-11:201|9:175,1,60.0000022888184,4|0,2:0|1:0,2:0:0:0:
57,142,24237,2,0,P|70:115|61:86,1,60.0000022888184,4|8,2:0|2:1,2:0:0:0:
97,16,24556,1,8,2:1:0:0:
106,16,24636,1,8,2:1:0:0:
115,16,24716,6,0,B|168:14|168:14|175:15|175:15|238:15,1,120.000004577637,2|8,1:2|2:0,2:0:0:0:
309,46,25195,2,0,P|321:87|303:118,1,60.0000022888184,0|0,2:0|1:0,2:0:0:0:
267,162,25514,2,0,P|242:207|257:235,1,60.0000022888184,0|0,2:0|2:0,2:0:0:0:
263,290,25833,1,0,2:0:0:0:
263,290,25992,6,0,B|285:309|285:309|393:288,1,120.000004577637,0|8,1:0|2:0,2:0:0:0:
428,233,26471,2,0,B|443:207|443:207|435:175,1,60.0000022888184,0|0,2:0|1:0,2:0:0:0:
482,114,26790,1,0,2:0:0:0:
437,48,26950,2,0,L|395:46,3,30.0000011444092,8|8|8|8,2:1|2:1|2:1|2:1,2:0:0:0:
363,14,27269,6,0,B|332:31|332:31|228:14,1,120.000004577637,4|8,1:2|2:0,2:0:0:0:
171,0,27748,2,0,P|135:17|123:48,1,60.0000022888184,4|0,2:0|1:0,2:0:0:0:
72,90,28067,2,0,P|84:123|86:157,1,60.0000022888184,4|8,2:0|2:1,2:0:0:0:
42,212,28386,1,8,2:1:0:0:
47,219,28466,1,8,2:1:0:0:
51,226,28546,6,0,L|47:295,1,60.0000022888184,2|0,1:2|2:0,2:0:0:0:
99,349,28865,1,8,2:0:0:0:
99,349,29024,2,0,P|143:361|168:348,1,60.0000022888184,4|0,2:0|1:0,2:0:0:0:
218,307,29343,2,0,P|261:295|286:312,1,60.0000022888184,4|8,2:0|2:1,2:0:0:0:
341,344,29663,1,8,2:1:0:0:
349,340,29742,1,8,2:1:0:0:
357,337,29822,6,0,L|483:285,1,120.000004577637,0|8,1:0|2:0,2:0:0:0:
503,219,30301,2,0,P|483:191|453:188,1,60.0000022888184,0|0,2:0|1:0,2:0:0:0:
392,142,30620,2,0,P|362:163|325:168,1,60.0000022888184,0|8,2:0|2:0,2:0:0:0:
266,139,30939,1,0,2:0:0:0:
214,198,31099,5,4,1:2:0:0:
214,198,31258,2,0,L|232:262,1,60.0000022888184,4|8,2:0|2:0,2:0:0:0:
203,328,31578,2,0,P|159:352|126:345,1,60.0000022888184,4|8,2:0|1:2,2:0:0:0:
74,330,31897,2,0,B|46:299|46:299|83:207,1,120.000004577637,4|8,2:0|2:0,2:0:0:0:
41,153,32375,6,0,L|33:64,1,90.0000034332277,4|0,1:2|2:0,2:0:0:0:
66,24,32695,2,0,P|116:29|132:46,1,60.0000022888184,12|0,2:0|2:0,2:0:0:0:
183,80,33014,2,0,P|216:88|264:47,1,90.0000034332277,0|0,1:0|2:0,2:0:0:0:
279,24,33333,1,12,2:0:0:0:
357,7,33492,6,0,L|417:22,1,60.0000022888184,6|0,2:0|1:0,2:0:0:0:
494,19,33812,2,0,P|493:55|461:82,1,60.0000022888184,0|10,2:0|2:0,2:0:0:0:
419,125,34131,1,0,2:0:0:0:
419,125,34290,2,0,L|434:186,1,60.0000022888184,2|0,1:2|2:0,2:0:0:0:
494,235,34609,2,0,L|480:295,1,60.0000022888184,10|0,2:0|2:0,2:0:0:0:
426,350,34929,6,0,P|390:345|366:298,1,90.0000034332277,4|0,1:2|2:0,2:0:0:0:
344,257,35248,2,0,P|310:242|266:256,1,60.0000022888184,12|0,2:0|2:0,2:0:0:0:
219,284,35567,2,0,P|177:306|128:293,1,90.0000034332277,0|0,1:0|2:0,2:0:0:0:
97,287,35886,1,12,2:0:0:0:
53,220,36046,6,0,L|70:158,1,60.0000022888184,6|0,2:0|1:0,2:0:0:0:
68,85,36365,1,2,2:0:0:0:
68,85,36524,1,10,2:0:0:0:
122,27,36684,2,0,P|159:43|160:69,1,60.0000022888184,2|0,2:0|1:0,2:0:0:0:
242,64,37003,2,0,B|261:94|261:94|241:177,1,120.000004577637,2|0,2:0|2:0,2:0:0:0:
261,257,37482,6,0,P|287:289|337:293,1,90.0000034332277,4|0,1:2|2:0,2:0:0:0:
369,332,37801,2,0,L|437:316,1,60.0000022888184,12|0,2:0|2:0,2:0:0:0:
508,323,38120,2,0,P|519:293|494:234,1,90.0000034332277,0|0,1:0|2:0,2:0:0:0:
465,218,38439,1,12,2:0:0:0:
504,148,38599,6,0,L|488:85,1,60.0000022888184,4|2,2:0|1:2,2:0:0:0:
427,40,38918,2,0,P|378:46|357:75,1,60.0000022888184,0|8,2:0|2:0,2:0:0:0:
330,120,39237,1,0,2:0:0:0:
330,120,39397,2,0,L|262:108,1,60.0000022888184,0|0,1:0|2:0,2:0:0:0:
212,57,39716,2,0,L|136:75,1,60.0000022888184,10|0,2:0|2:0,2:0:0:0:
91,118,40035,6,0,B|70:145|70:145|108:242,1,120.000004577637,2|8,1:2|2:0,2:0:0:0:
72,298,40514,1,0,2:0:0:0:
72,298,40673,2,0,P|90:324|126:328,1,60.0000022888184,0|0,1:0|2:0,2:0:0:0:
183,374,40992,2,0,P|225:356|248:358,1,60.0000022888184,8|0,2:0|2:0,2:0:0:0:
312,317,41312,6,0,P|328:286|292:217,1,120.000004577637,12|0,1:2|1:0,2:0:0:0:
226,172,41790,2,0,L|239:111,1,60.0000022888184,12|0,2:0|1:0,2:0:0:0:
214,39,42109,1,12,2:0:0:0:
287,4,42269,2,0,L|321:14,3,30.0000011444092,0|0|0|0,1:0|1:0|1:0|1:0,2:0:0:0:
368,6,42588,6,0,B|399:32|399:32|404:86,1,80,6|0,1:2|2:0,2:0:0:0:
473,137,42907,2,0,B|450:173|450:173|459:211,1,80,6|0,1:2|2:0,2:0:0:0:
431,306,43226,2,0,B|406:337|406:337|276:315,1,160,0|0,1:0|1:0,2:0:0:0:
223,245,43705,2,0,P|175:257|154:298,1,80,0|2,2:0|1:3,2:0:0:0:
87,352,44024,5,0,2:0:0:0:
12,286,44184,1,0,1:0:0:0:
79,213,44343,2,0,P|89:148|72:133,1,80,0|0,2:0|1:0,2:0:0:0:
21,69,44663,2,0,B|44:36|44:36|172:59,1,160,0|0,2:0|2:0,2:0:0:0:
248,4,45141,6,0,P|263:44|257:91,1,80,6|0,1:2|2:0,2:0:0:0:
195,159,45461,2,0,P|182:207|201:258,1,80,6|0,1:2|2:0,2:0:0:0:
263,306,45780,2,0,L|356:318,1,80,0|0,1:0|2:0,2:0:0:0:
434,360,46099,1,0,1:0:0:0:
503,291,46258,1,0,2:0:0:0:
415,245,46418,6,0,B|426:171|426:171|424:164|424:164|441:80,1,160,2|0,1:3|1:0,2:0:0:0:
374,14,46897,2,0,P|327:15|305:52,1,80,0|0,2:0|1:0,2:0:0:0:
268,129,47216,1,0,2:0:0:0:
221,213,47375,2,0,L|136:228,1,80,0|0,1:0|2:0,2:0:0:0:
52,178,47695,6,0,P|39:140|57:102,1,80,6|0,1:2|2:0,2:0:0:0:
96,17,48014,2,0,L|178:33,1,80,6|0,1:2|2:0,2:0:0:0:
270,2,48333,2,0,B|323:-10|323:-10|423:60,1,160,0|0,1:0|1:0,2:0:0:0:
510,82,48812,6,0,L|481:160,1,80,0|0,2:0|1:0,2:0:0:0:
405,220,49131,1,0,2:0:0:0:
461,301,49290,1,0,1:0:0:0:
386,368,49450,2,0,P|340:356|328:319,1,80,0|0,2:0|1:0,2:0:0:0:
265,252,49769,2,0,P|222:236|135:304,1,160,0|0,2:0|2:0,2:0:0:0:
47,346,50248,6,0,B|13:321|13:321|39:200,1,160,2|0,1:2|1:0,2:0:0:0:
4,113,50726,2,0,P|52:93|84:106,1,80,0|0,2:0|1:0,2:0:0:0:
157,47,51046,1,0,2:0:0:0:
226,118,51205,2,0,L|212:202,1,80,2|0,1:2|2:0,2:0:0:0:
266,277,51524,6,0,B|230:296|230:296|138:277,2,120,6|4|4,1:2|1:2|1:2,2:0:0:0:
329,198,52163,2,0,L|414:218,1,80,4|0,1:2|2:0,2:0:0:0:
497,166,52482,2,0,P|505:117|480:87,1,80,4|0,1:2|2:0,2:0:0:0:
415,28,52801,6,0,L|325:44,1,80,4|2,1:2|2:0,2:0:0:0:
268,114,53120,1,10,1:2:0:0:
193,50,53280,2,0,B|152:33|152:33|73:124,1,160,2|2,2:0|2:0,2:0:0:0:
10,195,53758,1,8,1:2:0:0:
54,287,53918,6,0,P|103:312|186:251,1,160,2|2,2:0|2:0,2:0:0:0:
265,199,54397,1,8,1:2:0:0:
362,224,54556,2,0,B|383:257|383:257|376:308,1,80,2|0,2:0|1:0,2:0:0:0:
308,368,54875,1,2,2:0:0:0:
212,346,55035,1,8,1:2:0:0:
116,371,55195,6,0,B|88:342|88:342|123:215,1,160,2|2,2:0|2:0,2:0:0:0:
56,156,55673,1,8,1:2:0:0:
112,73,55833,2,0,P|147:53|217:130,1,160,2|2,2:0|2:0,2:0:0:0:
275,204,56312,1,8,1:2:0:0:
360,149,56471,1,2,2:0:0:0:
452,197,56631,6,0,B|476:228|476:228|437:348,1,160,2|8,1:2|1:2,2:0:0:0:
337,366,57109,2,0,L|242:357,1,80,2|0,2:0|1:0,2:0:0:0:
179,300,57429,2,0,L|89:324,1,80,2|8,2:0|1:2,2:0:0:0:
27,262,57748,1,2,2:0:0:0:
79,179,57907,6,0,B|97:143|97:143|69:103,1,80,4|2,1:2|2:0,2:0:0:0:
139,28,58226,1,10,1:2:0:0:
216,87,58386,2,0,L|386:67,1,160,2|2,2:0|2:0,2:0:0:0:
459,12,58865,1,8,1:2:0:0:
497,102,59024,6,0,B|476:137|476:137|499:188,1,80,2|0,2:0|1:0,2:0:0:0:
452,263,59343,1,2,2:0:0:0:
357,241,59503,1,8,1:2:0:0:
297,318,59663,2,0,P|256:339|181:264,1,160,2|2,2:0|2:0,2:0:0:0:
241,197,60141,1,8,1:2:0:0:
205,106,60301,6,0,P|145:98|97:182,1,160,2|2,2:0|2:0,2:0:0:0:
21,237,60780,1,8,1:2:0:0:
58,329,60939,2,0,B|91:351|91:351|217:324,1,160,2|2,2:0|2:0,2:0:0:0:
278,255,61418,2,0,L|362:264,1,80,8|2,1:2|2:0,2:0:0:0:
437,202,61737,5,6,1:2:0:0:
370,128,61897,2,0,L|381:41,1,80,4|8,1:2|2:0,2:0:0:0:
277,24,62216,2,0,L|288:111,1,80,4|0,1:2|2:0,2:0:0:0:
215,175,62535,1,4,1:2:0:0:
133,122,62695,2,0,L|75:117,3,40,8|8|8|8,1:2|1:0|1:0|1:0,2:0:0:0:
47,133,63014,6,0,P|15:164|21:208,1,80,4|2,1:2|2:0,2:0:0:0:
78,247,63333,2,0,P|94:291|63:333,1,80,10|2,1:2|2:0,2:0:0:0:
139,374,63652,2,0,B|169:347|169:347|224:360,1,80,0|2,1:0|2:0,2:0:0:0:
287,364,63971,2,0,L|339:351,3,40,8|0|2|0,1:2|2:0|2:0|2:0,2:0:0:0:
363,350,64290,6,0,L|377:270,1,80,0|2,1:0|2:0,2:0:0:0:
443,225,64609,2,0,L|430:137,1,80,8|2,1:2|2:0,2:0:0:0:
406,70,64929,2,0,P|348:51|308:74,1,80,0|2,1:0|2:0,2:0:0:0:
263,91,65248,2,0,L|204:79,3,40,8|0|2|0,1:2|2:0|2:0|2:0,2:0:0:0:
182,66,65567,6,0,L|93:82,1,80,0|2,1:0|2:0,2:0:0:0:
37,118,65886,2,0,P|21:164|50:206,1,80,8|2,1:2|2:0,2:0:0:0:
64,261,66205,2,0,L|185:242,1,120,0|0,1:0|2:0,2:0:0:0:
210,266,66524,1,8,1:2:0:0:
268,211,66684,1,2,2:0:0:0:
352,223,66843,6,0,P|380:253|362:310,1,80,0|2,1:0|2:0,2:0:0:0:
343,360,67163,2,0,L|259:374,1,80,10|2,1:2|2:0,2:0:0:0:
186,359,67482,2,0,L|47:345,1,120,2|0,1:2|2:0,2:0:0:0:
21,326,67801,2,0,P|4:282|19:248,1,80,10|2,1:2|2:0,2:0:0:0:
66,190,68120,6,0,P|80:152|69:114,1,80,6|2,1:2|2:0,2:0:0:0:
101,43,68439,2,0,L|179:28,1,80,10|2,1:2|2:0,2:0:0:0:
257,5,68758,2,0,B|284:40|284:40|257:102,1,80,0|2,1:0|2:0,2:0:0:0:
218,131,69078,2,0,L|229:183,3,40,8|0|2|0,1:2|2:0|2:0|2:0,2:0:0:0:
257,206,69397,6,0,L|243:292,1,80,0|2,1:0|2:0,2:0:0:0:
313,328,69716,2,0,B|357:334|357:334|382:300,1,80,8|2,1:2|2:0,2:0:0:0:
431,250,70035,2,0,L|408:121,1,120,0|0,1:0|2:0,2:0:0:0:
416,84,70354,1,8,1:2:0:0:
370,20,70514,1,2,2:0:0:0:
293,2,70673,6,0,P|246:8|231:40,1,80,2|2,1:3|1:2,2:0:0:0:
184,95,70992,1,10,1:2:0:0:
224,163,71152,1,2,1:2:0:0:
201,238,71312,2,0,P|166:261|86:206,1,120,0|0,1:0|2:0,2:0:0:0:
62,206,71631,2,0,L|75:120,1,80,8|2,1:2|1:2,2:0:0:0:
35,47,71950,5,2,1:2:0:0:
46,45,72030,1,0,1:0:0:0:
57,43,72109,1,2,1:2:0:0:
127,7,72269,2,0,L|180:-3,3,40,8|0|2|0,1:2|1:0|1:2|1:0,2:0:0:0:
198,27,72588,2,0,L|245:29,3,40,0|0|2|0,1:0|1:0|1:2|1:0,2:0:0:0:
251,72,72907,2,0,P|261:104|252:149,1,80,8|2,1:2|1:2,2:0:0:0:
270,225,73226,6,0,P|295:257|171:279,1,240,4|0,1:2|1:0,2:0:0:0:
99,332,73865,5,4,1:2:0:0:
3,196,74184,1,4,2:0:0:0:
97,56,74503,6,0,L|235:24,1,120.000004577637,2|0,2:3|2:0,2:0:0:0:
287,61,74982,1,0,2:0:0:0:
445,4,75301,2,0,P|464:37|456:64,1,60.0000022888184,0|2,2:0|2:3,2:0:0:0:
407,116,75620,1,0,2:0:0:0:
493,256,75939,2,0,B|479:289|479:289|384:310,1,120.000004577637,0|0,2:0|2:0,2:0:0:0:
317,298,76418,6,0,P|320:334|340:362,2,60.0000022888184,4|0|2,1:2|2:0|2:3,2:0:0:0:
362,232,76897,1,0,2:0:0:0:
263,98,77216,2,0,L|192:86,1,60.0000022888184,0|0,2:0|2:0,2:0:0:0:
154,26,77535,1,0,2:0:0:0:
154,26,77695,2,0,P|103:44|99:112,1,120.000004577637,6|0,1:2|2:0,2:0:0:0:
54,170,78173,1,0,2:0:0:0:
130,354,78652,1,0,1:0:0:0:
138,352,78732,1,0,2:0:0:0:
146,350,78812,1,0,2:0:0:0:
201,292,78971,6,0,P|255:297|261:309,1,60.0000022888184,6|2,1:2|2:0,2:0:0:0:
312,351,79290,2,0,P|346:360|371:344,1,60.0000022888184,4|2,2:0|2:0,2:0:0:0:
431,297,79609,2,0,L|457:166,1,120.000004577637,0|0,2:0|2:0,2:0:0:0:
410,113,80088,1,2,2:0:0:0:
270,199,80407,2,0,L|190:189,1,60.0000022888184,2|0,2:0|2:0,2:0:0:0:
145,148,80726,2,0,L|23:181,1,120.000004577637,2|2,2:0|2:0,2:0:0:0:
26,15,81365,1,2,2:0:0:0:
26,15,81524,6,0,P|62:4|118:58,1,120.000004577637,2|0,1:3|2:0,2:0:0:0:
193,79,82003,1,2,2:0:0:0:
343,6,82322,2,0,L|408:19,1,60.0000022888184,2|2,2:0|2:0,2:0:0:0:
481,6,82641,1,2,2:0:0:0:
481,6,82801,2,0,L|497:100,2,90.0000034332277,2|0|0,1:2|2:0|2:0,2:0:0:0:
401,17,83439,1,0,2:0:0:0:
275,131,83758,1,4,2:0:0:0:
127,40,84078,6,0,P|73:66|74:106,1,80,4|0,1:2|2:0,2:0:0:0:
73,181,84397,1,10,1:2:0:0:
131,262,84556,2,0,B|200:243|200:243|215:250|215:250|290:226,1,160,2|2,2:0|2:0,2:0:0:0:
347,153,85035,1,8,1:2:0:0:
444,188,85194,6,0,P|473:236|426:331,1,160,2|2,2:0|2:0,2:0:0:0:
343,366,85673,1,8,1:2:0:0:
269,304,85833,2,0,L|188:328,1,80,2|0,2:0|1:0,2:0:0:0:
105,282,86152,1,2,2:0:0:0:
146,195,86312,1,10,1:2:0:0:
74,134,86471,6,0,B|86:95|86:95|208:70,1,160,2|2,2:0|2:0,2:0:0:0:
286,14,86950,1,8,1:2:0:0:
371,64,87109,2,0,B|356:137|356:137|361:142|361:142|345:229,1,160,2|2,2:0|2:0,2:0:0:0:
392,310,87588,1,8,1:2:0:0:
494,296,87748,1,2,2:0:0:0:
437,218,87908,6,0,B|445:174|445:174|442:170|442:170|450:131,1,80,2|2,1:2|2:0,2:0:0:0:
504,63,88226,1,10,1:2:0:0:
430,1,88386,2,0,L|337:17,1,80,2|0,2:0|1:0,2:0:0:0:
276,81,88705,2,0,B|197:73|197:73|195:69|195:69|103:58,1,160,2|2,2:0|2:0,2:0:0:0:
40,115,89184,6,0,P|23:153|36:188,1,80,4|2,1:2|2:0,2:0:0:0:
107,255,89503,1,8,1:2:0:0:
57,338,89662,2,0,B|85:366|85:366|205:348,1,160,2|2,2:0|2:0,2:0:0:0:
266,271,90141,1,8,1:2:0:0:
206,196,90301,6,0,P|204:149|243:119,1,80,2|0,2:0|1:0,2:0:0:0:
258,33,90620,1,2,2:0:0:0:
352,69,90780,1,8,1:2:0:0:
430,11,90939,2,0,P|469:25|475:138,1,160,2|2,2:0|2:0,2:0:0:0:
408,198,91418,1,10,1:2:0:0:
464,280,91578,6,0,B|445:316|445:316|394:327,1,80,2|2,2:0|1:2,2:0:0:0:
311,296,91897,1,2,2:0:0:0:
232,358,92056,1,8,1:2:0:0:
143,317,92216,2,0,P|121:278|193:202,1,160,2|2,2:0|2:0,2:0:0:0:
266,146,92695,2,0,L|255:57,1,80,8|2,1:2|2:0,2:0:0:0:
180,1,93014,5,6,1:2:0:0:
97,59,93173,1,4,1:2:0:0:
95,70,93253,1,0,2:0:0:0:
93,81,93333,1,8,2:0:0:0:
26,153,93493,2,0,L|36:232,1,80,4|8,1:2|2:0,2:0:0:0:
70,323,93812,6,0,B|117:308|150:324|148:346|172:373|244:364,1,160,4|8,1:2|1:0,2:0:0:0:
306,315,94290,1,6,1:2:0:0:
