osu file format v14

[General]
AudioFilename: audio.mp3
AudioLeadIn: 0
PreviewTime: 42543
Countdown: 0
SampleSet: Soft
StackLeniency: 0.3
Mode: 0
LetterboxInBreaks: 0
WidescreenStoryboard: 1

[Editor]
Bookmarks: 10628,22118,32330
DistanceSpacing: 1.3
BeatDivisor: 8
GridSize: 32
TimelineZoom: 2.2

[Metadata]
Title:TRUE LOVE
TitleUnicode:TRUE♥LOVE
Artist:jun feat. Schanita
ArtistUnicode:jun feat. Schanita
Creator:Bazz B
Version:Lully's Beginner
Source:DanceDanceRevolution SuperNOVA
Tags:Nyan~ Neko Sugar Girls -mikan mikan daoski schoolboy komore nyu - lully nelliel frakturehawkens ducky- PaRaDogi DDR video game anime english electronic pop hit or miss iLOVEFRiDAY MiA KHALiFA meme dance revolution
BeatmapID:2330563
BeatmapSetID:1109953

[Difficulty]
HPDrainRate:2
CircleSize:2
OverallDifficulty:2
ApproachRate:3
SliderMultiplier:0.699999999999999
SliderTickRate:1

[Events]
//Background and Video events
0,0,"big_1467531714_image.jpg",0,0
//Break Periods
//Storyboard Layer 0 (Background)
//Storyboard Layer 1 (Fail)
//Storyboard Layer 2 (Pass)
//Storyboard Layer 3 (Foreground)
//Storyboard Layer 4 (Overlay)
//Storyboard Sound Samples

[TimingPoints]
461,319.148936170213,4,2,1,50,1,0
10673,-100,4,2,1,89,0,0
22163,-100,4,2,1,69,0,0
42588,-100,4,2,1,79,0,0
52801,-100,4,2,1,89,0,1
63014,-100,4,2,1,89,0,0
73865,319.148936170213,4,2,87,49,1,0
73865,-100,4,2,1,50,0,0
78971,-100,4,2,1,69,0,0
84077,-100,4,2,1,89,0,1
94290,-100,4,2,1,89,0,0

[Colours]
Combo1 : 60,228,253
Combo2 : 255,183,219
Combo3 : 155,0,78
Combo4 : 0,128,192

[HitObjects]
453,145,461,6,0,P|473:99|406:42,1,140,6|0,0:2|0:0,0:0:0:0:
352,105,1418,1,0,0:0:0:0:
287,169,1737,2,0,B|212:150|220:194|138:166,1,140
56,343,3014,6,0,B|100:345|121:325|121:325|141:356|192:361,1,140,2|0,0:2|0:0,0:0:0:0:
264,324,3971,1,0,0:0:0:0:
350,296,4290,2,0,P|353:264|336:220,2,69.9999999999999,2|0|0,0:2|0:0|0:0,0:0:0:0:
167,296,5567,6,0,P|151:259|154:220,1,69.9999999999999,6|0,0:2|0:0,0:0:0:0:
230,184,6205,2,0,P|244:150|236:105,1,69.9999999999999
277,34,6843,2,0,B|200:11|212:62|125:27,1,140
51,10,7801,1,0,0:0:0:0:
18,95,8120,6,0,P|-10:155|5:235,1,140,2|2,0:2|0:2,0:0:0:0:
64,290,9078,1,0,0:0:0:0:
154,290,9397,2,0,B|159:236|159:236|132:191|132:191|167:162|167:162|174:99,1,210,2|2,1:2|0:2,0:0:0:0:
124,27,10673,6,0,P|162:15|207:20,1,69.9999999999999,4|8,1:2|0:2,0:0:0:0:
269,63,11312,2,0,P|307:75|352:70,1,69.9999999999999,0|8,1:0|0:2,0:0:0:0:
427,73,11950,2,0,P|416:122|333:162,1,140,0|0,1:0|1:0,0:0:0:0:
250,162,12907,1,8,0:2:0:0:
261,252,13226,6,0,L|274:337,1,69.9999999999999,0|8,1:0|0:2,0:0:0:0:
358,294,13865,2,0,L|370:214,1,69.9999999999999,0|8,1:0|0:2,0:0:0:0:
381,134,14503,1,0,1:0:0:0:
395,44,14822,2,0,P|348:27|316:34,2,69.9999999999999,10|2|10,0:2|1:2|0:2,0:0:0:0:
381,134,15780,6,0,L|384:218,1,69.9999999999999,6|8,1:2|0:2,0:0:0:0:
447,268,16418,2,0,L|443:352,1,69.9999999999999,0|8,1:0|0:2,0:0:0:0:
359,371,17056,2,0,P|323:323|247:336,1,140,0|0,1:0|1:0,0:0:0:0:
164,364,18014,1,8,0:2:0:0:
76,340,18333,6,0,P|58:287|67:265,1,69.9999999999999,2|8,1:2|0:2,0:0:0:0:
73,185,18971,2,0,P|95:149|85:109,1,69.9999999999999,0|8,1:0|0:2,0:0:0:0:
22,63,19609,2,0,P|73:32|160:62,1,140,2|0,1:2|1:0,0:0:0:0:
231,86,20567,1,8,0:2:0:0:
231,176,20886,2,0,P|247:228|121:253,1,210
61,326,22163,6,0,P|106:367|156:376,2,105,4|2|8,1:2|0:2|0:1,0:0:0:0:
61,235,23439,2,0,P|106:193|156:184,2,105,0|2|8,1:0|0:2|0:1,0:0:0:0:
143,274,24716,6,0,P|217:282|289:259,1,140,0|0,1:0|0:2,0:0:0:0:
366,290,25673,1,8,0:0:0:0:
430,226,25992,2,0,B|419:169|456:174|445:116,1,105
238,31,27269,6,0,P|198:60|135:56,2,105,4|2|8,1:2|0:2|0:1,0:0:0:0:
333,42,28546,2,0,P|368:79|419:88,2,105,0|2|8,1:0|0:2|0:1,0:0:0:0:
238,31,29822,6,0,P|162:65|97:53,1,140,0|0,1:0|0:2,0:0:0:0:
18,37,30780,1,8,0:2:0:0:
3,126,31099,2,0,B|4:148|16:172|16:172|8:198|15:230,1,105,0|8,1:0|0:2,0:0:0:0:
102,202,31897,1,0,0:0:0:0:
135,334,32375,6,0,L|215:329,1,69.9999999999999,4|8,1:2|0:2,0:0:0:0:
293,364,33014,2,0,L|362:368,1,69.9999999999999,0|8,1:0|0:2,0:0:0:0:
446,331,33652,2,0,P|438:282|458:192,1,140,0|0,1:0|1:0,0:0:0:0:
501,115,34609,1,8,0:2:0:0:
459,33,34929,6,0,P|420:72|406:98,1,69.9999999999999,0|8,1:0|0:2,0:0:0:0:
331,125,35567,2,0,P|310:96|284:73,1,69.9999999999999,0|8,1:0|0:2,0:0:0:0:
200,37,36205,2,0,L|52:51,1,140,0|0,1:0|1:0,0:0:0:0:
19,131,37163,1,8,0:2:0:0:
69,206,37482,6,0,L|59:285,1,69.9999999999999,0|8,1:0|0:2,0:0:0:0:
144,308,38120,2,0,L|152:377,1,69.9999999999999,0|8,1:0|0:2,0:0:0:0:
242,373,38758,2,0,P|255:304|231:231,1,140,0|0,1:0|1:0,0:0:0:0:
179,166,39716,1,8,0:2:0:0:
256,192,40035,12,0,41312,1:0:0:0:
100,302,42588,5,4,1:2:0:0:
186,330,42907,1,4,1:2:0:0:
263,282,43226,2,0,P|278:245|273:201,1,69.9999999999999,0|0,1:0|1:0,0:0:0:0:
227,138,43865,2,0,P|273:123|362:170,1,140,0|0,1:0|1:0,0:0:0:0:
430,206,44822,1,0,1:0:0:0:
472,125,45141,5,4,1:2:0:0:
432,42,45461,1,4,1:2:0:0:
346,10,45780,2,0,L|196:20,1,140,0|0,1:0|1:0,0:0:0:0:
115,29,46737,1,0,1:0:0:0:
83,114,47056,2,0,L|66:194,1,69.9999999999999,0|0,1:0|1:0,0:0:0:0:
42,270,47695,5,4,1:2:0:0:
95,343,48014,1,4,1:2:0:0:
180,313,48333,2,0,P|200:261|194:237,1,69.9999999999999,0|0,1:0|1:0,0:0:0:0:
280,209,48971,2,0,P|263:160|307:79,1,140,0|0,1:0|1:0,0:0:0:0:
354,156,49929,1,0,1:0:0:0:
357,246,50248,6,0,P|325:281|228:278,1,140,2|2,1:2|1:2,0:0:0:0:
157,239,51205,1,0,0:0:0:0:
185,152,51524,2,0,B|239:152|239:152|280:129|280:129|311:157|311:157|381:157,1,210,6|4,1:2|1:2,0:0:0:0:
469,162,52801,5,4,1:2:0:0:
458,252,53120,1,8,1:2:0:0:
367,247,53439,2,0,P|334:258|312:285,1,69.9999999999999,0|8,1:0|1:2,0:0:0:0:
284,371,54078,2,0,P|239:345|229:252,1,140,0|0,1:0|1:0,0:0:0:0:
260,180,55035,1,8,1:2:0:0:
296,96,55354,6,0,L|278:26,1,69.9999999999999,2|8,1:2|1:2,0:0:0:0:
187,30,55992,2,0,L|169:97,1,69.9999999999999,0|8,1:0|1:2,0:0:0:0:
135,182,56631,2,0,P|93:189|51:239,2,105,2|2|10,1:2|0:2|1:2,0:0:0:0:
136,272,57907,5,4,1:2:0:0:
225,256,58226,1,8,1:2:0:0:
276,331,58546,2,0,P|310:332|339:351,1,69.9999999999999,0|8,1:0|1:2,0:0:0:0:
429,366,59184,2,0,L|415:215,1,140,0|0,1:0|1:0,0:0:0:0:
381,142,60141,1,8,1:2:0:0:
304,191,60461,6,0,L|227:194,1,69.9999999999999,2|8,1:2|1:2,0:0:0:0:
214,104,61099,2,0,L|283:101,1,69.9999999999999,0|8,1:0|1:2,0:0:0:0:
376,103,61737,2,0,B|373:74|388:52|388:52|370:37|359:7,2,105,2|2|10,1:2|1:2|1:2,0:0:0:0:
444,162,63014,6,0,L|454:240,1,69.9999999999999,4|8,1:2|0:2,0:0:0:0:
393,300,63652,2,0,L|384:369,1,69.9999999999999,0|8,1:0|0:2,0:0:0:0:
292,369,64290,2,0,P|212:331|170:356,1,140,0|0,1:0|1:0,0:0:0:0:
85,379,65248,1,8,0:2:0:0:
0,344,65567,6,0,P|27:307|63:294,1,69.9999999999999,0|8,1:0|0:2,0:0:0:0:
131,261,66205,2,0,P|104:224|68:211,1,69.9999999999999,0|8,1:0|0:2,0:0:0:0:
14,153,66843,1,0,1:0:0:0:
47,68,67163,2,0,L|36:-2,2,69.9999999999999,10|2|10,0:2|1:2|0:2,0:0:0:0:
123,116,68120,6,0,L|196:102,1,69.9999999999999,2|8,1:2|0:2,0:0:0:0:
270,56,68758,2,0,L|338:69,1,69.9999999999999,0|8,1:0|0:2,0:0:0:0:
427,88,69397,2,0,P|416:161|449:220,1,140,0|0,1:0|1:0,0:0:0:0:
500,290,70354,1,8,0:2:0:0:
432,350,70673,6,0,P|392:359|355:347,1,69.9999999999999,2|8,1:2|0:2,0:0:0:0:
295,292,71312,2,0,P|260:285|227:294,1,69.9999999999999,0|8,1:0|0:2,0:0:0:0:
144,330,71950,2,0,P|96:342|144:225,1,280,2|0,1:2|1:0,0:0:0:0:
297,309,73865,5,4,1:2:0:0:
382,340,74184,1,0,0:0:0:0:
445,274,74503,2,0,B|458:189|424:220|438:127,2,140
337,126,76418,6,0,B|312:101|276:93|276:93|265:51|235:30,1,140,2|0,1:2|0:0,0:0:0:0:
73,105,77695,2,0,B|97:122|108:164|108:164|144:171|169:196,1,140,2|0,1:2|0:0,0:0:0:0:
256,355,78971,6,0,L|336:371,1,69.9999999999999,4|4,1:2|0:2,0:0:0:0:
381,298,79609,2,0,L|449:284,1,69.9999999999999
424,196,80248,2,0,L|278:225,1,140
117,145,81524,6,0,P|107:78|161:19,1,140,2|0,1:2|1:0,0:0:0:0:
197,101,82482,1,2,0:2:0:0:
193,191,82801,2,0,P|152:227|95:229,2,105,2|0|4,1:2|0:0|0:2,0:0:0:0:
234,109,84078,5,4,1:2:0:0:
256,20,84397,1,8,1:2:0:0:
346,27,84716,2,0,L|369:101,1,69.9999999999999,0|8,1:0|1:2,0:0:0:0:
311,166,85354,2,0,P|254:213|226:277,1,140
193,356,86312,1,8,1:2:0:0:
283,356,86631,6,0,P|327:357|397:294,1,140,2|0,1:2|1:0,0:0:0:0:
379,207,87588,1,8,1:2:0:0:
309,265,87907,2,0,P|264:266|209:228,2,105,2|2|10,1:2|0:2|1:2,0:0:0:0:
286,176,89184,5,4,1:2:0:0:
204,136,89503,1,8,1:2:0:0:
128,186,89822,2,0,P|90:195|48:183,1,69.9999999999999,0|8,1:0|1:2,0:0:0:0:
89,102,90461,2,0,P|98:64|186:15,1,140,0|0,1:0|1:0,0:0:0:0:
253,67,91418,1,8,1:2:0:0:
337,32,91737,6,0,L|406:56,1,69.9999999999999,2|8,1:2|1:2,0:0:0:0:
402,145,92375,2,0,L|335:167,1,69.9999999999999,0|8,1:0|1:2,0:0:0:0:
249,196,93014,2,0,B|193:178|208:211|146:198,1,105,2|10,1:2|1:2,0:0:0:0:
64,158,93812,1,8,0:0:0:0:
12,284,94290,1,4,1:2:0:0:
