osu file format v14

[General]
AudioFilename: audio.mp3
AudioLeadIn: 0
PreviewTime: 42543
Countdown: 0
SampleSet: Soft
StackLeniency: 0.3
Mode: 0
LetterboxInBreaks: 0
WidescreenStoryboard: 1

[Editor]
Bookmarks: 20841,26107
DistanceSpacing: 0.1
BeatDivisor: 4
GridSize: 32
TimelineZoom: 6.199996

[Metadata]
Title:TRUE LOVE
TitleUnicode:TRUE♥LOVE
Artist:jun feat. Schanita
ArtistUnicode:jun feat. Schanita
Creator:Bazz B
Version:Ducky-'s Expert
Source:DanceDanceRevolution SuperNOVA
Tags:Nyan~ Neko Sugar Girls -mikan mikan daoski schoolboy komore nyu - lully nelliel frakturehawkens ducky- PaRaDogi DDR video game anime english electronic pop hit or miss iLOVEFRiDAY MiA KHALiFA meme dance revolution
BeatmapID:2330562
BeatmapSetID:1109953

[Difficulty]
HPDrainRate:5
CircleSize:4.2
OverallDifficulty:8
ApproachRate:9
SliderMultiplier:1.5
SliderTickRate:1

[Events]
//Background and Video events
0,0,"Discord_o8kuDiuHNN.png",0,0
//Break Periods
//Storyboard Layer 0 (Background)
//Storyboard Layer 1 (Fail)
//Storyboard Layer 2 (Pass)
//Storyboard Layer 3 (Foreground)
//Storyboard Layer 4 (Overlay)
//Storyboard Sound Samples

[TimingPoints]
461,319.148936170213,4,2,71,39,1,0
500,-100,4,2,1,39,0,0
1099,-100,4,2,11,39,0,0
3014,-100,4,2,70,39,0,0
3492,-100,4,2,12,39,0,0
4290,-100,4,2,71,39,0,0
5607,-100,4,2,1,39,0,0
6205,-100,4,2,13,49,0,0
6365,-100,4,2,1,49,0,0
8120,-100,4,2,14,49,0,0
8160,-100,4,2,1,49,0,0
9397,-56.8181818181818,4,2,15,69,0,0
9437,-56.8181818181818,4,2,1,69,0,0
9636,-56.8181818181818,4,2,74,69,0,0
9676,-56.8181818181818,4,2,1,69,0,0
9875,-56.8181818181818,4,2,75,69,0,0
10035,-56.8181818181818,4,2,74,69,0,0
10354,-56.8181818181818,4,2,16,69,0,0
10673,-76.9230769230769,4,2,17,89,0,1
10713,-76.9230769230769,4,2,1,89,0,1
11312,-76.9230769230769,4,2,18,89,0,1
11351,-76.9230769230769,4,2,1,89,0,1
13067,-76.9230769230769,4,2,19,89,0,1
13107,-76.9230769230769,4,2,1,89,0,1
13546,-76.9230769230769,4,2,20,89,0,1
13586,-76.9230769230769,4,2,1,89,0,1
13705,-76.9230769230769,4,2,40,89,0,1
13745,-76.9230769230769,4,2,1,89,0,1
13865,-76.9230769230769,4,2,21,89,0,1
13905,-76.9230769230769,4,2,1,89,0,1
14822,-66.6666666666667,4,2,66,89,0,1
14862,-66.6666666666667,4,2,1,89,0,1
15141,-66.6666666666667,4,2,67,89,0,1
15181,-66.6666666666667,4,2,1,89,0,1
15461,-66.6666666666667,4,2,68,89,0,1
15500,-66.6666666666667,4,2,1,89,0,1
15780,-76.9230769230769,4,2,22,89,0,1
15820,-76.9230769230769,4,2,1,89,0,1
17056,-76.9230769230769,4,2,23,89,0,1
17096,-76.9230769230769,4,2,1,89,0,1
18333,-76.9230769230769,4,2,70,89,0,1
18373,-76.9230769230769,4,2,1,89,0,1
19290,-76.9230769230769,4,2,24,79,0,1
19330,-76.9230769230769,4,2,1,79,0,1
19609,-76.9230769230769,4,2,71,79,0,1
19649,-76.9230769230769,4,2,1,79,0,1
20886,-76.9230769230769,4,2,1,79,0,0
22162,-76.9230769230769,4,2,25,49,0,0
22482,-76.9230769230769,4,2,1,49,0,0
22641,-45.4545454545455,4,2,59,49,0,0
22681,-45.4545454545455,4,2,1,49,0,0
22961,-45.4545454545455,4,2,58,49,0,0
23000,-45.4545454545455,4,2,1,49,0,0
23439,-45.4545454545455,4,2,26,49,0,0
23759,-45.4545454545455,4,2,1,49,0,0
23918,-45.4545454545455,4,2,58,49,0,0
23958,-45.4545454545455,4,2,1,49,0,0
24238,-45.4545454545455,4,2,60,49,0,0
24277,-45.4545454545455,4,2,1,49,0,0
24716,-45.4545454545455,4,2,27,49,0,0
25035,-45.4545454545455,4,2,1,49,0,0
25195,-100,4,2,1,49,0,0
27269,-100,4,2,14,49,0,0
27588,-100,4,2,1,49,0,0
27748,-45.4545454545455,4,2,59,49,0,0
27788,-45.4545454545455,4,2,1,49,0,0
28067,-45.4545454545455,4,2,58,49,0,0
28107,-45.4545454545455,4,2,1,49,0,0
28546,-45.4545454545455,4,2,28,49,0,0
28865,-45.4545454545455,4,2,1,49,0,0
29024,-45.4545454545455,4,2,58,49,0,0
29064,-45.4545454545455,4,2,1,49,0,0
29343,-45.4545454545455,4,2,60,49,0,0
29383,-45.4545454545455,4,2,1,49,0,0
30301,-100,4,2,1,49,0,0
31099,-66.6666666666667,4,2,60,69,0,0
31139,-66.6666666666667,4,2,1,69,0,0
31258,-66.6666666666667,4,2,63,69,0,0
31298,-66.6666666666667,4,2,1,69,0,0
31578,-66.6666666666667,4,2,60,69,0,0
31617,-66.6666666666667,4,2,1,69,0,0
31897,-66.6666666666667,4,2,64,69,0,0
31937,-66.6666666666667,4,2,1,69,0,0
32375,-133.333333333333,4,2,29,59,0,0
32415,-133.333333333333,4,2,1,59,0,0
32695,-50,4,2,58,59,0,0
32734,-50,4,2,1,59,0,0
33333,-50,4,2,58,59,0,0
33492,-66.6666666666667,4,2,59,59,0,0
33532,-66.6666666666667,4,2,1,59,0,0
33812,-83.3333333333333,4,2,1,59,0,0
33971,-83.3333333333333,4,2,68,59,0,0
34290,-83.3333333333333,4,2,67,59,0,0
34330,-83.3333333333333,4,2,1,59,0,0
34609,-83.3333333333333,4,2,73,59,0,0
34929,-133.333333333333,4,2,30,59,0,0
34968,-133.333333333333,4,2,1,59,0,0
35248,-50,4,2,58,59,0,0
35288,-50,4,2,1,59,0,0
35886,-50,4,2,58,59,0,0
35926,-50,4,2,1,59,0,0
36046,-66.6666666666667,4,2,31,59,0,0
36086,-66.6666666666667,4,2,1,59,0,0
36365,-66.6666666666667,4,2,59,59,0,0
36524,-66.6666666666667,4,2,68,59,0,0
36684,-66.6666666666667,4,2,67,59,0,0
36724,-66.6666666666667,4,2,1,59,0,0
37003,-66.6666666666667,4,2,68,59,0,0
37482,-133.333333333333,4,2,32,59,0,0
37522,-133.333333333333,4,2,1,59,0,0
37801,-50,4,2,58,59,0,0
37841,-50,4,2,1,59,0,0
38439,-50,4,2,58,59,0,0
38479,-50,4,2,1,59,0,0
38599,-66.6666666666667,4,2,59,59,0,0
38639,-66.6666666666667,4,2,1,59,0,0
38758,-66.6666666666667,4,2,59,59,0,0
39077,-66.6666666666667,4,2,1,59,0,0
39716,-66.6666666666667,4,2,33,59,0,0
40035,-66.6666666666667,4,2,70,59,0,0
40075,-66.6666666666667,4,2,1,59,0,0
41312,-55.5555555555556,4,2,61,69,0,0
41351,-55.5555555555556,4,2,1,69,0,0
41790,-55.5555555555556,4,2,61,69,0,0
41830,-55.5555555555556,4,2,1,69,0,0
42109,-55.5555555555556,4,2,61,69,0,0
42149,-55.5555555555556,4,2,1,69,0,0
42588,-200,4,2,10,79,0,0
42628,-200,4,2,1,79,0,0
42907,-58.8235294117647,4,2,34,79,0,0
42947,-58.8235294117647,4,2,1,79,0,0
43705,-83.3333333333333,4,2,1,79,0,0
43865,-83.3333333333333,4,2,35,79,0,0
43905,-83.3333333333333,4,2,1,79,0,0
45141,-200,4,2,36,79,0,0
45181,-200,4,2,1,79,0,0
45461,-58.8235294117647,4,2,10,79,0,0
45500,-58.8235294117647,4,2,1,79,0,0
46418,-83.3333333333333,4,2,37,79,0,0
46458,-83.3333333333333,4,2,1,79,0,0
47695,-200,4,2,10,79,0,0
47734,-200,4,2,1,79,0,0
48014,-58.8235294117647,4,2,38,79,0,0
48054,-58.8235294117647,4,2,1,79,0,0
48812,-83.3333333333333,4,2,1,79,0,0
50248,-83.3333333333333,4,2,90,79,0,0
50288,-83.3333333333333,4,2,1,79,0,0
51205,-83.3333333333333,4,2,91,79,0,0
51365,-83.3333333333333,4,2,1,79,0,0
51524,-50,4,2,61,79,0,0
51564,-50,4,2,1,79,0,0
51764,-50,4,2,62,79,0,0
51804,-50,4,2,1,79,0,0
52003,-50,4,2,60,79,0,0
52043,-50,4,2,1,79,0,0
52163,-50,4,2,62,79,0,0
52203,-50,4,2,1,79,0,0
52482,-50,4,2,62,79,0,0
52522,-50,4,2,1,79,0,0
52801,-50,4,2,17,89,0,1
52961,-50,4,2,1,89,0,1
53120,-80,4,2,41,89,0,1
53160,-80,4,2,1,89,0,1
55353,-80,4,2,42,89,0,1
55513,-80,4,2,1,89,0,1
56630,-80,4,2,67,89,0,1
56671,-80,4,2,1,89,0,1
57907,-80,4,2,17,89,0,1
58067,-80,4,2,1,89,0,1
58226,-80,4,2,43,89,0,1
58266,-80,4,2,1,89,0,1
60460,-80,4,2,44,89,0,1
60620,-80,4,2,1,89,0,1
61737,-58.8235294117647,4,2,63,89,0,0
61777,-58.8235294117647,4,2,1,89,0,0
61897,-58.8235294117647,4,2,63,89,0,0
61937,-58.8235294117647,4,2,1,89,0,0
62216,-58.8235294117647,4,2,65,89,0,0
62256,-58.8235294117647,4,2,1,89,0,0
62535,-58.8235294117647,4,2,64,89,0,0
62695,-58.8235294117647,4,2,1,89,0,0
63014,-76.9230769230769,4,2,10,89,0,1
63054,-76.9230769230769,4,2,1,89,0,1
63333,-76.9230769230769,4,2,45,89,0,1
63373,-76.9230769230769,4,2,1,89,0,1
65726,-76.9230769230769,4,2,46,89,0,1
65766,-76.9230769230769,4,2,1,89,0,1
67163,-66.6666666666667,4,2,67,89,0,1
67203,-66.6666666666667,4,2,1,89,0,1
67482,-66.6666666666667,4,2,68,89,0,1
67522,-66.6666666666667,4,2,1,89,0,1
67801,-66.6666666666667,4,2,78,89,0,1
67841,-66.6666666666667,4,2,1,89,0,1
68120,-76.9230769230769,4,2,79,89,0,1
68160,-76.9230769230769,4,2,1,89,0,1
68439,-76.9230769230769,4,2,47,89,0,1
68479,-76.9230769230769,4,2,1,89,0,1
70992,-76.9230769230769,4,2,48,89,0,1
71032,-76.9230769230769,4,2,1,89,0,1
71950,-76.9230769230769,4,2,80,89,0,1
71990,-76.9230769230769,4,2,1,89,0,1
73226,-50,4,2,49,89,0,1
73265,-50,4,2,49,9,0,1
73305,-50,4,2,49,14,0,1
73385,-50,4,2,49,19,0,1
73465,-50,4,2,49,24,0,1
73545,-50,4,2,49,29,0,1
73624,-50,4,2,49,34,0,1
73704,-50,4,2,49,39,0,1
73784,-50,4,2,49,44,0,1
73865,319.148936170213,4,2,87,49,1,0
73905,-100,4,2,1,49,0,0
74184,-100,4,2,62,49,0,0
74503,-100,4,2,86,49,0,0
75461,-100,4,2,50,49,0,0
76418,-100,4,2,81,49,0,0
76458,-100,4,2,1,49,0,0
76737,-100,4,2,51,49,0,0
77695,-100,4,2,52,49,0,0
78333,-100,4,2,53,49,0,0
78373,-100,4,2,1,49,0,0
78971,-83.3333333333333,4,2,10,49,0,0
79011,-83.3333333333333,4,2,1,49,0,0
79290,-83.3333333333333,4,2,62,49,0,0
79769,-83.3333333333333,4,2,1,49,0,0
80247,-83.3333333333333,4,2,13,49,0,0
80407,-83.3333333333333,4,2,1,49,0,0
81205,-83.3333333333333,4,2,86,49,0,0
81245,-83.3333333333333,4,2,1,49,0,0
81524,-83.3333333333333,4,2,66,49,0,0
81684,-83.3333333333333,4,2,1,49,0,0
82163,-83.3333333333333,4,2,15,49,0,0
82203,-83.3333333333333,4,2,1,49,0,0
82481,-83.3333333333333,4,2,39,49,0,0
82641,-83.3333333333333,4,2,1,49,0,0
82801,-83.3333333333333,4,2,54,49,0,0
82841,-83.3333333333333,4,2,1,49,0,0
84077,-83.3333333333333,4,2,17,89,0,1
84238,-83.3333333333333,4,2,1,89,0,1
84397,-80,4,2,55,89,0,1
84437,-80,4,2,1,89,0,1
86311,-80,4,2,88,89,0,1
86351,-80,4,2,1,89,0,1
86630,-80,4,2,83,89,0,1
86790,-80,4,2,1,89,0,1
87906,-80,4,2,67,89,0,1
87947,-80,4,2,1,89,0,1
88227,-80,4,2,89,89,0,1
88386,-80,4,2,1,89,0,1
89184,-80,4,2,17,89,0,1
89344,-80,4,2,1,89,0,1
91418,-80,4,2,85,89,0,1
91458,-80,4,2,1,89,0,1
91737,-80,4,2,84,89,0,1
91897,-80,4,2,1,89,0,1
93013,-80,4,2,56,89,0,0
93014,-50,4,2,56,89,0,0
93054,-50,4,2,1,89,0,0
93173,-50,4,2,63,89,0,0
93213,-50,4,2,1,89,0,0
93492,-50,4,2,65,89,0,0
93532,-50,4,2,1,89,0,0
93812,-50,4,2,64,89,0,0
93851,-50,4,2,1,89,0,0
94290,-50,4,2,57,89,0,0

[Colours]
Combo1 : 60,228,253
Combo2 : 255,183,219
Combo3 : 155,0,78
Combo4 : 0,128,192

[HitObjects]
6,162,461,6,0,P|50:156|171:135,1,150,6|0,1:2|2:0,2:0:0:0:
154,138,1099,5,2,2:0:0:0:
222,183,1258,1,0,2:0:0:0:
302,163,1418,1,0,2:0:0:0:
345,92,1578,1,0,2:0:0:0:
345,92,1897,5,0,2:0:0:0:
426,136,2056,1,0,2:0:0:0:
467,62,2216,1,0,2:0:0:0:
215,291,2535,5,0,2:0:0:0:
215,291,3014,5,4,2:0:0:0:
169,350,3173,1,0,2:0:0:0:
97,373,3333,1,0,2:0:0:0:
22,374,3492,1,2,2:0:0:0:
22,374,3812,6,0,P|31:310|37:286,1,75,0|0,2:0|2:0,2:0:0:0:
92,253,4131,1,0,2:0:0:0:
140,196,4290,1,6,2:0:0:0:
146,121,4450,1,0,2:0:0:0:
118,51,4609,1,0,2:0:0:0:
45,72,4769,6,0,P|115:77|294:130,1,225,0|0,2:0|2:0,2:0:0:0:
339,188,5407,5,0,2:0:0:0:
339,188,5487,1,0,2:0:0:0:
339,188,5567,2,0,P|339:146|348:110,1,75,6|2,2:0|2:0,2:0:0:0:
512,0,5886,2,0,P|486:26|450:30,1,75,0|2,2:0|2:0,2:0:0:0:
359,34,6205,5,2,2:3:0:0:
440,109,6365,1,2,2:0:0:0:
359,34,6524,1,0,2:0:0:0:
459,120,6684,6,0,B|482:183|433:157|459:241,1,112.5,2|0,2:0|2:0,2:0:0:0:
483,250,7003,1,2,2:0:0:0:
422,348,7163,1,0,2:0:0:0:
455,228,7322,1,2,2:0:0:0:
512,384,7482,1,0,2:0:0:0:
512,384,7641,1,2,2:0:0:0:
385,277,7801,5,0,2:0:0:0:
325,347,7961,2,0,P|257:331|191:321,1,112.5,2|0,2:0|2:0,2:0:0:0:
190,341,8280,1,2,2:0:0:0:
133,253,8439,1,0,2:0:0:0:
214,207,8599,2,0,P|229:118|251:52,1,150,2|2,2:0|2:0,2:0:0:0:
247,61,9237,5,2,2:0:0:0:
178,24,9397,6,0,P|145:63|211:106,1,132.00000402832,6|0,1:2|2:0,2:0:0:0:
342,180,9636,2,0,P|324:131|254:167,1,132.00000402832,12|0,1:2|2:0,2:0:0:0:
214,207,9875,1,4,1:2:0:0:
312,12,10035,1,12,1:2:0:0:
312,12,10354,5,14,1:2:0:0:
344,15,10433,1,8,2:0:0:0:
377,19,10513,1,8,2:0:0:0:
410,22,10593,1,8,2:0:0:0:
443,26,10673,6,0,L|456:89,3,48.7499977684022,4|0|2|0,1:2|2:0|2:0|2:0,2:0:0:0:
422,144,10992,2,0,L|431:191,3,48.7499977684022,8|0|2|0,2:0|2:0|2:0|2:0,2:0:0:0:
401,262,11312,2,0,L|410:309,3,48.7499977684022,2|0|2|0,1:3|2:0|2:0|2:0,2:0:0:0:
431,191,11631,6,0,L|422:144,1,48.7499977684022,8|0,2:0|2:0,2:0:0:0:
452,73,11790,2,0,L|443:26,1,48.7499977684022,2|0,2:0|2:0,2:0:0:0:
327,0,11950,6,0,L|254:14,3,48.7499977684022,0|0|2|0,1:0|2:0|2:0|2:0,2:0:0:0:
232,74,12269,2,0,L|159:88,3,48.7499977684022,8|0|2|0,2:0|2:0|2:0|2:0,2:0:0:0:
137,148,12588,2,0,L|64:162,3,48.7499977684022,0|0|2|0,1:0|2:0|2:0|2:0,2:0:0:0:
184,83,12907,6,0,L|232:74,1,48.7499977684022,8|0,2:0|2:0,2:0:0:0:
279,9,13067,2,0,L|327:0,1,48.7499977684022,2|0,2:3|2:0,2:0:0:0:
442,25,13226,6,0,P|439:53|419:77,3,48.7499977684022,0|0|2|0,1:0|2:0|2:0|2:0,2:0:0:0:
409,162,13546,2,0,P|387:179|355:182,3,48.7499977684022,8|0|2|0,2:0|2:0|2:0|2:0,2:0:0:0:
288,235,13865,2,0,P|259:232|235:212,3,48.7499977684022,2|0|2|0,1:3|2:0|2:0|2:0,2:0:0:0:
367,183,14184,6,0,P|390:177|409:162,1,48.7499977684022,8|0,2:0|2:0,2:0:0:0:
427,69,14343,2,0,P|440:49|442:25,1,48.7499977684022,2|0,2:0|2:0,2:0:0:0:
320,84,14503,6,0,P|315:98|327:84,3,48.7499977684022,0|0|2|0,1:0|2:0|2:0|2:0,2:0:0:0:
188,0,14822,6,0,B|219:5|219:5|250:142,1,168.750006437302,10|0,2:3|2:0,2:0:0:0:
408,162,15141,6,0,B|377:167|377:167|346:304,1,168.750006437302,2|0,1:2|2:0,2:0:0:0:
186,245,15461,6,0,B|217:250|217:250|248:387,1,168.750006437302,10|0,2:0|2:0,2:0:0:0:
116,376,15780,6,0,B|91:371|91:371|97:337,3,48.7499977684022,6|0|2|0,1:2|2:0|2:0|2:0,2:0:0:0:
44,246,16099,2,0,B|49:221|49:221|83:227,3,48.7499977684022,8|0|2|0,2:0|2:0|2:0|2:0,2:0:0:0:
174,174,16418,2,0,B|199:179|199:179|193:213,3,48.7499977684022,0|0|2|0,1:0|2:0|2:0|2:0,2:0:0:0:
71,225,16737,6,0,B|49:221|49:221|44:246,1,48.7499977684022,8|0,2:0|2:0,2:0:0:0:
95,348,16897,2,0,B|91:371|91:371|116:376,1,48.7499977684022,2|0,2:0|2:0,2:0:0:0:
247,383,17056,6,0,L|269:333,3,48.7499977684022,2|0|2|0,1:3|2:0|2:0|2:0,2:0:0:0:
362,312,17375,2,0,L|344:266,3,48.7499977684022,8|0|2|0,2:0|2:0|2:0|2:0,2:0:0:0:
393,180,17695,2,0,L|348:160,3,48.7499977684022,0|0|2|0,1:0|2:0|2:0|2:0,2:0:0:0:
344,266,18014,6,0,L|362:312,1,48.7499977684022,8|0,2:0|2:0,2:0:0:0:
266,338,18173,2,0,L|247:383,1,48.7499977684022,2|0,2:0|2:0,2:0:0:0:
239,258,18333,6,0,B|223:252|223:252|208:255|177:251,3,48.7499977684022,4|0|2|0,1:2|2:0|2:0|2:0,2:0:0:0:
138,186,18652,2,0,B|127:172|127:172|112:167|87:148,3,48.7499977684022,8|0|2|0,2:0|2:0|2:0|2:0,2:0:0:0:
81,77,18971,2,0,B|78:59|78:59|67:47|55:18,3,48.7499977684022,0|0|2|0,1:0|2:0|2:0|2:0,2:0:0:0:
99,157,19290,6,0,B|112:167|127:172|127:172|138:186,1,48.7499977684022,8|0,2:0|2:0,2:0:0:0:
191,252,19450,2,0,B|208:255|223:252|223:252|239:258,1,48.7499977684022,2|0,2:0|2:0,2:0:0:0:
346,300,19609,6,0,P|349:269|369:249,3,48.7499977684022,4|0|2|0,1:2|2:0|2:0|2:0,2:0:0:0:
435,209,19929,2,0,P|415:184|415:156,3,48.7499977684022,8|0|2|0,2:0|2:0|2:0|2:0,2:0:0:0:
433,81,20248,5,0,1:0:0:0:
349,0,20407,6,0,L|364:54,1,48.7499977684022,2|0,1:2|2:0,2:0:0:0:
512,170,20567,2,0,L|498:123,1,48.7499977684022,8|0,1:2|2:0,2:0:0:0:
433,81,20726,1,2,1:2:0:0:
329,141,20886,5,12,2:1:0:0:
260,93,21046,2,0,P|240:97|224:139,2,48.7499977684022,8|8|8,2:1|2:1|2:1,2:0:0:0:
153,89,21365,2,0,P|141:105|160:146,2,48.7499977684022,8|8|8,2:1|2:1|2:1,2:0:0:0:
329,141,21684,1,8,2:1:0:0:
263,194,21843,1,8,1:0:0:0:
266,218,21922,1,8,2:1:0:0:
270,242,22002,1,8,1:0:0:0:
274,266,22082,1,8,1:0:0:0:
278,290,22162,5,4,1:2:0:0:
227,352,22322,1,0,2:0:0:0:
155,318,22482,1,8,2:0:0:0:
99,373,22641,2,0,B|63:351|63:351|24:165,1,165.000005035401,4|0,2:0|1:0,2:0:0:0:
106,172,22961,2,0,B|70:150|70:150|31:-36,1,165.000005035401,4|8,2:0|2:1,2:0:0:0:
156,83,23280,1,8,2:1:0:0:
156,83,23359,1,8,2:1:0:0:
156,83,23439,5,2,1:2:0:0:
207,21,23599,1,0,2:0:0:0:
279,55,23759,1,8,2:0:0:0:
335,0,23918,2,0,B|371:22|371:22|410:208,1,165.000005035401,4|0,2:0|1:0,2:0:0:0:
328,201,24238,2,0,B|364:223|364:223|403:409,1,165.000005035401,4|8,2:0|2:1,2:0:0:0:
471,374,24556,1,8,2:1:0:0:
471,374,24636,1,8,2:1:0:0:
471,374,24716,5,2,1:2:0:0:
512,297,24875,1,0,2:0:0:0:
460,222,25035,1,8,2:0:0:0:
512,140,25195,2,0,P|469:126|450:92,1,75,0|0,2:0|1:0,2:0:0:0:
365,4,25514,2,0,P|380:48|372:82,1,75,0|0,2:0|2:0,2:0:0:0:
349,94,25753,1,0,2:0:0:0:
349,94,25833,1,0,2:0:0:0:
273,138,25992,6,0,L|217:147,1,37.5,0|0,1:0|2:0,2:0:0:0:
328,201,26152,2,0,L|384:210,1,37.5,0|0,2:0|2:0,2:0:0:0:
265,132,26312,2,0,L|209:141,1,37.5,8|0,2:0|2:0,2:0:0:0:
148,202,26471,2,0,P|192:210|233:227,1,75,0|0,2:0|1:0,2:0:0:0:
332,297,26790,5,0,2:0:0:0:
246,384,26950,1,8,2:1:0:0:
243,365,27030,1,8,2:1:0:0:
240,347,27109,1,8,2:1:0:0:
220,220,27269,5,4,1:2:0:0:
303,229,27429,1,0,2:0:0:0:
334,307,27588,1,8,2:0:0:0:
240,347,27748,6,0,L|18:292,1,165.000005035401,4|0,2:0|1:0,2:0:0:0:
33,242,28067,2,0,L|255:187,1,165.000005035401,4|8,2:0|2:1,2:0:0:0:
251,127,28386,1,8,2:1:0:0:
251,127,28466,1,8,2:1:0:0:
251,127,28546,5,2,1:2:0:0:
160,122,28705,1,0,2:0:0:0:
137,40,28865,1,8,2:0:0:0:
218,25,29024,6,0,L|440:80,1,165.000005035401,4|0,2:0|1:0,2:0:0:0:
425,130,29343,2,0,L|203:185,1,165.000005035401,4|8,2:0|2:1,2:0:0:0:
244,258,29663,1,8,2:1:0:0:
244,258,29742,1,8,2:1:0:0:
244,258,29822,5,0,1:0:0:0:
309,320,29982,1,0,2:0:0:0:
402,306,30141,1,8,2:0:0:0:
458,233,30301,6,0,P|432:172|430:151,1,75,0|0,2:0|1:0,2:0:0:0:
391,39,30620,2,0,P|381:75|363:108,1,75,0|8,2:0|2:0,2:0:0:0:
294,159,30939,1,0,2:0:0:0:
159,98,31099,6,0,L|152:27,1,56.2500021457673,4|0,1:2|2:0,2:0:0:0:
34,116,31258,2,0,L|182:105,1,112.500004291535,4|8,2:0|2:0,2:0:0:0:
244,258,31578,2,0,L|131:266,1,112.500004291535,4|8,2:0|1:2,2:0:0:0:
34,116,31897,6,0,L|108:110,1,56.2500021457673,4|0,2:0|2:0,2:0:0:0:
262,142,32056,5,0,2:0:0:0:
274,139,32136,1,0,2:0:0:0:
292,142,32216,1,0,2:0:0:0:
301,142,32296,1,0,2:0:0:0:
307,139,32375,6,0,P|322:107|289:71,1,84.3750032186509,4|0,1:2|2:0,2:0:0:0:
230,28,32695,6,0,P|260:125|285:264,1,225,12|0,2:0|2:0,2:0:0:0:
263,317,33014,1,0,1:0:0:0:
263,317,33173,1,0,2:0:0:0:
367,292,33333,6,0,P|407:299|464:310,1,75,12|0,2:0|2:0,2:0:0:0:
497,358,33492,2,0,B|528:309|528:309|502:259,1,112.500004291535,6|0,2:0|1:0,2:0:0:0:
420,156,33812,6,0,P|409:109|396:59,1,89.9999972534181,0|10,2:0|2:0,2:0:0:0:
497,184,34131,1,0,2:0:0:0:
375,263,34290,2,0,B|259:248|339:192|194:193,1,179.999994506836,2|10,1:2|2:0,2:0:0:0:
130,121,34769,1,0,2:0:0:0:
0,72,34929,6,0,P|-15:39|26:21,1,84.3750032186509,4|0,1:2|2:0,2:0:0:0:
99,3,35248,6,0,P|93:87|145:236,1,225,12|0,2:0|2:0,2:0:0:0:
201,269,35567,1,0,1:0:0:0:
201,269,35726,1,0,2:0:0:0:
38,354,35886,6,0,B|3:359|3:359|35:337,1,75,12|0,2:0|2:0,2:0:0:0:
105,328,36046,2,0,P|118:273|136:214,1,112.500004291535,6|0,2:0|1:0,2:0:0:0:
167,54,36365,5,2,2:0:0:0:
208,163,36524,1,10,2:0:0:0:
262,93,36684,2,0,P|318:83|373:74,1,112.500004291535,2|0,2:0|2:0,2:0:0:0:
512,181,37003,1,2,2:0:0:0:
429,5,37163,2,0,P|447:66|462:130,1,112.500004291535,8|0,2:0|2:0,2:0:0:0:
381,274,37482,6,0,P|349:258|355:297,1,84.3750032186509,4|0,1:2|2:0,2:0:0:0:
275,338,37801,6,0,B|250:301|250:301|454:354,1,225,12|0,2:0|2:0,2:0:0:0:
507,365,38120,1,0,1:0:0:0:
507,365,38280,1,0,2:0:0:0:
491,225,38439,6,0,B|477:210|477:210|495:151,1,75,12|0,2:0|2:0,2:0:0:0:
497,84,38599,2,0,B|468:85|441:63|441:63|448:101|432:113,1,112.500004291535,4|2,2:0|1:2,2:0:0:0:
227,219,38918,6,0,P|169:197|106:188,1,112.500004291535,0|8,2:0|2:0,2:0:0:0:
10,168,39237,1,0,2:0:0:0:
151,104,39397,1,0,1:0:0:0:
10,168,39556,1,0,2:0:0:0:
64,87,39716,1,10,2:0:0:0:
64,87,39875,1,0,2:0:0:0:
108,168,40035,6,0,B|145:307|52:245|82:386,1,225.000008583069,2|8,1:2|2:0,2:0:0:0:
11,282,40514,5,0,2:0:0:0:
11,282,40673,2,0,B|-20:300|-20:300|80:288|207:350,1,225.000008583069,0|8,1:0|2:0,2:0:0:0:
320,380,41152,2,0,P|352:368|397:362,1,56.2500021457673,0|0,2:0|2:0,2:0:0:0:
460,339,41312,6,0,L|302:307,1,134.999995880127,12|0,1:2|1:0,2:0:0:0:
258,250,41631,1,0,1:0:0:0:
319,192,41790,2,0,L|477:160,1,134.999995880127,12|0,2:0|1:0,2:0:0:0:
258,250,42109,6,0,L|146:233,1,67.4999979400635,12|0,2:0|2:0,2:0:0:0:
319,192,42269,2,0,L|385:202,1,67.4999979400635,0|0,1:0|1:0,2:0:0:0:
280,114,42429,2,0,L|168:97,1,67.4999979400635,0|0,1:0|1:0,2:0:0:0:
341,56,42588,6,0,L|396:47,1,56.25,6|0,1:2|2:0,2:0:0:0:
460,3,42907,6,0,B|411:-19|411:-19|417:60|490:85,1,191.250003647804,6|0,1:2|2:0,2:0:0:0:
508,168,43226,5,0,1:0:0:0:
485,255,43386,1,0,2:0:0:0:
406,225,43546,1,0,1:0:0:0:
382,310,43705,2,0,P|325:327|208:356,1,179.999994506836,0|0,2:0|2:0,2:0:0:0:
134,307,44184,1,0,1:0:0:0:
195,253,44343,2,0,P|200:197|203:141,1,89.9999972534181,0|0,2:0|1:0,2:0:0:0:
153,94,44663,1,0,2:0:0:0:
111,163,44822,2,0,P|63:171|2:181,1,89.9999972534181,0|0,1:0|2:0,2:0:0:0:
168,92,45141,6,0,L|178:25,1,56.25,6|0,1:2|2:0,2:0:0:0:
74,77,45461,6,0,L|263:49,1,191.250003647804,6|0,1:2|2:0,2:0:0:0:
333,79,45780,5,0,1:0:0:0:
393,25,45939,1,0,2:0:0:0:
459,87,46099,1,0,1:0:0:0:
394,148,46258,1,0,2:0:0:0:
456,206,46418,6,0,P|470:272|482:329,1,89.9999972534181,2|0,1:3|2:0,2:0:0:0:
394,353,46737,2,0,P|384:308|375:264,1,89.9999972534181,0|0,1:0|2:0,2:0:0:0:
297,225,47056,2,0,B|191:241|271:304|132:327,1,179.999994506836,0|0,1:0|1:0,2:0:0:0:
3,222,47695,6,0,B|48:224|15:243|57:246,1,56.25,6|0,1:2|2:0,2:0:0:0:
57,332,48014,6,0,B|99:303|86:226|61:254|54:156|131:150,1,191.250003647804,6|0,1:2|2:0,2:0:0:0:
178,155,48333,5,0,1:0:0:0:
156,67,48492,1,0,2:0:0:0:
226,14,48652,1,0,1:0:0:0:
257,98,48812,2,0,P|316:84|366:83,1,89.9999972534181,0|0,2:0|1:0,2:0:0:0:
410,18,49131,1,0,2:0:0:0:
477,82,49290,1,0,1:0:0:0:
421,144,49450,2,0,P|431:193|457:326,1,179.999994506836,0|0,2:0|2:0,2:0:0:0:
387,367,49929,2,0,P|331:355|286:352,1,89.9999972534181,0|0,1:0|2:0,2:0:0:0:
214,284,50248,6,0,P|209:233|190:184,1,89.9999972534181,2|0,1:2|2:0,2:0:0:0:
138,125,50567,1,0,1:0:0:0:
192,51,50726,2,0,P|240:56|314:72,1,89.9999972534181,0|0,2:0|1:0,2:0:0:0:
351,115,51046,1,0,2:0:0:0:
425,74,51205,1,2,1:2:0:0:
491,131,51365,1,0,2:0:0:0:
408,175,51524,6,0,B|390:205|390:205|428:342,1,150,6|0,1:2|2:0,2:0:0:0:
201,332,51764,2,0,B|181:311|181:311|322:348,1,150,4|0,1:2|2:0,2:0:0:0:
420,315,52003,2,0,B|457:298|457:298|482:320,1,75,4|0,1:2|2:0,2:0:0:0:
441,384,52163,6,0,B|323:334|447:295|221:239,1,225,4|0,1:2|2:0,2:0:0:0:
132,93,52482,6,0,B|91:56|186:57|237:159|183:267,1,225,4|0,1:2|2:0,2:0:0:0:
41,344,52801,5,4,1:2:0:0:
41,344,52961,1,2,2:0:0:0:
82,262,53120,2,0,P|70:253|26:247,1,46.875,10|0,1:2|2:0,2:0:0:0:
35,264,53280,2,0,P|113:261|148:222,1,93.75,2|0,2:0|1:0,2:0:0:0:
240,304,53599,1,2,2:0:0:0:
234,212,53758,2,0,P|219:210|178:227,1,46.875,8|0,1:2|2:0,2:0:0:0:
194,237,53918,2,0,P|260:195|270:144,1,93.75,2|0,2:0|1:0,2:0:0:0:
392,169,54237,1,2,2:0:0:0:
341,93,54396,2,0,P|327:98|300:133,1,46.875,8|0,1:2|2:0,2:0:0:0:
319,134,54556,2,0,P|355:64|339:15,1,93.75,2|0,2:0|1:0,2:0:0:0:
132,33,54875,1,2,2:0:0:0:
214,74,55035,2,0,P|223:62|229:18,1,46.875,8|0,1:2|2:0,2:0:0:0:
212,27,55194,2,0,P|215:105|254:140,1,93.75,2|2,2:0|1:2,2:0:0:0:
172,232,55513,1,2,2:0:0:0:
264,226,55673,2,0,P|265:211|248:170,1,46.875,8|0,1:2|2:0,2:0:0:0:
239,186,55832,2,0,P|280:252|331:262,1,93.75,2|0,2:0|1:0,2:0:0:0:
307,384,56151,1,2,2:0:0:0:
383,333,56312,2,0,P|377:319|342:292,1,46.875,8|0,1:2|2:0,2:0:0:0:
342,311,56471,2,0,P|411:347|431:337,2,93.75,2|2|2,2:0|1:2|2:0,2:0:0:0:
342,181,56950,1,8,1:2:0:0:
479,284,57109,2,0,P|487:237|505:177,1,93.75,2|0,2:0|1:0,2:0:0:0:
225,195,57429,2,0,P|318:208|410:229,1,187.5,2|2,2:0|2:0,2:0:0:0:
179,137,57907,5,4,1:2:0:0:
77,137,58067,1,2,2:0:0:0:
28,39,58226,2,0,P|63:41|80:18,1,46.875,10|0,1:2|2:0,2:0:0:0:
75,6,58386,2,0,P|89:54|135:59,1,93.75,2|0,2:0|1:0,2:0:0:0:
164,241,58705,1,2,2:0:0:0:
171,133,58865,2,0,P|199:153|226:141,1,46.875,8|0,1:2|2:0,2:0:0:0:
228,128,59024,2,0,P|216:177|253:204,1,93.75,2|0,2:0|1:0,2:0:0:0:
186,377,59344,1,2,2:0:0:0:
247,285,59503,2,0,P|262:316|291:320,1,46.875,8|0,1:2|2:0,2:0:0:0:
299,311,59663,2,0,P|264:348|282:390,1,93.75,2|0,2:0|1:0,2:0:0:0:
439,247,59982,1,2,2:0:0:0:
488,345,60141,2,0,P|452:342|435:365,1,46.875,8|0,1:2|2:0,2:0:0:0:
441,378,60301,2,0,P|426:329|380:324,1,93.75,2|2,2:0|1:2,2:0:0:0:
352,143,60620,1,2,2:0:0:0:
345,251,60779,2,0,P|316:230|289:242,1,46.875,8|0,1:2|2:0,2:0:0:0:
288,256,60939,2,0,P|299:206|262:179,1,93.75,2|0,2:0|1:0,2:0:0:0:
330,7,61259,1,2,2:0:0:0:
269,99,61418,2,0,P|253:67|224:63,1,46.875,8|0,1:2|2:0,2:0:0:0:
213,72,61578,1,2,2:0:0:0:
455,114,61737,6,0,B|446:79|446:79|472:50,1,63.7500012159348,6|0,1:2|2:0,2:0:0:0:
512,168,61897,2,0,L|333:129,1,127.50000243187,4|8,1:2|2:0,2:0:0:0:
220,258,62216,2,0,L|378:244,1,127.50000243187,4|0,1:2|2:0,2:0:0:0:
369,265,62455,1,0,2:0:0:0:
369,265,62535,1,4,1:2:0:0:
162,365,62695,5,8,1:2:0:0:
124,359,62774,1,8,1:0:0:0:
86,354,62854,1,8,1:0:0:0:
48,348,62934,1,8,1:0:0:0:
20,341,63014,6,0,L|33:270,3,48.7499977684022,4|0|2|0,1:2|2:0|2:0|2:0,2:0:0:0:
101,229,63333,2,0,L|76:161,3,48.7499977684022,10|0|2|0,1:2|2:0|2:0|2:0,2:0:0:0:
115,91,63652,2,0,L|60:44,3,48.7499977684022,0|0|2|0,1:0|2:0|2:0|2:0,2:0:0:0:
84,183,63971,6,0,L|101:229,1,48.7499977684022,8|0,1:2|2:0,2:0:0:0:
28,293,64131,2,0,L|20:341,1,48.7499977684022,2|0,2:0|2:0,2:0:0:0:
109,382,64290,6,0,L|165:373,3,48.7499977684022,0|0|2|0,1:0|2:0|2:0|2:0,2:0:0:0:
265,337,64609,2,0,L|308:301,3,48.7499977684022,8|0|2|0,1:2|2:0|2:0|2:0,2:0:0:0:
377,220,64929,2,0,L|397:167,3,48.7499977684022,0|0|2|0,1:0|2:0|2:0|2:0,2:0:0:0:
302,306,65248,6,0,L|265:337,1,48.7499977684022,8|0,1:2|2:0,2:0:0:0:
157,374,65407,2,0,L|109:382,1,48.7499977684022,2|0,2:0|2:0,2:0:0:0:
19,341,65567,6,0,P|8:314|18:289,3,48.7499977684022,0|0|2|0,1:0|2:0|2:0|2:0,2:0:0:0:
76,221,65886,2,0,P|87:194|112:183,3,48.7499977684022,8|0|2|0,1:2|2:0|2:0|2:0,2:0:0:0:
201,176,66205,2,0,P|227:165|253:175,3,48.7499977684022,0|0|2|0,1:0|2:0|2:0|2:0,2:0:0:0:
103,184,66524,6,0,P|83:198|76:221,1,48.7499977684022,8|0,1:2|2:0,2:0:0:0:
12,295,66684,2,0,P|8:319|19:341,1,48.7499977684022,2|0,2:0|2:0,2:0:0:0:
157,294,66843,6,0,P|160:281|150:295,3,48.7499977684022,0|0|2|0,1:0|2:0|2:0|2:0,2:0:0:0:
249,384,67163,6,0,B|283:365|283:365|307:232,1,168.750006437302,10|0,1:2|2:0,2:0:0:0:
423,263,67482,6,0,B|399:247|399:247|379:101,1,168.750006437302,2|0,1:2|2:0,2:0:0:0:
471,186,67801,6,0,B|491:172|491:172|513:11,1,168.750006437302,10|0,1:2|2:0,2:0:0:0:
429,0,68120,6,0,L|358:13,3,48.7499977684022,6|0|2|0,1:2|2:0|2:0|2:0,2:0:0:0:
302,47,68439,2,0,L|254:38,3,48.7499977684022,10|0|2|0,1:2|2:0|2:0|2:0,2:0:0:0:
186,92,68758,2,0,L|115:105,3,48.7499977684022,0|0|2|0,1:0|2:0|2:0|2:0,2:0:0:0:
254,38,69078,6,0,L|302:47,1,48.7499977684022,8|0,1:2|2:0,2:0:0:0:
381,8,69237,2,0,L|429:0,1,48.7499977684022,2|0,2:0|2:0,2:0:0:0:
501,66,69397,6,0,B|510:82|510:82|498:122,3,48.7499977684022,0|0|2|0,1:0|2:0|2:0|2:0,2:0:0:0:
441,176,69716,2,0,B|432:192|432:192|444:232,3,48.7499977684022,8|0|2|0,1:2|2:0|2:0|2:0,2:0:0:0:
501,283,70035,2,0,B|510:299|510:299|498:339,3,48.7499977684022,0|0|2|0,1:0|2:0|2:0|2:0,2:0:0:0:
440,221,70354,6,0,B|432:192|432:192|441:176,1,48.7499977684022,8|0,1:2|2:0,2:0:0:0:
501,111,70514,2,0,B|510:82|510:82|501:66,1,48.7499977684022,2|0,2:0|2:0,2:0:0:0:
429,0,70673,6,0,B|408:12|408:12|407:19|407:19|374:50,3,48.7499977684022,2|0|2|0,1:3|2:0|1:2|2:0,2:0:0:0:
349,102,70992,2,0,B|325:95|325:95|320:99|320:99|274:98,3,48.7499977684022,10|0|2|0,1:2|2:0|1:2|2:0,2:0:0:0:
220,117,71312,2,0,B|207:96|207:96|200:95|200:95|170:61,3,48.7499977684022,0|0|2|0,1:0|2:0|1:2|2:0,2:0:0:0:
302,99,71631,6,0,B|320:99|320:99|325:95|325:95|349:102,1,48.7499977684022,8|0,1:2|2:0,2:0:0:0:
394,30,71790,2,0,B|407:19|407:19|408:12|408:12|429:0,1,48.7499977684022,2|0,1:2|2:0,2:0:0:0:
501,66,71950,6,0,P|488:93|472:121,3,48.7499977684022,2|0|2|0,1:2|1:0|1:2|1:0,2:0:0:0:
454,187,72269,2,0,P|429:203|401:220,3,48.7499977684022,8|0|2|0,1:2|1:0|1:2|1:0,2:0:0:0:
352,268,72588,2,0,P|322:270|289:270,3,48.7499977684022,0|0|2|0,1:0|1:0|1:2|1:0,2:0:0:0:
223,287,72907,6,0,P|196:273|168:258,1,48.7499977684022,8|0,1:2|1:0,2:0:0:0:
101,238,73067,2,0,P|84:213|67:185,1,48.7499977684022,2|0,1:2|1:0,2:0:0:0:
27,138,73226,6,0,P|20:109|21:81,15,37.5,4|0|0|0|0|0|0|0|0|0|0|0|0|0|0|0,1:2|1:0|1:0|1:0|1:0|1:0|1:0|1:0|1:0|1:0|1:0|1:0|1:0|1:0|1:0|1:0,2:0:0:0:
34,75,73865,6,0,B|135:64|76:130|207:109,1,150,4|4,1:2|2:0,2:0:0:0:
173,112,74503,5,2,2:3:0:0:
245,146,74663,1,0,2:0:0:0:
300,92,74822,1,0,2:0:0:0:
364,137,74982,2,0,P|421:140|465:149,1,75,0|0,2:0|2:0,2:0:0:0:
488,201,75301,1,0,2:0:0:0:
445,264,75461,1,2,2:3:0:0:
480,332,75620,2,0,P|441:362|337:345,1,150,0|0,2:0|2:0,2:0:0:0:
295,295,76099,6,0,L|303:246,1,37.5,0|0,2:0|2:0,2:0:0:0:
272,192,76258,1,0,2:0:0:0:
183,255,76418,6,0,B|124:263|155:279|91:296,2,75,4|0|2,1:2|2:0|2:3,2:0:0:0:
135,180,76897,2,0,L|43:163,1,75,0|0,2:0|2:0,2:0:0:0:
174,106,77216,2,0,L|266:89,1,75,0|0,2:0|2:0,2:0:0:0:
329,117,77535,1,0,2:0:0:0:
380,42,77695,5,6,1:2:0:0:
380,42,77854,1,0,2:0:0:0:
460,103,78014,1,0,2:0:0:0:
460,103,78173,1,0,2:0:0:0:
406,176,78333,2,0,L|424:315,1,112.5,2|0,1:3|2:0,2:0:0:0:
455,312,78652,1,0,1:0:0:0:
455,312,78732,1,0,2:0:0:0:
455,312,78812,2,0,L|448:362,1,37.5,0|0,2:0|2:0,2:0:0:0:
374,376,78971,6,0,P|310:359|193:345,1,179.999994506836,6|4,1:2|2:0,2:0:0:0:
197,345,79609,5,0,2:0:0:0:
157,277,79769,1,2,2:0:0:0:
205,213,79929,1,0,2:0:0:0:
154,153,80088,2,0,P|86:173|47:176,1,89.9999972534181,2|2,2:0|2:3,2:0:0:0:
21,109,80407,1,2,2:0:0:0:
61,40,80566,1,0,2:0:0:0:
139,18,80726,2,0,P|194:25|245:35,1,89.9999972534181,2|0,2:0|2:0,2:0:0:0:
284,86,81046,2,0,P|372:63|490:59,1,179.999994506836,2|2,2:0|2:0,2:0:0:0:
506,127,81524,5,2,1:3:0:0:
452,189,81684,1,2,2:0:0:0:
496,258,81843,1,0,2:0:0:0:
456,335,82003,1,2,2:0:0:0:
381,295,82163,2,0,P|324:312|306:314,1,44.999998626709,2|0,1:3|2:0,2:0:0:0:
278,267,82322,2,0,P|286:215|287:152,1,89.9999972534181,2|2,2:0|2:0,2:0:0:0:
244,113,82641,1,2,2:0:0:0:
159,178,82801,6,0,P|90:191|53:196,1,89.9999972534181,2|2,1:2|2:0,2:0:0:0:
0,96,83040,6,0,P|69:109|106:114,1,89.9999972534181,0|0,2:0|2:0,2:0:0:0:
201,264,83280,6,0,P|179:260|140:253,1,44.999998626709,2|0,2:0|2:0,2:0:0:0:
70,193,83439,2,0,P|114:186|159:178,1,89.9999972534181,0|2,2:0|2:0,2:0:0:0:
388,130,83758,1,4,2:0:0:0:
471,40,84078,5,4,1:2:0:0:
471,40,84238,1,2,2:0:0:0:
430,122,84397,2,0,P|442:131|486:137,1,46.875,10|0,1:2|2:0,2:0:0:0:
477,120,84557,2,0,P|399:123|364:162,1,93.75,2|0,2:0|1:0,2:0:0:0:
272,80,84876,1,2,2:0:0:0:
278,172,85035,2,0,P|293:174|334:157,1,46.875,8|0,1:2|2:0,2:0:0:0:
318,147,85195,2,0,P|252:189|242:240,1,93.75,2|0,2:0|1:0,2:0:0:0:
120,215,85514,1,2,2:0:0:0:
171,291,85673,2,0,P|185:286|212:251,1,46.875,8|0,1:2|2:0,2:0:0:0:
193,250,85833,2,0,P|157:320|173:369,1,93.75,2|0,2:0|1:0,2:0:0:0:
380,351,86152,1,2,2:0:0:0:
298,310,86311,2,0,P|289:322|283:366,1,46.875,10|0,1:2|2:0,2:0:0:0:
300,357,86471,2,0,P|297:279|258:244,1,93.75,2|2,2:0|1:2,2:0:0:0:
340,152,86790,1,2,2:0:0:0:
248,158,86950,2,0,P|247:173|264:214,1,46.875,8|0,1:2|2:0,2:0:0:0:
273,198,87109,2,0,P|232:132|181:122,1,93.75,2|0,2:0|1:0,2:0:0:0:
205,0,87428,1,2,2:0:0:0:
129,51,87588,2,0,P|135:65|170:92,1,46.875,8|0,1:2|2:0,2:0:0:0:
170,73,87747,2,0,P|128:41|82:39,2,93.75,2|2|2,2:0|1:2|2:0,2:0:0:0:
117,170,88227,1,10,1:2:0:0:
1,90,88386,2,0,P|23:144|27:193,1,93.75,2|0,2:0|2:0,2:0:0:0:
292,183,88706,2,0,P|199:170|108:150,1,187.5,2|0,2:0|2:0,2:0:0:0:
333,247,89184,5,4,1:2:0:0:
435,247,89344,1,2,2:0:0:0:
484,345,89503,2,0,P|449:343|432:366,1,46.875,8|0,1:2|2:0,2:0:0:0:
437,378,89663,2,0,P|423:330|377:325,1,93.75,2|0,2:0|1:0,2:0:0:0:
348,143,89982,1,2,2:0:0:0:
341,251,90141,2,0,P|313:231|286:243,1,46.875,8|0,1:2|2:0,2:0:0:0:
284,256,90301,2,0,P|296:207|259:180,1,93.75,2|0,2:0|1:0,2:0:0:0:
326,7,90621,1,2,2:0:0:0:
265,99,90780,2,0,P|250:68|221:64,1,46.875,8|0,1:2|2:0,2:0:0:0:
213,73,90940,2,0,P|248:36|230:-6,1,93.75,2|0,2:0|1:0,2:0:0:0:
73,137,91259,1,2,2:0:0:0:
24,39,91418,2,0,P|60:42|77:19,1,46.875,10|0,1:2|2:0,2:0:0:0:
71,6,91578,2,0,P|86:55|132:60,1,93.75,2|2,2:0|1:2,2:0:0:0:
160,241,91897,1,2,2:0:0:0:
167,133,92056,2,0,P|196:154|223:142,1,46.875,8|0,1:2|2:0,2:0:0:0:
224,128,92216,2,0,P|213:178|250:205,1,93.75,2|0,2:0|1:0,2:0:0:0:
182,377,92536,1,2,2:0:0:0:
243,285,92695,2,0,P|259:317|288:321,1,46.875,8|0,1:2|2:0,2:0:0:0:
299,312,92855,1,2,2:0:0:0:
465,372,93014,6,0,L|483:283,1,75,6|0,1:2|2:0,2:0:0:0:
488,223,93173,2,0,B|476:206|476:206|483:189|483:189|495:206|495:206|489:222,3,75,4|0|8|8,1:2|2:0|2:0|2:0,2:0:0:0:
419,259,93492,2,0,B|402:271|402:271|385:264|385:264|402:252|402:252|418:258,3,75,4|0|8|8,1:2|2:0|2:0|2:0,2:0:0:0:
284,112,93812,6,0,L|373:130,1,75,4|0,1:2|2:0,2:0:0:0:
433,135,93971,2,0,B|450:123|450:123|467:130|467:130|450:142|450:142|434:136,3,75,8|8|8|8,1:2|1:2|1:0|1:0,2:0:0:0:
398,61,94290,1,6,1:2:0:0:
