osu file format v14

[General]
AudioFilename: audio.ogg
AudioLeadIn: 0
PreviewTime: 44175
Countdown: 0
SampleSet: Soft
StackLeniency: 0.7
Mode: 0
LetterboxInBreaks: 0
SkinPreference:Default
WidescreenStoryboard: 1

[Editor]
DistanceSpacing: 1.1
BeatDivisor: 4
GridSize: 4
TimelineZoom: 3.599998

[Metadata]
Title:UNBELIEVABLE (Sparky remix)
TitleUnicode:UNBELIEVABLE (Sparky remix)
Artist:jun feat. Sarah-Jane
ArtistUnicode:jun feat. Sarah-Jane
Creator:Appetible
Version:EXPERT
Source:DanceDanceRevolution II
Tags:appe leominexd leomine rhythm game bemani konami ddr 2 english electronic hottest party5 party 5 edm dance happy hardcore dj silver richard lane neild female vocal arcade video game vgm revolution x3 vs 2nd mix original soundtrack boom
BeatmapID:3969851
BeatmapSetID:1923094

[Difficulty]
HPDrainRate:6
CircleSize:4
OverallDifficulty:8
ApproachRate:8.5
SliderMultiplier:1.7
SliderTickRate:2

[Events]
//Background and Video events
0,0,"wallpapersden.com_anime-girl-and-cool-starry-sky_1920x1080.jpg",0,0
//Break Periods
//Storyboard Layer 0 (Background)
//Storyboard Layer 1 (Fail)
//Storyboard Layer 2 (Pass)
//Storyboard Layer 3 (Foreground)
//Storyboard Layer 4 (Overlay)
//Storyboard Sound Samples

[TimingPoints]
255,342.857142857143,4,2,1,80,1,0
9855,-142.857142857143,4,2,1,65,0,0
11226,-125,4,2,1,70,0,0
22197,-111.111111111111,4,2,1,75,0,0
31797,-111.111111111111,4,2,1,65,0,0
33169,-105.263157894737,4,2,1,75,0,0
38655,-100,4,2,1,75,0,0
42769,-100,4,2,1,78,0,0
44140,-90.9090909090909,4,2,1,85,0,1
55026,-90.9090909090909,4,2,1,85,0,0
55112,-90.9090909090909,4,2,1,85,0,1
64712,-111.111111111111,4,2,1,65,0,0
66083,-100,4,2,1,80,0,0
85283,-111.111111111111,4,2,1,70,0,0
86655,-142.857142857143,4,2,1,65,0,0
87340,-100,4,2,1,65,0,0
88026,-125,4,2,1,60,0,0
98997,-111.111111111111,4,2,1,70,0,0
104483,-111.111111111111,4,2,1,70,0,0
107226,-111.111111111111,4,2,1,72,0,0
107569,-111.111111111111,4,2,1,74,0,0
107912,-111.111111111111,4,2,1,76,0,0
108255,-111.111111111111,4,2,1,78,0,0
108597,-111.111111111111,4,2,1,65,0,0
112712,-111.111111111111,4,2,1,5,0,0

[Colours]
Combo1 : 142,137,245
Combo2 : 194,117,223
Combo3 : 125,194,236
Combo4 : 248,135,248
SliderBorder : 168,81,201
SliderTrackOverride : 55,55,55

[HitObjects]
108,152,255,6,0,P|94:191|108:231,1,85,4|0,1:2|0:0,0:0:0:0:
42,99,597,2,0,B|91:58|146:81|146:81|200:104,1,170,10|0,2:2|1:1,0:0:0:0:
308,5,1112,1,2,2:2:0:0:
204,5,1283,1,10,2:2:0:0:
312,104,1455,6,0,L|396:104,1,85,2|0,2:2|1:1,0:0:0:0:
501,192,1797,2,0,L|416:192,1,85,2|8,2:2|2:2,0:0:0:0:
312,280,2140,2,0,L|396:280,1,85,2|0,2:2|1:1,0:0:0:0:
256,192,2483,1,2,2:2:0:0:
200,280,2655,1,10,2:2:0:0:
256,368,2826,1,2,2:2:0:0:
122,281,2997,6,0,P|160:266|200:280,1,85,2|0,1:2|0:0,0:0:0:0:
334,192,3340,2,0,P|294:206|256:192,1,85,10|0,2:2|0:0,0:0:0:0:
121,105,3683,2,0,P|159:90|199:104,1,85,2|0,1:2|0:0,0:0:0:0:
256,12,4026,1,10,2:2:0:0:
391,105,4197,6,0,P|352:90|312:104,1,85,2|0,2:2|1:1,0:0:0:0:
447,12,4540,1,2,2:2:0:0:
503,105,4712,1,10,2:2:0:0:
447,198,4883,1,2,2:2:0:0:
312,104,5055,2,0,P|352:90|391:105,1,85,2|0,1:2|0:0,0:0:0:0:
256,229,5397,2,0,B|237:192|237:192|256:154,1,85,10|0,2:2|0:0,0:0:0:0:
391,279,5740,6,0,P|352:293|312:279,1,85,2|0,1:2|0:0,0:0:0:0:
107,360,6083,2,0,P|181:323|254:360,1,170,10|0,2:2|1:1,0:0:0:0:
312,279,6597,1,2,2:2:0:0:
369,360,6769,1,10,2:2:0:0:
425,203,6940,6,0,B|443:241|443:241|425:279,1,85,2|0,2:2|1:1,0:0:0:0:
368,123,7283,2,0,B|349:85|349:85|368:47,1,85,2|8,2:2|2:2,0:0:0:0:
312,202,7626,2,0,B|330:239|330:239|312:277,1,85,2|0,2:2|1:1,0:0:0:0:
255,121,7969,1,2,2:2:0:0:
200,278,8140,1,10,2:2:0:0:
146,121,8312,1,2,2:2:0:0:
92,279,8483,6,0,P|77:318|92:357,1,85,2|0,1:2|0:0,0:0:0:0:
146,121,8826,2,0,P|160:81|145:42,1,85,2|0,1:2|0:0,0:0:0:0:
200,278,9169,2,0,P|185:317|200:356,1,85,2|0,1:2|0:0,0:0:0:0:
256,192,9512,1,2,1:2:0:0:
311,356,9683,1,2,1:2:0:0:
148,192,9855,5,4,1:2:0:0:
311,28,10540,5,0,3:3:0:0:
285,42,10625,1,0,3:3:0:0:
256,47,10711,1,0,3:3:0:0:
227,42,10797,1,0,3:3:0:0:
201,28,10883,2,0,L|138:28,1,59.4999981842042,8|0,2:2|3:3,0:0:0:0:
20,192,11226,6,0,P|9:160|20:129,1,68,4|2,1:2|2:2,0:0:0:0:
82,255,11569,1,2,1:2:0:0:
144,192,11740,2,0,P|200:159|256:191,1,136,2|2,2:2|2:2,0:0:0:0:
319,255,12255,1,2,1:2:0:0:
381,192,12426,1,2,2:2:0:0:
319,61,12597,6,0,L|319:129,1,68,2|2,1:2|2:2,0:0:0:0:
381,0,12940,1,2,1:2:0:0:
443,129,13112,2,0,L|443:61,1,68,2|0,2:2|1:1,0:0:0:0:
381,192,13455,1,2,2:2:0:0:
319,255,13626,1,2,1:2:0:0:
256,192,13797,1,2,2:2:0:0:
194,318,13969,6,0,P|183:286|193:254,1,68,2|2,1:2|2:2,0:0:0:0:
130,192,14312,1,2,1:2:0:0:
66,318,14483,2,0,P|76:286|66:254,1,68,2|0,2:2|1:1,0:0:0:0:
129,128,14826,2,0,P|118:159|129:191,1,68,2|0,2:2|1:1,0:0:0:0:
193,254,15169,6,0,B|256:282|256:282|318:255,1,136,2|0,2:2|0:0,0:0:0:0:
382,192,15683,1,0,1:1:0:0:
318,129,15855,1,0,0:0:0:0:
455,224,16026,2,0,B|466:192|466:192|456:161,1,68,12|2,1:2|2:2,0:0:0:0:
365,61,16369,1,14,1:2:0:0:
256,192,16540,1,2,2:2:0:0:
147,61,16712,6,0,L|101:116,1,68,4|2,1:2|2:2,0:0:0:0:
38,192,17055,1,2,1:2:0:0:
103,270,17226,2,0,L|147:323,1,68,2|0,2:2|1:1,0:0:0:0:
303,260,17569,1,2,2:2:0:0:
256,364,17740,1,2,1:2:0:0:
209,260,17912,1,2,2:2:0:0:
365,323,18083,6,0,L|408:270,1,68,2|2,1:2|2:2,0:0:0:0:
474,192,18426,1,2,1:2:0:0:
408,113,18597,2,0,B|409:74|380:46|346:46|346:46|312:46,1,136,2|0,2:2|0:0,0:0:0:0:
200,137,19112,1,2,1:2:0:0:
312,137,19283,1,2,2:2:0:0:
199,46,19455,6,0,B|166:46|166:46|132:46|103:74|103:113,1,136,2|0,1:2|1:1,0:0:0:0:
200,247,19969,2,0,B|210:210|237:192|237:192|210:174|200:137,1,136,2|0,2:2|0:0,0:0:0:0:
103,192,20483,1,2,1:2:0:0:
6,137,20655,1,2,2:2:0:0:
103,82,20826,5,2,1:2:0:0:
199,136,20997,1,0,0:0:0:0:
199,136,21083,1,2,2:2:0:0:
199,136,21169,1,0,1:1:0:0:
103,192,21340,1,2,2:2:0:0:
199,247,21512,5,2,1:2:0:0:
229,264,21597,1,2,2:2:0:0:
258,281,21683,1,2,2:2:0:0:
287,298,21769,1,2,2:2:0:0:
317,315,21855,2,0,L|297:350,3,34,8|8|8|8,2:2|2:2|2:2|2:2,0:0:0:0:
391,349,22197,6,0,L|429:282,1,76.4999976654053,4|2,1:2|2:2,0:0:0:0:
478,192,22540,1,10,2:2:0:0:
353,101,22712,2,0,L|429:101,1,76.4999976654053,2|0,2:2|1:1,0:0:0:0:
304,192,23055,1,2,2:2:0:0:
256,101,23226,1,10,2:2:0:0:
208,192,23397,1,2,2:2:0:0:
256,283,23569,6,0,L|332:283,1,76.4999976654053,2|2,1:2|2:2,0:0:0:0:
208,374,23912,1,10,2:2:0:0:
160,283,24084,2,0,L|84:283,1,76.4999976654053,2|0,2:2|1:1,0:0:0:0:
14,144,24426,1,2,2:2:0:0:
120,192,24597,1,10,2:2:0:0:
14,239,24769,1,2,2:2:0:0:
83,101,24940,6,0,B|118:101|118:101|147:71,1,76.4999976654053,2|2,1:2|2:2,0:0:0:0:
217,0,25283,1,10,2:2:0:0:
286,69,25455,2,0,P|300:105|286:140,1,76.4999976654053,2|0,2:2|1:1,0:0:0:0:
383,227,25797,2,0,P|369:191|382:156,1,76.4999976654053,2|8,2:2|2:2,0:0:0:0:
286,243,26140,2,0,P|300:278|286:314,1,76.4999976654053,2|0,2:2|1:2,0:0:0:0:
216,384,26483,5,0,0:0:0:0:
145,313,26655,1,8,2:2:0:0:
74,383,26826,1,2,2:2:0:0:
146,313,26997,2,0,L|92:259,1,76.4999976654053,12|2,1:2|2:2,0:0:0:0:
245,156,27340,2,0,B|257:192|257:192|245:228,1,76.4999976654053,12|2,1:2|2:2,0:0:0:0:
92,125,27683,6,0,L|146:71,1,76.4999976654053,4|2,1:2|2:2,0:0:0:0:
216,0,28026,1,10,2:2:0:0:
286,70,28197,2,0,B|337:70|337:70|390:70|416:124,1,152.999995330811,2|2,2:2|2:2,0:0:0:0:
318,236,28712,1,10,2:2:0:0:
318,147,28883,1,2,2:2:0:0:
416,260,29055,6,0,L|492:260,1,76.4999976654053,2|2,1:2|2:2,0:0:0:0:
416,124,29397,1,10,2:2:0:0:
416,124,29569,2,0,L|492:124,1,76.4999976654053,2|0,2:2|1:1,0:0:0:0:
344,57,29912,1,2,2:2:0:0:
256,124,30083,1,10,2:2:0:0:
344,192,30255,1,2,2:2:0:0:
256,260,30426,6,0,B|222:192|222:192|256:124,2,152.999995330811,2|8|0,1:2|2:2|1:1,0:0:0:0:
339,314,31283,1,2,2:2:0:0:
256,369,31455,2,0,L|179:369,1,76.4999976654053,10|2,2:2|2:2,0:0:0:0:
339,314,31797,6,0,B|416:314|416:314|469:253,1,152.999995330811,4|0,1:2|3:3,0:0:0:0:
389,192,32312,1,2,1:2:0:0:
465,127,32483,2,0,L|415:70,1,76.4999976654053,2|0,1:2|0:0,0:0:0:0:
264,12,32826,1,8,2:2:0:0:
276,26,32911,1,0,0:0:0:0:
289,41,32997,1,8,2:2:0:0:
302,55,33083,1,8,2:2:0:0:
314,69,33169,6,0,L|253:122,1,80.7499978437424,4|0,1:2|0:0,0:0:0:0:
175,192,33512,1,8,2:2:0:0:
96,123,33683,1,0,0:0:0:0:
16,266,33855,2,0,P|3:229|17:192,1,80.7499978437424,2|0,1:2|0:0,0:0:0:0:
96,335,34197,1,10,2:2:0:0:
175,191,34369,6,0,P|188:228|175:266,1,80.7499978437424,2|0,2:2|1:1,0:0:0:0:
96,123,34712,1,2,2:2:0:0:
16,266,34883,2,0,P|3:229|17:192,1,80.7499978437424,10|0,2:2|0:0,0:0:0:0:
96,335,35226,1,2,1:2:0:0:
175,191,35397,1,0,0:0:0:0:
175,191,35483,1,2,2:2:0:0:
175,191,35569,1,8,2:2:0:0:
256,335,35740,1,2,2:2:0:0:
337,191,35912,6,0,B|365:163|365:163|365:121,1,80.7499978437424,2|0,1:2|0:0,0:0:0:0:
417,237,36255,1,10,2:2:0:0:
470,123,36426,2,0,B|470:164|470:164|498:192,1,80.7499978437424,2|0,2:2|1:1,0:0:0:0:
417,312,36769,1,2,2:2:0:0:
337,191,36940,1,10,2:2:0:0:
256,312,37112,6,0,L|175:312,1,80.7499978437424,2|0,2:2|1:1,0:0:0:0:
19,250,37455,2,0,L|99:250,1,80.7499978437424,2|8,2:2|2:2,0:0:0:0:
256,192,37797,1,2,2:2:0:0:
99,134,37969,2,0,L|19:134,1,80.7499978437424,2|0,1:2|0:0,0:0:0:0:
175,72,38312,2,0,L|256:72,1,80.7499978437424,8|0,2:2|0:0,0:0:0:0:
100,250,38655,6,0,B|57:237|43:192|43:192|57:147|99:134,1,170,2|8,1:2|2:2,0:0:0:0:
178,328,39169,1,0,0:0:0:0:
334,250,39340,2,0,B|256:217|256:217|178:250,1,170,2|10,1:2|2:2,0:0:0:0:
334,328,39855,6,0,B|412:361|412:361|490:328,1,170,2|2,2:2|2:2,0:0:0:0:
412,134,40369,2,0,B|455:147|469:192|469:192|455:237|412:250,2,170,10|0|8,2:2|1:1|2:2,0:0:0:0:
333,55,41226,1,0,0:0:0:0:
256,132,41397,6,0,B|181:132|181:132|166:117|166:117|92:117,1,170,2|8,1:2|2:2,0:0:0:0:
92,266,41912,2,0,B|166:266|166:266|181:252|181:252|256:252,1,170,2|2,2:2|2:2,0:0:0:0:
411,250,42426,1,10,2:2:0:0:
333,329,42597,1,2,2:2:0:0:
411,133,42769,5,14,2:2:0:0:
256,252,42940,1,0,0:0:0:0:
256,252,43026,1,10,2:2:0:0:
256,252,43112,1,0,0:0:0:0:
256,132,43283,1,10,2:2:0:0:
411,250,43455,5,12,1:2:0:0:
427,222,43540,1,2,2:2:0:0:
432,191,43626,1,2,2:2:0:0:
427,160,43712,1,2,2:2:0:0:
410,133,43797,1,8,2:2:0:0:
394,106,43883,1,8,2:2:0:0:
388,75,43969,1,8,2:2:0:0:
394,44,44055,1,8,2:2:0:0:
411,16,44140,6,0,B|336:53|336:53|329:75|329:75|256:110,1,187.000005706787,4|8,1:2|2:2,0:0:0:0:
169,24,44655,1,2,2:2:0:0:
82,190,44826,2,0,P|64:149|83:108,1,93.5000028533936,0|2,1:1|2:2,0:0:0:0:
169,277,45169,1,10,2:2:0:0:
256,192,45340,1,2,2:2:0:0:
343,277,45512,6,0,L|343:370,1,93.5000028533936,2|0,1:2|0:0,0:0:0:0:
256,192,45855,2,0,L|256:99,1,93.5000028533936,10|2,2:2|2:2,0:0:0:0:
169,277,46197,2,0,L|169:370,1,93.5000028533936,2|0,1:2|0:0,0:0:0:0:
83,191,46540,2,0,L|83:98,1,93.5000028533936,10|0,2:2|0:0,0:0:0:0:
256,98,46883,6,0,B|305:106|338:65|338:65|371:106|420:98,1,187.000005706787,2|10,1:2|2:2,0:0:0:0:
502,229,47397,2,0,B|484:215|475:192|475:192|484:169|502:155,1,93.5000028533936,2|0,2:2|1:1,0:0:0:0:
420,285,47740,1,2,2:2:0:0:
339,155,47912,2,0,B|357:169|366:192|366:192|357:215|339:229,1,93.5000028533936,10|0,2:2|0:0,0:0:0:0:
256,319,48255,6,0,B|208:319|208:319|135:319|103:243,1,187.000005706787,2|8,1:2|2:2,0:0:0:0:
214,192,48769,1,2,2:2:0:0:
103,141,48940,2,0,B|135:65|208:65|208:65|256:65,1,187.000005706787,2|8,1:2|2:2,0:0:0:0:
379,65,49455,1,0,0:0:0:0:
472,278,49626,6,0,B|509:192|509:192|472:106,1,187.000005706787,2|8,1:2|2:2,0:0:0:0:
358,149,50140,2,0,B|376:191|376:191|357:234,1,93.5000028533936,2|0,2:2|1:1,0:0:0:0:
256,302,50483,1,2,2:2:0:0:
200,192,50655,1,10,2:2:0:0:
149,302,50826,1,2,2:2:0:0:
97,192,50997,6,0,P|82:148|97:105,1,93.5000028533936,2|0,1:2|0:0,0:0:0:0:
200,19,51340,2,0,P|215:62|200:106,1,93.5000028533936,10|2,2:2|2:2,0:0:0:0:
303,192,51683,2,0,P|287:148|302:105,1,93.5000028533936,2|0,1:2|0:0,0:0:0:0:
405,19,52026,2,0,P|420:62|404:105,1,93.5000028533936,10|0,2:2|0:0,0:0:0:0:
489,192,52369,6,0,B|437:202|427:253|427:253|375:264|365:315,1,187.000005706787,2|10,1:2|2:2,0:0:0:0:
256,369,52883,1,2,2:2:0:0:
146,315,53055,2,0,L|209:239,1,93.5000028533936,0|2,1:1|2:2,0:0:0:0:
365,315,53397,2,0,L|303:239,1,93.5000028533936,10|0,2:2|0:0,0:0:0:0:
256,5,53740,5,2,1:2:0:0:
256,28,53825,1,2,2:2:0:0:
256,51,53911,1,2,2:2:0:0:
256,75,53997,1,2,2:2:0:0:
256,98,54082,1,8,2:2:0:0:
256,121,54168,1,2,2:2:0:0:
256,145,54254,1,2,2:2:0:0:
256,168,54339,1,2,2:2:0:0:
256,192,54426,6,0,P|212:208|169:192,1,93.5000028533936,12|0,1:2|3:3,0:0:0:0:
256,5,54769,2,0,P|299:-10|342:6,1,93.5000028533936,12|0,1:2|3:3,0:0:0:0:
256,192,55112,6,0,B|212:224|169:192|169:192|76:192,1,187.000005706787,4|8,1:2|2:2,0:0:0:0:
0,282,55626,1,2,2:2:0:0:
169,372,55797,2,0,L|76:372,1,93.5000028533936,0|2,1:1|2:2,0:0:0:0:
256,282,56140,1,10,2:2:0:0:
342,372,56312,1,2,2:2:0:0:
429,282,56483,6,0,L|500:350,1,93.5000028533936,2|0,1:2|0:0,0:0:0:0:
350,192,56826,2,0,L|256:192,1,93.5000028533936,10|2,2:2|2:2,0:0:0:0:
429,102,57169,2,0,L|500:34,1,93.5000028533936,2|0,1:2|0:0,0:0:0:0:
350,192,57512,2,0,L|256:192,1,93.5000028533936,10|2,2:2|2:2,0:0:0:0:
170,104,57855,6,0,P|141:192|170:279,1,187.000005706787,2|10,1:2|2:2,0:0:0:0:
344,363,58369,2,0,P|300:378|257:364,1,93.5000028533936,2|0,2:2|1:1,0:0:0:0:
432,279,58712,1,2,2:2:0:0:
255,191,58883,2,0,P|299:177|343:192,1,93.5000028533936,10|0,2:2|0:0,0:0:0:0:
170,279,59226,6,0,B|143:320|79:328|48:280|48:280|27:243,1,187.000005706787,2|8,1:2|2:2,0:0:0:0:
137,192,59740,1,2,2:2:0:0:
27,140,59912,2,0,B|48:104|48:104|79:56|143:64|170:104,1,187.000005706787,2|8,1:2|2:2,0:0:0:0:
256,17,60426,1,0,0:0:0:0:
341,104,60597,6,0,P|256:136|170:105,1,187.000005706787,2|8,1:2|2:2,0:0:0:0:
84,192,61112,1,2,2:2:0:0:
169,279,61283,2,0,L|256:313,1,93.5000028533936,2|0,1:2|0:0,0:0:0:0:
427,253,61626,2,0,L|334:253,1,93.5000028533936,10|0,2:2|0:0,0:0:0:0:
334,131,61969,6,0,L|427:131,1,93.5000028533936,2|0,1:2|0:0,0:0:0:0:
256,71,62312,2,0,L|169:104,1,93.5000028533936,10|2,2:2|2:2,0:0:0:0:
76,236,62655,2,0,B|64:192|64:192|76:147,1,93.5000028533936,2|0,1:2|0:0,0:0:0:0:
169,279,62997,2,0,L|256:313,1,93.5000028533936,10|0,2:2|0:0,0:0:0:0:
256,192,63340,5,2,1:2:0:0:
342,105,63512,1,0,0:0:0:0:
342,105,63597,1,0,1:1:0:0:
342,105,63683,1,10,2:2:0:0:
428,192,63855,1,2,1:2:0:0:
342,279,64026,1,0,1:1:0:0:
256,192,64197,1,2,1:2:0:0:
170,279,64369,5,10,2:2:0:0:
170,279,64454,1,0,1:1:0:0:
170,279,64540,1,0,1:1:0:0:
256,52,64712,1,4,1:2:0:0:
157,336,65397,5,0,1:1:0:0:
178,354,65482,1,0,3:3:0:0:
206,360,65568,1,0,3:3:0:0:
234,354,65654,1,0,3:3:0:0:
256,336,65739,1,8,2:2:0:0:
278,318,65826,1,8,2:2:0:0:
305,311,65912,1,8,2:2:0:0:
333,318,65998,1,8,2:2:0:0:
355,336,66083,6,0,L|394:260,1,85,4|0,1:2|0:0,0:0:0:0:
306,192,66426,2,0,P|256:136|206:192,1,170,10|0,2:2|1:1,0:0:0:0:
127,271,66940,1,2,2:2:0:0:
48,192,67112,1,10,2:2:0:0:
126,105,67283,2,0,B|109:66|109:66|126:28,1,85,2|0,2:2|1:2,0:0:0:0:
256,28,67626,6,0,B|314:28|314:28|369:28|403:86,2,170,2|2|2,2:2|2:2|2:2,0:0:0:0:
203,113,68483,1,10,2:2:0:0:
145,192,68655,1,2,2:2:0:0:
203,271,68826,2,0,L|203:356,1,85,2|0,1:2|0:0,0:0:0:0:
309,271,69169,2,0,L|309:356,1,85,10|0,2:2|0:0,0:0:0:0:
415,271,69512,2,0,L|415:356,1,85,2|0,1:2|0:0,0:0:0:0:
309,192,69855,1,10,2:2:0:0:
415,113,70026,6,0,L|415:28,1,85,2|0,2:2|1:1,0:0:0:0:
309,113,70369,1,2,2:2:0:0:
415,192,70540,1,10,2:2:0:0:
309,271,70712,1,2,2:2:0:0:
415,192,70883,2,0,P|453:206|492:191,1,85,2|0,1:2|0:0,0:0:0:0:
309,271,71226,2,0,P|270:256|231:271,1,85,10|0,2:2|0:0,0:0:0:0:
415,350,71569,6,0,P|453:364|492:349,1,85,2|0,1:2|0:0,0:0:0:0:
309,271,71912,2,0,B|270:241|232:271|232:271|146:271,1,170,10|0,2:2|1:1,0:0:0:0:
66,192,72426,1,2,2:2:0:0:
145,113,72597,1,10,2:2:0:0:
67,34,72769,6,0,B|67:71|67:71|33:105,1,85,2|0,2:2|1:1,0:0:0:0:
146,191,73112,2,0,B|146:157|146:157|148:152|148:152|143:152|143:152|146:146|146:146|146:113,1,85,2|8,2:2|2:2,0:0:0:0:
223,34,73455,2,0,B|223:71|223:71|257:105,1,85,2|0,2:2|1:1,0:0:0:0:
324,192,73797,1,2,2:2:0:0:
391,104,73969,1,10,2:2:0:0:
458,192,74140,1,2,2:2:0:0:
391,104,74312,6,0,L|391:19,1,85,2|0,1:2|0:0,0:0:0:0:
324,192,74655,2,0,L|239:192,1,85,10|0,2:2|0:0,0:0:0:0:
391,280,74997,2,0,L|391:365,1,85,2|0,1:2|0:0,0:0:0:0:
458,192,75340,1,10,2:2:0:0:
391,104,75512,1,2,2:2:0:0:
324,192,75683,5,0,1:1:0:0:
302,192,75768,1,2,2:2:0:0:
281,192,75854,1,2,2:2:0:0:
260,192,75940,1,2,2:2:0:0:
239,192,76025,1,8,2:2:0:0:
217,192,76111,1,2,2:2:0:0:
196,192,76197,1,2,2:2:0:0:
175,192,76283,1,2,2:2:0:0:
154,192,76369,6,0,B|122:192|122:192|115:199|115:199|107:192|107:192|76:192,1,85,12|0,1:2|3:3,0:0:0:0:
256,104,76712,2,0,B|287:104|287:104|294:96|294:96|302:104|302:104|334:104,1,85,12|0,1:2|3:3,0:0:0:0:
154,16,77055,6,0,B|122:16|122:16|115:8|115:8|107:16|107:16|76:16,1,85,4|0,1:2|0:0,0:0:0:0:
46,122,77397,2,0,P|5:192|46:262,1,170,10|0,2:2|1:1,0:0:0:0:
133,332,77912,1,2,2:2:0:0:
219,262,78083,1,10,2:2:0:0:
133,192,78255,6,0,B|122:150|122:150|133:109,1,85,2|0,2:2|1:1,0:0:0:0:
243,26,78597,2,0,B|253:67|253:67|243:109,1,85,2|8,2:2|2:2,0:0:0:0:
353,191,78940,2,0,B|342:150|342:150|353:109,1,85,2|0,2:2|1:1,0:0:0:0:
431,27,79283,1,2,2:2:0:0:
509,109,79455,1,10,2:2:0:0:
431,192,79626,1,2,2:2:0:0:
509,275,79797,6,0,B|473:275|473:275|434:303,1,85,2|0,1:2|0:0,0:0:0:0:
346,192,80140,2,0,L|431:192,1,85,10|0,2:2|0:0,0:0:0:0:
509,109,80483,2,0,B|473:109|473:109|434:81,1,85,2|0,1:2|0:0,0:0:0:0:
354,2,80826,1,10,2:2:0:0:
256,81,80997,6,0,P|242:41|255:2,1,85,2|0,2:2|1:1,0:0:0:0:
145,81,81340,1,2,2:2:0:0:
201,192,81512,1,10,2:2:0:0:
256,81,81683,1,2,2:2:0:0:
311,192,81855,2,0,L|350:272,1,85,2|0,1:2|0:0,0:0:0:0:
256,368,82197,2,0,L|256:283,1,85,10|0,2:2|0:0,0:0:0:0:
201,192,82540,6,0,L|163:268,1,85,2|0,1:2|0:0,0:0:0:0:
83,192,82883,2,0,B|90:147|53:117|53:117|90:87|83:42,1,170,10|0,2:2|1:1,0:0:0:0:
170,115,83397,1,2,2:2:0:0:
256,42,83569,1,10,2:2:0:0:
342,115,83740,6,0,L|430:115,1,85,2|0,2:2|1:1,0:0:0:0:
256,192,84083,2,0,L|171:192,1,85,2|8,2:2|2:2,0:0:0:0:
342,269,84426,2,0,L|430:269,1,85,2|0,2:2|1:1,0:0:0:0:
256,346,84769,1,2,2:2:0:0:
342,269,84940,1,10,2:2:0:0:
256,192,85112,1,2,2:2:0:0:
342,115,85283,6,0,B|389:115|389:115|449:115|465:54,2,152.999995330811,2|10|2,2:2|2:2|2:2,0:0:0:0:
158,192,86312,1,10,2:2:0:0:
228,121,86483,1,2,2:2:0:0:
228,263,86655,6,0,B|267:239|277:192|277:192|267:145|228:121,1,178.499994552612,4|0,1:2|0:0,0:0:0:0:
353,280,87340,5,2,2:2:0:0:
373,263,87425,1,2,2:2:0:0:
389,242,87511,1,2,2:2:0:0:
400,218,87597,1,2,2:2:0:0:
403,192,87683,1,2,2:2:0:0:
400,165,87768,1,2,2:2:0:0:
390,141,87854,1,2,2:2:0:0:
374,120,87940,1,2,2:2:0:0:
352,102,88026,6,0,L|256:7,1,136,4|0,1:2|0:0,0:0:0:0:
110,22,88712,2,0,B|129:51|129:51|129:85,1,68,8|2,2:2|2:2,0:0:0:0:
58,140,89055,1,2,2:2:0:0:
58,140,89226,1,2,1:2:0:0:
129,192,89397,2,0,L|129:261,1,68,2|0,2:2|1:1,0:0:0:0:
217,328,89740,2,0,L|217:260,1,68,2|0,1:2|0:0,0:0:0:0:
305,192,90083,2,0,L|305:260,1,68,10|0,2:2|0:0,0:0:0:0:
393,328,90426,2,0,L|393:260,1,68,2|0,2:2|0:0,0:0:0:0:
455,192,90769,6,0,P|480:130|454:69,1,136,2|0,1:2|0:0,0:0:0:0:
392,132,91283,2,0,P|330:106|269:131,1,136,2|0,2:2|0:0,0:0:0:0:
206,69,91797,2,0,P|175:81|144:68,1,68,2|0,2:2|1:1,0:0:0:0:
82,6,92140,2,0,L|20:127,1,136,2|0,2:2|1:1,0:0:0:0:
81,192,92655,1,2,2:2:0:0:
20,256,92826,2,0,L|82:378,1,136,10|0,2:2|0:0,0:0:0:0:
144,315,93340,1,8,2:2:0:0:
206,377,93512,6,0,B|256:377|256:377|306:377|324:333,1,136,2|0,1:2|0:0,0:0:0:0:
433,212,94197,2,0,L|433:144,1,68,8|2,2:2|2:2,0:0:0:0:
386,77,94540,1,2,2:2:0:0:
386,77,94712,1,2,1:2:0:0:
324,14,94883,2,0,L|256:14,1,68,2|0,2:2|1:1,0:0:0:0:
125,76,95226,2,0,L|193:76,1,68,2|0,1:2|0:0,0:0:0:0:
324,138,95569,2,0,L|256:138,1,68,10|0,2:2|0:0,0:0:0:0:
125,200,95912,2,0,L|193:200,1,68,2|0,2:2|0:0,0:0:0:0:
256,262,96255,6,0,B|288:241|316:257|320:262|324:266|353:282|385:262,1,136,2|0,1:2|0:0,0:0:0:0:
440,192,96769,2,0,B|419:159|435:131|440:127|444:123|460:94|440:62,1,136,2|0,2:2|0:0,0:0:0:0:
377,0,97283,2,0,B|345:0|345:0|318:24,1,68,2|0,2:2|1:1,0:0:0:0:
256,87,97626,2,0,B|221:87|221:87|166:87|135:132,1,136,2|0,2:2|1:1,0:0:0:0:
70,192,98140,1,2,2:2:0:0:
135,253,98312,5,14,2:2:0:0:
161,275,98397,1,2,2:2:0:0:
194,282,98483,1,2,2:2:0:0:
226,275,98569,1,2,2:2:0:0:
252,253,98654,1,2,2:2:0:0:
278,231,98740,1,2,2:2:0:0:
310,224,98826,1,8,2:2:0:0:
343,231,98912,1,0,0:0:0:0:
369,253,98997,6,0,L|414:192,1,76.4999976654053,4|0,1:2|3:3,0:0:0:0:
484,120,99340,1,0,3:3:0:0:
484,120,99512,1,0,3:3:0:0:
413,49,99683,2,0,L|335:49,1,76.4999976654053,8|2,2:2|3:2,0:0:0:0:
256,108,100026,1,2,3:2:0:0:
256,108,100197,1,2,1:2:0:0:
175,49,100369,6,0,L|99:49,1,76.4999976654053,2|0,3:2|1:1,0:0:0:0:
22,148,100712,2,0,L|99:148,1,76.4999976654053,2|0,1:2|3:3,0:0:0:0:
175,247,101055,2,0,L|99:247,1,76.4999976654053,10|0,2:2|3:3,0:0:0:0:
22,346,101397,2,0,L|99:346,1,76.4999976654053,2|10,3:2|2:2,0:0:0:0:
175,247,101740,6,0,L|99:247,1,76.4999976654053,2|0,1:2|3:3,0:0:0:0:
15,192,102083,1,0,3:3:0:0:
15,192,102255,1,2,3:2:0:0:
99,137,102426,2,0,L|175:137,1,76.4999976654053,8|0,2:2|3:3,0:0:0:0:
256,79,102769,1,2,3:2:0:0:
256,79,102940,1,0,1:1:0:0:
336,137,103112,6,0,L|413:137,1,76.4999976654053,2|0,3:2|1:1,0:0:0:0:
336,247,103455,2,0,L|413:247,1,76.4999976654053,0|2,1:1|3:2,0:0:0:0:
337,127,103797,2,0,L|413:127,1,76.4999976654053,10|0,2:2|3:3,0:0:0:0:
337,257,104140,2,0,L|413:257,1,76.4999976654053,0|8,3:3|2:2,0:0:0:0:
256,317,104483,5,2,1:2:0:0:
175,257,104655,1,0,3:3:0:0:
96,317,104826,2,0,B|96:286|96:286|61:257,1,76.4999976654053,0|0,3:3|3:3,0:0:0:0:
136,192,105169,1,10,2:2:0:0:
60,127,105340,1,0,3:3:0:0:
136,63,105512,2,0,L|196:13,1,76.4999976654053,2|0,3:2|1:1,0:0:0:0:
325,122,105855,6,0,P|338:157|325:192,1,76.4999976654053,2|0,3:2|1:1,0:0:0:0:
186,192,106197,2,0,P|173:157|187:122,1,76.4999976654053,2|0,1:2|3:3,0:0:0:0:
317,14,106540,2,0,L|376:63,1,76.4999976654053,10|0,2:2|3:3,0:0:0:0:
446,251,106883,1,10,2:2:0:0:
446,133,107055,1,2,3:2:0:0:
376,321,107226,6,0,L|346:345,5,38.2499988327027,2|0|0|0|0|0,1:2|3:3|3:3|3:3|3:3|3:3,0:0:0:0:
256,280,107740,6,0,L|256:241,5,38.2499988327027,2|0|0|0|8|8,3:2|3:3|3:3|3:3|2:2|2:2,0:0:0:0:
166,345,108255,5,10,2:2:0:0:
133,313,108340,1,8,2:2:0:0:
99,281,108426,1,8,2:2:0:0:
64,250,108512,1,8,2:2:0:0:
30,218,108597,1,2,1:2:0:0:
256,192,108683,12,0,112712,0:0:0:0:
