osu file format v14

[General]
AudioFilename: junkimo.mp3
AudioLeadIn: 0
PreviewTime: 118343
Countdown: 1
SampleSet: Normal
StackLeniency: 0.7
Mode: 0
LetterboxInBreaks: 0
WidescreenStoryboard: 0

[Editor]
Bookmarks: 98922,108396
DistanceSpacing: 0.5
BeatDivisor: 4
GridSize: 4
TimelineZoom: 2.899999

[Metadata]
Title:KIMONO PRINCESS
TitleUnicode:KIMONO PRINCESS
Artist:jun
ArtistUnicode:jun
Creator:Dreamcast
Version:Another
Source:
Tags:
BeatmapID:860653
BeatmapSetID:395456

[Difficulty]
HPDrainRate:5.5
CircleSize:4.2
OverallDifficulty:9.1
ApproachRate:9.2
SliderMultiplier:1.8
SliderTickRate:2

[Events]
//Background and Video events
0,0,"1437572001766.jpg",0,0
//Break Periods
2,41964,42773
2,99122,108141
//Storyboard Layer 0 (Background)
//Storyboard Layer 1 (Fail)
//Storyboard Layer 2 (Pass)
//Storyboard Layer 3 (Foreground)
//Storyboard Sound Samples

[TimingPoints]
396,315.789473684211,4,1,0,100,1,0
396,-100,4,2,0,100,0,0
43343,-100,4,1,0,100,0,0
57238,-100,4,2,0,80,0,0
58501,-100,4,1,0,100,0,0
62290,-100,4,2,0,80,0,0
63553,-100,4,1,0,100,0,0
124185,-100,4,1,0,100,0,1
159553,-100,4,1,0,100,0,0
169659,-83.3333333333333,4,1,0,100,0,0
169817,-100,4,1,0,100,0,0

[HitObjects]
60,136,396,6,0,L|244:100,1,180
452,248,1027,2,0,L|268:284,1,180
96,268,1659,5,0,0:0:0:0:
76,172,1817,1,0,0:0:0:0:
108,80,1974,1,0,0:0:0:0:
180,12,2132,1,0,0:0:0:0:
308,128,2290,2,0,L|408:176,2,90,8|8|8,0:0|0:0|0:0,0:0:0:0:
128,56,2922,6,0,B|107:101|92:144|92:144|96:180|96:208|88:232,1,180
384,328,3553,2,0,B|404:282|420:240|420:240|416:204|416:176|424:152,1,180
184,92,4185,6,0,L|268:52,1,90
328,292,4501,2,0,L|244:332,1,90
72,192,4817,1,0,0:0:0:0:
132,12,5053,1,0,0:0:0:0:
132,12,5132,1,0,0:0:0:0:
452,136,5448,2,0,L|268:100,1,180
60,248,6080,2,0,L|244:284,1,180
416,268,6711,5,0,0:0:0:0:
436,172,6869,1,0,0:0:0:0:
404,80,7027,1,0,0:0:0:0:
332,12,7185,1,0,0:0:0:0:
204,128,7343,2,0,L|104:176,2,90,8|8|8,0:0|0:0|0:0,0:0:0:0:
384,56,7974,6,0,B|404:101|420:144|420:144|416:180|416:208|424:232,1,180
128,328,8606,2,0,B|107:282|92:240|92:240|96:204|96:176|88:152,1,180
328,92,9238,6,0,L|244:52,1,90
184,292,9553,2,0,L|268:332,1,90
440,192,9869,1,0,0:0:0:0:
264,196,10106,1,0,0:0:0:0:
264,196,10185,1,0,0:0:0:0:
112,72,10501,5,0,0:0:0:0:
200,120,10659,1,0,0:0:0:0:
264,196,10817,1,0,0:0:0:0:
316,280,10974,1,0,0:0:0:0:
316,280,11053,1,0,0:0:0:0:
316,284,11132,2,0,P|368:280|412:256,1,90
401,120,11448,2,0,P|360:102|316:100,1,90
144,112,11764,5,0,0:0:0:0:
144,112,11922,1,0,0:0:0:0:
144,112,12080,1,0,0:0:0:0:
124,288,12238,1,0,0:0:0:0:
124,288,12396,1,0,0:0:0:0:
388,96,12711,1,0,0:0:0:0:
68,80,13027,6,0,P|168:92|232:168,1,180
256,328,13659,1,0,0:0:0:0:
348,128,13974,2,0,L|400:220,1,90
164,256,14290,2,0,L|112:164,1,90
64,64,14606,1,0,0:0:0:0:
164,84,14764,1,0,0:0:0:0:
264,104,14922,1,0,0:0:0:0:
445,113,15159,1,0,0:0:0:0:
445,113,15238,1,0,0:0:0:0:
132,256,15553,5,0,0:0:0:0:
236,236,15711,1,0,0:0:0:0:
272,336,15869,1,0,0:0:0:0:
368,272,16027,2,0,L|400:316,2,45
396,160,16343,2,0,L|432:56,1,90
296,104,16659,1,0,0:0:0:0:
172,144,16817,2,0,P|116:84|88:68,2,90
116,264,17290,1,0,0:0:0:0:
116,264,17448,1,0,0:0:0:0:
396,120,17764,1,0,0:0:0:0:
72,56,18080,6,0,P|152:88|256:100,1,180
440,328,18711,2,0,P|360:296|256:284,1,180
64,200,19343,5,0,0:0:0:0:
238,149,19501,1,0,0:0:0:0:
126,293,19659,1,0,0:0:0:0:
133,111,19817,1,0,0:0:0:0:
235,262,19974,1,0,0:0:0:0:
344,88,20211,1,0,0:0:0:0:
344,88,20290,1,0,0:0:0:0:
64,88,20606,6,0,L|160:68,1,90
368,192,20922,2,0,L|264:192,1,90
256,192,21159,1,0,0:0:0:0:
236,192,21238,1,0,0:0:0:0:
112,212,21396,1,0,0:0:0:0:
156,328,21553,1,0,0:0:0:0:
280,332,21711,1,0,0:0:0:0:
352,88,21869,6,0,P|424:128|452:152,1,90
160,88,22185,2,0,P|88:128|60:152,1,90
256,308,22501,2,0,L|256:200,1,90
256,92,22817,1,0,0:0:0:0:
428,136,23132,5,0,0:0:0:0:
404,260,23290,1,0,0:0:0:0:
292,316,23448,1,0,0:0:0:0:
256,188,23606,1,0,0:0:0:0:
256,188,23685,1,0,0:0:0:0:
256,188,23764,1,0,0:0:0:0:
292,316,23922,5,0,0:0:0:0:
404,260,24080,1,0,0:0:0:0:
428,136,24238,2,0,P|376:64|376:32,1,90
124,84,24553,1,0,0:0:0:0:
236,80,24711,1,0,0:0:0:0:
176,196,24869,1,0,0:0:0:0:
44,196,25027,1,0,0:0:0:0:
364,328,25264,1,0,0:0:0:0:
364,328,25343,1,0,0:0:0:0:
416,56,25659,5,0,0:0:0:0:
408,180,25817,1,0,0:0:0:0:
288,152,25974,2,0,L|192:96,1,90
108,136,26211,1,0,0:0:0:0:
116,156,26290,2,0,B|136:180|128:212|128:212|140:256,1,90
288,264,26606,5,0,0:0:0:0:
380,316,26764,1,0,0:0:0:0:
412,216,26922,1,0,0:0:0:0:
300,344,27080,1,0,0:0:0:0:
460,280,27238,1,0,0:0:0:0:
408,172,27396,1,0,0:0:0:0:
376,56,27553,1,0,0:0:0:0:
256,188,27869,1,0,0:0:0:0:
84,136,28185,5,0,0:0:0:0:
108,260,28343,1,0,0:0:0:0:
220,316,28501,1,0,0:0:0:0:
256,188,28659,1,0,0:0:0:0:
256,188,28738,1,0,0:0:0:0:
256,188,28817,1,0,0:0:0:0:
220,316,28974,5,0,0:0:0:0:
108,260,29132,1,0,0:0:0:0:
84,136,29290,1,0,0:0:0:0:
144,24,29448,1,0,0:0:0:0:
360,80,29606,1,0,0:0:0:0:
448,160,29764,1,0,0:0:0:0:
256,192,29922,2,0,L|264:144,2,45
144,24,30238,5,0,0:0:0:0:
84,136,30396,1,0,0:0:0:0:
204,180,30553,1,0,0:0:0:0:
216,308,30711,1,0,0:0:0:0:
340,344,30869,1,0,0:0:0:0:
408,236,31027,1,0,0:0:0:0:
408,236,31185,2,0,L|401:192,2,45
232,144,31501,1,0,0:0:0:0:
112,228,31659,1,0,0:0:0:0:
20,128,31817,1,0,0:0:0:0:
72,4,31974,5,0,0:0:0:0:
343,80,32132,2,0,P|296:64|260:48,1,90
168,303,32448,1,0,0:0:0:0:
168,303,32527,1,0,0:0:0:0:
168,303,32606,2,0,P|216:320|252:336,1,90
356,288,32922,1,0,0:0:0:0:
440,380,33080,1,0,0:0:0:0:
356,288,33238,1,0,0:0:0:0:
264,188,33396,1,0,0:0:0:0:
164,96,33553,6,0,P|120:84|76:56,1,90
60,188,33790,1,0,0:0:0:0:
60,188,33869,2,0,L|104:280,1,90
232,304,34185,1,0,0:0:0:0:
256,152,34343,1,0,0:0:0:0:
248,172,34422,1,0,0:0:0:0:
240,192,34501,1,0,0:0:0:0:
360,240,34659,1,0,0:0:0:0:
360,240,34817,5,0,0:0:0:0:
376,52,34974,1,0,0:0:0:0:
368,72,35053,1,0,0:0:0:0:
360,92,35132,1,0,0:0:0:0:
480,140,35290,1,0,0:0:0:0:
480,140,35448,5,0,0:0:0:0:
68,164,35606,1,0,0:0:0:0:
56,172,35685,1,0,0:0:0:0:
44,180,35764,2,0,P|20:280|24:296,1,90
144,320,36080,1,0,0:0:0:0:
180,224,36238,1,0,0:0:0:0:
252,328,36396,1,0,0:0:0:0:
356,288,36553,1,0,0:0:0:0:
292,208,36711,1,0,0:0:0:0:
424,212,36869,1,0,0:0:0:0:
380,108,37027,5,0,0:0:0:0:
484,128,37185,1,0,0:0:0:0:
448,32,37343,1,0,0:0:0:0:
336,16,37501,1,0,0:0:0:0:
272,96,37659,1,0,0:0:0:0:
204,20,37817,1,0,0:0:0:0:
168,116,37974,1,0,0:0:0:0:
84,57,38132,1,0,0:0:0:0:
144,196,38290,6,0,L|40:148,1,90
260,304,38606,2,0,L|212:408,1,90
368,188,38922,2,0,L|449:225,1,90
252,80,39238,2,0,L|289:-1,1,90
444,88,39553,5,0,0:0:0:0:
452,129,39632,1,0,0:0:0:0:
453,171,39711,1,0,0:0:0:0:
444,211,39790,1,0,0:0:0:0:
421,246,39869,1,0,0:0:0:0:
388,272,39948,1,0,0:0:0:0:
350,289,40027,1,0,0:0:0:0:
328,260,40106,1,0,0:0:0:0:
306,225,40185,1,0,0:0:0:0:
277,194,40264,1,0,0:0:0:0:
241,172,40343,1,0,0:0:0:0:
201,160,40422,1,0,0:0:0:0:
159,160,40501,1,0,0:0:0:0:
119,171,40580,1,0,0:0:0:0:
83,193,40659,1,0,0:0:0:0:
56,224,40738,1,0,0:0:0:0:
32,260,40817,5,0,0:0:0:0:
180,320,40974,1,0,0:0:0:0:
352,208,41132,1,0,0:0:0:0:
188,292,41290,1,0,0:0:0:0:
364,176,41448,1,0,0:0:0:0:
152,80,41764,1,4,0:0:0:0:
144,76,43343,5,0,0:0:0:0:
284,32,43501,1,0,0:0:0:0:
144,80,43659,2,0,P|116:136|104:180,1,90,8|0,0:0|0:0,0:0:0:0:
144,304,43974,1,0,0:0:0:0:
280,272,44132,1,0,0:0:0:0:
184,172,44290,1,8,0:0:0:0:
332,164,44448,2,0,P|368:80|448:24,1,180
408,272,44922,5,8,0:0:0:0:
284,352,45080,1,0,0:0:0:0:
144,304,45238,2,0,P|116:248|104:204,1,90
368,80,45553,2,0,P|396:136|408:180,1,90,8|0,0:0|0:0,0:0:0:0:
180,124,45869,5,0,0:0:0:0:
180,124,46027,1,0,0:0:0:0:
84,256,46185,1,8,0:0:0:0:
252,276,46343,1,0,0:0:0:0:
84,256,46501,1,0,0:0:0:0:
252,276,46659,1,0,0:0:0:0:
52,112,46817,6,0,B|76:64|76:64|116:24,2,90,8|0|0,0:0|0:0|0:0,0:0:0:0:
184,196,47290,1,0,0:0:0:0:
364,216,47448,1,8,0:0:0:0:
288,88,47606,1,0,0:0:0:0:
260,320,47764,1,0,0:0:0:0:
260,320,47843,1,0,0:0:0:0:
260,320,47922,1,0,0:0:0:0:
112,288,48080,5,8,0:0:0:0:
60,160,48238,1,0,0:0:0:0:
60,160,48317,1,0,0:0:0:0:
64,160,48396,2,0,L|112:72,1,90
448,224,48711,2,0,L|400:312,1,90,8|0,0:0|0:0,0:0:0:0:
364,128,49027,1,0,0:0:0:0:
288,252,49185,1,0,0:0:0:0:
288,252,49343,1,8,0:0:0:0:
144,332,49501,2,0,P|144:244|80:160,1,180
164,56,49974,5,8,0:0:0:0:
296,72,50132,1,0,0:0:0:0:
248,196,50290,1,0,0:0:0:0:
380,180,50448,1,0,0:0:0:0:
340,328,50606,6,0,P|256:312|232:296,1,90,8|0,0:0|0:0,0:0:0:0:
48,216,50922,2,0,P|120:192|156:164,1,90,4|0,0:0|0:0,0:0:0:0:
360,96,51238,1,8,0:0:0:0:
360,96,51396,2,0,P|404:164|396:260,1,180,4|0,0:0|0:0,0:0:0:0:
233,293,51869,5,8,0:0:0:0:
152,110,52027,1,0,0:0:0:0:
378,162,52185,1,0,0:0:0:0:
94,240,52343,1,0,0:0:0:0:
94,240,52501,1,8,0:0:0:0:
288,55,52659,1,0,0:0:0:0:
288,55,52817,1,0,0:0:0:0:
382,307,52974,1,0,0:0:0:0:
382,307,53132,1,8,0:0:0:0:
382,307,53290,2,0,L|440:216,1,90,0|4,0:0|0:0,0:0:0:0:
388,116,53606,5,0,0:0:0:0:
272,72,53764,2,0,P|196:64|144:44,1,90,2|0,0:0|0:0,0:0:0:0:
64,192,54080,2,0,L|160:192,1,90
136,308,54396,1,2,0:0:0:0:
256,344,54553,1,0,0:0:0:0:
232,220,54711,6,0,P|200:176|176:132,2,90,0|0|2,0:0|0:0|0:0,0:0:0:0:
108,192,55185,1,0,0:0:0:0:
128,68,55343,1,0,0:0:0:0:
252,40,55501,1,0,0:0:0:0:
348,116,55659,2,0,P|400:104|452:80,1,90,2|0,0:0|0:0,0:0:0:0:
163,115,55974,2,0,P|120:106|78:89,1,90
256,192,56290,5,2,0:0:0:0:
144,116,56448,1,0,0:0:0:0:
372,116,56606,1,0,0:0:0:0:
256,320,56764,1,0,0:0:0:0:
144,252,56922,2,0,P|96:224|56:160,1,90,2|0,0:0|0:0,0:0:0:0:
368,252,57238,5,0,0:0:0:0:
379,247,57317,1,0,0:0:0:0:
390,242,57396,1,0,0:0:0:0:
400,236,57474,1,0,0:0:0:0:
410,229,57553,1,2,0:0:0:0:
418,221,57632,1,0,0:0:0:0:
426,212,57711,1,0,0:0:0:0:
433,202,57790,1,0,0:0:0:0:
439,192,57869,1,0,0:0:0:0:
444,181,57948,1,0,0:0:0:0:
448,169,58027,1,0,0:0:0:0:
451,158,58106,1,0,0:0:0:0:
452,146,58185,1,2,0:0:0:0:
452,134,58264,1,0,0:0:0:0:
451,122,58343,1,0,0:0:0:0:
449,110,58422,1,0,0:0:0:0:
408,76,58501,6,0,L|320:56,1,90
256,288,58817,2,0,L|256:176,1,90,2|0,0:0|0:0,0:0:0:0:
104,76,59132,2,0,L|192:56,1,90
88,244,59448,1,2,0:0:0:0:
88,244,59606,1,0,0:0:0:0:
88,244,59764,2,0,P|48:196|0:160,1,90
360,80,60080,2,0,P|340:128|316:164,1,90,2|0,0:0|0:0,0:0:0:0:
152,80,60396,2,0,B|168:128|168:128|208:160|192:212|192:212|200:248,1,180,0|2,0:0|0:0,0:0:0:0:
424,244,60869,1,0,0:0:0:0:
424,244,61027,6,0,P|451:208|484:178,1,90
364,112,61343,1,2,0:0:0:0:
288,44,61501,1,0,0:0:0:0:
208,136,61659,1,0,0:0:0:0:
288,44,61817,1,0,0:0:0:0:
320,196,61974,1,2,0:0:0:0:
288,44,62132,1,0,0:0:0:0:
168,52,62290,6,0,L|108:64,1,45
236,172,62448,2,0,L|304:152,1,45
96,164,62606,2,0,L|36:176,1,45,2|0,0:0|0:0,0:0:0:0:
164,284,62764,2,0,L|232:264,1,45
248,288,62922,5,8,0:0:0:0:
273,304,63001,1,8,0:0:0:0:
303,316,63080,1,0,0:0:0:0:
334,322,63159,1,8,0:0:0:0:
366,323,63238,1,8,0:0:0:0:
397,320,63317,1,0,0:0:0:0:
428,311,63396,1,10,0:0:0:0:
456,297,63474,1,8,0:0:0:0:
476,248,63553,6,0,P|452:164|452:136,1,90,12|0,0:0|0:0,0:0:0:0:
368,68,63869,1,8,0:0:0:0:
248,36,64027,1,0,0:0:0:0:
128,76,64185,1,0,0:0:0:0:
80,192,64343,2,0,L|20:288,2,90,0|8|0,0:0|0:0|0:0,0:0:0:0:
312,172,64817,1,0,0:0:0:0:
200,172,64974,1,0,0:0:0:0:
432,192,65132,6,0,L|479:268,2,90,8|0|0,0:0|0:0|0:0,0:0:0:0:
304,336,65606,1,0,0:0:0:0:
428,384,65764,1,8,0:0:0:0:
364,224,65922,1,0,0:0:0:0:
156,268,66080,2,0,P|107:315|60:342,1,90
356,268,66396,2,0,P|404:315|451:342,1,90,8|0,0:0|0:0,0:0:0:0:
348,168,66711,5,0,0:0:0:0:
200,280,66869,1,0,0:0:0:0:
312,280,67027,1,8,0:0:0:0:
164,168,67185,1,0,0:0:0:0:
328,80,67343,2,0,L|440:36,1,90
368,264,67659,2,0,L|412:376,1,90,8|0,0:0|0:0,0:0:0:0:
184,304,67974,2,0,L|72:348,1,90
144,120,68290,2,0,L|100:8,1,90,8|0,0:0|0:0,0:0:0:0:
256,192,68606,5,0,0:0:0:0:
352,124,68764,1,0,0:0:0:0:
448,56,68922,1,8,0:0:0:0:
448,56,69080,1,0,0:0:0:0:
256,192,69238,5,0,0:0:0:0:
160,260,69396,1,0,0:0:0:0:
64,328,69553,1,8,0:0:0:0:
64,328,69711,2,0,L|151:349,1,90
160,172,70027,2,0,L|170:82,1,90,0|8,0:0|0:0,0:0:0:0:
352,212,70343,2,0,L|340:312,1,90
448,56,70659,2,0,L|352:32,2,90,0|8|0,0:0|0:0|0:0,0:0:0:0:
200,56,71132,5,0,0:0:0:0:
120,112,71290,1,0,0:0:0:0:
88,204,71448,1,8,0:0:0:0:
100,300,71606,1,0,0:0:0:0:
8,268,71764,5,0,0:0:0:0:
100,300,71922,1,0,0:0:0:0:
193,271,72080,1,8,0:0:0:0:
264,205,72238,1,0,0:0:0:0:
452,40,72396,6,0,P|480:128|472:236,1,180
200,64,72869,1,0,0:0:0:0:
88,264,73185,1,0,0:0:0:0:
88,264,73343,1,8,0:0:0:0:
312,328,73501,1,0,0:0:0:0:
376,304,73580,1,0,0:0:0:0:
436,280,73659,6,0,L|448:160,1,90
76,104,73974,2,0,L|64:224,1,90,8|0,0:0|0:0,0:0:0:0:
200,252,74290,1,0,0:0:0:0:
196,106,74448,1,0,0:0:0:0:
328,163,74606,1,8,0:0:0:0:
328,163,74764,1,0,0:0:0:0:
372,332,74922,6,0,P|400:280|440:244,1,90
424,76,75238,1,8,0:0:0:0:
320,192,75396,1,0,0:0:0:0:
256,52,75553,1,0,0:0:0:0:
192,192,75711,1,0,0:0:0:0:
88,76,75869,1,8,0:0:0:0:
88,308,76027,1,0,0:0:0:0:
88,308,76185,6,0,L|124:200,1,90
256,60,76501,2,0,L|256:160,1,90,8|0,0:0|0:0,0:0:0:0:
424,308,76817,2,0,L|388:200,1,90
172,136,77132,1,8,0:0:0:0:
256,60,77290,1,0,0:0:0:0:
172,136,77448,2,0,P|128:100|88:80,1,90
72,204,77764,5,8,0:0:0:0:
104,328,77922,1,0,0:0:0:0:
256,240,78080,1,0,0:0:0:0:
256,368,78238,1,0,0:0:0:0:
440,204,78396,1,8,0:0:0:0:
408,328,78553,1,0,0:0:0:0:
424,268,78632,1,0,0:0:0:0:
440,204,78711,6,0,L|396:108,1,90
256,248,79027,2,0,L|256:360,1,90,8|0,0:0|0:0,0:0:0:0:
72,204,79343,2,0,L|116:108,1,90
256,56,79659,1,8,0:0:0:0:
304,184,79817,1,0,0:0:0:0:
436,148,79974,2,0,L|480:36,1,90
256,56,80290,1,8,0:0:0:0:
256,56,80448,1,0,0:0:0:0:
436,148,80606,6,0,P|464:96|476:52,1,90
304,184,80922,1,8,0:0:0:0:
304,184,81080,1,0,0:0:0:0:
116,256,81238,2,0,P|92:304|80:348,1,90
241,176,81553,5,8,0:0:0:0:
320,350,81711,1,0,0:0:0:0:
230,287,81869,1,0,0:0:0:0:
135,240,82027,1,0,0:0:0:0:
325,245,82185,1,8,0:0:0:0:
357,139,82343,1,0,0:0:0:0:
124,120,82501,2,0,L|32:80,1,90
388,264,82817,6,0,L|480:304,1,90,8|0,0:0|0:0,0:0:0:0:
444,164,83132,1,0,0:0:0:0:
384,80,83290,1,0,0:0:0:0:
284,52,83448,1,8,0:0:0:0:
168,248,83606,5,0,0:0:0:0:
168,248,83685,1,0,0:0:0:0:
168,248,83764,2,0,P|124:216|72:200,1,90
344,248,84080,2,0,P|388:216|440:200,1,90,8|0,0:0|0:0,0:0:0:0:
256,324,84396,1,2,0:0:0:0:
256,196,84553,1,2,0:0:0:0:
256,68,84711,1,10,0:0:0:0:
364,136,84869,2,0,L|452:168,2,90
112,64,85343,2,0,P|76:104|64:148,1,90,8|0,0:0|0:0,0:0:0:0:
144,336,85659,2,0,P|180:296|192:252,1,90
252,84,85974,5,8,0:0:0:0:
368,152,86132,1,0,0:0:0:0:
368,152,86290,2,0,B|404:124|404:124|424:116|424:116|448:96,2,90,0|0|8,0:0|0:0|0:0,0:0:0:0:
144,152,86764,1,0,0:0:0:0:
144,152,86922,2,0,B|108:124|108:124|88:116|88:116|64:96,2,90,0|0|8,0:0|0:0|0:0,0:0:0:0:
104,308,87396,1,0,0:0:0:0:
408,308,87711,1,0,0:0:0:0:
256,196,88027,1,0,0:0:0:0:
288,64,88185,2,0,P|376:96|432:172,1,180,0|8,0:0|0:0,0:0:0:0:
384,328,88659,1,0,0:0:0:0:
384,328,88817,5,0,0:0:0:0:
448,282,88974,1,0,0:0:0:0:
474,208,89132,1,8,0:0:0:0:
465,130,89290,1,0,0:0:0:0:
300,112,89448,5,0,0:0:0:0:
300,112,89606,1,0,0:0:0:0:
212,272,89764,5,8,0:0:0:0:
172,148,89922,1,0,0:0:0:0:
172,148,90001,1,0,0:0:0:0:
172,148,90080,2,0,L|116:48,1,90
320,220,90396,2,0,L|412:172,1,90,8|0,0:0|0:0,0:0:0:0:
272,52,90711,5,0,0:0:0:0:
208,98,90869,1,0,0:0:0:0:
182,172,91027,1,8,0:0:0:0:
191,250,91185,1,0,0:0:0:0:
191,250,91264,1,0,0:0:0:0:
191,250,91343,2,0,L|92:316,1,90
360,320,91659,5,8,0:0:0:0:
360,137,91817,1,0,0:0:0:0:
253,285,91974,1,0,0:0:0:0:
426,228,92132,1,0,0:0:0:0:
253,172,92290,2,0,L|240:72,1,90,8|0,0:0|0:0,0:0:0:0:
156,72,92527,1,0,0:0:0:0:
156,72,92606,2,0,P|107:86|59:117,1,90
48,212,92922,5,8,0:0:0:0:
80,328,93080,1,0,0:0:0:0:
80,328,93238,1,0,0:0:0:0:
200,316,93396,1,0,0:0:0:0:
320,308,93553,2,0,L|419:326,1,90,8|0,0:0|0:0,0:0:0:0:
445,246,93790,1,0,0:0:0:0:
445,246,93869,2,0,P|446:195|431:140,1,90
252,64,94185,5,8,0:0:0:0:
264,188,94343,1,0,0:0:0:0:
120,108,94501,1,0,0:0:0:0:
120,108,94659,1,0,0:0:0:0:
112,104,94817,2,0,L|36:44,2,90,8|0|0,0:0|0:0|0:0,0:0:0:0:
256,192,95290,1,0,0:0:0:0:
400,280,95448,2,0,L|476:340,2,90,8|0|0,0:0|0:0|0:0,0:0:0:0:
380,112,95922,1,0,0:0:0:0:
192,76,96080,5,8,0:0:0:0:
192,76,96159,1,0,0:0:0:0:
192,76,96238,1,0,0:0:0:0:
192,76,96317,1,0,0:0:0:0:
196,80,96396,2,0,P|168:128|152:172,1,90
316,303,96711,2,0,P|339:265|356:224,1,90,8|0,0:0|0:0,0:0:0:0:
68,260,97027,2,0,P|96:327|110:349,1,90
444,124,97343,2,0,P|416:57|402:35,1,90
256,84,97659,5,8,0:0:0:0:
100,192,97896,1,0,0:0:0:0:
68,208,97974,1,8,0:0:0:0:
412,192,98211,1,0,0:0:0:0:
444,176,98289,1,8,0:0:0:0:
256,332,98606,5,8,0:0:0:0:
364,60,98922,1,4,0:0:0:0:
304,72,108711,5,0,0:0:0:0:
325,77,108790,1,0,0:0:0:0:
345,87,108869,1,0,0:0:0:0:
362,102,108948,1,0,0:0:0:0:
380,120,109027,2,0,L|428:244,1,90
256,200,109343,2,0,L|240:312,1,90
156,312,109580,1,0,0:0:0:0:
156,312,109659,1,0,0:0:0:0:
36,232,109817,1,0,0:0:0:0:
80,120,109974,5,0,0:0:0:0:
192,72,110132,2,0,P|284:72|384:40,1,180
420,144,110606,1,0,0:0:0:0:
420,248,110764,1,0,0:0:0:0:
332,192,110922,1,0,0:0:0:0:
328,296,111080,1,0,0:0:0:0:
192,296,111238,2,0,P|108:256|52:160,1,180
176,152,111711,5,0,0:0:0:0:
108,72,111869,1,0,0:0:0:0:
64,188,112027,1,0,0:0:0:0:
64,188,112106,1,0,0:0:0:0:
64,188,112185,1,0,0:0:0:0:
132,288,112343,1,0,0:0:0:0:
132,288,112501,1,0,0:0:0:0:
256,192,112659,2,0,B|324:132|324:132|412:92,1,180
420,248,113132,2,0,L|344:328,1,90
256,196,113448,5,0,0:0:0:0:
256,196,113764,1,0,0:0:0:0:
68,228,114080,6,0,L|35:144,1,90
192,148,114396,2,0,L|204:58,1,90
296,36,114632,1,0,0:0:0:0:
296,36,114711,1,0,0:0:0:0:
412,116,114869,1,0,0:0:0:0:
368,228,115027,5,0,0:0:0:0:
255,275,115185,2,0,P|165:274|79:299,1,180
28,204,115659,1,0,0:0:0:0:
116,156,115817,1,0,0:0:0:0:
28,100,115974,1,0,0:0:0:0:
120,52,116132,1,0,0:0:0:0:
256,52,116290,2,0,P|336:89|388:161,1,180
272,196,116764,5,0,0:0:0:0:
340,276,116922,1,0,0:0:0:0:
192,156,117080,2,0,B|124:216|124:216|42:252,1,180
316,60,117553,1,0,0:0:0:0:
192,128,117711,1,0,0:0:0:0:
316,60,117869,1,0,0:0:0:0:
192,128,118027,1,0,0:0:0:0:
60,200,118185,2,0,L|116:280,1,90
452,200,118501,2,0,L|396:280,1,90
256,296,118817,1,0,0:0:0:0:
256,296,118974,1,0,0:0:0:0:
48,192,119132,6,0,P|60:140|184:56,1,180
464,192,119764,2,0,P|452:244|328:328,1,180
256,64,120396,5,0,0:0:0:0:
128,184,120711,1,0,0:0:0:0:
256,308,121027,1,0,0:0:0:0:
408,128,121343,1,0,0:0:0:0:
416,120,121422,1,0,0:0:0:0:
424,112,121501,1,0,0:0:0:0:
432,104,121580,1,0,0:0:0:0:
456,80,121659,2,0,L|352:32,1,90
56,304,122290,2,0,L|160:352,1,90
448,296,122922,5,0,0:0:0:0:
256,192,123238,1,0,0:0:0:0:
92,88,123553,1,0,0:0:0:0:
336,92,123869,5,0,0:0:0:0:
216,252,124027,2,0,L|284:264,1,45
320,252,124184,5,0,0:0:0:0:
167,142,124341,1,0,0:0:0:0:
320,68,124499,1,0,0:0:0:0:
236,200,124657,1,0,0:0:0:0:
119,74,124815,1,0,0:0:0:0:
34,192,124973,1,0,0:0:0:0:
116,328,125131,1,0,0:0:0:0:
478,192,125290,1,0,0:0:0:0:
396,328,125448,5,0,0:0:0:0:
256,136,125605,1,0,0:0:0:0:
256,136,125763,1,0,0:0:0:0:
451,208,125920,1,0,0:0:0:0:
320,84,126078,1,0,0:0:0:0:
428,224,126237,1,0,0:0:0:0:
292,100,126395,5,0,0:0:0:0:
248,256,126553,1,0,0:0:0:0:
88,288,126711,1,0,0:0:0:0:
264,256,126869,1,0,0:0:0:0:
424,288,127027,1,0,0:0:0:0:
332,175,127185,1,0,0:0:0:0:
225,27,127342,5,0,0:0:0:0:
161,179,127500,1,0,0:0:0:0:
321,41,127658,1,0,0:0:0:0:
292,340,127816,1,0,0:0:0:0:
456,236,127974,2,0,L|371:158,1,90
56,148,128290,2,0,L|141:226,1,90
396,40,128606,2,0,P|360:84|344:124,1,90
116,344,128922,2,0,P|152:300|168:260,1,90
45,148,129238,5,0,0:0:0:0:
45,148,129395,1,0,0:0:0:0:
200,37,129553,1,0,0:0:0:0:
296,133,129711,1,0,0:0:0:0:
211,295,129869,1,0,0:0:0:0:
123,142,130027,1,0,0:0:0:0:
44,315,130184,1,0,0:0:0:0:
234,195,130341,1,0,0:0:0:0:
292,340,130499,1,0,0:0:0:0:
330,100,130657,5,0,0:0:0:0:
445,228,130817,1,0,0:0:0:0:
264,271,130973,1,0,0:0:0:0:
441,149,131132,1,0,0:0:0:0:
348,296,131290,1,0,0:0:0:0:
254,99,131448,1,0,0:0:0:0:
71,162,131606,1,0,0:0:0:0:
174,293,131763,5,0,0:0:0:0:
279,155,131921,1,0,0:0:0:0:
89,108,132079,1,0,0:0:0:0:
231,216,132237,1,0,0:0:0:0:
231,216,132395,1,0,0:0:0:0:
273,64,132553,1,0,0:0:0:0:
231,216,132711,1,0,0:0:0:0:
154,108,132869,1,0,0:0:0:0:
46,225,133026,5,0,0:0:0:0:
212,329,133184,1,0,0:0:0:0:
352,273,133342,1,0,0:0:0:0:
355,91,133500,1,0,0:0:0:0:
245,244,133658,1,0,0:0:0:0:
443,328,133816,1,0,0:0:0:0:
395,177,133974,5,0,0:0:0:0:
279,335,134132,1,0,0:0:0:0:
105,256,134290,1,0,0:0:0:0:
244,128,134447,1,0,0:0:0:0:
139,47,134605,1,8,0:0:0:0:
53,190,134763,1,0,0:0:0:0:
174,295,134921,1,0,0:0:0:0:
245,126,135079,1,0,0:0:0:0:
245,126,135238,5,8,0:0:0:0:
376,52,135396,1,0,0:0:0:0:
460,176,135553,1,0,0:0:0:0:
360,288,135711,1,0,0:0:0:0:
256,180,135869,1,8,0:0:0:0:
256,344,136027,1,0,0:0:0:0:
372,144,136185,1,0,0:0:0:0:
140,144,136343,1,0,0:0:0:0:
152,288,136501,1,8,0:0:0:0:
52,176,136659,1,0,0:0:0:0:
136,52,136816,5,0,0:0:0:0:
236,172,136974,1,0,0:0:0:0:
152,288,137132,1,8,0:0:0:0:
292,176,137290,1,0,0:0:0:0:
204,64,137448,1,0,0:0:0:0:
332,176,137606,1,0,0:0:0:0:
236,296,137764,1,8,0:0:0:0:
232,288,137922,1,0,0:0:0:0:
236,296,138080,6,0,L|116:344,1,90
276,88,138396,2,0,L|396:40,1,90,8|0,0:0|0:0,0:0:0:0:
370,204,138711,1,0,0:0:0:0:
370,204,138868,1,0,0:0:0:0:
294,35,139026,5,8,0:0:0:0:
192,179,139184,1,0,0:0:0:0:
130,36,139342,1,0,0:0:0:0:
45,193,139500,1,0,0:0:0:0:
190,105,139658,1,8,0:0:0:0:
219,246,139816,1,0,0:0:0:0:
61,332,139974,1,0,0:0:0:0:
132,157,140132,1,0,0:0:0:0:
258,193,140290,5,8,0:0:0:0:
200,307,140447,1,0,0:0:0:0:
388,113,140605,1,0,0:0:0:0:
332,278,140763,1,0,0:0:0:0:
217,131,140921,1,8,0:0:0:0:
312,28,141079,1,0,0:0:0:0:
425,124,141237,1,0,0:0:0:0:
257,192,141395,1,0,0:0:0:0:
186,57,141553,5,2,0:0:0:0:
171,74,141631,1,0,0:0:0:0:
157,91,141710,1,0,0:0:0:0:
143,109,141789,1,0,0:0:0:0:
128,128,141869,2,0,L|24:108,1,90
384,256,142185,2,0,L|488:276,1,90,2|0,0:0|0:0,0:0:0:0:
206,291,142501,2,0,L|132:368,1,90
268,92,142817,2,0,L|280:-8,1,90,2|0,0:0|0:0,0:0:0:0:
96,112,143132,5,2,0:0:0:0:
416,272,143448,1,2,0:0:0:0:
336,68,143764,1,2,0:0:0:0:
180,312,144080,5,2,0:0:0:0:
140,291,144158,1,0,0:0:0:0:
108,259,144237,1,0,0:0:0:0:
89,219,144316,1,0,0:0:0:0:
83,174,144396,2,0,P|108:132|120:80,1,90
429,174,144711,6,0,P|404:132|392:80,1,90,8|0,0:0|0:0,0:0:0:0:
364,296,145027,1,0,0:0:0:0:
276,156,145185,1,0,0:0:0:0:
276,156,145343,1,8,0:0:0:0:
124,236,145501,2,0,B|104:188|104:188|72:144,2,90
288,280,145974,1,8,0:0:0:0:
412,316,146132,1,0,0:0:0:0:
364,120,146290,1,0,0:0:0:0:
464,40,146448,1,0,0:0:0:0:
132,192,146606,6,0,L|24:192,2,90,8|0|0,0:0|0:0|0:0,0:0:0:0:
192,60,147080,1,0,0:0:0:0:
164,184,147238,1,8,0:0:0:0:
312,96,147396,1,0,0:0:0:0:
352,216,147553,1,0,0:0:0:0:
204,40,147711,5,0,0:0:0:0:
132,256,147869,1,8,0:0:0:0:
356,208,148027,1,0,0:0:0:0:
356,208,148185,2,0,P|396:164|432:140,1,90
156,176,148501,2,0,P|116:220|80:244,1,90,8|0,0:0|0:0,0:0:0:0:
305,343,148817,1,0,0:0:0:0:
127,285,148974,1,0,0:0:0:0:
127,98,149132,1,8,0:0:0:0:
305,40,149290,1,0,0:0:0:0:
415,192,149448,6,0,L|456:280,1,90
256,108,149764,2,0,L|256:4,1,90,8|0,0:0|0:0,0:0:0:0:
96,192,150080,2,0,L|56:280,1,90
180,324,150396,1,8,0:0:0:0:
316,224,150553,1,0,0:0:0:0:
164,156,150711,2,0,P|120:136|68:92,1,90
200,240,151027,1,8,0:0:0:0:
336,140,151184,1,0,0:0:0:0:
184,72,151343,2,0,P|140:52|88:8,1,90
208,144,151659,5,8,0:0:0:0:
304,232,151817,1,0,0:0:0:0:
172,264,151974,1,0,0:0:0:0:
304,240,152132,1,0,0:0:0:0:
208,152,152290,1,8,0:0:0:0:
340,120,152447,1,0,0:0:0:0:
215,262,152606,1,0,0:0:0:0:
215,121,152764,1,0,0:0:0:0:
337,192,152922,1,8,0:0:0:0:
131,225,153080,5,0,0:0:0:0:
289,67,153238,1,0,0:0:0:0:
347,283,153396,1,0,0:0:0:0:
138,61,153553,5,8,0:0:0:0:
373,322,153711,1,0,0:0:0:0:
310,25,153869,1,0,0:0:0:0:
201,358,154027,1,0,0:0:0:0:
428,156,154185,1,8,0:0:0:0:
84,228,154343,1,0,0:0:0:0:
84,228,154422,1,0,0:0:0:0:
84,228,154501,2,0,P|36:212|-8:172,1,90
228,84,154817,2,0,L|328:40,1,90,8|0,0:0|0:0,0:0:0:0:
408,152,155132,5,0,0:0:0:0:
300,248,155290,1,0,0:0:0:0:
172,316,155448,1,8,0:0:0:0:
168,112,155606,2,0,P|128:68|80:36,2,90
304,60,156080,1,8,0:0:0:0:
444,96,156238,1,0,0:0:0:0:
396,232,156396,1,0,0:0:0:0:
456,364,156553,1,0,0:0:0:0:
56,364,156711,2,0,L|152:328,1,90,8|0,0:0|0:0,0:0:0:0:
408,192,157027,2,0,L|304:192,1,90
56,20,157343,2,0,L|152:56,1,90,8|0,0:0|0:0,0:0:0:0:
256,140,157659,5,0,0:0:0:0:
200,272,157817,1,0,0:0:0:0:
340,240,157974,2,0,P|392:256|448:256,1,90,8|0,0:0|0:0,0:0:0:0:
396,60,158448,1,0,0:0:0:0:
116,324,158764,1,0,0:0:0:0:
116,324,158922,1,0,0:0:0:0:
384,124,159238,5,8,0:0:0:0:
392,132,159396,1,0,0:0:0:0:
392,132,159474,1,0,0:0:0:0:
392,132,159553,2,0,P|444:112|480:88,1,90
120,252,159869,2,0,P|68:272|32:296,1,90,8|0,0:0|0:0,0:0:0:0:
352,336,160185,5,0,0:0:0:0:
160,232,160343,1,0,0:0:0:0:
352,144,160501,1,8,0:0:0:0:
160,40,160659,1,0,0:0:0:0:
392,252,160817,6,0,P|444:272|480:296,1,90
120,132,161132,2,0,P|68:112|32:88,1,90,8|0,0:0|0:0,0:0:0:0:
160,336,161449,5,0,0:0:0:0:
352,232,161607,1,0,0:0:0:0:
160,144,161765,1,8,0:0:0:0:
352,40,161923,1,0,0:0:0:0:
240,140,162080,6,0,L|136:92,1,90
400,132,162396,2,0,L|496:68,1,90,8|0,0:0|0:0,0:0:0:0:
296,108,162711,1,0,0:0:0:0:
336,268,162869,1,0,0:0:0:0:
196,184,163027,1,8,0:0:0:0:
156,344,163185,1,0,0:0:0:0:
272,244,163343,2,0,L|376:292,1,90
112,252,163659,2,0,L|16:316,1,90,8|0,0:0|0:0,0:0:0:0:
37,301,163974,1,0,0:0:0:0:
256,64,164290,5,8,0:0:0:0:
420,84,164448,1,0,0:0:0:0:
440,96,164527,1,0,0:0:0:0:
464,112,164606,2,0,L|476:208,1,90
356,316,164922,2,0,L|344:220,1,90,8|0,0:0|0:0,0:0:0:0:
208,60,165238,2,0,L|220:156,1,90
100,264,165554,2,0,L|88:168,1,90,8|0,0:0|0:0,0:0:0:0:
252,88,165869,5,0,0:0:0:0:
252,88,166027,1,0,0:0:0:0:
252,88,166185,2,0,L|356:52,1,90,8|0,0:0|0:0,0:0:0:0:
260,296,166501,2,0,L|156:332,1,90
135,192,166817,5,2,0:0:0:0:
195,192,166896,1,0,0:0:0:0:
256,192,166974,1,0,0:0:0:0:
316,192,167053,1,0,0:0:0:0:
376,192,167132,1,0,0:0:0:0:
416,64,167448,5,0,0:0:0:0:
448,172,167685,1,2,0:0:0:0:
448,172,167764,1,2,0:0:0:0:
96,320,168080,5,0,0:0:0:0:
64,212,168317,1,2,0:0:0:0:
64,212,168396,1,2,0:0:0:0:
276,296,168632,5,2,0:0:0:0:
288,312,168711,1,2,0:0:0:0:
236,88,168948,1,2,0:0:0:0:
224,72,169027,1,2,0:0:0:0:
392,172,169264,1,2,0:0:0:0:
408,160,169343,1,2,0:0:0:0:
372,188,169501,1,2,0:0:0:0:
356,200,169580,1,2,0:0:0:0:
340,212,169659,2,0,P|317:258|304:320,1,107.999996704102,2|0,0:0|0:0,0:0:0:0:
160,268,169974,5,8,0:0:0:0:
104,124,170132,1,0,0:0:0:0:
160,268,170290,1,0,0:0:0:0:
104,124,170448,1,0,0:0:0:0:
272,156,170606,1,8,0:0:0:0:
272,156,170764,2,0,P|332:88|432:72,1,180
428,196,171238,1,8,0:0:0:0:
376,320,171396,1,0,0:0:0:0:
376,320,171553,1,0,0:0:0:0:
212,84,171869,5,8,0:0:0:0:
128,296,172185,5,0,0:0:0:0:
128,296,172343,1,0,0:0:0:0:
256,264,172501,2,0,L|368:256,1,90,8|0,0:0|0:0,0:0:0:0:
180,152,172817,5,0,0:0:0:0:
336,128,172974,1,0,0:0:0:0:
168,148,173132,1,8,0:0:0:0:
348,128,173290,2,0,B|412:168|412:168|440:244|460:272,1,180
322,309,173764,1,8,0:0:0:0:
344,208,173922,1,0,0:0:0:0:
168,324,174080,5,0,0:0:0:0:
91,254,174238,1,0,0:0:0:0:
112,153,174396,1,8,0:0:0:0:
211,121,174553,1,0,0:0:0:0:
192,104,174632,1,0,0:0:0:0:
172,88,174711,2,0,L|60:48,1,90
368,192,175027,2,0,L|484:192,1,90,8|0,0:0|0:0,0:0:0:0:
172,296,175343,2,0,L|60:336,2,90,0|0|8,0:0|0:0|0:0,0:0:0:0:
372,240,175817,2,0,P|416:164|392:52,1,180
232,72,176290,5,8,0:0:0:0:
104,136,176448,1,0,0:0:0:0:
232,200,176606,1,0,0:0:0:0:
432,328,176922,6,0,P|460:264|456:212,1,90,8|0,0:0|0:0,0:0:0:0:
412,128,177159,1,0,0:0:0:0:
412,128,177238,2,0,L|328:96,1,90
176,212,177553,1,8,0:0:0:0:
176,212,177711,2,0,P|176:100|104:52,1,180
284,104,178185,5,8,0:0:0:0:
392,137,178343,1,0,0:0:0:0:
310,213,178501,1,0,0:0:0:0:
355,54,178659,1,0,0:0:0:0:
398,224,178817,1,8,0:0:0:0:
231,175,178975,1,0,0:0:0:0:
231,175,179132,1,0,0:0:0:0:
